  0
SECTION
  2
HEADER
  9
$ACADVER
  1
AC1015
  9
$ACADMAINTVER
 70
    18
  9
$DWGCODEPAGE
  3
ANSI_1252
  9
$INSBASE
 10
10.42873455661171
 20
17.99793318649192
 30
0.0
  9
$EXTMIN
 10
3.509544771524815
 20
8.087181495604454
 30
-0.0015258207003583
  9
$EXTMAX
 10
20.29420111828222
 20
37.84180856058447
 30
0.0000000349246037
  9
$LIMMIN
 10
0.0
 20
0.0
  9
$LIMMAX
 10
10000.0
 20
10000.0
  9
$ORTHOMODE
 70
     0
  9
$REGENMODE
 70
     1
  9
$FILLMODE
 70
     1
  9
$QTEXTMODE
 70
     0
  9
$MIRRTEXT
 70
     0
  9
$LTSCALE
 40
0.5
  9
$ATTMODE
 70
     1
  9
$TEXTSIZE
 40
3.0
  9
$TRACEWID
 40
0.05
  9
$TEXTSTYLE
  7
Standard
  9
$CLAYER
  8
0
  9
$CELTYPE
  6
ByLayer
  9
$CECOLOR
 62
   256
  9
$CELTSCALE
 40
1.0
  9
$DISPSILH
 70
     0
  9
$DIMSCALE
 40
0.0
  9
$DIMASZ
 40
0.156
  9
$DIMEXO
 40
0.04
  9
$DIMDLI
 40
0.38
  9
$DIMRND
 40
0.0
  9
$DIMDLE
 40
0.0
  9
$DIMEXE
 40
0.03
  9
$DIMTP
 40
0.0
  9
$DIMTM
 40
0.0
  9
$DIMTXT
 40
0.3125
  9
$DIMCEN
 40
0.0
  9
$DIMTSZ
 40
0.0
  9
$DIMTOL
 70
     0
  9
$DIMLIM
 70
     0
  9
$DIMTIH
 70
     1
  9
$DIMTOH
 70
     1
  9
$DIMSE1
 70
     0
  9
$DIMSE2
 70
     0
  9
$DIMTAD
 70
     0
  9
$DIMZIN
 70
     0
  9
$DIMBLK
  1
ArchTick
  9
$DIMASO
 70
     1
  9
$DIMSHO
 70
     1
  9
$DIMPOST
  1
\X
  9
$DIMAPOST
  1
mm
  9
$DIMALT
 70
     1
  9
$DIMALTD
 70
     0
  9
$DIMALTF
 40
25.4
  9
$DIMLFAC
 40
1.0
  9
$DIMTOFL
 70
     0
  9
$DIMTVP
 40
0.0
  9
$DIMTIX
 70
     0
  9
$DIMSOXD
 70
     0
  9
$DIMSAH
 70
     0
  9
$DIMBLK1
  1

  9
$DIMBLK2
  1

  9
$DIMSTYLE
  2
Knife
  9
$DIMCLRD
 70
     0
  9
$DIMCLRE
 70
     0
  9
$DIMCLRT
 70
     0
  9
$DIMTFAC
 40
1.0
  9
$DIMGAP
 40
0.04
  9
$DIMJUST
 70
     0
  9
$DIMSD1
 70
     0
  9
$DIMSD2
 70
     0
  9
$DIMTOLJ
 70
     1
  9
$DIMTZIN
 70
     0
  9
$DIMALTZ
 70
     0
  9
$DIMALTTZ
 70
     0
  9
$DIMUPT
 70
     0
  9
$DIMDEC
 70
     5
  9
$DIMTDEC
 70
     5
  9
$DIMALTU
 70
     2
  9
$DIMALTTD
 70
     0
  9
$DIMTXSTY
  7
Standard
  9
$DIMAUNIT
 70
     0
  9
$DIMADEC
 70
     1
  9
$DIMALTRND
 40
0.0
  9
$DIMAZIN
 70
     0
  9
$DIMDSEP
 70
    46
  9
$DIMATFIT
 70
     3
  9
$DIMFRAC
 70
     2
  9
$DIMLDRBLK
  1

  9
$DIMLUNIT
 70
     4
  9
$DIMLWD
 70
    -2
  9
$DIMLWE
 70
    -2
  9
$DIMTMOVE
 70
     0
  9
$LUNITS
 70
     2
  9
$LUPREC
 70
     4
  9
$SKETCHINC
 40
0.1
  9
$FILLETRAD
 40
0.0
  9
$AUNITS
 70
     0
  9
$AUPREC
 70
     0
  9
$MENU
  1
.
  9
$ELEVATION
 40
0.0
  9
$PELEVATION
 40
0.0
  9
$THICKNESS
 40
0.0
  9
$LIMCHECK
 70
     0
  9
$CHAMFERA
 40
0.0
  9
$CHAMFERB
 40
0.0
  9
$CHAMFERC
 40
0.0
  9
$CHAMFERD
 40
0.0
  9
$SKPOLY
 70
     0
  9
$TDCREATE
 40
2454538.540644179
  9
$TDUCREATE
 40
2454538.665644178
  9
$TDUPDATE
 40
2456098.436765405
  9
$TDUUPDATE
 40
2456098.561765405
  9
$TDINDWG
 40
0.1523737500
  9
$TDUSRTIMER
 40
0.1523737500
  9
$USRTIMER
 70
     1
  9
$ANGBASE
 50
0.0
  9
$ANGDIR
 70
     0
  9
$PDMODE
 70
     3
  9
$PDSIZE
 40
0.0
  9
$PLINEWID
 40
0.0
  9
$SPLFRAME
 70
     0
  9
$SPLINETYPE
 70
     6
  9
$SPLINESEGS
 70
    12
  9
$HANDSEED
  5
347
  9
$SURFTAB1
 70
     6
  9
$SURFTAB2
 70
     6
  9
$SURFTYPE
 70
     6
  9
$SURFU
 70
     6
  9
$SURFV
 70
     6
  9
$UCSBASE
  2

  9
$UCSNAME
  2

  9
$UCSORG
 10
0.0
 20
0.0
 30
0.0
  9
$UCSXDIR
 10
1.0
 20
0.0
 30
0.0
  9
$UCSYDIR
 10
0.0
 20
1.0
 30
0.0
  9
$UCSORTHOREF
  2

  9
$UCSORTHOVIEW
 70
     0
  9
$UCSORGTOP
 10
0.0
 20
0.0
 30
0.0
  9
$UCSORGBOTTOM
 10
0.0
 20
0.0
 30
0.0
  9
$UCSORGLEFT
 10
0.0
 20
0.0
 30
0.0
  9
$UCSORGRIGHT
 10
0.0
 20
0.0
 30
0.0
  9
$UCSORGFRONT
 10
0.0
 20
0.0
 30
0.0
  9
$UCSORGBACK
 10
0.0
 20
0.0
 30
0.0
  9
$PUCSBASE
  2

  9
$PUCSNAME
  2

  9
$PUCSORG
 10
0.0
 20
0.0
 30
0.0
  9
$PUCSXDIR
 10
1.0
 20
0.0
 30
0.0
  9
$PUCSYDIR
 10
0.0
 20
1.0
 30
0.0
  9
$PUCSORTHOREF
  2

  9
$PUCSORTHOVIEW
 70
     0
  9
$PUCSORGTOP
 10
0.0
 20
0.0
 30
0.0
  9
$PUCSORGBOTTOM
 10
0.0
 20
0.0
 30
0.0
  9
$PUCSORGLEFT
 10
0.0
 20
0.0
 30
0.0
  9
$PUCSORGRIGHT
 10
0.0
 20
0.0
 30
0.0
  9
$PUCSORGFRONT
 10
0.0
 20
0.0
 30
0.0
  9
$PUCSORGBACK
 10
0.0
 20
0.0
 30
0.0
  9
$USERI1
 70
     0
  9
$USERI2
 70
     0
  9
$USERI3
 70
     0
  9
$USERI4
 70
     0
  9
$USERI5
 70
     0
  9
$USERR1
 40
0.0
  9
$USERR2
 40
0.0
  9
$USERR3
 40
0.0
  9
$USERR4
 40
0.0
  9
$USERR5
 40
0.0
  9
$WORLDVIEW
 70
     1
  9
$SHADEDGE
 70
     3
  9
$SHADEDIF
 70
    70
  9
$TILEMODE
 70
     1
  9
$MAXACTVP
 70
    64
  9
$PINSBASE
 10
0.0
 20
0.0
 30
0.0
  9
$PLIMCHECK
 70
     0
  9
$PEXTMIN
 10
0.0000000075458644
 20
0.0000000082145277
 30
0.0
  9
$PEXTMAX
 10
8.454000007545857
 20
10.67400000821453
 30
0.0
  9
$PLIMMIN
 10
-0.0064249311656545
 20
-0.1631194818509899
  9
$PLIMMAX
 10
8.493574828538456
 20
10.83688027785312
  9
$UNITMODE
 70
     0
  9
$VISRETAIN
 70
     1
  9
$PLINEGEN
 70
     0
  9
$PSLTSCALE
 70
     1
  9
$TREEDEPTH
 70
  3020
  9
$CMLSTYLE
  2
Standard
  9
$CMLJUST
 70
     0
  9
$CMLSCALE
 40
1.0
  9
$PROXYGRAPHICS
 70
     1
  9
$MEASUREMENT
 70
     0
  9
$CELWEIGHT
370
    -1
  9
$ENDCAPS
280
     0
  9
$JOINSTYLE
280
     0
  9
$LWDISPLAY
290
     0
  9
$INSUNITS
 70
     1
  9
$HYPERLINKBASE
  1

  9
$STYLESHEET
  1

  9
$XEDIT
290
     1
  9
$CEPSNTYPE
380
     0
  9
$PSTYLEMODE
290
     1
  9
$FINGERPRINTGUID
  2
{748C7BD9-B334-4C4E-9C1E-F3E9492964D6}
  9
$VERSIONGUID
  2
{AD1FF8AA-7FCE-4BB3-8312-A156143A0E78}
  9
$EXTNAMES
290
     1
  9
$PSVPSCALE
 40
0.0
  9
$OLESTARTUP
290
     0
  0
ENDSEC
  0
SECTION
  2
CLASSES
  0
CLASS
  1
ACDBDICTIONARYWDFLT
  2
AcDbDictionaryWithDefault
  3
ObjectDBX Classes
 90
        0
280
     0
281
     0
  0
CLASS
  1
ACDBPLACEHOLDER
  2
AcDbPlaceHolder
  3
ObjectDBX Classes
 90
        0
280
     0
281
     0
  0
CLASS
  1
LAYOUT
  2
AcDbLayout
  3
ObjectDBX Classes
 90
        0
280
     0
281
     0
  0
CLASS
  1
DICTIONARYVAR
  2
AcDbDictionaryVar
  3
ObjectDBX Classes
 90
        0
280
     0
281
     0
  0
CLASS
  1
TABLESTYLE
  2
AcDbTableStyle
  3
ObjectDBX Classes
 90
     4095
280
     0
281
     0
  0
CLASS
  1
SORTENTSTABLE
  2
AcDbSortentsTable
  3
ObjectDBX Classes
 90
        0
280
     0
281
     0
  0
CLASS
  1
DIMASSOC
  2
AcDbDimAssoc
  3
"AcDbDimAssoc|Product Desc:     AcDim ARX App For Dimension|Company:          Autodesk, Inc.|WEB Address:      www.autodesk.com"
 90
        0
280
     0
281
     0
  0
CLASS
  1
MATERIAL
  2
AcDbMaterial
  3
ObjectDBX Classes
 90
     1153
280
     0
281
     0
  0
CLASS
  1
VISUALSTYLE
  2
AcDbVisualStyle
  3
ObjectDBX Classes
 90
     4095
280
     0
281
     0
  0
CLASS
  1
SCALE
  2
AcDbScale
  3
ObjectDBX Classes
 90
     1153
280
     0
281
     0
  0
CLASS
  1
MLEADERSTYLE
  2
AcDbMLeaderStyle
  3
ACDB_MLEADERSTYLE_CLASS
 90
    36863
280
     0
281
     0
  0
CLASS
  1
CELLSTYLEMAP
  2
AcDbCellStyleMap
  3
ObjectDBX Classes
 90
     1152
280
     0
281
     0
  0
ENDSEC
  0
SECTION
  2
TABLES
  0
TABLE
  2
VPORT
  5
2E
102
{ACAD_XDICTIONARY
360
33
102
}
330
0
100
AcDbSymbolTable
 70
     1
  0
VPORT
  5
2F
330
2E
100
AcDbSymbolTableRecord
100
AcDbViewportTableRecord
  2
*Active
 70
     0
 10
0.0
 20
0.0
 11
1.0
 21
1.0
 12
12.29797861297253
 22
22.61240101789757
 13
0.0
 23
0.0
 14
0.5
 24
0.5
 15
0.5
 25
0.5
 16
0.0
 26
0.0
 36
1.0
 17
0.0
 27
0.0
 37
0.0
 40
30.01601465700212
 41
2.183284457478005
 42
50.0
 43
0.0
 44
0.0
 50
0.0
 51
0.0
 71
     0
 72
  5000
 73
     1
 74
     3
 75
     0
 76
     0
 77
     0
 78
     0
281
     0
 65
     1
110
0.0
120
0.0
130
0.0
111
1.0
121
0.0
131
0.0
112
0.0
122
1.0
132
0.0
 79
     0
146
0.0
1001
ACAD_NAV_VCDISPLAY
1070
     3
  0
ENDTAB
  0
TABLE
  2
LTYPE
  5
29
330
0
100
AcDbSymbolTable
 70
     3
  0
LTYPE
  5
2A
330
29
100
AcDbSymbolTableRecord
100
AcDbLinetypeTableRecord
  2
ByBlock
 70
     0
  3

 72
    65
 73
     0
 40
0.0
  0
LTYPE
  5
2B
330
29
100
AcDbSymbolTableRecord
100
AcDbLinetypeTableRecord
  2
ByLayer
 70
     0
  3

 72
    65
 73
     0
 40
0.0
  0
LTYPE
  5
15
330
29
100
AcDbSymbolTableRecord
100
AcDbLinetypeTableRecord
  2
Continuous
 70
     0
  3
Solid line
 72
    65
 73
     0
 40
0.0
  0
LTYPE
  5
C6
330
29
100
AcDbSymbolTableRecord
100
AcDbLinetypeTableRecord
  2
CENTER
 70
     0
  3
____ _ ____ _ ____ _ ____ _ ____ _ ____ 
 72
    65
 73
     4
 40
2.0
 49
1.25
 74
     0
 49
-0.25
 74
     0
 49
0.25
 74
     0
 49
-0.25
 74
     0
  0
LTYPE
  5
143
330
29
100
AcDbSymbolTableRecord
100
AcDbLinetypeTableRecord
  2
HIDDEN2
 70
     0
  3
Hidden (.5x) _ _ _ _ _ _ _ _ _ _ _ _ _ _ _ _ _
 72
    65
 73
     2
 40
0.1875
 49
0.125
 74
     0
 49
-0.0625
 74
     0
  0
ENDTAB
  0
TABLE
  2
LAYER
  5
22
102
{ACAD_XDICTIONARY
360
23
102
}
330
0
100
AcDbSymbolTable
 70
     3
  0
LAYER
  5
6
102
{ACAD_XDICTIONARY
360
7
102
}
330
22
100
AcDbSymbolTableRecord
100
AcDbLayerTableRecord
  2
0
 70
     0
 62
     7
  6
Continuous
370
    18
390
9
  0
LAYER
  5
19F
330
22
100
AcDbSymbolTableRecord
100
AcDbLayerTableRecord
  2
Defpoints
 70
     0
 62
     7
  6
Continuous
290
     0
370
    18
390
9
  0
LAYER
  5
7E
102
{ACAD_XDICTIONARY
360
7F
102
}
330
22
100
AcDbSymbolTableRecord
100
AcDbLayerTableRecord
  2
Screw
 70
     0
 62
     7
  6
Continuous
370
    -3
390
9
  0
ENDTAB
  0
TABLE
  2
STYLE
  5
25
330
0
100
AcDbSymbolTable
 70
     1
  0
STYLE
  5
26
330
25
100
AcDbSymbolTableRecord
100
AcDbTextStyleTableRecord
  2
Standard
 70
     0
 40
0.0
 41
0.55
 50
5.0
 71
     0
 42
3.0
  3
lc______.ttf
  4

1001
ACAD
1000
Letter Gothic
1071
       50
  0
ENDTAB
  0
TABLE
  2
VIEW
  5
2C
330
0
100
AcDbSymbolTable
 70
     0
  0
ENDTAB
  0
TABLE
  2
UCS
  5
2D
330
0
100
AcDbSymbolTable
 70
     0
  0
ENDTAB
  0
TABLE
  2
APPID
  5
34
330
0
100
AcDbSymbolTable
 70
     5
  0
APPID
  5
27
330
34
100
AcDbSymbolTableRecord
100
AcDbRegAppTableRecord
  2
ACAD
 70
     0
  0
APPID
  5
1B
330
34
100
AcDbSymbolTableRecord
100
AcDbRegAppTableRecord
  2
ACAD_PSEXT
 70
     0
  0
APPID
  5
32
330
34
100
AcDbSymbolTableRecord
100
AcDbRegAppTableRecord
  2
ACAD_NAV_VCDISPLAY
 70
     0
  0
APPID
  5
11F
330
34
100
AcDbSymbolTableRecord
100
AcDbRegAppTableRecord
  2
GradientColor1ACI
 70
     0
  0
APPID
  5
120
330
34
100
AcDbSymbolTableRecord
100
AcDbRegAppTableRecord
  2
GradientColor2ACI
 70
     0
  0
ENDTAB
  0
TABLE
  2
DIMSTYLE
  5
35
330
0
100
AcDbSymbolTable
 70
     2
100
AcDbDimStyleTable
 71
     2
340
36
340
3B
  0
DIMSTYLE
105
3B
330
35
100
AcDbSymbolTableRecord
100
AcDbDimStyleTableRecord
  2
Standard
 70
     0
  3
"
 40
0.0
 41
0.095
 42
0.04
 44
0.04
140
0.125
141
0.0
147
0.04
179
     1
271
     6
272
     6
276
     2
277
     5
340
26
  0
DIMSTYLE
105
36
102
{ACAD_REACTORS
330
191
330
1A3
330
1B3
330
1C4
330
1D2
330
1E3
330
1F3
330
204
330
212
330
223
330
234
330
245
330
254
330
262
330
272
330
283
330
293
330
2A3
330
2B4
330
2C3
330
2D2
330
2E0
330
2F1
330
300
330
30F
330
31E
102
}
330
35
100
AcDbSymbolTableRecord
100
AcDbDimStyleTableRecord
  2
Knife
 70
     0
  3
\X
  4
mm
 40
0.0
 41
0.156
 42
0.04
 44
0.03
140
0.3125
141
0.0
147
0.04
170
     1
171
     0
179
     1
271
     5
272
     5
274
     0
276
     2
277
     4
340
26
342
37
  0
ENDTAB
  0
TABLE
  2
BLOCK_RECORD
  5
1
330
0
100
AcDbSymbolTable
 70
    29
  0
BLOCK_RECORD
  5
2
102
{ACAD_XDICTIONARY
360
3
102
}
330
1
100
AcDbSymbolTableRecord
100
AcDbBlockTableRecord
  2
*Model_Space
340
17
  0
BLOCK_RECORD
  5
1C
330
1
100
AcDbSymbolTableRecord
100
AcDbBlockTableRecord
  2
*Paper_Space
340
1F
  0
BLOCK_RECORD
  5
37
330
1
100
AcDbSymbolTableRecord
100
AcDbBlockTableRecord
  2
_ArchTick
340
0
102
{BLKREFS
331
19A
331
19B
331
1AC
331
1AD
331
1BC
331
1BD
331
1CB
331
1CC
331
1DB
331
1DC
331
1EC
331
1ED
331
1FC
331
1FD
331
20B
331
20C
331
21B
331
21C
331
22C
331
22D
331
23E
331
23F
331
24D
331
24E
331
25B
331
25C
331
26B
331
26C
331
27B
331
27C
331
28C
331
28D
331
29C
331
29D
331
2AC
331
2AD
331
2BB
331
2BC
331
2CA
331
2CB
331
2D9
331
2DA
331
2E9
331
2EA
331
2F8
331
2F9
331
307
331
308
331
316
331
317
331
327
331
328
102
}
  0
BLOCK_RECORD
  5
7B
330
1
100
AcDbSymbolTableRecord
100
AcDbBlockTableRecord
  2
8 x .75 FH
340
0
310
2800000020000000200000000100080000000000000400000000000000000000000000000000000000000000000080000080000000808000800000008000800080800000C0C0C000C0DCC000F0CAA6000020400000206000002080000020A0000020C0000020E00000400000004020000040400000406000004080000040A0
310
000040C0000040E00000600000006020000060400000606000006080000060A0000060C0000060E00000800000008020000080400000806000008080000080A0000080C0000080E00000A0000000A0200000A0400000A0600000A0800000A0A00000A0C00000A0E00000C0000000C0200000C0400000C0600000C0800000C0
310
A00000C0C00000C0E00000E0000000E0200000E0400000E0600000E0800000E0A00000E0C00000E0E00040000000400020004000400040006000400080004000A0004000C0004000E00040200000402020004020400040206000402080004020A0004020C0004020E000404000004040200040404000404060004040800040
310
40A0004040C0004040E00040600000406020004060400040606000406080004060A0004060C0004060E00040800000408020004080400040806000408080004080A0004080C0004080E00040A0000040A0200040A0400040A0600040A0800040A0A00040A0C00040A0E00040C0000040C0200040C0400040C0600040C08000
310
40C0A00040C0C00040C0E00040E0000040E0200040E0400040E0600040E0800040E0A00040E0C00040E0E00080000000800020008000400080006000800080008000A0008000C0008000E00080200000802020008020400080206000802080008020A0008020C0008020E00080400000804020008040400080406000804080
310
008040A0008040C0008040E00080600000806020008060400080606000806080008060A0008060C0008060E00080800000808020008080400080806000808080008080A0008080C0008080E00080A0000080A0200080A0400080A0600080A0800080A0A00080A0C00080A0E00080C0000080C0200080C0400080C0600080C0
310
800080C0A00080C0C00080C0E00080E0000080E0200080E0400080E0600080E0800080E0A00080E0C00080E0E000C0000000C0002000C0004000C0006000C0008000C000A000C000C000C000E000C0200000C0202000C0204000C0206000C0208000C020A000C020C000C020E000C0400000C0402000C0404000C0406000C0
310
408000C040A000C040C000C040E000C0600000C0602000C0604000C0606000C0608000C060A000C060C000C060E000C0800000C0802000C0804000C0806000C0808000C080A000C080C000C080E000C0A00000C0A02000C0A04000C0A06000C0A08000C0A0A000C0A0C000C0A0E000C0C00000C0C02000C0C04000C0C06000
310
C0C08000C0C0A000F0FBFF00A4A0A000808080000000FF0000FF000000FFFF00FF000000FF00FF00FFFF0000FFFFFF0007070707070707070707070707070707070707070707070707070707070707070707070707070707070707070707070700070707070707070707070707070707070707070707070707070707070707
310
07000707070707070707070707070707070707070707070707070707070707070700070707070707070707070707070707070707070707070707070707070707070007070707070707070707070707070707070707070707070707070707070000000707070707070707070707070707070707070707070707070707070707
310
07000000070707070707070707070707070707070707070707070707070707000007000007070707070707070707070707070707070707070707070707070707000000000007070707070707070707070707070707070707070707070707070700070000000707070707070707070707070707070707070707070707070707
310
00000000000707070707070707070707070707070707070707070707070707070700070000000707070707070707070707070707070707070707070707070707000000000007070707070707070707070707070707070707070707070707070707000700000007070707070707070707070707070707070707070707070707
310
07000000000007070707070707070707070707070707070707070707070707070707000700000007070707070707070707070707070707070707070707070707070000000000070707070707070707070707070707070707070707070707070707070007000000070707070707070707070707070707070707070707070707
310
07070000000000070707070707070707070707070707070707070707070707070707070007000000070707070707070707070707070707070707070707070707070707000700000707070707070707070707070707070707070707070707070707070000000000070707070707070707070707070707070707070707070707
310
07070707000700000007070707070707070707070707070707070707070707070707070700000000070707070707070707070707070707070707070707070707070707000707000700070707070707070707070707070707070707070707070707070007070700070700070707070707070707070707070707070707070707
310
07070007070707000707070007070707070707070707070707070707070707070700000000000000000000000007070707070707070707070707070707070707070000000000000000000000000707070707070707070707070707070707070707070707070707000707070707070707070707070707070707070707070707
310
0707070707070707000707070707070707070707070707070707070707070707070707070707070707070707070707070707070707070707
102
{BLKREFS
331
7A
331
151
331
174
102
}
  0
BLOCK_RECORD
  5
C9
330
1
100
AcDbSymbolTableRecord
100
AcDbBlockTableRecord
  2
8 X .625 PH
340
0
310
2800000020000000200000000100080000000000000400000000000000000000000000000000000000000000000080000080000000808000800000008000800080800000C0C0C000C0DCC000F0CAA6000020400000206000002080000020A0000020C0000020E00000400000004020000040400000406000004080000040A0
310
000040C0000040E00000600000006020000060400000606000006080000060A0000060C0000060E00000800000008020000080400000806000008080000080A0000080C0000080E00000A0000000A0200000A0400000A0600000A0800000A0A00000A0C00000A0E00000C0000000C0200000C0400000C0600000C0800000C0
310
A00000C0C00000C0E00000E0000000E0200000E0400000E0600000E0800000E0A00000E0C00000E0E00040000000400020004000400040006000400080004000A0004000C0004000E00040200000402020004020400040206000402080004020A0004020C0004020E000404000004040200040404000404060004040800040
310
40A0004040C0004040E00040600000406020004060400040606000406080004060A0004060C0004060E00040800000408020004080400040806000408080004080A0004080C0004080E00040A0000040A0200040A0400040A0600040A0800040A0A00040A0C00040A0E00040C0000040C0200040C0400040C0600040C08000
310
40C0A00040C0C00040C0E00040E0000040E0200040E0400040E0600040E0800040E0A00040E0C00040E0E00080000000800020008000400080006000800080008000A0008000C0008000E00080200000802020008020400080206000802080008020A0008020C0008020E00080400000804020008040400080406000804080
310
008040A0008040C0008040E00080600000806020008060400080606000806080008060A0008060C0008060E00080800000808020008080400080806000808080008080A0008080C0008080E00080A0000080A0200080A0400080A0600080A0800080A0A00080A0C00080A0E00080C0000080C0200080C0400080C0600080C0
310
800080C0A00080C0C00080C0E00080E0000080E0200080E0400080E0600080E0800080E0A00080E0C00080E0E000C0000000C0002000C0004000C0006000C0008000C000A000C000C000C000E000C0200000C0202000C0204000C0206000C0208000C020A000C020C000C020E000C0400000C0402000C0404000C0406000C0
310
408000C040A000C040C000C040E000C0600000C0602000C0604000C0606000C0608000C060A000C060C000C060E000C0800000C0802000C0804000C0806000C0808000C080A000C080C000C080E000C0A00000C0A02000C0A04000C0A06000C0A08000C0A0A000C0A0C000C0A0E000C0C00000C0C02000C0C04000C0C06000
310
C0C08000C0C0A000F0FBFF00A4A0A000808080000000FF0000FF000000FFFF00FF000000FF00FF00FFFF0000FFFFFF0007070707070707070707070707070707070707070707070707070707070707070707070707070707070707070707070700070707070707070707070707070707070707070707070707070707070707
310
07000707070707070707070707070707070707070707070707070707070707070700070707070707070707070707070707070707070707070707070707070707070007070707070707070707070707070707070707070707070707070707070000000707070707070707070707070707070707070707070707070707070707
310
00000000070707070707070707070707070707070707070707070707070707070007000007070707070707070707070707070707070707070707070707070700000000000007070707070707070707070707070707070707070707070707070007070000000707070707070707070707070707070707070707070707070707
310
00000000070007070707070707070707070707070707070707070707070707070007070000000707070707070707070707070707070707070707070707070707000000000700070707070707070707070707070707070707070707070707070700070700000007070707070707070707070707070707070707070707070707
310
07000000000700070707070707070707070707070707070707070707070707070700070700000007070707070707070707070707070707070707070707070707070007070007000707070707070707070707070707070707070707070707070707000000000700070707070707070707070707070707070707070707070707
310
07070007070000000707070707070707070707070707070707070707070707070707000000000700070707070707070707070707070707070707070707070707070700070700000007070707070707070707070707070707070707070707070707070000000007000707070707070707070707070707070707070707070707
310
07070700070700000007070707070707070707070707070707070707070707070707070000000007000707070707070707070707070707070707070707070707070000000000000000000007070707070707070707070707070707070707070700070707070700070707070007070707070707070707070707070707070707
310
07000000000000000000000000070707070707070707070707070707070707070707000007070700070700000707070707070707070707070707070707070707070707070000000000000707070707070707070707070707070707070707070707070707070707000707070707070707070707070707070707070707070707
310
0707070707070707000707070707070707070707070707070707070707070707070707070707070707070707070707070707070707070707
102
{BLKREFS
331
C8
331
152
331
175
102
}
  0
BLOCK_RECORD
  5
194
330
1
100
AcDbSymbolTableRecord
100
AcDbBlockTableRecord
  2
*D3
340
0
  0
BLOCK_RECORD
  5
1A6
330
1
100
AcDbSymbolTableRecord
100
AcDbBlockTableRecord
  2
*D4
340
0
  0
BLOCK_RECORD
  5
1B6
330
1
100
AcDbSymbolTableRecord
100
AcDbBlockTableRecord
  2
*D5
340
0
  0
BLOCK_RECORD
  5
1C5
330
1
100
AcDbSymbolTableRecord
100
AcDbBlockTableRecord
  2
*D6
340
0
  0
BLOCK_RECORD
  5
1D5
330
1
100
AcDbSymbolTableRecord
100
AcDbBlockTableRecord
  2
*D7
340
0
  0
BLOCK_RECORD
  5
1E6
330
1
100
AcDbSymbolTableRecord
100
AcDbBlockTableRecord
  2
*D8
340
0
  0
BLOCK_RECORD
  5
1F6
330
1
100
AcDbSymbolTableRecord
100
AcDbBlockTableRecord
  2
*D9
340
0
  0
BLOCK_RECORD
  5
205
330
1
100
AcDbSymbolTableRecord
100
AcDbBlockTableRecord
  2
*D10
340
0
  0
BLOCK_RECORD
  5
215
330
1
100
AcDbSymbolTableRecord
100
AcDbBlockTableRecord
  2
*D11
340
0
  0
BLOCK_RECORD
  5
226
330
1
100
AcDbSymbolTableRecord
100
AcDbBlockTableRecord
  2
*D12
340
0
  0
BLOCK_RECORD
  5
237
330
1
100
AcDbSymbolTableRecord
100
AcDbBlockTableRecord
  2
*D13
340
0
  0
BLOCK_RECORD
  5
246
330
1
100
AcDbSymbolTableRecord
100
AcDbBlockTableRecord
  2
*D14
340
0
  0
BLOCK_RECORD
  5
255
330
1
100
AcDbSymbolTableRecord
100
AcDbBlockTableRecord
  2
*D15
340
0
  0
BLOCK_RECORD
  5
265
330
1
100
AcDbSymbolTableRecord
100
AcDbBlockTableRecord
  2
*D16
340
0
  0
BLOCK_RECORD
  5
275
330
1
100
AcDbSymbolTableRecord
100
AcDbBlockTableRecord
  2
*D17
340
0
  0
BLOCK_RECORD
  5
286
330
1
100
AcDbSymbolTableRecord
100
AcDbBlockTableRecord
  2
*D18
340
0
  0
BLOCK_RECORD
  5
296
330
1
100
AcDbSymbolTableRecord
100
AcDbBlockTableRecord
  2
*D19
340
0
  0
BLOCK_RECORD
  5
2A6
330
1
100
AcDbSymbolTableRecord
100
AcDbBlockTableRecord
  2
*D20
340
0
  0
BLOCK_RECORD
  5
2B5
330
1
100
AcDbSymbolTableRecord
100
AcDbBlockTableRecord
  2
*D21
340
0
  0
BLOCK_RECORD
  5
2C4
330
1
100
AcDbSymbolTableRecord
100
AcDbBlockTableRecord
  2
*D22
340
0
  0
BLOCK_RECORD
  5
2D3
330
1
100
AcDbSymbolTableRecord
100
AcDbBlockTableRecord
  2
*D23
340
0
  0
BLOCK_RECORD
  5
2E3
330
1
100
AcDbSymbolTableRecord
100
AcDbBlockTableRecord
  2
*D24
340
0
  0
BLOCK_RECORD
  5
2F2
330
1
100
AcDbSymbolTableRecord
100
AcDbBlockTableRecord
  2
*D25
340
0
  0
BLOCK_RECORD
  5
310
330
1
100
AcDbSymbolTableRecord
100
AcDbBlockTableRecord
  2
*D26
340
0
  0
BLOCK_RECORD
  5
301
330
1
100
AcDbSymbolTableRecord
100
AcDbBlockTableRecord
  2
*D27
340
0
  0
BLOCK_RECORD
  5
321
330
1
100
AcDbSymbolTableRecord
100
AcDbBlockTableRecord
  2
*D28
340
0
  0
ENDTAB
  0
ENDSEC
  0
SECTION
  2
BLOCKS
  0
BLOCK
  5
5
330
2
100
AcDbEntity
  8
0
100
AcDbBlockBegin
  2
*Model_Space
 70
     0
 10
0.0
 20
0.0
 30
0.0
  3
*Model_Space
  1

  0
ENDBLK
  5
16
330
2
100
AcDbEntity
  8
0
100
AcDbBlockEnd
  0
BLOCK
  5
1D
330
1C
100
AcDbEntity
 67
     1
  8
0
100
AcDbBlockBegin
  2
*Paper_Space
 70
     0
 10
0.0
 20
0.0
 30
0.0
  3
*Paper_Space
  1

  0
ENDBLK
  5
1E
330
1C
100
AcDbEntity
 67
     1
  8
0
100
AcDbBlockEnd
  0
BLOCK
  5
38
330
37
100
AcDbEntity
  8
0
100
AcDbBlockBegin
  2
_ArchTick
 70
     0
 10
0.0
 20
0.0
 30
0.0
  3
_ArchTick
  1

  0
LWPOLYLINE
  5
39
330
37
100
AcDbEntity
  8
0
  6
ByBlock
 62
     0
100
AcDbPolyline
 90
        2
 70
     0
 43
0.15
 10
-0.5
 20
-0.5
 10
0.5
 20
0.5
  0
ENDBLK
  5
3A
330
37
100
AcDbEntity
  8
0
100
AcDbBlockEnd
  0
BLOCK
  5
7C
330
7B
100
AcDbEntity
  8
0
 62
     7
370
     9
100
AcDbBlockBegin
  2
8 x .75 FH
 70
     0
 10
0.0
 20
0.0
 30
0.0
  3
8 x .75 FH
  1

  0
LINE
  5
7D
330
7B
100
AcDbEntity
  8
Screw
 62
     7
370
     9
100
AcDbLine
 10
0.0550146141445112
 20
-0.6503624430697528
 30
0.0
 11
-0.040994238129656
 21
-0.6842106249981726
 31
0.0
  0
LINE
  5
80
330
7B
100
AcDbEntity
  8
Screw
 62
     7
370
     9
100
AcDbLine
 10
0.082499999998845
 20
-0.5862344890166469
 30
0.0
 11
-0.0718750000007731
 21
-0.6184212499980504
 31
0.0
  0
LINE
  5
81
330
7B
100
AcDbEntity
  8
Screw
 62
     7
370
     9
100
AcDbLine
 10
0.0439236020391718
 20
-0.6439590442452073
 30
0.0
 11
0.0490410471671794
 21
-0.6316044388123601
 31
0.0
  0
LINE
  5
82
330
7B
100
AcDbEntity
  8
Screw
 62
     7
370
     9
100
AcDbLine
 10
0.029903226022725
 20
-0.6778072261735133
 30
0.0
 11
0.0229311243443817
 21
-0.6946393686034753
 31
0.0
  0
LINE
  5
83
330
7B
100
AcDbEntity
  8
Screw
 62
     7
370
     9
100
AcDbLine
 10
0.0578546239828484
 20
-0.6103265821309379
 30
0.0
 11
0.0490410471671794
 21
-0.6316044388123601
 31
0.0
  0
LINE
  5
84
330
7B
100
AcDbEntity
  8
Screw
 62
     7
370
     9
100
AcDbLine
 10
-0.0000000000006821
 20
-0.749999999998181
 30
0.0
 11
-0.0229311243459733
 21
-0.6946393686034753
 31
0.0
  0
LINE
  5
85
330
7B
100
AcDbEntity
  8
Screw
 62
     7
370
     9
100
AcDbLine
 10
-0.0718750000007731
 20
-0.6184212499980504
 30
0.0
 11
-0.0600000000014234
 21
-0.6115652155518774
 31
0.0
  0
LINE
  5
86
330
7B
100
AcDbEntity
  8
Screw
 62
     7
370
     9
100
AcDbLine
 10
-0.0718750000007731
 20
-0.6184212499981641
 30
0.0
 11
-0.0490410471686573
 21
-0.6316044388123601
 31
0.0
  0
LINE
  5
87
330
7B
100
AcDbEntity
  8
Screw
 62
     7
370
     9
100
AcDbLine
 10
-0.040994238129656
 20
-0.6842106249981726
 30
0.0
 11
-0.0299032260242029
 21
-0.6778072261735133
 31
0.0
  0
LINE
  5
88
330
7B
100
AcDbEntity
  8
Screw
 62
     7
370
     9
100
AcDbLine
 10
-0.040994238129656
 20
-0.6842106249981726
 30
0.0
 11
-0.0229311243459733
 21
-0.6946393686034753
 31
0.0
  0
LINE
  5
89
330
7B
100
AcDbEntity
  8
Screw
 62
     7
370
     9
100
AcDbLine
 10
-0.0299032260242029
 20
-0.6778072261735133
 30
0.0
 11
-0.0490410471686573
 21
-0.6316044388123601
 31
0.0
  0
LINE
  5
8A
330
7B
100
AcDbEntity
  8
Screw
 62
     7
370
     9
100
AcDbLine
 10
0.029903226022725
 20
-0.6778072261735133
 30
0.0
 11
0.0369515003608285
 21
-0.6607911866751693
 31
0.0
  0
LINE
  5
8B
330
7B
100
AcDbEntity
  8
Screw
 62
     7
370
     9
100
AcDbLine
 10
0.0578546239828484
 20
-0.6103265821309379
 30
0.0
 11
0.0632241464040817
 21
-0.5973634082783974
 31
0.0
  0
LINE
  5
8C
330
7B
100
AcDbEntity
  8
Screw
 62
     7
370
     9
100
AcDbLine
 10
0.0550146141445112
 20
-0.6503624430697528
 30
0.0
 11
0.0369515003608285
 21
-0.6607911866751693
 31
0.0
  0
LINE
  5
8D
330
7B
100
AcDbEntity
  8
Screw
 62
     7
370
     9
100
AcDbLine
 10
0.0550146141445112
 20
-0.6503624430697528
 30
0.0
 11
0.0439236020391718
 21
-0.6439590442452073
 31
0.0
  0
LINE
  5
8E
330
7B
100
AcDbEntity
  8
Screw
 62
     7
370
     9
100
AcDbLine
 10
0.0824999999986176
 20
-0.5862344890166469
 30
0.0
 11
0.063224146403968
 21
-0.5973634082782838
 31
0.0
  0
LINE
  5
8F
330
7B
100
AcDbEntity
  8
Screw
 62
     7
370
     9
100
AcDbLine
 10
0.0824999999986176
 20
-0.5862344890166469
 30
0.0
 11
0.0684796239821708
 21
-0.5781398211494207
 31
0.0
  0
LINE
  5
90
330
7B
100
AcDbEntity
  8
Screw
 62
     7
370
     9
100
AcDbLine
 10
-0.0000000000006821
 20
-0.749999999998181
 30
0.0
 11
0.0229311243443817
 21
-0.6946393686034753
 31
0.0
  0
LINE
  5
91
330
7B
100
AcDbEntity
  8
Screw
 62
     7
370
     9
100
AcDbLine
 10
0.0599999999988086
 20
-0.4018567450733599
 30
0.0
 11
0.0599999999988086
 21
-0.4416653579600052
 31
0.0
  0
LINE
  5
92
330
7B
100
AcDbEntity
  8
Screw
 62
     7
370
     9
100
AcDbLine
 10
0.0824999999987313
 20
-0.3888663640167351
 30
0.0
 11
0.0599999999988086
 21
-0.4018567450733599
 31
0.0
  0
LINE
  5
93
330
7B
100
AcDbEntity
  8
Screw
 62
     7
370
     9
100
AcDbLine
 10
0.0599999999988086
 20
-0.4676461200734821
 30
0.0
 11
0.0599999999988086
 21
-0.5074547329599
 31
0.0
  0
LINE
  5
94
330
7B
100
AcDbEntity
  8
Screw
 62
     7
370
     9
100
AcDbLine
 10
0.0824999999987313
 20
-0.5204451140167521
 30
0.0
 11
0.0599999999988086
 21
-0.5334354950734906
 31
0.0
  0
LINE
  5
95
330
7B
100
AcDbEntity
  8
Screw
 62
     7
370
     9
100
AcDbLine
 10
0.0824999999987313
 20
-0.5204451140167521
 30
0.0
 11
0.0599999999986949
 21
-0.5074547329599
 31
0.0
  0
LINE
  5
96
330
7B
100
AcDbEntity
  8
Screw
 62
     7
370
     9
100
AcDbLine
 10
0.0824999999987313
 20
-0.45465573901663
 30
0.0
 11
0.0599999999988086
 21
-0.4676461200734821
 31
0.0
  0
LINE
  5
97
330
7B
100
AcDbEntity
  8
Screw
 62
     7
370
     9
100
AcDbLine
 10
0.0824999999987313
 20
-0.45465573901663
 30
0.0
 11
0.0599999999988086
 21
-0.4416653579600052
 31
0.0
  0
LINE
  5
98
330
7B
100
AcDbEntity
  8
Screw
 62
     7
370
     9
100
AcDbLine
 10
0.0824999999987313
 20
-0.3888663640167351
 30
0.0
 11
-0.0825000000013461
 21
-0.4176219848775418
 31
0.0
  0
LINE
  5
99
330
7B
100
AcDbEntity
  8
Screw
 62
     7
370
     9
100
AcDbLine
 10
0.0824999999987313
 20
-0.5204451140167521
 30
0.0
 11
-0.0825000000013461
 21
-0.5492007348775588
 31
0.0
  0
LINE
  5
9A
330
7B
100
AcDbEntity
  8
Screw
 62
     7
370
     9
100
AcDbLine
 10
0.0824999999987313
 20
-0.45465573901663
 30
0.0
 11
-0.0825000000013461
 21
-0.4834113598775503
 31
0.0
  0
LINE
  5
9B
330
7B
100
AcDbEntity
  8
Screw
 62
     7
370
     9
100
AcDbLine
 10
0.0824999999987313
 20
-0.3888663640167351
 30
0.0
 11
0.0599999999988086
 21
-0.3758759829599967
 31
0.0
  0
LINE
  5
9C
330
7B
100
AcDbEntity
  8
Screw
 62
     7
370
     9
100
AcDbLine
 10
0.0824999999987313
 20
-0.5862344890167606
 30
0.0
 11
0.0599999999986949
 21
-0.5732441079599085
 31
0.0
  0
LINE
  5
9D
330
7B
100
AcDbEntity
  8
Screw
 62
     7
370
     9
100
AcDbLine
 10
0.0599999999988086
 20
-0.5334354950734906
 30
0.0
 11
0.0599999999988086
 21
-0.5732441079599085
 31
0.0
  0
LINE
  5
9E
330
7B
100
AcDbEntity
  8
Screw
 62
     7
370
     9
100
AcDbLine
 10
-0.0825000000012324
 20
-0.4834113598774366
 30
0.0
 11
-0.0600000000013097
 21
-0.4704209788208118
 31
0.0
  0
LINE
  5
9F
330
7B
100
AcDbEntity
  8
Screw
 62
     7
370
     9
100
AcDbLine
 10
-0.0825000000012324
 20
-0.483411359877664
 30
0.0
 11
-0.0600000000013097
 21
-0.4964017409342887
 31
0.0
  0
LINE
  5
A0
330
7B
100
AcDbEntity
  8
Screw
 62
     7
370
     9
100
AcDbLine
 10
-0.0825000000012324
 20
-0.5492007348775588
 30
0.0
 11
-0.0600000000013097
 21
-0.5362103538207066
 31
0.0
  0
LINE
  5
A1
330
7B
100
AcDbEntity
  8
Screw
 62
     7
370
     9
100
AcDbLine
 10
-0.0825000000012324
 20
-0.5492007348775588
 30
0.0
 11
-0.0600000000013097
 21
-0.5621911159342972
 31
0.0
  0
LINE
  5
A2
330
7B
100
AcDbEntity
  8
Screw
 62
     7
370
     9
100
AcDbLine
 10
-0.0825000000012324
 20
-0.4176219848775418
 30
0.0
 11
-0.0600000000013097
 21
-0.4306123659343939
 31
0.0
  0
LINE
  5
A3
330
7B
100
AcDbEntity
  8
Screw
 62
     7
370
     9
100
AcDbLine
 10
-0.0825000000012324
 20
-0.4176219848775418
 30
0.0
 11
-0.0600000000013097
 21
-0.4046316038208034
 31
0.0
  0
LINE
  5
A4
330
7B
100
AcDbEntity
  8
Screw
 62
     7
370
     9
100
AcDbLine
 10
-0.0600000000013097
 20
-0.5621911159342972
 30
0.0
 11
-0.0600000000013097
 21
-0.6115652155519911
 31
0.0
  0
LINE
  5
A5
330
7B
100
AcDbEntity
  8
Screw
 62
     7
370
     9
100
AcDbLine
 10
-0.0600000000013097
 20
-0.496401740934175
 30
0.0
 11
-0.0600000000013097
 21
-0.5362103538205929
 31
0.0
  0
LINE
  5
A6
330
7B
100
AcDbEntity
  8
Screw
 62
     7
370
     9
100
AcDbLine
 10
-0.0600000000013097
 20
-0.4306123659340529
 30
0.0
 11
-0.0600000000013097
 21
-0.4704209788206981
 31
0.0
  0
LINE
  5
A7
330
7B
100
AcDbEntity
  8
Screw
 62
     7
370
     9
100
AcDbLine
 10
0.0824999999987313
 20
-0.2572876140167182
 30
0.0
 11
0.0599999999988086
 21
-0.2442972329599797
 31
0.0
  0
LINE
  5
A8
330
7B
100
AcDbEntity
  8
Screw
 62
     7
370
     9
100
AcDbLine
 10
0.0824999999987313
 20
-0.323076989016613
 30
0.0
 11
-0.0825000000013461
 21
-0.3518326098775333
 31
0.0
  0
LINE
  5
A9
330
7B
100
AcDbEntity
  8
Screw
 62
     7
370
     9
100
AcDbLine
 10
0.0824999999987313
 20
-0.2572876140167182
 30
0.0
 11
-0.0825000000013461
 21
-0.2860432348775248
 31
0.0
  0
LINE
  5
AA
330
7B
100
AcDbEntity
  8
Screw
 62
     7
370
     9
100
AcDbLine
 10
0.0824999999987313
 20
-0.323076989016613
 30
0.0
 11
0.0599999999988086
 21
-0.3100866079599882
 31
0.0
  0
LINE
  5
AB
330
7B
100
AcDbEntity
  8
Screw
 62
     7
370
     9
100
AcDbLine
 10
0.0824999999987313
 20
-0.323076989016613
 30
0.0
 11
0.0599999999988086
 21
-0.3360673700734651
 31
0.0
  0
LINE
  5
AC
330
7B
100
AcDbEntity
  8
Screw
 62
     7
370
     9
100
AcDbLine
 10
0.0599999999988086
 20
-0.3360673700734651
 30
0.0
 11
0.0599999999988086
 21
-0.375875982959883
 31
0.0
  0
LINE
  5
AD
330
7B
100
AcDbEntity
  8
Screw
 62
     7
370
     9
100
AcDbLine
 10
0.0824999999987313
 20
-0.2572876140167182
 30
0.0
 11
0.0599999999988086
 21
-0.2702779950733429
 31
0.0
  0
LINE
  5
AE
330
7B
100
AcDbEntity
  8
Screw
 62
     7
370
     9
100
AcDbLine
 10
0.0599999999988086
 20
-0.2702779950733429
 30
0.0
 11
0.0599999999988086
 21
-0.3100866079599882
 31
0.0
  0
LINE
  5
AF
330
7B
100
AcDbEntity
  8
Screw
 62
     7
370
     9
100
AcDbLine
 10
-0.0600000000013097
 20
-0.2990336159340359
 30
0.0
 11
-0.0600000000013097
 21
-0.3388422288206812
 31
0.0
  0
LINE
  5
B0
330
7B
100
AcDbEntity
  8
Screw
 62
     7
370
     9
100
AcDbLine
 10
-0.0600000000013097
 20
-0.364822990934158
 30
0.0
 11
-0.0600000000013097
 21
-0.404631603820576
 31
0.0
  0
LINE
  5
B1
330
7B
100
AcDbEntity
  8
Screw
 62
     7
370
     9
100
AcDbLine
 10
-0.0825000000012324
 20
-0.2860432348775248
 30
0.0
 11
-0.0600000000013097
 21
-0.2730528538207864
 31
0.0
  0
LINE
  5
B2
330
7B
100
AcDbEntity
  8
Screw
 62
     7
370
     9
100
AcDbLine
 10
-0.0825000000012324
 20
-0.2860432348775248
 30
0.0
 11
-0.0600000000013097
 21
-0.2990336159343769
 31
0.0
  0
LINE
  5
B3
330
7B
100
AcDbEntity
  8
Screw
 62
     7
370
     9
100
AcDbLine
 10
-0.0825000000012324
 20
-0.351832609877647
 30
0.0
 11
-0.0600000000013097
 21
-0.3648229909342717
 31
0.0
  0
LINE
  5
B4
330
7B
100
AcDbEntity
  8
Screw
 62
     7
370
     9
100
AcDbLine
 10
-0.0825000000012324
 20
-0.3518326098774196
 30
0.0
 11
-0.0600000000013097
 21
-0.3388422288207948
 31
0.0
  0
LINE
  5
B5
330
7B
100
AcDbEntity
  8
Screw
 62
     7
370
     9
100
AcDbLine
 10
0.0599999999988086
 20
-0.2044886200734481
 30
0.0
 11
0.0599999999988086
 21
-0.244297232959866
 31
0.0
  0
LINE
  5
B6
330
7B
100
AcDbEntity
  8
Screw
 62
     7
370
     9
100
AcDbLine
 10
-0.0600000000013097
 20
-0.2332442409341411
 30
0.0
 11
-0.0600000000013097
 21
-0.273052853820559
 31
0.0
  0
LINE
  5
B7
330
7B
100
AcDbEntity
  8
Screw
 62
     7
370
     9
100
AcDbLine
 10
-0.0600000000013097
 20
-0.1430000000002565
 30
0.0
 11
-0.0600000000013097
 21
-0.2072634788206642
 31
0.0
  0
LINE
  5
B8
330
7B
100
AcDbEntity
  8
Screw
 62
     7
370
     9
100
AcDbLine
 10
-0.0825000000012324
 20
-0.22025385987763
 30
0.0
 11
-0.0600000000013097
 21
-0.2332442409342548
 31
0.0
  0
LINE
  5
B9
330
7B
100
AcDbEntity
  8
Screw
 62
     7
370
     9
100
AcDbLine
 10
-0.0825000000012324
 20
-0.2202538598774026
 30
0.0
 11
-0.0600000000013097
 21
-0.2072634788207779
 31
0.0
  0
LINE
  5
BA
330
7B
100
AcDbEntity
  8
Screw
 62
     7
370
     9
100
AcDbLine
 10
0.0824999999987313
 20
-0.191498239016596
 30
0.0
 11
-0.0825000000013461
 21
-0.2202538598775163
 31
0.0
  0
LINE
  5
BB
330
7B
100
AcDbEntity
  8
Screw
 62
     7
370
     9
100
AcDbLine
 10
0.0824999999987313
 20
-0.191498239016596
 30
0.0
 11
0.0599999999988086
 21
-0.1785078579599713
 31
0.0
  0
LINE
  5
BC
330
7B
100
AcDbEntity
  8
Screw
 62
     7
370
     9
100
AcDbLine
 10
0.0824999999987313
 20
-0.191498239016596
 30
0.0
 11
0.0599999999988086
 21
-0.2044886200734481
 31
0.0
  0
LINE
  5
BD
330
7B
100
AcDbEntity
  8
Screw
 62
     7
370
     9
100
AcDbLine
 10
0.0599999999989223
 20
-0.1430000000002565
 30
0.0
 11
0.0599999999988086
 21
-0.1785078579599713
 31
0.0
  0
LINE
  5
BE
330
7B
100
AcDbEntity
  8
Screw
 62
     7
370
     9
100
AcDbLine
 10
-0.1550000000002001
 20
0.0000000000001137
 30
0.0
 11
-0.1550000000020191
 21
-0.015999999999849
 31
0.0
  0
LINE
  5
BF
330
7B
100
AcDbEntity
  8
Screw
 62
     7
370
     9
100
AcDbLine
 10
0.1549999999986085
 20
0.0
 30
0.0
 11
0.1549999999986085
 21
-0.0159999999999627
 31
0.0
  0
LINE
  5
C0
330
7B
100
AcDbEntity
  8
Screw
 62
     7
370
     9
100
AcDbLine
 10
0.1549999999987222
 20
-0.0160000000006448
 30
0.0
 11
-0.155000000001337
 21
-0.0159999999999627
 31
0.0
  0
LINE
  5
C1
330
7B
100
AcDbEntity
  8
Screw
 62
     7
370
     9
100
AcDbLine
 10
0.1549999999987222
 20
0.0
 30
0.0
 11
-0.155000000001337
 21
0.0
 31
0.0
  0
LINE
  5
C2
330
7B
100
AcDbEntity
  8
Screw
 62
     7
370
     9
100
AcDbLine
 10
0.0599999999989223
 20
-0.1430000000000291
 30
0.0
 11
-0.0600000000013097
 21
-0.1430000000000291
 31
0.0
  0
LINE
  5
C3
330
7B
100
AcDbEntity
  8
Screw
 62
     7
370
     9
100
AcDbLine
 10
0.1549999999986085
 20
-0.0160000000006448
 30
0.0
 11
0.0599999999988086
 21
-0.1430000000001428
 31
0.0
  0
LINE
  5
C4
330
7B
100
AcDbEntity
  8
Screw
 62
     7
370
     9
100
AcDbLine
 10
-0.1550000000020191
 20
-0.0159999999999627
 30
0.0
 11
-0.0600000000013097
 21
-0.1430000000001428
 31
0.0
  0
LINE
  5
C5
330
7B
100
AcDbEntity
  8
Screw
  6
CENTER
 62
     7
370
     9
100
AcDbLine
 10
0.0
 20
0.0516137131638743
 30
0.0
 11
0.0
 21
-0.8012116686045374
 31
0.0
  0
ENDBLK
  5
C7
330
7B
100
AcDbEntity
  8
0
 62
     7
370
     9
100
AcDbBlockEnd
  0
BLOCK
  5
CA
330
C9
100
AcDbEntity
  8
0
 62
     5
100
AcDbBlockBegin
  2
8 X .625 PH
 70
     0
 10
0.0
 20
0.0
 30
0.0
  3
8 X .625 PH
  1

  0
LINE
  5
CB
330
C9
100
AcDbEntity
  8
Screw
  6
CENTER
 62
     7
370
     9
100
AcDbLine
 10
0.0
 20
0.1516137131640107
 30
0.0
 11
-0.0000000000001137
 21
-0.6762116686043101
 31
0.0
  0
LINE
  5
CC
330
C9
100
AcDbEntity
  8
Screw
 62
     7
370
     9
100
AcDbLine
 10
0.1549999999987222
 20
0.0400000000003047
 30
0.0
 11
0.1549999999986085
 21
0.0100000000001046
 31
0.0
  0
LINE
  5
CD
330
C9
100
AcDbEntity
  8
Screw
 62
     7
370
     9
100
AcDbLine
 10
-0.1550000000386262
 20
0.0400000000013279
 30
0.0
 11
-0.1550000000420368
 21
0.0100000000010141
 31
0.0
  0
LINE
  5
CE
330
C9
100
AcDbEntity
  8
Screw
 62
     7
370
     9
100
AcDbLine
 10
0.0599999999986949
 20
-0.0136992450730986
 30
0.0
 11
0.0599999999986949
 21
-0.0535078579597439
 31
0.0
  0
LINE
  5
CF
330
C9
100
AcDbEntity
  8
Screw
 62
     7
370
     9
100
AcDbLine
 10
0.0824999999986176
 20
-0.0007088640164739
 30
0.0
 11
0.0599999999986949
 21
-0.0136992450730986
 31
0.0
  0
LINE
  5
D0
330
C9
100
AcDbEntity
  8
Screw
 62
     7
370
     9
100
AcDbLine
 10
0.0824999999986176
 20
-0.0664982390163687
 30
0.0
 11
0.0599999999986949
 21
-0.0794886200732208
 31
0.0
  0
LINE
  5
D1
330
C9
100
AcDbEntity
  8
Screw
 62
     7
370
     9
100
AcDbLine
 10
0.0824999999986176
 20
-0.0664982390163687
 30
0.0
 11
0.0599999999986949
 21
-0.0535078579597439
 31
0.0
  0
LINE
  5
D2
330
C9
100
AcDbEntity
  8
Screw
 62
     7
370
     9
100
AcDbLine
 10
0.0824999999986176
 20
-0.0007088640164739
 30
0.0
 11
-0.0825000000014598
 21
-0.0294644848772805
 31
0.0
  0
LINE
  5
D3
330
C9
100
AcDbEntity
  8
Screw
 62
     7
370
     9
100
AcDbLine
 10
0.0824999999986176
 20
-0.0664982390163687
 30
0.0
 11
-0.0825000000014598
 21
-0.095253859877289
 31
0.0
  0
LINE
  5
D4
330
C9
100
AcDbEntity
  8
Screw
 62
     7
370
     9
100
AcDbLine
 10
0.0824999999986176
 20
-0.0007088640164739
 30
0.0
 11
0.0812722115064162
 21
0.0000000000001137
 31
0.0
  0
LINE
  5
D5
330
C9
100
AcDbEntity
  8
Screw
 62
     7
370
     9
100
AcDbLine
 10
-0.0825000000013461
 20
-0.0952538598771753
 30
0.0
 11
-0.0600000000014234
 21
-0.0822634788205505
 31
0.0
  0
LINE
  5
D6
330
C9
100
AcDbEntity
  8
Screw
 62
     7
370
     9
100
AcDbLine
 10
-0.0825000000013461
 20
-0.0952538598774027
 30
0.0
 11
-0.0600000000014234
 21
-0.1082442409340274
 31
0.0
  0
LINE
  5
D7
330
C9
100
AcDbEntity
  8
Screw
 62
     7
370
     9
100
AcDbLine
 10
-0.0825000000013461
 20
-0.0294644848772805
 30
0.0
 11
-0.0600000000014234
 21
-0.0424548659341326
 31
0.0
  0
LINE
  5
D8
330
C9
100
AcDbEntity
  8
Screw
 62
     7
370
     9
100
AcDbLine
 10
-0.0825000000013461
 20
-0.0294644848772805
 30
0.0
 11
-0.0600000000014234
 21
-0.0164741038205421
 31
0.0
  0
LINE
  5
D9
330
C9
100
AcDbEntity
  8
Screw
 62
     7
370
     9
100
AcDbLine
 10
-0.0600000000014234
 20
-0.0424548659337916
 30
0.0
 11
-0.0600000000014234
 21
-0.0822634788204369
 31
0.0
  0
LINE
  5
DA
330
C9
100
AcDbEntity
  8
Screw
 62
     7
370
     9
100
AcDbLine
 10
-0.0600000000015371
 20
0.0
 30
0.0
 11
-0.0600000000014234
 21
-0.0164741038203147
 31
0.0
  0
LINE
  5
DB
330
C9
100
AcDbEntity
  8
Screw
 62
     7
370
     9
100
AcDbLine
 10
-0.0600000000014234
 20
-0.1082442409339137
 30
0.0
 11
-0.0600000000014234
 21
-0.1480528538203316
 31
0.0
  0
LINE
  5
DC
330
C9
100
AcDbEntity
  8
Screw
 62
     7
370
     9
100
AcDbLine
 10
0.0599999999986949
 20
-0.0794886200732208
 30
0.0
 11
0.0599999999986949
 21
-0.1192972329596387
 31
0.0
  0
LINE
  5
DD
330
C9
100
AcDbEntity
  8
Screw
 62
     7
370
     9
100
AcDbLine
 10
-0.0825000000013461
 20
-0.2268326098771922
 30
0.0
 11
-0.0600000000014234
 21
-0.2138422288205675
 31
0.0
  0
LINE
  5
DE
330
C9
100
AcDbEntity
  8
Screw
 62
     7
370
     9
100
AcDbLine
 10
-0.0825000000013461
 20
-0.2268326098774196
 30
0.0
 11
-0.0600000000014234
 21
-0.2398229909340443
 31
0.0
  0
LINE
  5
DF
330
C9
100
AcDbEntity
  8
Screw
 62
     7
370
     9
100
AcDbLine
 10
-0.0825000000013461
 20
-0.1610432348772974
 30
0.0
 11
-0.0600000000014234
 21
-0.1740336159341496
 31
0.0
  0
LINE
  5
E0
330
C9
100
AcDbEntity
  8
Screw
 62
     7
370
     9
100
AcDbLine
 10
-0.0825000000013461
 20
-0.1610432348772974
 30
0.0
 11
-0.0600000000014234
 21
-0.148052853820559
 31
0.0
  0
LINE
  5
E1
330
C9
100
AcDbEntity
  8
Screw
 62
     7
370
     9
100
AcDbLine
 10
-0.0600000000014234
 20
-0.2398229909339307
 30
0.0
 11
-0.0600000000014234
 21
-0.2796316038203486
 31
0.0
  0
LINE
  5
E2
330
C9
100
AcDbEntity
  8
Screw
 62
     7
370
     9
100
AcDbLine
 10
-0.0600000000014234
 20
-0.1740336159338085
 30
0.0
 11
-0.0600000000014234
 21
-0.2138422288204538
 31
0.0
  0
LINE
  5
E3
330
C9
100
AcDbEntity
  8
Screw
 62
     7
370
     9
100
AcDbLine
 10
0.0599999999986949
 20
-0.1452779950731156
 30
0.0
 11
0.0599999999986949
 21
-0.1850866079597608
 31
0.0
  0
LINE
  5
E4
330
C9
100
AcDbEntity
  8
Screw
 62
     7
370
     9
100
AcDbLine
 10
0.0824999999986176
 20
-0.1322876140164908
 30
0.0
 11
0.0599999999986949
 21
-0.1452779950731156
 31
0.0
  0
LINE
  5
E5
330
C9
100
AcDbEntity
  8
Screw
 62
     7
370
     9
100
AcDbLine
 10
0.0599999999986949
 20
-0.2110673700732377
 30
0.0
 11
0.0599999999986949
 21
-0.2508759829596556
 31
0.0
  0
LINE
  5
E6
330
C9
100
AcDbEntity
  8
Screw
 62
     7
370
     9
100
AcDbLine
 10
0.0824999999986176
 20
-0.1980769890163856
 30
0.0
 11
0.0599999999986949
 21
-0.2110673700732377
 31
0.0
  0
LINE
  5
E7
330
C9
100
AcDbEntity
  8
Screw
 62
     7
370
     9
100
AcDbLine
 10
0.0824999999986176
 20
-0.1980769890163856
 30
0.0
 11
0.0599999999986949
 21
-0.1850866079597608
 31
0.0
  0
LINE
  5
E8
330
C9
100
AcDbEntity
  8
Screw
 62
     7
370
     9
100
AcDbLine
 10
0.0824999999986176
 20
-0.1322876140164908
 30
0.0
 11
-0.0825000000014598
 21
-0.1610432348772974
 31
0.0
  0
LINE
  5
E9
330
C9
100
AcDbEntity
  8
Screw
 62
     7
370
     9
100
AcDbLine
 10
0.0824999999986176
 20
-0.1980769890163856
 30
0.0
 11
-0.0825000000014598
 21
-0.2268326098773059
 31
0.0
  0
LINE
  5
EA
330
C9
100
AcDbEntity
  8
Screw
 62
     7
370
     9
100
AcDbLine
 10
0.0824999999986176
 20
-0.1322876140164908
 30
0.0
 11
0.0599999999986949
 21
-0.1192972329597524
 31
0.0
  0
LINE
  5
EB
330
C9
100
AcDbEntity
  8
Screw
 62
     7
370
     9
100
AcDbLine
 10
-0.0600000000014234
 20
-0.3056123659338255
 30
0.0
 11
-0.0600000000014234
 21
-0.3454209788204707
 31
0.0
  0
LINE
  5
EC
330
C9
100
AcDbEntity
  8
Screw
 62
     7
370
     9
100
AcDbLine
 10
-0.0600000000014234
 20
-0.3714017409339476
 30
0.0
 11
-0.0600000000014234
 21
-0.4112103538203656
 31
0.0
  0
LINE
  5
ED
330
C9
100
AcDbEntity
  8
Screw
 62
     7
370
     9
100
AcDbLine
 10
-0.0600000000014234
 20
-0.4371911159340698
 30
0.0
 11
-0.0600000000014234
 21
-0.4865652155517637
 31
0.0
  0
LINE
  5
EE
330
C9
100
AcDbEntity
  8
Screw
 62
     7
370
     9
100
AcDbLine
 10
-0.0825000000013461
 20
-0.2926219848773144
 30
0.0
 11
-0.0600000000014234
 21
-0.2796316038205759
 31
0.0
  0
LINE
  5
EF
330
C9
100
AcDbEntity
  8
Screw
 62
     7
370
     9
100
AcDbLine
 10
-0.0825000000013461
 20
-0.2926219848773144
 30
0.0
 11
-0.0600000000014234
 21
-0.3056123659341665
 31
0.0
  0
LINE
  5
F0
330
C9
100
AcDbEntity
  8
Screw
 62
     7
370
     9
100
AcDbLine
 10
-0.0825000000013461
 20
-0.4242007348773314
 30
0.0
 11
-0.0600000000014234
 21
-0.4371911159340698
 31
0.0
  0
LINE
  5
F1
330
C9
100
AcDbEntity
  8
Screw
 62
     7
370
     9
100
AcDbLine
 10
-0.0825000000013461
 20
-0.4242007348773314
 30
0.0
 11
-0.0600000000014234
 21
-0.4112103538204793
 31
0.0
  0
LINE
  5
F2
330
C9
100
AcDbEntity
  8
Screw
 62
     7
370
     9
100
AcDbLine
 10
-0.0825000000013461
 20
-0.3584113598774365
 30
0.0
 11
-0.0600000000014234
 21
-0.3714017409340613
 31
0.0
  0
LINE
  5
F3
330
C9
100
AcDbEntity
  8
Screw
 62
     7
370
     9
100
AcDbLine
 10
-0.0825000000013461
 20
-0.3584113598772092
 30
0.0
 11
-0.0600000000014234
 21
-0.3454209788205844
 31
0.0
  0
LINE
  5
F4
330
C9
100
AcDbEntity
  8
Screw
 62
     7
370
     9
100
AcDbLine
 10
0.0599999999986949
 20
-0.4084354950732632
 30
0.0
 11
0.0599999999986949
 21
-0.4482441079596811
 31
0.0
  0
LINE
  5
F5
330
C9
100
AcDbEntity
  8
Screw
 62
     7
370
     9
100
AcDbLine
 10
0.0824999999986176
 20
-0.4612344890165332
 30
0.0
 11
0.0599999999985812
 21
-0.4482441079596811
 31
0.0
  0
LINE
  5
F6
330
C9
100
AcDbEntity
  8
Screw
 62
     7
370
     9
100
AcDbLine
 10
0.0824999999986176
 20
-0.2638663640165078
 30
0.0
 11
0.0599999999986949
 21
-0.2508759829597693
 31
0.0
  0
LINE
  5
F7
330
C9
100
AcDbEntity
  8
Screw
 62
     7
370
     9
100
AcDbLine
 10
0.0824999999986176
 20
-0.3296557390164025
 30
0.0
 11
-0.0825000000014598
 21
-0.3584113598773229
 31
0.0
  0
LINE
  5
F8
330
C9
100
AcDbEntity
  8
Screw
 62
     7
370
     9
100
AcDbLine
 10
0.0824999999986176
 20
-0.3954451140165247
 30
0.0
 11
-0.0825000000014598
 21
-0.4242007348773314
 31
0.0
  0
LINE
  5
F9
330
C9
100
AcDbEntity
  8
Screw
 62
     7
370
     9
100
AcDbLine
 10
0.0824999999986176
 20
-0.2638663640165078
 30
0.0
 11
-0.0825000000014598
 21
-0.2926219848773144
 31
0.0
  0
LINE
  5
FA
330
C9
100
AcDbEntity
  8
Screw
 62
     7
370
     9
100
AcDbLine
 10
0.0824999999986176
 20
-0.3296557390164025
 30
0.0
 11
0.0599999999986949
 21
-0.3166653579597778
 31
0.0
  0
LINE
  5
FB
330
C9
100
AcDbEntity
  8
Screw
 62
     7
370
     9
100
AcDbLine
 10
0.0824999999986176
 20
-0.3296557390164025
 30
0.0
 11
0.0599999999986949
 21
-0.3426461200732547
 31
0.0
  0
LINE
  5
FC
330
C9
100
AcDbEntity
  8
Screw
 62
     7
370
     9
100
AcDbLine
 10
0.0824999999986176
 20
-0.3954451140165247
 30
0.0
 11
0.0599999999985812
 21
-0.3824547329596726
 31
0.0
  0
LINE
  5
FD
330
C9
100
AcDbEntity
  8
Screw
 62
     7
370
     9
100
AcDbLine
 10
0.0824999999986176
 20
-0.3954451140165247
 30
0.0
 11
0.0599999999986949
 21
-0.4084354950732632
 31
0.0
  0
LINE
  5
FE
330
C9
100
AcDbEntity
  8
Screw
 62
     7
370
     9
100
AcDbLine
 10
0.0599999999986949
 20
-0.3426461200732547
 30
0.0
 11
0.0599999999986949
 21
-0.3824547329596726
 31
0.0
  0
LINE
  5
FF
330
C9
100
AcDbEntity
  8
Screw
 62
     7
370
     9
100
AcDbLine
 10
0.0824999999986176
 20
-0.2638663640165078
 30
0.0
 11
0.0599999999986949
 21
-0.2768567450731325
 31
0.0
  0
LINE
  5
100
330
C9
100
AcDbEntity
  8
Screw
 62
     7
370
     9
100
AcDbLine
 10
0.0599999999986949
 20
-0.2768567450731325
 30
0.0
 11
0.0599999999986949
 21
-0.3166653579597778
 31
0.0
  0
LINE
  5
101
330
C9
100
AcDbEntity
  8
Screw
 62
     7
370
     9
100
AcDbLine
 10
-0.0000000000007958
 20
-0.6249999999979537
 30
0.0
 11
0.022931124344268
 21
-0.569639368603248
 31
0.0
  0
LINE
  5
102
330
C9
100
AcDbEntity
  8
Screw
 62
     7
370
     9
100
AcDbLine
 10
0.0824999999985039
 20
-0.4612344890164195
 30
0.0
 11
0.0684796239820571
 21
-0.4531398211491933
 31
0.0
  0
LINE
  5
103
330
C9
100
AcDbEntity
  8
Screw
 62
     7
370
     9
100
AcDbLine
 10
0.0824999999985039
 20
-0.4612344890164195
 30
0.0
 11
0.0632241464038543
 21
-0.4723634082780564
 31
0.0
  0
LINE
  5
104
330
C9
100
AcDbEntity
  8
Screw
 62
     7
370
     9
100
AcDbLine
 10
0.0550146141443975
 20
-0.5253624430695254
 30
0.0
 11
0.0439236020390581
 21
-0.5189590442449799
 31
0.0
  0
LINE
  5
105
330
C9
100
AcDbEntity
  8
Screw
 62
     7
370
     9
100
AcDbLine
 10
0.0550146141443975
 20
-0.5253624430695254
 30
0.0
 11
0.0369515003607148
 21
-0.5357911866749419
 31
0.0
  0
LINE
  5
106
330
C9
100
AcDbEntity
  8
Screw
 62
     7
370
     9
100
AcDbLine
 10
0.0578546239827347
 20
-0.4853265821307105
 30
0.0
 11
0.063224146403968
 21
-0.4723634082781701
 31
0.0
  0
LINE
  5
107
330
C9
100
AcDbEntity
  8
Screw
 62
     7
370
     9
100
AcDbLine
 10
0.0299032260226113
 20
-0.552807226173286
 30
0.0
 11
0.0369515003607148
 21
-0.5357911866749419
 31
0.0
  0
LINE
  5
108
330
C9
100
AcDbEntity
  8
Screw
 62
     7
370
     9
100
AcDbLine
 10
-0.0299032260243166
 20
-0.552807226173286
 30
0.0
 11
-0.049041047168771
 21
-0.5066044388121327
 31
0.0
  0
LINE
  5
109
330
C9
100
AcDbEntity
  8
Screw
 62
     7
370
     9
100
AcDbLine
 10
-0.0409942381297697
 20
-0.5592106249979452
 30
0.0
 11
-0.022931124346087
 21
-0.569639368603248
 31
0.0
  0
LINE
  5
10A
330
C9
100
AcDbEntity
  8
Screw
 62
     7
370
     9
100
AcDbLine
 10
-0.0409942381297697
 20
-0.5592106249979452
 30
0.0
 11
-0.0299032260243166
 21
-0.552807226173286
 31
0.0
  0
LINE
  5
10B
330
C9
100
AcDbEntity
  8
Screw
 62
     7
370
     9
100
AcDbLine
 10
-0.0718750000008868
 20
-0.4934212499979367
 30
0.0
 11
-0.049041047168771
 21
-0.5066044388121327
 31
0.0
  0
LINE
  5
10C
330
C9
100
AcDbEntity
  8
Screw
 62
     7
370
     9
100
AcDbLine
 10
-0.0718750000008868
 20
-0.493421249997823
 30
0.0
 11
-0.0600000000015371
 21
-0.48656521555165
 31
0.0
  0
LINE
  5
10D
330
C9
100
AcDbEntity
  8
Screw
 62
     7
370
     9
100
AcDbLine
 10
-0.0000000000007958
 20
-0.6249999999979537
 30
0.0
 11
-0.022931124346087
 21
-0.569639368603248
 31
0.0
  0
LINE
  5
10E
330
C9
100
AcDbEntity
  8
Screw
 62
     7
370
     9
100
AcDbLine
 10
0.0578546239827347
 20
-0.4853265821307105
 30
0.0
 11
0.0490410471670657
 21
-0.5066044388121327
 31
0.0
  0
LINE
  5
10F
330
C9
100
AcDbEntity
  8
Screw
 62
     7
370
     9
100
AcDbLine
 10
0.0299032260226113
 20
-0.552807226173286
 30
0.0
 11
0.022931124344268
 21
-0.569639368603248
 31
0.0
  0
LINE
  5
110
330
C9
100
AcDbEntity
  8
Screw
 62
     7
370
     9
100
AcDbLine
 10
0.0439236020390581
 20
-0.5189590442449799
 30
0.0
 11
0.0490410471670657
 21
-0.5066044388121327
 31
0.0
  0
LINE
  5
111
330
C9
100
AcDbEntity
  8
Screw
 62
     7
370
     9
100
AcDbLine
 10
0.0824999999987313
 20
-0.4612344890164195
 30
0.0
 11
-0.0718750000008868
 21
-0.493421249997823
 31
0.0
  0
LINE
  5
112
330
C9
100
AcDbEntity
  8
Screw
 62
     7
370
     9
100
AcDbLine
 10
0.0550146141443975
 20
-0.5253624430695254
 30
0.0
 11
-0.0409942381297697
 21
-0.5592106249979452
 31
0.0
  0
LINE
  5
113
330
C9
100
AcDbEntity
  8
Screw
 62
     7
370
     9
100
AcDbLine
 10
-0.1450000000420459
 20
-0.0000000000001137
 30
0.0
 11
0.1449999999986176
 21
0.0000000000001137
 31
0.0
  0
LINE
  5
114
330
C9
100
AcDbEntity
  8
Screw
 62
     7
370
     9
100
AcDbLine
 10
-0.1450000000385216
 20
0.0500000000004093
 30
0.0
 11
0.1449999999986176
 21
0.050000000000523
 31
0.0
  0
ARC
  5
115
330
C9
100
AcDbEntity
  8
Screw
 62
     7
370
     9
100
AcDbCircle
 10
0.1449999999986176
 20
0.0100000000001046
 30
0.0
 40
0.01
100
AcDbArc
 50
270.0
 51
0.0
  0
ARC
  5
116
330
C9
100
AcDbEntity
  8
Screw
 62
     7
370
     9
100
AcDbCircle
 10
-0.1450000000420459
 20
0.0099999999998772
 30
0.0
 40
0.01
100
AcDbArc
 50
179.9999999934667
 51
270.0
  0
LINE
  5
117
330
C9
100
AcDbEntity
  8
Screw
 62
     7
370
     9
100
AcDbLine
 10
-0.0570000000392383
 20
0.1000000000004775
 30
0.0
 11
0.0569999999995616
 21
0.1000000000003638
 31
0.0
  0
ARC
  5
118
330
C9
100
AcDbEntity
  8
Screw
 62
     7
370
     9
100
AcDbCircle
 10
0.1449999999986176
 20
0.0400000000003047
 30
0.0
 40
0.01
100
AcDbArc
 50
0.0
 51
90.0
  0
ARC
  5
119
330
C9
100
AcDbEntity
  8
Screw
 62
     7
370
     9
100
AcDbCircle
 10
-0.1450000000385216
 20
0.040000000000191
 30
0.0
 40
0.01
100
AcDbArc
 50
90.0
 51
179.9999999934862
  0
ARC
  5
11A
330
C9
100
AcDbEntity
  8
Screw
 62
     7
370
     9
100
AcDbCircle
 10
-0.0000000000198952
 20
-0.1142505253642412
 30
0.0
 40
0.2217031520327291
100
AcDbArc
 50
46.77058113432305
 51
75.10191228261263
  0
ARC
  5
11B
330
C9
100
AcDbEntity
  8
Screw
 62
     7
370
     9
100
AcDbCircle
 10
-0.0000000000198952
 20
-0.1142505253642412
 30
0.0
 40
0.2217031520327291
100
AcDbArc
 50
104.8980877173874
 51
133.2294188657414
  0
ENDBLK
  5
11C
330
C9
100
AcDbEntity
  8
0
 62
     5
100
AcDbBlockEnd
  0
BLOCK
  5
195
330
194
100
AcDbEntity
  8
0
100
AcDbBlockBegin
  2
*D3
 70
     1
 10
0.0
 20
0.0
 30
0.0
  3
*D3
  1

  0
LINE
  5
196
330
194
100
AcDbEntity
  8
0
 62
     0
370
    -2
100
AcDbLine
 10
14.25219896346135
 20
35.20601472167872
 30
0.0
 11
14.25219896346135
 21
36.33649322834882
 31
0.0
  0
LINE
  5
197
330
194
100
AcDbEntity
  8
0
 62
     0
370
    -2
100
AcDbLine
 10
9.751698963461336
 20
35.97201472167874
 30
0.0
 11
9.751698963461336
 21
36.33649322834882
 31
0.0
  0
LINE
  5
198
330
194
100
AcDbEntity
  8
0
 62
     0
370
    -2
100
AcDbLine
 10
14.25219896346135
 20
36.30649322834881
 30
0.0
 11
12.51320827246819
 21
36.30649322834881
 31
0.0
  0
LINE
  5
199
330
194
100
AcDbEntity
  8
0
 62
     0
370
    -2
100
AcDbLine
 10
9.751698963461336
 20
36.30649322834881
 30
0.0
 11
11.49068965445449
 21
36.30649322834881
 31
0.0
  0
INSERT
  5
19A
330
194
100
AcDbEntity
  8
0
 62
     0
370
    -2
100
AcDbBlockReference
  2
_ArchTick
 10
14.25219896346135
 20
36.30649322834881
 30
0.0
 41
0.156
 42
0.156
 43
0.156
  0
INSERT
  5
19B
330
194
100
AcDbEntity
  8
0
 62
     0
370
    -2
100
AcDbBlockReference
  2
_ArchTick
 10
9.751698963461336
 20
36.30649322834881
 30
0.0
 41
0.156
 42
0.156
 43
0.156
 50
180.0
  0
MTEXT
  5
19C
330
194
100
AcDbEntity
  8
0
 62
     0
100
AcDbMText
 10
12.00194896346134
 20
36.50883771389017
 30
0.0
 40
0.3125
 41
0.0
 71
     5
 72
     1
  1
\A1;4 1/2"
 73
     1
 44
1.0
1001
ACAD
1000
MTEXTBEGIN
1070
    73
1070
     1
1070
    44
1040
1.0
1070
    74
1070
     0
1000
MTEXTEND
  0
MTEXT
  5
19D
330
194
100
AcDbEntity
  8
0
 62
     0
100
AcDbMText
 10
12.00194896346134
 20
36.08660082754183
 30
0.0
 40
0.3125
 41
0.0
 71
     5
 72
     1
  1
\A1;[114mm]
 73
     1
 44
1.0
1001
ACAD
1000
MTEXTBEGIN
1070
    73
1070
     1
1070
    44
1040
1.0
1070
    74
1070
     0
1000
MTEXTEND
  0
POINT
  5
19E
330
194
100
AcDbEntity
  8
Defpoints
 62
     0
100
AcDbPoint
 10
14.25219896346135
 20
35.16601472167872
 30
0.0
  0
POINT
  5
1A0
330
194
100
AcDbEntity
  8
Defpoints
 62
     0
100
AcDbPoint
 10
9.751698963461336
 20
35.93201472167874
 30
0.0
  0
POINT
  5
1A1
330
194
100
AcDbEntity
  8
Defpoints
 62
     0
100
AcDbPoint
 10
9.751698963461336
 20
36.30649322834881
 30
0.0
  0
ENDBLK
  5
1A2
330
194
100
AcDbEntity
  8
0
100
AcDbBlockEnd
  0
BLOCK
  5
1A7
330
1A6
100
AcDbEntity
  8
0
100
AcDbBlockBegin
  2
*D4
 70
     1
 10
0.0
 20
0.0
 30
0.0
  3
*D4
  1

  0
LINE
  5
1A8
330
1A6
100
AcDbEntity
  8
0
 62
     0
370
    -2
100
AcDbLine
 10
14.29219896346135
 20
35.16601472167872
 30
0.0
 11
15.8017241210903
 21
35.16601472167872
 31
0.0
  0
LINE
  5
1A9
330
1A6
100
AcDbEntity
  8
0
 62
     0
370
    -2
100
AcDbLine
 10
14.54219896346138
 20
18.63513706734849
 30
0.0
 11
15.8017241210903
 21
18.63513706734849
 31
0.0
  0
LINE
  5
1AA
330
1A6
100
AcDbEntity
  8
0
 62
     0
370
    -2
100
AcDbLine
 10
15.7717241210903
 20
35.16601472167872
 30
0.0
 11
15.7717241210903
 21
27.10292038005496
 31
0.0
  0
LINE
  5
1AB
330
1A6
100
AcDbEntity
  8
0
 62
     0
370
    -2
100
AcDbLine
 10
15.7717241210903
 20
18.63513706734849
 30
0.0
 11
15.7717241210903
 21
26.69823140897225
 31
0.0
  0
INSERT
  5
1AC
330
1A6
100
AcDbEntity
  8
0
 62
     0
370
    -2
100
AcDbBlockReference
  2
_ArchTick
 10
15.7717241210903
 20
35.16601472167872
 30
0.0
 41
0.156
 42
0.156
 43
0.156
 50
90.0
  0
INSERT
  5
1AD
330
1A6
100
AcDbEntity
  8
0
 62
     0
370
    -2
100
AcDbBlockReference
  2
_ArchTick
 10
15.7717241210903
 20
18.63513706734849
 30
0.0
 41
0.156
 42
0.156
 43
0.156
 50
270.0
  0
MTEXT
  5
1AE
330
1A6
100
AcDbEntity
  8
0
 62
     0
100
AcDbMText
 10
15.7717241210903
 20
26.90057589451361
 30
0.0
 40
0.3125
 41
0.0
 71
     5
 72
     1
  1
\A1;BOX
 73
     1
 44
1.0
1001
ACAD
1000
MTEXTBEGIN
1070
    73
1070
     1
1070
    44
1040
1.0
1070
    74
1070
     0
1000
MTEXTEND
  0
POINT
  5
1AF
330
1A6
100
AcDbEntity
  8
Defpoints
 62
     0
100
AcDbPoint
 10
14.25219896346135
 20
35.16601472167872
 30
0.0
  0
POINT
  5
1B0
330
1A6
100
AcDbEntity
  8
Defpoints
 62
     0
100
AcDbPoint
 10
14.50219896346138
 20
18.63513706734849
 30
0.0
  0
POINT
  5
1B1
330
1A6
100
AcDbEntity
  8
Defpoints
 62
     0
100
AcDbPoint
 10
15.7717241210903
 20
18.63513706734849
 30
0.0
  0
ENDBLK
  5
1B2
330
1A6
100
AcDbEntity
  8
0
100
AcDbBlockEnd
  0
BLOCK
  5
1B7
330
1B6
100
AcDbEntity
  8
0
100
AcDbBlockBegin
  2
*D5
 70
     1
 10
0.0
 20
0.0
 30
0.0
  3
*D5
  1

  0
LINE
  5
1B8
330
1B6
100
AcDbEntity
  8
0
 62
     0
370
    -2
100
AcDbLine
 10
9.649698963461268
 20
34.35300918917338
 30
0.0
 11
7.92050752980933
 21
34.35300918917338
 31
0.0
  0
LINE
  5
1B9
330
1B6
100
AcDbEntity
  8
0
 62
     0
370
    -2
100
AcDbLine
 10
12.85044403769478
 20
29.76067649640203
 30
0.0
 11
7.920507529809328
 21
29.76067649640203
 31
0.0
  0
LINE
  5
1BA
330
1B6
100
AcDbEntity
  8
0
 62
     0
370
    -2
100
AcDbLine
 10
7.95050752980933
 20
34.35300918917338
 30
0.0
 11
7.950507529809329
 21
32.47907972913605
 31
0.0
  0
LINE
  5
1BB
330
1B6
100
AcDbEntity
  8
0
 62
     0
370
    -2
100
AcDbLine
 10
7.950507529809328
 20
29.76067649640203
 30
0.0
 11
7.950507529809329
 21
31.63460595643935
 31
0.0
  0
INSERT
  5
1BC
330
1B6
100
AcDbEntity
  8
0
 62
     0
370
    -2
100
AcDbBlockReference
  2
_ArchTick
 10
7.95050752980933
 20
34.35300918917338
 30
0.0
 41
0.156
 42
0.156
 43
0.156
 50
90.0
  0
INSERT
  5
1BD
330
1B6
100
AcDbEntity
  8
0
 62
     0
370
    -2
100
AcDbBlockReference
  2
_ArchTick
 10
7.950507529809328
 20
29.76067649640203
 30
0.0
 41
0.156
 42
0.156
 43
0.156
 50
270.0
  0
MTEXT
  5
1BE
330
1B6
100
AcDbEntity
  8
0
 62
     0
100
AcDbMText
 10
7.950507529809324
 20
32.25918732832906
 30
0.0
 40
0.3125
 41
0.0
 71
     5
 72
     1
  1
\A1;4 19/32"
 73
     1
 44
1.0
1001
ACAD
1000
MTEXTBEGIN
1070
    73
1070
     1
1070
    44
1040
1.0
1070
    74
1070
     0
1000
MTEXTEND
  0
MTEXT
  5
1BF
330
1B6
100
AcDbEntity
  8
0
 62
     0
100
AcDbMText
 10
7.950507529809324
 20
31.83695044198071
 30
0.0
 40
0.3125
 41
0.0
 71
     5
 72
     1
  1
\A1;[117mm]
 73
     1
 44
1.0
1001
ACAD
1000
MTEXTBEGIN
1070
    73
1070
     1
1070
    44
1040
1.0
1070
    74
1070
     0
1000
MTEXTEND
  0
POINT
  5
1C0
330
1B6
100
AcDbEntity
  8
Defpoints
 62
     0
100
AcDbPoint
 10
9.689698963461268
 20
34.35300918917338
 30
0.0
  0
POINT
  5
1C1
330
1B6
100
AcDbEntity
  8
Defpoints
 62
     0
100
AcDbPoint
 10
12.89044403769478
 20
29.76067649640203
 30
0.0
  0
POINT
  5
1C2
330
1B6
100
AcDbEntity
  8
Defpoints
 62
     0
100
AcDbPoint
 10
7.950507529809328
 20
29.76067649640203
 30
0.0
  0
ENDBLK
  5
1C3
330
1B6
100
AcDbEntity
  8
0
100
AcDbBlockEnd
  0
BLOCK
  5
1C6
330
1C5
100
AcDbEntity
  8
0
100
AcDbBlockBegin
  2
*D6
 70
     1
 10
0.0
 20
0.0
 30
0.0
  3
*D6
  1

  0
LINE
  5
1C7
330
1C5
100
AcDbEntity
  8
0
 62
     0
370
    -2
100
AcDbLine
 10
8.710698963461304
 20
35.16601472167872
 30
0.0
 11
6.709008642781761
 21
35.16601472167872
 31
0.0
  0
LINE
  5
1C8
330
1C5
100
AcDbEntity
  8
0
 62
     0
370
    -2
100
AcDbLine
 10
12.85044403769478
 20
29.76067649640203
 30
0.0
 11
6.709008642781759
 21
29.76067649640203
 31
0.0
  0
LINE
  5
1C9
330
1C5
100
AcDbEntity
  8
0
 62
     0
370
    -2
100
AcDbLine
 10
6.739008642781761
 20
35.16601472167872
 30
0.0
 11
6.73900864278176
 21
33.73490314861562
 31
0.0
  0
LINE
  5
1CA
330
1C5
100
AcDbEntity
  8
0
 62
     0
370
    -2
100
AcDbLine
 10
6.739008642781759
 20
29.76067649640203
 30
0.0
 11
6.73900864278176
 21
32.76819052812694
 31
0.0
  0
INSERT
  5
1CB
330
1C5
100
AcDbEntity
  8
0
 62
     0
370
    -2
100
AcDbBlockReference
  2
_ArchTick
 10
6.739008642781761
 20
35.16601472167872
 30
0.0
 41
0.156
 42
0.156
 43
0.156
 50
90.0
  0
INSERT
  5
1CC
330
1C5
100
AcDbEntity
  8
0
 62
     0
370
    -2
100
AcDbBlockReference
  2
_ArchTick
 10
6.739008642781759
 20
29.76067649640203
 30
0.0
 41
0.156
 42
0.156
 43
0.156
 50
270.0
  0
MTEXT
  5
1CD
330
1C5
100
AcDbEntity
  8
0
 62
     0
100
AcDbMText
 10
6.739008642781755
 20
33.25154683837129
 30
0.0
 40
0.3125
 41
0.0
 71
     5
 72
     1
  1
\A1;5 13/32"\P [137mm]
 73
     1
 44
1.0
1001
ACAD
1000
MTEXTBEGIN
1070
    73
1070
     1
1070
    44
1040
1.0
1070
    74
1070
     0
1000
MTEXTEND
  0
POINT
  5
1CE
330
1C5
100
AcDbEntity
  8
Defpoints
 62
     0
100
AcDbPoint
 10
8.750698963461303
 20
35.16601472167872
 30
0.0
  0
POINT
  5
1CF
330
1C5
100
AcDbEntity
  8
Defpoints
 62
     0
100
AcDbPoint
 10
12.89044403769478
 20
29.76067649640203
 30
0.0
  0
POINT
  5
1D0
330
1C5
100
AcDbEntity
  8
Defpoints
 62
     0
100
AcDbPoint
 10
6.739008642781759
 20
29.76067649640203
 30
0.0
  0
ENDBLK
  5
1D1
330
1C5
100
AcDbEntity
  8
0
100
AcDbBlockEnd
  0
BLOCK
  5
1D6
330
1D5
100
AcDbEntity
  8
0
100
AcDbBlockBegin
  2
*D7
 70
     1
 10
0.0
 20
0.0
 30
0.0
  3
*D7
  1

  0
LINE
  5
1D7
330
1D5
100
AcDbEntity
  8
0
 62
     0
370
    -2
100
AcDbLine
 10
12.85044403769475
 20
28.38546976011333
 30
0.0
 11
7.920507529809328
 21
28.38546976011333
 31
0.0
  0
LINE
  5
1D8
330
1D5
100
AcDbEntity
  8
0
 62
     0
370
    -2
100
AcDbLine
 10
12.52143591422134
 20
21.01019866601537
 30
0.0
 11
7.920507529809326
 21
21.01019866601537
 31
0.0
  0
LINE
  5
1D9
330
1D5
100
AcDbEntity
  8
0
 62
     0
370
    -2
100
AcDbLine
 10
7.950507529809328
 20
28.38546976011333
 30
0.0
 11
7.950507529809327
 21
25.1200710994127
 31
0.0
  0
LINE
  5
1DA
330
1D5
100
AcDbEntity
  8
0
 62
     0
370
    -2
100
AcDbLine
 10
7.950507529809327
 20
21.01019866601537
 30
0.0
 11
7.950507529809327
 21
24.275597326716
 31
0.0
  0
INSERT
  5
1DB
330
1D5
100
AcDbEntity
  8
0
 62
     0
370
    -2
100
AcDbBlockReference
  2
_ArchTick
 10
7.950507529809328
 20
28.38546976011333
 30
0.0
 41
0.156
 42
0.156
 43
0.156
 50
90.0
  0
INSERT
  5
1DC
330
1D5
100
AcDbEntity
  8
0
 62
     0
370
    -2
100
AcDbBlockReference
  2
_ArchTick
 10
7.950507529809327
 20
21.01019866601537
 30
0.0
 41
0.156
 42
0.156
 43
0.156
 50
270.0
  0
MTEXT
  5
1DD
330
1D5
100
AcDbEntity
  8
0
 62
     0
100
AcDbMText
 10
7.950507529809324
 20
24.90017869860571
 30
0.0
 40
0.3125
 41
0.0
 71
     5
 72
     1
  1
\A1;7 3/8"
 73
     1
 44
1.0
1001
ACAD
1000
MTEXTBEGIN
1070
    73
1070
     1
1070
    44
1040
1.0
1070
    74
1070
     0
1000
MTEXTEND
  0
MTEXT
  5
1DE
330
1D5
100
AcDbEntity
  8
0
 62
     0
100
AcDbMText
 10
7.950507529809324
 20
24.47794181225735
 30
0.0
 40
0.3125
 41
0.0
 71
     5
 72
     1
  1
\A1;[187mm]
 73
     1
 44
1.0
1001
ACAD
1000
MTEXTBEGIN
1070
    73
1070
     1
1070
    44
1040
1.0
1070
    74
1070
     0
1000
MTEXTEND
  0
POINT
  5
1DF
330
1D5
100
AcDbEntity
  8
Defpoints
 62
     0
100
AcDbPoint
 10
12.89044403769475
 20
28.38546976011333
 30
0.0
  0
POINT
  5
1E0
330
1D5
100
AcDbEntity
  8
Defpoints
 62
     0
100
AcDbPoint
 10
12.56143591422134
 20
21.01019866601537
 30
0.0
  0
POINT
  5
1E1
330
1D5
100
AcDbEntity
  8
Defpoints
 62
     0
100
AcDbPoint
 10
7.950507529809327
 20
21.01019866601537
 30
0.0
  0
ENDBLK
  5
1E2
330
1D5
100
AcDbEntity
  8
0
100
AcDbBlockEnd
  0
BLOCK
  5
1E7
330
1E6
100
AcDbEntity
  8
0
100
AcDbBlockBegin
  2
*D8
 70
     1
 10
0.0
 20
0.0
 30
0.0
  3
*D8
  1

  0
LINE
  5
1E8
330
1E6
100
AcDbEntity
  8
0
 62
     0
370
    -2
100
AcDbLine
 10
12.85044403769475
 20
28.38546976011333
 30
0.0
 11
6.709008642781753
 21
28.38546976011333
 31
0.0
  0
LINE
  5
1E9
330
1E6
100
AcDbEntity
  8
0
 62
     0
370
    -2
100
AcDbLine
 10
8.61244896346016
 20
18.63513706734849
 30
0.0
 11
6.709008642781752
 21
18.6351370673485
 31
0.0
  0
LINE
  5
1EA
330
1E6
100
AcDbEntity
  8
0
 62
     0
370
    -2
100
AcDbLine
 10
6.739008642781754
 20
28.38546976011333
 30
0.0
 11
6.739008642781753
 21
23.77376732316826
 31
0.0
  0
LINE
  5
1EB
330
1E6
100
AcDbEntity
  8
0
 62
     0
370
    -2
100
AcDbLine
 10
6.739008642781752
 20
18.6351370673485
 30
0.0
 11
6.739008642781753
 21
22.80705470267958
 31
0.0
  0
INSERT
  5
1EC
330
1E6
100
AcDbEntity
  8
0
 62
     0
370
    -2
100
AcDbBlockReference
  2
_ArchTick
 10
6.739008642781754
 20
28.38546976011333
 30
0.0
 41
0.156
 42
0.156
 43
0.156
 50
90.0
  0
INSERT
  5
1ED
330
1E6
100
AcDbEntity
  8
0
 62
     0
370
    -2
100
AcDbBlockReference
  2
_ArchTick
 10
6.739008642781752
 20
18.6351370673485
 30
0.0
 41
0.156
 42
0.156
 43
0.156
 50
270.0
  0
MTEXT
  5
1EE
330
1E6
100
AcDbEntity
  8
0
 62
     0
100
AcDbMText
 10
6.739008642781749
 20
23.29041101292392
 30
0.0
 40
0.3125
 41
0.0
 71
     5
 72
     1
  1
\A1;9 3/4"\P [248mm]
 73
     1
 44
1.0
1001
ACAD
1000
MTEXTBEGIN
1070
    73
1070
     1
1070
    44
1040
1.0
1070
    74
1070
     0
1000
MTEXTEND
  0
POINT
  5
1EF
330
1E6
100
AcDbEntity
  8
Defpoints
 62
     0
100
AcDbPoint
 10
12.89044403769475
 20
28.38546976011333
 30
0.0
  0
POINT
  5
1F0
330
1E6
100
AcDbEntity
  8
Defpoints
 62
     0
100
AcDbPoint
 10
8.652448963460159
 20
18.63513706734849
 30
0.0
  0
POINT
  5
1F1
330
1E6
100
AcDbEntity
  8
Defpoints
 62
     0
100
AcDbPoint
 10
6.739008642781752
 20
18.6351370673485
 30
0.0
  0
ENDBLK
  5
1F2
330
1E6
100
AcDbEntity
  8
0
100
AcDbBlockEnd
  0
BLOCK
  5
1F7
330
1F6
100
AcDbEntity
  8
0
100
AcDbBlockBegin
  2
*D9
 70
     1
 10
0.0
 20
0.0
 30
0.0
  3
*D9
  1

  0
LINE
  5
1F8
330
1F6
100
AcDbEntity
  8
0
 62
     0
370
    -2
100
AcDbLine
 10
12.52419896346136
 20
21.01013706734199
 30
0.0
 11
7.920507529809325
 21
21.01013706734199
 31
0.0
  0
LINE
  5
1F9
330
1F6
100
AcDbEntity
  8
0
 62
     0
370
    -2
100
AcDbLine
 10
8.61244896346016
 20
18.63513706734849
 30
0.0
 11
7.920507529809325
 21
18.6351370673485
 31
0.0
  0
LINE
  5
1FA
330
1F6
100
AcDbEntity
  8
0
 62
     0
370
    -2
100
AcDbLine
 10
7.950507529809325
 20
21.01013706734199
 30
0.0
 11
7.950507529809325
 21
20.2448739536936
 31
0.0
  0
LINE
  5
1FB
330
1F6
100
AcDbEntity
  8
0
 62
     0
370
    -2
100
AcDbLine
 10
7.950507529809325
 20
18.6351370673485
 30
0.0
 11
7.950507529809325
 21
19.40040018099689
 31
0.0
  0
INSERT
  5
1FC
330
1F6
100
AcDbEntity
  8
0
 62
     0
370
    -2
100
AcDbBlockReference
  2
_ArchTick
 10
7.950507529809325
 20
21.01013706734199
 30
0.0
 41
0.156
 42
0.156
 43
0.156
 50
90.0
  0
INSERT
  5
1FD
330
1F6
100
AcDbEntity
  8
0
 62
     0
370
    -2
100
AcDbBlockReference
  2
_ArchTick
 10
7.950507529809325
 20
18.6351370673485
 30
0.0
 41
0.156
 42
0.156
 43
0.156
 50
270.0
  0
MTEXT
  5
1FE
330
1F6
100
AcDbEntity
  8
0
 62
     0
100
AcDbMText
 10
7.950507529809321
 20
20.0249815528866
 30
0.0
 40
0.3125
 41
0.0
 71
     5
 72
     1
  1
\A1;2 3/8"
 73
     1
 44
1.0
1001
ACAD
1000
MTEXTBEGIN
1070
    73
1070
     1
1070
    44
1040
1.0
1070
    74
1070
     0
1000
MTEXTEND
  0
MTEXT
  5
1FF
330
1F6
100
AcDbEntity
  8
0
 62
     0
100
AcDbMText
 10
7.950507529809321
 20
19.60274466653825
 30
0.0
 40
0.3125
 41
0.0
 71
     5
 72
     1
  1
\A1;[60mm]
 73
     1
 44
1.0
1001
ACAD
1000
MTEXTBEGIN
1070
    73
1070
     1
1070
    44
1040
1.0
1070
    74
1070
     0
1000
MTEXTEND
  0
POINT
  5
200
330
1F6
100
AcDbEntity
  8
Defpoints
 62
     0
100
AcDbPoint
 10
12.56419896346136
 20
21.01013706734199
 30
0.0
  0
POINT
  5
201
330
1F6
100
AcDbEntity
  8
Defpoints
 62
     0
100
AcDbPoint
 10
8.652448963460159
 20
18.63513706734849
 30
0.0
  0
POINT
  5
202
330
1F6
100
AcDbEntity
  8
Defpoints
 62
     0
100
AcDbPoint
 10
7.950507529809325
 20
18.6351370673485
 30
0.0
  0
ENDBLK
  5
203
330
1F6
100
AcDbEntity
  8
0
100
AcDbBlockEnd
  0
BLOCK
  5
206
330
205
100
AcDbEntity
  8
0
100
AcDbBlockBegin
  2
*D10
 70
     1
 10
0.0
 20
0.0
 30
0.0
  3
*D10
  1

  0
LINE
  5
207
330
205
100
AcDbEntity
  8
0
 62
     0
370
    -2
100
AcDbLine
 10
10.34547578375205
 20
29.76067649640203
 30
0.0
 11
10.02473067687626
 21
29.76067649640203
 31
0.0
  0
LINE
  5
208
330
205
100
AcDbEntity
  8
0
 62
     0
370
    -2
100
AcDbLine
 10
10.34547578375205
 20
28.38546976011333
 30
0.0
 11
10.02473067687626
 21
28.38546976011333
 31
0.0
  0
LINE
  5
209
330
205
100
AcDbEntity
  8
0
 62
     0
370
    -2
100
AcDbLine
 10
10.05473067687626
 20
29.76067649640203
 30
0.0
 11
10.05473067687626
 21
29.27541761379904
 31
0.0
  0
LINE
  5
20A
330
205
100
AcDbEntity
  8
0
 62
     0
370
    -2
100
AcDbLine
 10
10.05473067687626
 20
28.38546976011333
 30
0.0
 11
10.05473067687626
 21
28.87072864271632
 31
0.0
  0
INSERT
  5
20B
330
205
100
AcDbEntity
  8
0
 62
     0
370
    -2
100
AcDbBlockReference
  2
_ArchTick
 10
10.05473067687626
 20
29.76067649640203
 30
0.0
 41
0.156
 42
0.156
 43
0.156
 50
90.0
  0
INSERT
  5
20C
330
205
100
AcDbEntity
  8
0
 62
     0
370
    -2
100
AcDbBlockReference
  2
_ArchTick
 10
10.05473067687626
 20
28.38546976011333
 30
0.0
 41
0.156
 42
0.156
 43
0.156
 50
270.0
  0
MTEXT
  5
20D
330
205
100
AcDbEntity
  8
0
 62
     0
100
AcDbMText
 10
10.05473067687625
 20
29.07307312825768
 30
0.0
 40
0.3125
 41
0.0
 71
     5
 72
     1
  1
\A1;DAYLIGHT OPENING
 73
     1
 44
1.0
1001
ACAD
1000
MTEXTBEGIN
1070
    73
1070
     1
1070
    44
1040
1.0
1070
    74
1070
     0
1000
MTEXTEND
  0
POINT
  5
20E
330
205
100
AcDbEntity
  8
Defpoints
 62
     0
100
AcDbPoint
 10
10.38547578375205
 20
29.76067649640203
 30
0.0
  0
POINT
  5
20F
330
205
100
AcDbEntity
  8
Defpoints
 62
     0
100
AcDbPoint
 10
10.38547578375205
 20
28.38546976011333
 30
0.0
  0
POINT
  5
210
330
205
100
AcDbEntity
  8
Defpoints
 62
     0
100
AcDbPoint
 10
10.05473067687626
 20
28.38546976011333
 30
0.0
  0
ENDBLK
  5
211
330
205
100
AcDbEntity
  8
0
100
AcDbBlockEnd
  0
BLOCK
  5
216
330
215
100
AcDbEntity
  8
0
100
AcDbBlockBegin
  2
*D11
 70
     1
 10
0.0
 20
0.0
 30
0.0
  3
*D11
  1

  0
LINE
  5
217
330
215
100
AcDbEntity
  8
0
 62
     0
370
    -2
100
AcDbLine
 10
12.50219896346135
 20
32.37800918917339
 30
0.0
 11
12.50219896346135
 21
32.42655896675981
 31
0.0
  0
LINE
  5
218
330
215
100
AcDbEntity
  8
0
 62
     0
370
    -2
100
AcDbLine
 10
14.25219896346135
 20
32.37800918917339
 30
0.0
 11
14.25219896346135
 21
32.42655896675981
 31
0.0
  0
LINE
  5
219
330
215
100
AcDbEntity
  8
0
 62
     0
370
    -2
100
AcDbLine
 10
12.50219896346135
 20
32.39655896675981
 30
0.0
 11
12.93426070544339
 21
32.39655896675981
 31
0.0
  0
LINE
  5
21A
330
215
100
AcDbEntity
  8
0
 62
     0
370
    -2
100
AcDbLine
 10
14.25219896346135
 20
32.39655896675981
 30
0.0
 11
13.82013722147931
 21
32.39655896675981
 31
0.0
  0
INSERT
  5
21B
330
215
100
AcDbEntity
  8
0
 62
     0
370
    -2
100
AcDbBlockReference
  2
_ArchTick
 10
12.50219896346135
 20
32.39655896675981
 30
0.0
 41
0.156
 42
0.156
 43
0.156
 50
180.0
  0
INSERT
  5
21C
330
215
100
AcDbEntity
  8
0
 62
     0
370
    -2
100
AcDbBlockReference
  2
_ArchTick
 10
14.25219896346135
 20
32.39655896675981
 30
0.0
 41
0.156
 42
0.156
 43
0.156
  0
MTEXT
  5
21D
330
215
100
AcDbEntity
  8
0
 62
     0
100
AcDbMText
 10
13.37719896346135
 20
32.59890345230117
 30
0.0
 40
0.3125
 41
0.0
 71
     5
 72
     1
  1
\A1;1 3/4"
 73
     1
 44
1.0
1001
ACAD
1000
MTEXTBEGIN
1070
    73
1070
     1
1070
    44
1040
1.0
1070
    74
1070
     0
1000
MTEXTEND
  0
MTEXT
  5
21E
330
215
100
AcDbEntity
  8
0
 62
     0
100
AcDbMText
 10
13.37719896346135
 20
32.17666656595282
 30
0.0
 40
0.3125
 41
0.0
 71
     5
 72
     1
  1
\A1;[44mm]
 73
     1
 44
1.0
1001
ACAD
1000
MTEXTBEGIN
1070
    73
1070
     1
1070
    44
1040
1.0
1070
    74
1070
     0
1000
MTEXTEND
  0
POINT
  5
21F
330
215
100
AcDbEntity
  8
Defpoints
 62
     0
100
AcDbPoint
 10
12.50219896346135
 20
32.33800918917339
 30
0.0
  0
POINT
  5
220
330
215
100
AcDbEntity
  8
Defpoints
 62
     0
100
AcDbPoint
 10
14.25219896346135
 20
32.33800918917339
 30
0.0
  0
POINT
  5
221
330
215
100
AcDbEntity
  8
Defpoints
 62
     0
100
AcDbPoint
 10
14.25219896346135
 20
32.39655896675981
 30
0.0
  0
ENDBLK
  5
222
330
215
100
AcDbEntity
  8
0
100
AcDbBlockEnd
  0
BLOCK
  5
227
330
226
100
AcDbEntity
  8
0
100
AcDbBlockBegin
  2
*D12
 70
     1
 10
0.0
 20
0.0
 30
0.0
  3
*D12
  1

  0
LINE
  5
228
330
226
100
AcDbEntity
  8
0
 62
     0
370
    -2
100
AcDbLine
 10
11.09067836968142
 20
35.16601472167872
 30
0.0
 11
11.08554806961208
 21
35.16601472167872
 31
0.0
  0
LINE
  5
229
330
226
100
AcDbEntity
  8
0
 62
     0
370
    -2
100
AcDbLine
 10
11.09067525291754
 20
33.97800631829133
 30
0.0
 11
11.08554806961208
 21
33.97800631829133
 31
0.0
  0
LINE
  5
22A
330
226
100
AcDbEntity
  8
0
 62
     0
370
    -2
100
AcDbLine
 10
11.05554806961208
 20
35.16601472167872
 30
0.0
 11
11.05554806961208
 21
34.99424740633338
 31
0.0
  0
LINE
  5
22B
330
226
100
AcDbEntity
  8
0
 62
     0
370
    -2
100
AcDbLine
 10
11.05554806961208
 20
33.97800631829133
 30
0.0
 11
11.05554806961208
 21
34.14977363363668
 31
0.0
  0
INSERT
  5
22C
330
226
100
AcDbEntity
  8
0
 62
     0
370
    -2
100
AcDbBlockReference
  2
_ArchTick
 10
11.05554806961208
 20
35.16601472167872
 30
0.0
 41
0.156
 42
0.156
 43
0.156
 50
90.0
  0
INSERT
  5
22D
330
226
100
AcDbEntity
  8
0
 62
     0
370
    -2
100
AcDbBlockReference
  2
_ArchTick
 10
11.05554806961208
 20
33.97800631829133
 30
0.0
 41
0.156
 42
0.156
 43
0.156
 50
270.0
  0
MTEXT
  5
22E
330
226
100
AcDbEntity
  8
0
 62
     0
100
AcDbMText
 10
11.05554806961208
 20
34.77435500552639
 30
0.0
 40
0.3125
 41
0.0
 71
     5
 72
     1
  1
\A1;1 3/16"
 73
     1
 44
1.0
1001
ACAD
1000
MTEXTBEGIN
1070
    73
1070
     1
1070
    44
1040
1.0
1070
    74
1070
     0
1000
MTEXTEND
  0
MTEXT
  5
22F
330
226
100
AcDbEntity
  8
0
 62
     0
100
AcDbMText
 10
11.05554806961208
 20
34.35211811917804
 30
0.0
 40
0.3125
 41
0.0
 71
     5
 72
     1
  1
\A1;[30mm]
 73
     1
 44
1.0
1001
ACAD
1000
MTEXTBEGIN
1070
    73
1070
     1
1070
    44
1040
1.0
1070
    74
1070
     0
1000
MTEXTEND
  0
POINT
  5
230
330
226
100
AcDbEntity
  8
Defpoints
 62
     0
100
AcDbPoint
 10
11.05067836968142
 20
35.16601472167872
 30
0.0
  0
POINT
  5
231
330
226
100
AcDbEntity
  8
Defpoints
 62
     0
100
AcDbPoint
 10
11.05067525291755
 20
33.97800631829133
 30
0.0
  0
POINT
  5
232
330
226
100
AcDbEntity
  8
Defpoints
 62
     0
100
AcDbPoint
 10
11.05554806961208
 20
33.97800631829133
 30
0.0
  0
ENDBLK
  5
233
330
226
100
AcDbEntity
  8
0
100
AcDbBlockEnd
  0
BLOCK
  5
238
330
237
100
AcDbEntity
  8
0
100
AcDbBlockBegin
  2
*D13
 70
     1
 10
0.0
 20
0.0
 30
0.0
  3
*D13
  1

  0
LINE
  5
239
330
237
100
AcDbEntity
  8
0
 62
     0
370
    -2
100
AcDbLine
 10
12.16719896346129
 20
34.47800365666803
 30
0.0
 11
12.95464273966325
 21
34.47800365666803
 31
0.0
  0
LINE
  5
23A
330
237
100
AcDbEntity
  8
0
 62
     0
370
    -2
100
AcDbLine
 10
12.79417775170342
 20
35.16601472167872
 30
0.0
 11
12.95464273966325
 21
35.16601472167872
 31
0.0
  0
LINE
  5
23B
330
237
100
AcDbEntity
  8
0
 62
     0
370
    -2
100
AcDbLine
 10
12.92464273966325
 20
34.47800365666803
 30
0.0
 11
12.92464273966325
 21
35.16601472167872
 31
0.0
  0
LINE
  5
23C
330
237
100
AcDbEntity
  8
0
 62
     0
370
    -2
100
AcDbLine
 10
12.92464273966325
 20
35.16601472167872
 30
0.0
 11
12.92464273966325
 21
35.6648162856797
 31
0.0
  0
LINE
  5
23D
330
237
100
AcDbEntity
  8
0
 62
     0
370
    -2
100
AcDbLine
 10
12.92464273966325
 20
35.6648162856797
 30
0.0
 11
13.08064273966325
 21
35.6648162856797
 31
0.0
  0
INSERT
  5
23E
330
237
100
AcDbEntity
  8
0
 62
     0
370
    -2
100
AcDbBlockReference
  2
_ArchTick
 10
12.92464273966325
 20
34.47800365666803
 30
0.0
 41
0.156
 42
0.156
 43
0.156
 50
270.0
  0
INSERT
  5
23F
330
237
100
AcDbEntity
  8
0
 62
     0
370
    -2
100
AcDbBlockReference
  2
_ArchTick
 10
12.92464273966325
 20
35.16601472167872
 30
0.0
 41
0.156
 42
0.156
 43
0.156
 50
90.0
  0
MTEXT
  5
240
330
237
100
AcDbEntity
  8
0
 62
     0
100
AcDbMText
 10
13.61116819281155
 20
35.6648162856797
 30
0.0
 40
0.3125
 41
0.0
 71
     5
 72
     1
  1
\A1;11/16"\P [17mm]
 73
     1
 44
1.0
1001
ACAD
1000
MTEXTBEGIN
1070
    73
1070
     1
1070
    44
1040
1.0
1070
    74
1070
     0
1000
MTEXTEND
  0
POINT
  5
241
330
237
100
AcDbEntity
  8
Defpoints
 62
     0
100
AcDbPoint
 10
12.12719896346129
 20
34.47800365666803
 30
0.0
  0
POINT
  5
242
330
237
100
AcDbEntity
  8
Defpoints
 62
     0
100
AcDbPoint
 10
12.75417775170342
 20
35.16601472167872
 30
0.0
  0
POINT
  5
243
330
237
100
AcDbEntity
  8
Defpoints
 62
     0
100
AcDbPoint
 10
12.92464273966325
 20
35.16601472167872
 30
0.0
  0
ENDBLK
  5
244
330
237
100
AcDbEntity
  8
0
100
AcDbBlockEnd
  0
BLOCK
  5
247
330
246
100
AcDbEntity
  8
0
100
AcDbBlockBegin
  2
*D14
 70
     1
 10
0.0
 20
0.0
 30
0.0
  3
*D14
  1

  0
LINE
  5
248
330
246
100
AcDbEntity
  8
0
 62
     0
370
    -2
100
AcDbLine
 10
14.29219896346135
 20
35.16601472167872
 30
0.0
 11
15.8017241210903
 21
35.16601472167872
 31
0.0
  0
LINE
  5
249
330
246
100
AcDbEntity
  8
0
 62
     0
370
    -2
100
AcDbLine
 10
14.29219896346135
 20
35.91601472167872
 30
0.0
 11
15.8017241210903
 21
35.91601472167872
 31
0.0
  0
LINE
  5
24A
330
246
100
AcDbEntity
  8
0
 62
     0
370
    -2
100
AcDbLine
 10
15.7717241210903
 20
35.16601472167872
 30
0.0
 11
15.7717241210903
 21
35.91601472167872
 31
0.0
  0
LINE
  5
24B
330
246
100
AcDbEntity
  8
0
 62
     0
370
    -2
100
AcDbLine
 10
15.7717241210903
 20
35.91601472167872
 30
0.0
 11
15.7717241210903
 21
36.53945517436119
 31
0.0
  0
LINE
  5
24C
330
246
100
AcDbEntity
  8
0
 62
     0
370
    -2
100
AcDbLine
 10
15.7717241210903
 20
36.53945517436119
 30
0.0
 11
15.9277241210903
 21
36.53945517436119
 31
0.0
  0
INSERT
  5
24D
330
246
100
AcDbEntity
  8
0
 62
     0
370
    -2
100
AcDbBlockReference
  2
_ArchTick
 10
15.7717241210903
 20
35.16601472167872
 30
0.0
 41
0.156
 42
0.156
 43
0.156
 50
270.0
  0
INSERT
  5
24E
330
246
100
AcDbEntity
  8
0
 62
     0
370
    -2
100
AcDbBlockReference
  2
_ArchTick
 10
15.7717241210903
 20
35.91601472167872
 30
0.0
 41
0.156
 42
0.156
 43
0.156
 50
90.0
  0
MTEXT
  5
24F
330
246
100
AcDbEntity
  8
0
 62
     0
100
AcDbMText
 10
16.45824957423859
 20
36.53945517436119
 30
0.0
 40
0.3125
 41
0.0
 71
     5
 72
     1
  1
\A1;3/4"\P [19mm]
 73
     1
 44
1.0
1001
ACAD
1000
MTEXTBEGIN
1070
    73
1070
     1
1070
    44
1040
1.0
1070
    74
1070
     0
1000
MTEXTEND
  0
POINT
  5
250
330
246
100
AcDbEntity
  8
Defpoints
 62
     0
100
AcDbPoint
 10
14.25219896346135
 20
35.16601472167872
 30
0.0
  0
POINT
  5
251
330
246
100
AcDbEntity
  8
Defpoints
 62
     0
100
AcDbPoint
 10
14.25219896346135
 20
35.91601472167872
 30
0.0
  0
POINT
  5
252
330
246
100
AcDbEntity
  8
Defpoints
 62
     0
100
AcDbPoint
 10
15.7717241210903
 20
35.91601472167872
 30
0.0
  0
ENDBLK
  5
253
330
246
100
AcDbEntity
  8
0
100
AcDbBlockEnd
  0
BLOCK
  5
256
330
255
100
AcDbEntity
  8
0
100
AcDbBlockBegin
  2
*D15
 70
     1
 10
0.0
 20
0.0
 30
0.0
  3
*D15
  1

  0
LINE
  5
257
330
255
100
AcDbEntity
  8
0
 62
     0
370
    -2
100
AcDbLine
 10
14.29219896346135
 20
35.91601472167872
 30
0.0
 11
17.50294435807953
 21
35.91601472167872
 31
0.0
  0
LINE
  5
258
330
255
100
AcDbEntity
  8
0
 62
     0
370
    -2
100
AcDbLine
 10
14.54219896346138
 20
18.63513706734849
 30
0.0
 11
17.50294435807953
 21
18.63513706734849
 31
0.0
  0
LINE
  5
259
330
255
100
AcDbEntity
  8
0
 62
     0
370
    -2
100
AcDbLine
 10
17.47294435807953
 20
35.91601472167872
 30
0.0
 11
17.47294435807953
 21
27.74138428949231
 31
0.0
  0
LINE
  5
25A
330
255
100
AcDbEntity
  8
0
 62
     0
370
    -2
100
AcDbLine
 10
17.47294435807953
 20
18.63513706734849
 30
0.0
 11
17.47294435807953
 21
26.8097674995349
 31
0.0
  0
INSERT
  5
25B
330
255
100
AcDbEntity
  8
0
 62
     0
370
    -2
100
AcDbBlockReference
  2
_ArchTick
 10
17.47294435807953
 20
35.91601472167872
 30
0.0
 41
0.156
 42
0.156
 43
0.156
 50
90.0
  0
INSERT
  5
25C
330
255
100
AcDbEntity
  8
0
 62
     0
370
    -2
100
AcDbBlockReference
  2
_ArchTick
 10
17.47294435807953
 20
18.63513706734849
 30
0.0
 41
0.156
 42
0.156
 43
0.156
 50
270.0
  0
MTEXT
  5
25D
330
255
100
AcDbEntity
  8
0
 62
     0
100
AcDbMText
 10
17.47294435807952
 20
27.27557589451361
 30
0.0
 40
0.3125
 41
0.0
 71
     5
 72
     1
  1
\A1;ROUGH\POPENING
 73
     1
 44
1.0
1001
ACAD
1000
MTEXTBEGIN
1070
    73
1070
     1
1070
    44
1040
1.0
1070
    74
1070
     0
1000
MTEXTEND
  0
POINT
  5
25E
330
255
100
AcDbEntity
  8
Defpoints
 62
     0
100
AcDbPoint
 10
14.25219896346135
 20
35.91601472167872
 30
0.0
  0
POINT
  5
25F
330
255
100
AcDbEntity
  8
Defpoints
 62
     0
100
AcDbPoint
 10
14.50219896346138
 20
18.63513706734849
 30
0.0
  0
POINT
  5
260
330
255
100
AcDbEntity
  8
Defpoints
 62
     0
100
AcDbPoint
 10
17.47294435807953
 20
18.63513706734849
 30
0.0
  0
ENDBLK
  5
261
330
255
100
AcDbEntity
  8
0
100
AcDbBlockEnd
  0
BLOCK
  5
266
330
265
100
AcDbEntity
  8
0
100
AcDbBlockBegin
  2
*D16
 70
     1
 10
0.0
 20
0.0
 30
0.0
  3
*D16
  1

  0
LINE
  5
267
330
265
100
AcDbEntity
  8
0
 62
     0
370
    -2
100
AcDbLine
 10
5.559466171462133
 20
14.12699553371745
 30
0.0
 11
5.559466171462133
 21
16.42079236791298
 31
0.0
  0
LINE
  5
268
330
265
100
AcDbEntity
  8
0
 62
     0
370
    -2
100
AcDbLine
 10
18.37034935830422
 20
14.12699553371745
 30
0.0
 11
18.37034935830422
 21
16.42079236791298
 31
0.0
  0
LINE
  5
269
330
265
100
AcDbEntity
  8
0
 62
     0
370
    -2
100
AcDbLine
 10
5.559466171462133
 20
16.39079236791298
 30
0.0
 11
11.72349207747719
 21
16.39079236791298
 31
0.0
  0
LINE
  5
26A
330
265
100
AcDbEntity
  8
0
 62
     0
370
    -2
100
AcDbLine
 10
18.37034935830422
 20
16.39079236791298
 30
0.0
 11
12.20632345228916
 21
16.39079236791298
 31
0.0
  0
INSERT
  5
26B
330
265
100
AcDbEntity
  8
0
 62
     0
370
    -2
100
AcDbBlockReference
  2
_ArchTick
 10
5.559466171462133
 20
16.39079236791298
 30
0.0
 41
0.156
 42
0.156
 43
0.156
 50
180.0
  0
INSERT
  5
26C
330
265
100
AcDbEntity
  8
0
 62
     0
370
    -2
100
AcDbBlockReference
  2
_ArchTick
 10
18.37034935830422
 20
16.39079236791298
 30
0.0
 41
0.156
 42
0.156
 43
0.156
  0
MTEXT
  5
26D
330
265
100
AcDbEntity
  8
0
 62
     0
100
AcDbMText
 10
11.96490776488318
 20
16.39079236791298
 30
0.0
 40
0.3125
 41
0.0
 71
     5
 72
     1
  1
\A1;BOX
 73
     1
 44
1.0
1001
ACAD
1000
MTEXTBEGIN
1070
    73
1070
     1
1070
    44
1040
1.0
1070
    74
1070
     0
1000
MTEXTEND
  0
POINT
  5
26E
330
265
100
AcDbEntity
  8
Defpoints
 62
     0
100
AcDbPoint
 10
5.559466171462133
 20
14.08699553371745
 30
0.0
  0
POINT
  5
26F
330
265
100
AcDbEntity
  8
Defpoints
 62
     0
100
AcDbPoint
 10
18.37034935830422
 20
14.08699553371745
 30
0.0
  0
POINT
  5
270
330
265
100
AcDbEntity
  8
Defpoints
 62
     0
100
AcDbPoint
 10
18.37034935830422
 20
16.39079236791298
 30
0.0
  0
ENDBLK
  5
271
330
265
100
AcDbEntity
  8
0
100
AcDbBlockEnd
  0
BLOCK
  5
276
330
275
100
AcDbEntity
  8
0
100
AcDbBlockBegin
  2
*D17
 70
     1
 10
0.0
 20
0.0
 30
0.0
  3
*D17
  1

  0
LINE
  5
277
330
275
100
AcDbEntity
  8
0
 62
     0
370
    -2
100
AcDbLine
 10
5.519466171462133
 20
14.08699553371745
 30
0.0
 11
4.323448597450098
 21
14.08699553371745
 31
0.0
  0
LINE
  5
278
330
275
100
AcDbEntity
  8
0
 62
     0
370
    -2
100
AcDbLine
 10
4.753466171462114
 20
9.586495533717439
 30
0.0
 11
4.323448597450096
 21
9.586495533717439
 31
0.0
  0
LINE
  5
279
330
275
100
AcDbEntity
  8
0
 62
     0
370
    -2
100
AcDbLine
 10
4.353448597450098
 20
14.08699553371745
 30
0.0
 11
4.353448597450097
 21
12.2589824200658
 31
0.0
  0
LINE
  5
27A
330
275
100
AcDbEntity
  8
0
 62
     0
370
    -2
100
AcDbLine
 10
4.353448597450096
 20
9.586495533717439
 30
0.0
 11
4.353448597450097
 21
11.41450864736909
 31
0.0
  0
INSERT
  5
27B
330
275
100
AcDbEntity
  8
0
 62
     0
370
    -2
100
AcDbBlockReference
  2
_ArchTick
 10
4.353448597450098
 20
14.08699553371745
 30
0.0
 41
0.156
 42
0.156
 43
0.156
 50
90.0
  0
INSERT
  5
27C
330
275
100
AcDbEntity
  8
0
 62
     0
370
    -2
100
AcDbBlockReference
  2
_ArchTick
 10
4.353448597450096
 20
9.586495533717439
 30
0.0
 41
0.156
 42
0.156
 43
0.156
 50
270.0
  0
MTEXT
  5
27D
330
275
100
AcDbEntity
  8
0
 62
     0
100
AcDbMText
 10
4.353448597450095
 20
12.03909001925881
 30
0.0
 40
0.3125
 41
0.0
 71
     5
 72
     1
  1
\A1;4 1/2"
 73
     1
 44
1.0
1001
ACAD
1000
MTEXTBEGIN
1070
    73
1070
     1
1070
    44
1040
1.0
1070
    74
1070
     0
1000
MTEXTEND
  0
MTEXT
  5
27E
330
275
100
AcDbEntity
  8
0
 62
     0
100
AcDbMText
 10
4.353448597450095
 20
11.61685313291045
 30
0.0
 40
0.3125
 41
0.0
 71
     5
 72
     1
  1
\A1;[114mm]
 73
     1
 44
1.0
1001
ACAD
1000
MTEXTBEGIN
1070
    73
1070
     1
1070
    44
1040
1.0
1070
    74
1070
     0
1000
MTEXTEND
  0
POINT
  5
27F
330
275
100
AcDbEntity
  8
Defpoints
 62
     0
100
AcDbPoint
 10
5.559466171462133
 20
14.08699553371745
 30
0.0
  0
POINT
  5
280
330
275
100
AcDbEntity
  8
Defpoints
 62
     0
100
AcDbPoint
 10
4.793466171462114
 20
9.586495533717439
 30
0.0
  0
POINT
  5
281
330
275
100
AcDbEntity
  8
Defpoints
 62
     0
100
AcDbPoint
 10
4.353448597450096
 20
9.586495533717439
 30
0.0
  0
ENDBLK
  5
282
330
275
100
AcDbEntity
  8
0
100
AcDbBlockEnd
  0
BLOCK
  5
287
330
286
100
AcDbEntity
  8
0
100
AcDbBlockBegin
  2
*D18
 70
     1
 10
0.0
 20
0.0
 30
0.0
  3
*D18
  1

  0
LINE
  5
288
330
286
100
AcDbEntity
  8
0
 62
     0
370
    -2
100
AcDbLine
 10
17.68234382579888
 20
12.95349553371745
 30
0.0
 11
17.68234382579888
 21
12.90142230057081
 31
0.0
  0
LINE
  5
289
330
286
100
AcDbEntity
  8
0
 62
     0
370
    -2
100
AcDbLine
 10
18.37034935830422
 20
12.95349553371745
 30
0.0
 11
18.37034935830422
 21
12.90142230057081
 31
0.0
  0
LINE
  5
28A
330
286
100
AcDbEntity
  8
0
 62
     0
370
    -2
100
AcDbLine
 10
17.68234382579888
 20
12.93142230057081
 30
0.0
 11
18.37034935830422
 21
12.93142230057081
 31
0.0
  0
LINE
  5
28B
330
286
100
AcDbEntity
  8
0
 62
     0
370
    -2
100
AcDbLine
 10
18.37034935830422
 20
12.93142230057081
 30
0.0
 11
18.52634935830423
 21
12.93142230057081
 31
0.0
  0
INSERT
  5
28C
330
286
100
AcDbEntity
  8
0
 62
     0
370
    -2
100
AcDbBlockReference
  2
_ArchTick
 10
17.68234382579888
 20
12.93142230057081
 30
0.0
 41
0.156
 42
0.156
 43
0.156
 50
180.0
  0
INSERT
  5
28D
330
286
100
AcDbEntity
  8
0
 62
     0
370
    -2
100
AcDbBlockReference
  2
_ArchTick
 10
18.37034935830422
 20
12.93142230057081
 30
0.0
 41
0.156
 42
0.156
 43
0.156
  0
MTEXT
  5
28E
330
286
100
AcDbEntity
  8
0
 62
     0
100
AcDbMText
 10
19.05687481145252
 20
12.93142230057081
 30
0.0
 40
0.3125
 41
0.0
 71
     5
 72
     1
  1
\A1;11/16"\P [17mm]
 73
     1
 44
1.0
1001
ACAD
1000
MTEXTBEGIN
1070
    73
1070
     1
1070
    44
1040
1.0
1070
    74
1070
     0
1000
MTEXTEND
  0
POINT
  5
28F
330
286
100
AcDbEntity
  8
Defpoints
 62
     0
100
AcDbPoint
 10
17.68234382579888
 20
12.99349553371745
 30
0.0
  0
POINT
  5
290
330
286
100
AcDbEntity
  8
Defpoints
 62
     0
100
AcDbPoint
 10
18.37034935830422
 20
12.99349553371745
 30
0.0
  0
POINT
  5
291
330
286
100
AcDbEntity
  8
Defpoints
 62
     0
100
AcDbPoint
 10
18.37034935830422
 20
12.93142230057081
 30
0.0
  0
ENDBLK
  5
292
330
286
100
AcDbEntity
  8
0
100
AcDbBlockEnd
  0
BLOCK
  5
297
330
296
100
AcDbEntity
  8
0
100
AcDbBlockBegin
  2
*D19
 70
     1
 10
0.0
 20
0.0
 30
0.0
  3
*D19
  1

  0
LINE
  5
298
330
296
100
AcDbEntity
  8
0
 62
     0
370
    -2
100
AcDbLine
 10
17.18234132739468
 20
10.78349545388942
 30
0.0
 11
17.18234132739468
 21
10.93567277464093
 31
0.0
  0
LINE
  5
299
330
296
100
AcDbEntity
  8
0
 62
     0
370
    -2
100
AcDbLine
 10
18.37034935830422
 20
10.92547493993752
 30
0.0
 11
18.37034935830422
 21
10.93567277464093
 31
0.0
  0
LINE
  5
29A
330
296
100
AcDbEntity
  8
0
 62
     0
370
    -2
100
AcDbLine
 10
17.18234132739468
 20
10.90567277464093
 30
0.0
 11
18.37034935830422
 21
10.90567277464093
 31
0.0
  0
LINE
  5
29B
330
296
100
AcDbEntity
  8
0
 62
     0
370
    -2
100
AcDbLine
 10
18.37034935830422
 20
10.90567277464093
 30
0.0
 11
18.52634935830423
 21
10.90567277464093
 31
0.0
  0
INSERT
  5
29C
330
296
100
AcDbEntity
  8
0
 62
     0
370
    -2
100
AcDbBlockReference
  2
_ArchTick
 10
17.18234132739468
 20
10.90567277464093
 30
0.0
 41
0.156
 42
0.156
 43
0.156
 50
180.0
  0
INSERT
  5
29D
330
296
100
AcDbEntity
  8
0
 62
     0
370
    -2
100
AcDbBlockReference
  2
_ArchTick
 10
18.37034935830422
 20
10.90567277464093
 30
0.0
 41
0.156
 42
0.156
 43
0.156
  0
MTEXT
  5
29E
330
296
100
AcDbEntity
  8
0
 62
     0
100
AcDbMText
 10
19.05687481145252
 20
10.90567277464093
 30
0.0
 40
0.3125
 41
0.0
 71
     5
 72
     1
  1
\A1;1 3/16"\P [30mm]
 73
     1
 44
1.0
1001
ACAD
1000
MTEXTBEGIN
1070
    73
1070
     1
1070
    44
1040
1.0
1070
    74
1070
     0
1000
MTEXTEND
  0
POINT
  5
29F
330
296
100
AcDbEntity
  8
Defpoints
 62
     0
100
AcDbPoint
 10
17.18234132739468
 20
10.74349545388942
 30
0.0
  0
POINT
  5
2A0
330
296
100
AcDbEntity
  8
Defpoints
 62
     0
100
AcDbPoint
 10
18.37034935830422
 20
10.88547493993752
 30
0.0
  0
POINT
  5
2A1
330
296
100
AcDbEntity
  8
Defpoints
 62
     0
100
AcDbPoint
 10
18.37034935830422
 20
10.90567277464093
 30
0.0
  0
ENDBLK
  5
2A2
330
296
100
AcDbEntity
  8
0
100
AcDbBlockEnd
  0
BLOCK
  5
2A7
330
2A6
100
AcDbEntity
  8
0
100
AcDbBlockBegin
  2
*D20
 70
     1
 10
0.0
 20
0.0
 30
0.0
  3
*D20
  1

  0
LINE
  5
2A8
330
2A6
100
AcDbEntity
  8
0
 62
     0
370
    -2
100
AcDbLine
 10
8.583081665418482
 20
14.08699553371747
 30
0.0
 11
9.125693033200859
 21
14.08699553371747
 31
0.0
  0
LINE
  5
2A9
330
2A6
100
AcDbEntity
  8
0
 62
     0
370
    -2
100
AcDbLine
 10
8.583081665418482
 20
12.33699553371745
 30
0.0
 11
9.125693033200859
 21
12.33699553371745
 31
0.0
  0
LINE
  5
2AA
330
2A6
100
AcDbEntity
  8
0
 62
     0
370
    -2
100
AcDbLine
 10
9.095693033200859
 20
14.08699553371747
 30
0.0
 11
9.095693033200859
 21
13.63423242006581
 31
0.0
  0
LINE
  5
2AB
330
2A6
100
AcDbEntity
  8
0
 62
     0
370
    -2
100
AcDbLine
 10
9.095693033200859
 20
12.33699553371745
 30
0.0
 11
9.095693033200859
 21
12.78975864736911
 31
0.0
  0
INSERT
  5
2AC
330
2A6
100
AcDbEntity
  8
0
 62
     0
370
    -2
100
AcDbBlockReference
  2
_ArchTick
 10
9.095693033200859
 20
14.08699553371747
 30
0.0
 41
0.156
 42
0.156
 43
0.156
 50
90.0
  0
INSERT
  5
2AD
330
2A6
100
AcDbEntity
  8
0
 62
     0
370
    -2
100
AcDbBlockReference
  2
_ArchTick
 10
9.095693033200859
 20
12.33699553371745
 30
0.0
 41
0.156
 42
0.156
 43
0.156
 50
270.0
  0
MTEXT
  5
2AE
330
2A6
100
AcDbEntity
  8
0
 62
     0
100
AcDbMText
 10
9.095693033200856
 20
13.41434001925882
 30
0.0
 40
0.3125
 41
0.0
 71
     5
 72
     1
  1
\A1;1 3/4"
 73
     1
 44
1.0
1001
ACAD
1000
MTEXTBEGIN
1070
    73
1070
     1
1070
    44
1040
1.0
1070
    74
1070
     0
1000
MTEXTEND
  0
MTEXT
  5
2AF
330
2A6
100
AcDbEntity
  8
0
 62
     0
100
AcDbMText
 10
9.095693033200856
 20
12.99210313291047
 30
0.0
 40
0.3125
 41
0.0
 71
     5
 72
     1
  1
\A1;[44mm]
 73
     1
 44
1.0
1001
ACAD
1000
MTEXTBEGIN
1070
    73
1070
     1
1070
    44
1040
1.0
1070
    74
1070
     0
1000
MTEXTEND
  0
POINT
  5
2B0
330
2A6
100
AcDbEntity
  8
Defpoints
 62
     0
100
AcDbPoint
 10
8.543081665418483
 20
14.08699553371747
 30
0.0
  0
POINT
  5
2B1
330
2A6
100
AcDbEntity
  8
Defpoints
 62
     0
100
AcDbPoint
 10
8.543081665418483
 20
12.33699553371745
 30
0.0
  0
POINT
  5
2B2
330
2A6
100
AcDbEntity
  8
Defpoints
 62
     0
100
AcDbPoint
 10
9.095693033200859
 20
12.33699553371745
 30
0.0
  0
ENDBLK
  5
2B3
330
2A6
100
AcDbEntity
  8
0
100
AcDbBlockEnd
  0
BLOCK
  5
2B6
330
2B5
100
AcDbEntity
  8
0
100
AcDbBlockBegin
  2
*D21
 70
     1
 10
0.0
 20
0.0
 30
0.0
  3
*D21
  1

  0
LINE
  5
2B7
330
2B5
100
AcDbEntity
  8
0
 62
     0
370
    -2
100
AcDbLine
 10
5.559466171462133
 20
14.12699553371745
 30
0.0
 11
5.559466171462133
 21
16.42079236791298
 31
0.0
  0
LINE
  5
2B8
330
2B5
100
AcDbEntity
  8
0
 62
     0
370
    -2
100
AcDbLine
 10
5.059466171462133
 20
14.12699553371745
 30
0.0
 11
5.059466171462133
 21
16.42079236791298
 31
0.0
  0
LINE
  5
2B9
330
2B5
100
AcDbEntity
  8
0
 62
     0
370
    -2
100
AcDbLine
 10
5.559466171462133
 20
16.39079236791298
 30
0.0
 11
5.059466171462133
 21
16.39079236791298
 31
0.0
  0
LINE
  5
2BA
330
2B5
100
AcDbEntity
  8
0
 62
     0
370
    -2
100
AcDbLine
 10
5.059466171462133
 20
16.39079236791298
 30
0.0
 11
4.903466171462133
 21
16.39079236791298
 31
0.0
  0
INSERT
  5
2BB
330
2B5
100
AcDbEntity
  8
0
 62
     0
370
    -2
100
AcDbBlockReference
  2
_ArchTick
 10
5.559466171462133
 20
16.39079236791298
 30
0.0
 41
0.156
 42
0.156
 43
0.156
  0
INSERT
  5
2BC
330
2B5
100
AcDbEntity
  8
0
 62
     0
370
    -2
100
AcDbBlockReference
  2
_ArchTick
 10
5.059466171462133
 20
16.39079236791298
 30
0.0
 41
0.156
 42
0.156
 43
0.156
 50
180.0
  0
MTEXT
  5
2BD
330
2B5
100
AcDbEntity
  8
0
 62
     0
100
AcDbMText
 10
4.46323388834634
 20
16.59313685345433
 30
0.0
 40
0.3125
 41
0.0
 71
     5
 72
     1
  1
\A1;1/2"
 73
     1
 44
1.0
1001
ACAD
1000
MTEXTBEGIN
1070
    73
1070
     1
1070
    44
1040
1.0
1070
    74
1070
     0
1000
MTEXTEND
  0
MTEXT
  5
2BE
330
2B5
100
AcDbEntity
  8
0
 62
     0
100
AcDbMText
 10
4.46323388834634
 20
16.17089996710598
 30
0.0
 40
0.3125
 41
0.0
 71
     5
 72
     1
  1
\A1;[13mm]
 73
     1
 44
1.0
1001
ACAD
1000
MTEXTBEGIN
1070
    73
1070
     1
1070
    44
1040
1.0
1070
    74
1070
     0
1000
MTEXTEND
  0
POINT
  5
2BF
330
2B5
100
AcDbEntity
  8
Defpoints
 62
     0
100
AcDbPoint
 10
5.559466171462133
 20
14.08699553371745
 30
0.0
  0
POINT
  5
2C0
330
2B5
100
AcDbEntity
  8
Defpoints
 62
     0
100
AcDbPoint
 10
5.059466171462133
 20
14.08699553371745
 30
0.0
  0
POINT
  5
2C1
330
2B5
100
AcDbEntity
  8
Defpoints
 62
     0
100
AcDbPoint
 10
5.059466171462133
 20
16.39079236791298
 30
0.0
  0
ENDBLK
  5
2C2
330
2B5
100
AcDbEntity
  8
0
100
AcDbBlockEnd
  0
BLOCK
  5
2C5
330
2C4
100
AcDbEntity
  8
0
100
AcDbBlockBegin
  2
*D22
 70
     1
 10
0.0
 20
0.0
 30
0.0
  3
*D22
  1

  0
LINE
  5
2C6
330
2C4
100
AcDbEntity
  8
0
 62
     0
370
    -2
100
AcDbLine
 10
18.37034935830422
 20
14.12699553371745
 30
0.0
 11
18.37034935830422
 21
16.42079236791298
 31
0.0
  0
LINE
  5
2C7
330
2C4
100
AcDbEntity
  8
0
 62
     0
370
    -2
100
AcDbLine
 10
18.87034935830422
 20
14.12699553371745
 30
0.0
 11
18.87034935830422
 21
16.42079236791298
 31
0.0
  0
LINE
  5
2C8
330
2C4
100
AcDbEntity
  8
0
 62
     0
370
    -2
100
AcDbLine
 10
18.37034935830422
 20
16.39079236791298
 30
0.0
 11
18.87034935830422
 21
16.39079236791298
 31
0.0
  0
LINE
  5
2C9
330
2C4
100
AcDbEntity
  8
0
 62
     0
370
    -2
100
AcDbLine
 10
18.87034935830422
 20
16.39079236791298
 30
0.0
 11
19.02634935830422
 21
16.39079236791298
 31
0.0
  0
INSERT
  5
2CA
330
2C4
100
AcDbEntity
  8
0
 62
     0
370
    -2
100
AcDbBlockReference
  2
_ArchTick
 10
18.37034935830422
 20
16.39079236791298
 30
0.0
 41
0.156
 42
0.156
 43
0.156
 50
180.0
  0
INSERT
  5
2CB
330
2C4
100
AcDbEntity
  8
0
 62
     0
370
    -2
100
AcDbBlockReference
  2
_ArchTick
 10
18.87034935830422
 20
16.39079236791298
 30
0.0
 41
0.156
 42
0.156
 43
0.156
  0
MTEXT
  5
2CC
330
2C4
100
AcDbEntity
  8
0
 62
     0
100
AcDbMText
 10
19.46658164142002
 20
16.59313685345433
 30
0.0
 40
0.3125
 41
0.0
 71
     5
 72
     1
  1
\A1;1/2"
 73
     1
 44
1.0
1001
ACAD
1000
MTEXTBEGIN
1070
    73
1070
     1
1070
    44
1040
1.0
1070
    74
1070
     0
1000
MTEXTEND
  0
MTEXT
  5
2CD
330
2C4
100
AcDbEntity
  8
0
 62
     0
100
AcDbMText
 10
19.46658164142002
 20
16.17089996710598
 30
0.0
 40
0.3125
 41
0.0
 71
     5
 72
     1
  1
\A1;[13mm]
 73
     1
 44
1.0
1001
ACAD
1000
MTEXTBEGIN
1070
    73
1070
     1
1070
    44
1040
1.0
1070
    74
1070
     0
1000
MTEXTEND
  0
POINT
  5
2CE
330
2C4
100
AcDbEntity
  8
Defpoints
 62
     0
100
AcDbPoint
 10
18.37034935830422
 20
14.08699553371745
 30
0.0
  0
POINT
  5
2CF
330
2C4
100
AcDbEntity
  8
Defpoints
 62
     0
100
AcDbPoint
 10
18.87034935830422
 20
14.08699553371745
 30
0.0
  0
POINT
  5
2D0
330
2C4
100
AcDbEntity
  8
Defpoints
 62
     0
100
AcDbPoint
 10
18.87034935830422
 20
16.39079236791298
 30
0.0
  0
ENDBLK
  5
2D1
330
2C4
100
AcDbEntity
  8
0
100
AcDbBlockEnd
  0
BLOCK
  5
2D4
330
2D3
100
AcDbEntity
  8
0
100
AcDbBlockBegin
  2
*D23
 70
     1
 10
0.0
 20
0.0
 30
0.0
  3
*D23
  1

  0
LINE
  5
2D5
330
2D3
100
AcDbEntity
  8
0
 62
     0
370
    -2
100
AcDbLine
 10
18.87034935830422
 20
14.12699553371745
 30
0.0
 11
18.87034935830422
 21
17.2971561012059
 31
0.0
  0
LINE
  5
2D6
330
2D3
100
AcDbEntity
  8
0
 62
     0
370
    -2
100
AcDbLine
 10
5.059466171462133
 20
14.12699553371745
 30
0.0
 11
5.059466171462133
 21
17.2971561012059
 31
0.0
  0
LINE
  5
2D7
330
2D3
100
AcDbEntity
  8
0
 62
     0
370
    -2
100
AcDbLine
 10
18.87034935830422
 20
17.2671561012059
 30
0.0
 11
12.49734429661102
 21
17.2671561012059
 31
0.0
  0
LINE
  5
2D8
330
2D3
100
AcDbEntity
  8
0
 62
     0
370
    -2
100
AcDbLine
 10
5.059466171462133
 20
17.2671561012059
 30
0.0
 11
11.43247123315533
 21
17.2671561012059
 31
0.0
  0
INSERT
  5
2D9
330
2D3
100
AcDbEntity
  8
0
 62
     0
370
    -2
100
AcDbBlockReference
  2
_ArchTick
 10
18.87034935830422
 20
17.2671561012059
 30
0.0
 41
0.156
 42
0.156
 43
0.156
  0
INSERT
  5
2DA
330
2D3
100
AcDbEntity
  8
0
 62
     0
370
    -2
100
AcDbBlockReference
  2
_ArchTick
 10
5.059466171462133
 20
17.2671561012059
 30
0.0
 41
0.156
 42
0.156
 43
0.156
 50
180.0
  0
MTEXT
  5
2DB
330
2D3
100
AcDbEntity
  8
0
 62
     0
100
AcDbMText
 10
11.96490776488318
 20
17.2671561012059
 30
0.0
 40
0.3125
 41
0.0
 71
     5
 72
     1
  1
\A1;ROUGH\POPENING
 73
     1
 44
1.0
1001
ACAD
1000
MTEXTBEGIN
1070
    73
1070
     1
1070
    44
1040
1.0
1070
    74
1070
     0
1000
MTEXTEND
  0
POINT
  5
2DC
330
2D3
100
AcDbEntity
  8
Defpoints
 62
     0
100
AcDbPoint
 10
18.87034935830422
 20
14.08699553371745
 30
0.0
  0
POINT
  5
2DD
330
2D3
100
AcDbEntity
  8
Defpoints
 62
     0
100
AcDbPoint
 10
5.059466171462133
 20
14.08699553371745
 30
0.0
  0
POINT
  5
2DE
330
2D3
100
AcDbEntity
  8
Defpoints
 62
     0
100
AcDbPoint
 10
5.059466171462133
 20
17.2671561012059
 30
0.0
  0
ENDBLK
  5
2DF
330
2D3
100
AcDbEntity
  8
0
100
AcDbBlockEnd
  0
BLOCK
  5
2E4
330
2E3
100
AcDbEntity
  8
0
100
AcDbBlockBegin
  2
*D24
 70
     1
 10
0.0
 20
0.0
 30
0.0
  3
*D24
  1

  0
LINE
  5
2E5
330
2E3
100
AcDbEntity
  8
0
 62
     0
370
    -2
100
AcDbLine
 10
6.372471703967505
 20
14.06499553371747
 30
0.0
 11
6.372471703967505
 21
14.70898592461795
 31
0.0
  0
LINE
  5
2E6
330
2E3
100
AcDbEntity
  8
0
 62
     0
370
    -2
100
AcDbLine
 10
10.96447170396749
 20
13.84695658659918
 30
0.0
 11
10.96447170396749
 21
14.70898592461795
 31
0.0
  0
LINE
  5
2E7
330
2E3
100
AcDbEntity
  8
0
 62
     0
370
    -2
100
AcDbLine
 10
6.372471703967505
 20
14.67898592461795
 30
0.0
 11
8.074810513871531
 21
14.67898592461795
 31
0.0
  0
LINE
  5
2E8
330
2E3
100
AcDbEntity
  8
0
 62
     0
370
    -2
100
AcDbLine
 10
10.96447170396749
 20
14.67898592461795
 30
0.0
 11
9.262132894063464
 21
14.67898592461795
 31
0.0
  0
INSERT
  5
2E9
330
2E3
100
AcDbEntity
  8
0
 62
     0
370
    -2
100
AcDbBlockReference
  2
_ArchTick
 10
6.372471703967505
 20
14.67898592461795
 30
0.0
 41
0.156
 42
0.156
 43
0.156
 50
180.0
  0
INSERT
  5
2EA
330
2E3
100
AcDbEntity
  8
0
 62
     0
370
    -2
100
AcDbBlockReference
  2
_ArchTick
 10
10.96447170396749
 20
14.67898592461795
 30
0.0
 41
0.156
 42
0.156
 43
0.156
  0
MTEXT
  5
2EB
330
2E3
100
AcDbEntity
  8
0
 62
     0
100
AcDbMText
 10
8.668471703967497
 20
14.8813304101593
 30
0.0
 40
0.3125
 41
0.0
 71
     5
 72
     1
  1
\A1;4 19/32"
 73
     1
 44
1.0
1001
ACAD
1000
MTEXTBEGIN
1070
    73
1070
     1
1070
    44
1040
1.0
1070
    74
1070
     0
1000
MTEXTEND
  0
MTEXT
  5
2EC
330
2E3
100
AcDbEntity
  8
0
 62
     0
100
AcDbMText
 10
8.668471703967497
 20
14.45909352381095
 30
0.0
 40
0.3125
 41
0.0
 71
     5
 72
     1
  1
\A1;[117mm]
 73
     1
 44
1.0
1001
ACAD
1000
MTEXTBEGIN
1070
    73
1070
     1
1070
    44
1040
1.0
1070
    74
1070
     0
1000
MTEXTEND
  0
POINT
  5
2ED
330
2E3
100
AcDbEntity
  8
Defpoints
 62
     0
100
AcDbPoint
 10
6.372471703967505
 20
14.02499553371747
 30
0.0
  0
POINT
  5
2EE
330
2E3
100
AcDbEntity
  8
Defpoints
 62
     0
100
AcDbPoint
 10
10.96447170396749
 20
13.80695658659918
 30
0.0
  0
POINT
  5
2EF
330
2E3
100
AcDbEntity
  8
Defpoints
 62
     0
100
AcDbPoint
 10
10.96447170396749
 20
14.67898592461795
 30
0.0
  0
ENDBLK
  5
2F0
330
2E3
100
AcDbEntity
  8
0
100
AcDbBlockEnd
  0
BLOCK
  5
2F3
330
2F2
100
AcDbEntity
  8
0
100
AcDbBlockBegin
  2
*D25
 70
     1
 10
0.0
 20
0.0
 30
0.0
  3
*D25
  1

  0
LINE
  5
2F4
330
2F2
100
AcDbEntity
  8
0
 62
     0
370
    -2
100
AcDbLine
 10
10.96447170396749
 20
13.84695658659918
 30
0.0
 11
10.96447170396749
 21
15.65243812840618
 31
0.0
  0
LINE
  5
2F5
330
2F2
100
AcDbEntity
  8
0
 62
     0
370
    -2
100
AcDbLine
 10
5.559466171462133
 20
14.12699553371745
 30
0.0
 11
5.559466171462133
 21
15.65243812840618
 31
0.0
  0
LINE
  5
2F6
330
2F2
100
AcDbEntity
  8
0
 62
     0
370
    -2
100
AcDbLine
 10
10.96447170396749
 20
15.62243812840619
 30
0.0
 11
8.850640240376042
 21
15.62243812840619
 31
0.0
  0
LINE
  5
2F7
330
2F2
100
AcDbEntity
  8
0
 62
     0
370
    -2
100
AcDbLine
 10
5.559466171462133
 20
15.62243812840619
 30
0.0
 11
7.673297635053581
 21
15.62243812840619
 31
0.0
  0
INSERT
  5
2F8
330
2F2
100
AcDbEntity
  8
0
 62
     0
370
    -2
100
AcDbBlockReference
  2
_ArchTick
 10
10.96447170396749
 20
15.62243812840619
 30
0.0
 41
0.156
 42
0.156
 43
0.156
  0
INSERT
  5
2F9
330
2F2
100
AcDbEntity
  8
0
 62
     0
370
    -2
100
AcDbBlockReference
  2
_ArchTick
 10
5.559466171462133
 20
15.62243812840619
 30
0.0
 41
0.156
 42
0.156
 43
0.156
 50
180.0
  0
MTEXT
  5
2FA
330
2F2
100
AcDbEntity
  8
0
 62
     0
100
AcDbMText
 10
8.261968937714812
 20
15.82478261394754
 30
0.0
 40
0.3125
 41
0.0
 71
     5
 72
     1
  1
\A1;5 13/32"
 73
     1
 44
1.0
1001
ACAD
1000
MTEXTBEGIN
1070
    73
1070
     1
1070
    44
1040
1.0
1070
    74
1070
     0
1000
MTEXTEND
  0
MTEXT
  5
2FB
330
2F2
100
AcDbEntity
  8
0
 62
     0
100
AcDbMText
 10
8.261968937714812
 20
15.40254572759919
 30
0.0
 40
0.3125
 41
0.0
 71
     5
 72
     1
  1
\A1;[137mm]
 73
     1
 44
1.0
1001
ACAD
1000
MTEXTBEGIN
1070
    73
1070
     1
1070
    44
1040
1.0
1070
    74
1070
     0
1000
MTEXTEND
  0
POINT
  5
2FC
330
2F2
100
AcDbEntity
  8
Defpoints
 62
     0
100
AcDbPoint
 10
10.96447170396749
 20
13.80695658659918
 30
0.0
  0
POINT
  5
2FD
330
2F2
100
AcDbEntity
  8
Defpoints
 62
     0
100
AcDbPoint
 10
5.559466171462133
 20
14.08699553371745
 30
0.0
  0
POINT
  5
2FE
330
2F2
100
AcDbEntity
  8
Defpoints
 62
     0
100
AcDbPoint
 10
5.559466171462133
 20
15.62243812840619
 30
0.0
  0
ENDBLK
  5
2FF
330
2F2
100
AcDbEntity
  8
0
100
AcDbBlockEnd
  0
BLOCK
  5
311
330
310
100
AcDbEntity
  8
0
100
AcDbBlockBegin
  2
*D26
 70
     1
 10
0.0
 20
0.0
 30
0.0
  3
*D26
  1

  0
LINE
  5
312
330
310
100
AcDbEntity
  8
0
 62
     0
370
    -2
100
AcDbLine
 10
12.96534382579887
 20
13.84695658659918
 30
0.0
 11
12.96534382579887
 21
15.65243812840618
 31
0.0
  0
LINE
  5
313
330
310
100
AcDbEntity
  8
0
 62
     0
370
    -2
100
AcDbLine
 10
18.37034935830422
 20
14.12699553371745
 30
0.0
 11
18.37034935830422
 21
15.65243812840618
 31
0.0
  0
LINE
  5
314
330
310
100
AcDbEntity
  8
0
 62
     0
370
    -2
100
AcDbLine
 10
12.96534382579887
 20
15.62243812840619
 30
0.0
 11
15.07917528939031
 21
15.62243812840619
 31
0.0
  0
LINE
  5
315
330
310
100
AcDbEntity
  8
0
 62
     0
370
    -2
100
AcDbLine
 10
18.37034935830422
 20
15.62243812840619
 30
0.0
 11
16.25651789471277
 21
15.62243812840619
 31
0.0
  0
INSERT
  5
316
330
310
100
AcDbEntity
  8
0
 62
     0
370
    -2
100
AcDbBlockReference
  2
_ArchTick
 10
12.96534382579887
 20
15.62243812840619
 30
0.0
 41
0.156
 42
0.156
 43
0.156
 50
180.0
  0
INSERT
  5
317
330
310
100
AcDbEntity
  8
0
 62
     0
370
    -2
100
AcDbBlockReference
  2
_ArchTick
 10
18.37034935830422
 20
15.62243812840619
 30
0.0
 41
0.156
 42
0.156
 43
0.156
  0
MTEXT
  5
318
330
310
100
AcDbEntity
  8
0
 62
     0
100
AcDbMText
 10
15.66784659205154
 20
15.82478261394754
 30
0.0
 40
0.3125
 41
0.0
 71
     5
 72
     1
  1
\A1;5 13/32"
 73
     1
 44
1.0
1001
ACAD
1000
MTEXTBEGIN
1070
    73
1070
     1
1070
    44
1040
1.0
1070
    74
1070
     0
1000
MTEXTEND
  0
MTEXT
  5
319
330
310
100
AcDbEntity
  8
0
 62
     0
100
AcDbMText
 10
15.66784659205154
 20
15.40254572759919
 30
0.0
 40
0.3125
 41
0.0
 71
     5
 72
     1
  1
\A1;[137mm]
 73
     1
 44
1.0
1001
ACAD
1000
MTEXTBEGIN
1070
    73
1070
     1
1070
    44
1040
1.0
1070
    74
1070
     0
1000
MTEXTEND
  0
POINT
  5
31A
330
310
100
AcDbEntity
  8
Defpoints
 62
     0
100
AcDbPoint
 10
12.96534382579887
 20
13.80695658659918
 30
0.0
  0
POINT
  5
31B
330
310
100
AcDbEntity
  8
Defpoints
 62
     0
100
AcDbPoint
 10
18.37034935830422
 20
14.08699553371745
 30
0.0
  0
POINT
  5
31C
330
310
100
AcDbEntity
  8
Defpoints
 62
     0
100
AcDbPoint
 10
18.37034935830422
 20
15.62243812840619
 30
0.0
  0
ENDBLK
  5
31D
330
310
100
AcDbEntity
  8
0
100
AcDbBlockEnd
  0
BLOCK
  5
302
330
301
100
AcDbEntity
  8
0
100
AcDbBlockBegin
  2
*D27
 70
     1
 10
0.0
 20
0.0
 30
0.0
  3
*D27
  1

  0
LINE
  5
303
330
301
100
AcDbEntity
  8
0
 62
     0
370
    -2
100
AcDbLine
 10
17.55734382579885
 20
14.06499553371747
 30
0.0
 11
17.55734382579885
 21
14.70898592461795
 31
0.0
  0
LINE
  5
304
330
301
100
AcDbEntity
  8
0
 62
     0
370
    -2
100
AcDbLine
 10
12.96534382579887
 20
13.84695658659918
 30
0.0
 11
12.96534382579887
 21
14.70898592461795
 31
0.0
  0
LINE
  5
305
330
301
100
AcDbEntity
  8
0
 62
     0
370
    -2
100
AcDbLine
 10
17.55734382579885
 20
14.67898592461795
 30
0.0
 11
15.85500501589482
 21
14.67898592461795
 31
0.0
  0
LINE
  5
306
330
301
100
AcDbEntity
  8
0
 62
     0
370
    -2
100
AcDbLine
 10
12.96534382579887
 20
14.67898592461795
 30
0.0
 11
14.66768263570289
 21
14.67898592461795
 31
0.0
  0
INSERT
  5
307
330
301
100
AcDbEntity
  8
0
 62
     0
370
    -2
100
AcDbBlockReference
  2
_ArchTick
 10
17.55734382579885
 20
14.67898592461795
 30
0.0
 41
0.156
 42
0.156
 43
0.156
  0
INSERT
  5
308
330
301
100
AcDbEntity
  8
0
 62
     0
370
    -2
100
AcDbBlockReference
  2
_ArchTick
 10
12.96534382579887
 20
14.67898592461795
 30
0.0
 41
0.156
 42
0.156
 43
0.156
 50
180.0
  0
MTEXT
  5
309
330
301
100
AcDbEntity
  8
0
 62
     0
100
AcDbMText
 10
15.26134382579886
 20
14.8813304101593
 30
0.0
 40
0.3125
 41
0.0
 71
     5
 72
     1
  1
\A1;4 19/32"
 73
     1
 44
1.0
1001
ACAD
1000
MTEXTBEGIN
1070
    73
1070
     1
1070
    44
1040
1.0
1070
    74
1070
     0
1000
MTEXTEND
  0
MTEXT
  5
30A
330
301
100
AcDbEntity
  8
0
 62
     0
100
AcDbMText
 10
15.26134382579886
 20
14.45909352381095
 30
0.0
 40
0.3125
 41
0.0
 71
     5
 72
     1
  1
\A1;[117mm]
 73
     1
 44
1.0
1001
ACAD
1000
MTEXTBEGIN
1070
    73
1070
     1
1070
    44
1040
1.0
1070
    74
1070
     0
1000
MTEXTEND
  0
POINT
  5
30B
330
301
100
AcDbEntity
  8
Defpoints
 62
     0
100
AcDbPoint
 10
17.55734382579885
 20
14.02499553371747
 30
0.0
  0
POINT
  5
30C
330
301
100
AcDbEntity
  8
Defpoints
 62
     0
100
AcDbPoint
 10
12.96534382579887
 20
13.80695658659918
 30
0.0
  0
POINT
  5
30D
330
301
100
AcDbEntity
  8
Defpoints
 62
     0
100
AcDbPoint
 10
12.96534382579887
 20
14.67898592461795
 30
0.0
  0
ENDBLK
  5
30E
330
301
100
AcDbEntity
  8
0
100
AcDbBlockEnd
  0
BLOCK
  5
322
330
321
100
AcDbEntity
  8
0
100
AcDbBlockBegin
  2
*D28
 70
     1
 10
0.0
 20
0.0
 30
0.0
  3
*D28
  1

  0
LINE
  5
323
330
321
100
AcDbEntity
  8
0
 62
     0
370
    -2
100
AcDbLine
 10
10.96447170396749
 20
13.84695658659918
 30
0.0
 11
10.96447170396749
 21
14.70898592461795
 31
0.0
  0
LINE
  5
324
330
321
100
AcDbEntity
  8
0
 62
     0
370
    -2
100
AcDbLine
 10
12.9653438257989
 20
13.84695658659978
 30
0.0
 11
12.9653438257989
 21
14.70898592461795
 31
0.0
  0
LINE
  5
325
330
321
100
AcDbEntity
  8
0
 62
     0
370
    -2
100
AcDbLine
 10
10.96447170396749
 20
14.67898592461795
 30
0.0
 11
11.36483160336826
 21
14.67898592461795
 31
0.0
  0
LINE
  5
326
330
321
100
AcDbEntity
  8
0
 62
     0
370
    -2
100
AcDbLine
 10
12.9653438257989
 20
14.67898592461795
 30
0.0
 11
12.56498392639812
 21
14.67898592461795
 31
0.0
  0
INSERT
  5
327
330
321
100
AcDbEntity
  8
0
 62
     0
370
    -2
100
AcDbBlockReference
  2
_ArchTick
 10
10.96447170396749
 20
14.67898592461795
 30
0.0
 41
0.156
 42
0.156
 43
0.156
 50
180.0
  0
INSERT
  5
328
330
321
100
AcDbEntity
  8
0
 62
     0
370
    -2
100
AcDbBlockReference
  2
_ArchTick
 10
12.9653438257989
 20
14.67898592461795
 30
0.0
 41
0.156
 42
0.156
 43
0.156
  0
MTEXT
  5
329
330
321
100
AcDbEntity
  8
0
 62
     0
100
AcDbMText
 10
11.96490776488319
 20
14.67898592461795
 30
0.0
 40
0.3125
 41
0.0
 71
     5
 72
     1
  1
\A1;DAYLIGHT\POPENING
 73
     1
 44
1.0
1001
ACAD
1000
MTEXTBEGIN
1070
    73
1070
     1
1070
    44
1040
1.0
1070
    74
1070
     0
1000
MTEXTEND
  0
POINT
  5
32A
330
321
100
AcDbEntity
  8
Defpoints
 62
     0
100
AcDbPoint
 10
10.96447170396749
 20
13.80695658659918
 30
0.0
  0
POINT
  5
32B
330
321
100
AcDbEntity
  8
Defpoints
 62
     0
100
AcDbPoint
 10
12.9653438257989
 20
13.80695658659978
 30
0.0
  0
POINT
  5
32C
330
321
100
AcDbEntity
  8
Defpoints
 62
     0
100
AcDbPoint
 10
12.9653438257989
 20
14.67898592461795
 30
0.0
  0
ENDBLK
  5
32D
330
321
100
AcDbEntity
  8
0
100
AcDbBlockEnd
  0
ENDSEC
  0
SECTION
  2
ENTITIES
  0
LWPOLYLINE
  5
6A
102
{ACAD_REACTORS
330
214
102
}
330
2
100
AcDbEntity
  8
0
  6
Continuous
100
AcDbPolyline
 90
       19
 70
     1
 43
0.0
 10
13.87719896346138
 20
30.07350918917339
 10
13.87719896346138
 20
30.32317649640203
 10
13.69019896346137
 20
30.32317649640203
 10
13.69019896346137
 20
30.4230091891734
 42
1.045128398166766
 10
13.50360701271316
 20
30.41376770482634
 42
-0.4419056050544676
 10
13.42097042617388
 20
30.32300918917338
 10
12.56419896346136
 20
30.32300918917338
 10
12.50219896346135
 20
30.38500918917339
 10
12.50219896346135
 20
34.2910091891734
 42
-0.4142135623730951
 10
12.56419896346136
 20
34.35300918917338
 10
14.19019896346137
 20
34.35300918917338
 42
-0.4142135623730951
 10
14.25219896346135
 20
34.2910091891734
 10
14.25219896346135
 20
30.07378926627144
 10
14.19019896346137
 20
30.01178926627142
 10
14.15716001634308
 20
30.01178926627142
 42
-0.3899024490717814
 10
13.97216001634308
 20
29.81061641494426
 10
13.97216001634308
 20
29.76100918917337
 10
13.87719896346135
 20
29.76100918917339
 10
13.87719896346135
 20
29.8860091891734
 42
0.7066666666666829
  0
LWPOLYLINE
  5
6B
102
{ACAD_REACTORS
330
193
330
225
330
236
102
}
330
2
100
AcDbEntity
  8
0
  6
Continuous
100
AcDbPolyline
 90
       26
 70
     0
 43
0.0
 10
14.19019896346137
 20
34.47801472167873
 10
12.12719896346129
 20
34.47800365666803
 10
12.12719896346129
 20
34.41600365666801
 10
11.63523113420575
 20
34.41600365666801
 10
11.63523113420575
 20
34.29100365666801
 10
12.12719896346135
 20
34.29100365666801
 10
12.12719896346129
 20
34.04000365666801
 42
-0.4142135623730951
 10
12.06519896346128
 20
33.97800365666802
 10
9.752198803805356
 20
33.97800972487033
 42
-0.4142128141791537
 10
9.689698963461268
 20
34.04050972487011
 10
9.689698963461268
 20
34.82301472625454
 42
1.000000000000008
 10
9.689698963461268
 20
35.04101472625456
 10
9.689698963461268
 20
35.11601472167871
 10
10.37669896346128
 20
35.11601472167871
 10
10.37669896346128
 20
35.16601472167872
 10
10.59514169052929
 20
35.16601472167872
 42
0.9999999999999998
 10
10.84514169052929
 20
35.16601472167872
 10
11.25621504883355
 20
35.16601472167872
 42
0.9999999999999998
 10
11.50621504883355
 20
35.16601472167872
 10
11.75621504883355
 20
35.16601472167872
 42
0.9999999999999998
 10
12.00621504883355
 20
35.16601472167872
 10
13.50214045457329
 20
35.16601472167872
 42
0.9999999999999998
 10
13.75214045457329
 20
35.16601472167872
 10
14.25219896346135
 20
35.16601472167872
 10
14.25219896346135
 20
34.54051472167873
 42
-0.4142135623730951
 10
14.18969896346135
 20
34.47801472167873
  0
LWPOLYLINE
  5
6C
102
{ACAD_REACTORS
330
1E5
102
}
330
2
100
AcDbEntity
  8
0
100
AcDbPolyline
 90
       48
 70
     1
 43
0.0
 10
8.689175993537759
 20
19.44684829088984
 42
0.3099869661589099
 10
8.82757711632334
 20
19.5232920289902
 42
0.6346282874007124
 10
8.768718086822303
 20
19.54494467065271
 42
-0.2491068491705158
 10
8.692594852028236
 20
19.50450988300983
 10
8.652448963460159
 20
19.50450988300983
 42
-0.4142135623730951
 10
8.621198963452883
 20
19.53575988300983
 10
8.621198963452883
 20
19.55009301763968
 10
8.621198963452883
 20
19.60108363074798
 42
-0.3892015183906261
 10
8.64953176873098
 20
19.63196867685889
 10
13.64395219671562
 20
20.06328070140146
 42
0.3892015181633394
 10
13.67319896346347
 20
20.09516203930704
 10
13.67319896346347
 20
20.16988706734011
 42
0.4142135623730951
 10
13.64194896344892
 20
20.20113706734012
 10
13.58919896345364
 20
20.20113706734012
 42
-0.4142135623731034
 10
13.55819896345096
 20
20.23213706733188
 42
-0.4142135623730867
 10
13.58919896345364
 20
20.26313706734183
 10
13.70394896346155
 20
20.26313706734183
 42
-0.4142135623730951
 10
13.73519896346155
 20
20.23188706733092
 10
13.73519896346155
 20
20.03828551976832
 42
-0.3892015181726193
 10
13.70595219671256
 20
20.00640418186251
 10
13.37119896346016
 20
19.97749530308803
 10
13.37119896346016
 20
19.72813706734197
 10
13.30919896346208
 20
19.72813706734197
 10
13.30919896346208
 20
19.97214105910163
 10
12.68419896343297
 20
19.91816682540158
 10
12.68419896343297
 20
19.72813706734197
 10
12.62219896347128
 20
19.72813706734197
 10
12.62219896347128
 20
19.91281258140836
 10
8.904332862831523
 20
19.59174222341033
 42
-0.4513779684185582
 10
8.683198963458238
 20
19.38513706734849
 10
8.683198963458238
 20
18.97913706734945
 10
8.745198963463593
 20
18.97913706734945
 42
-0.4142135623730951
 10
8.870198963441765
 20
18.85413706734945
 10
8.870198963441765
 20
18.69713706735021
 10
9.152198963462836
 20
18.69713706735021
 42
-0.9999999999999998
 10
9.152198963462836
 20
18.63513706734849
 10
8.652448963460159
 20
18.63513706734849
 42
-0.4142135623730951
 10
8.621198963452883
 20
18.66638706734849
 10
8.621198963452883
 20
18.76013706734849
 42
-0.9999999999999998
 10
8.683198963458238
 20
18.76013706734849
 10
8.683198963458238
 20
18.6981370673395
 10
8.808198963450962
 20
18.6981370673395
 10
8.808198963450962
 20
18.85463706735137
 42
0.4142135623730951
 10
8.745698963443686
 20
18.91713706735137
 10
8.652448963460159
 20
18.91713706735137
 42
-0.4142135623730951
 10
8.621198963452883
 20
18.94838706735137
 10
8.621198963452883
 20
19.41584829089444
 42
-0.4142135623730951
 10
8.652198963462836
 20
19.44684829088984
  0
LWPOLYLINE
  5
6D
102
{ACAD_REACTORS
330
1A5
102
}
330
2
100
AcDbEntity
  8
0
100
AcDbPolyline
 90
        6
 70
     1
 43
0.0
 10
14.25219896346138
 20
20.01082311385946
 10
14.34519896346941
 20
20.01082311385946
 10
14.4711989634587
 20
19.93807697994381
 42
-0.2679491924311338
 10
14.50219896346138
 20
19.88438340489776
 10
14.50219896346138
 20
18.63513706734849
 10
14.25219896346138
 20
18.63513706734849
  0
LWPOLYLINE
  5
6E
330
2
100
AcDbEntity
  8
0
100
AcDbPolyline
 90
       16
 70
     1
 43
0.0
 10
14.25219896346138
 20
19.5246370673419
 10
14.25219896346138
 20
18.74413706734523
 10
14.06513014280685
 20
18.74413706734523
 10
14.00219896346138
 20
18.63513706734849
 10
9.550198963478436
 20
18.63513706734849
 42
-0.414213562373095
 10
9.488198963458529
 20
18.69713706735021
 10
9.488198963458529
 20
18.91613706734026
 10
9.238198963458529
 20
18.91613706734026
 10
9.238198963458529
 20
18.77713706734832
 42
-0.4142135623730951
 10
9.176198963475002
 20
18.71513706733933
 10
8.902198963470112
 20
18.71513706733933
 10
8.902198963470112
 20
19.52813706734852
 10
11.40219896347011
 20
19.72813706734197
 10
13.94069896346863
 20
19.72813706734197
 42
-0.4142135623730951
 10
14.00269896346864
 20
19.66613706734207
 10
14.00269896346864
 20
19.5246370673419
  0
LWPOLYLINE
  5
6F
330
2
100
AcDbEntity
  8
0
  6
Continuous
100
AcDbPolyline
 90
       13
 70
     1
 43
0.0
 10
13.59519896346137
 20
20.32113706734197
 42
0.4142135623730951
 10
13.53319896346136
 20
20.25913706734195
 10
13.53319896346136
 20
20.05884554722098
 10
12.54038359870205
 20
19.98070928345271
 42
-0.5289142198612735
 10
12.52421541351938
 20
20.00085442467858
 10
12.67567735514174
 20
20.49626411303478
 42
-0.329750547140315
 10
12.73496825001143
 20
20.54013706734196
 10
14.1901989634614
 20
20.54013706734196
 42
-0.4142135623730951
 10
14.25219896346138
 20
20.47813706734197
 10
14.25219896346138
 20
19.72813706734197
 10
13.75219896346138
 20
19.72813706734197
 10
13.75219896346138
 20
20.25913706734195
 42
0.4142135623730956
 10
13.6901989634614
 20
20.32113706734197
  0
LWPOLYLINE
  5
70
330
2
100
AcDbEntity
  8
0
  6
Continuous
100
AcDbPolyline
 90
        7
 70
     1
 43
0.0
 10
11.87719896346135
 20
20.75913706734278
 10
11.87719896346135
 20
21.68763820342625
 42
-0.3738846794848032
 10
11.98480232584165
 20
21.81142171201932
 10
12.50219896346135
 20
21.88413706734278
 10
12.50219896346135
 20
21.07213706734197
 10
12.3461989634614
 20
21.07213706734197
 10
12.0331989634613
 20
20.75913706734278
  0
LWPOLYLINE
  5
71
102
{ACAD_REACTORS
330
1D4
330
1F5
102
}
330
2
100
AcDbEntity
  8
0
  6
Continuous
100
AcDbPolyline
 90
       19
 70
     1
 43
0.0
 10
13.87719896346135
 20
28.07263706734196
 10
13.87719896346135
 20
27.82296976011333
 10
13.6901989634614
 20
27.82296976011333
 10
13.6901989634614
 20
27.72313706734195
 42
-1.045128398166766
 10
13.50360701271319
 20
27.73237855168901
 42
0.4419056050544676
 10
13.42097042617388
 20
27.82313706734198
 10
12.56419896346136
 20
27.82313706734198
 10
12.50219896346135
 20
27.76113706734196
 10
12.50219896346135
 20
21.07213706734197
 42
0.4142135623730951
 10
12.56419896346136
 20
21.01013706734199
 10
14.19019896346134
 20
21.01013706734199
 42
0.4142135623730951
 10
14.25219896346135
 20
21.07213706734197
 10
14.25219896346135
 20
28.07235699024392
 10
14.19019896346134
 20
28.13435699024393
 10
14.15716001634308
 20
28.13435699024393
 42
0.3899024490717814
 10
13.97216001634308
 20
28.33552984157109
 10
13.97216001634308
 20
28.38513706734199
 10
13.87719896346135
 20
28.38513706734196
 10
13.87719896346135
 20
28.26013706734196
 42
-0.7066666666666826
  0
LWPOLYLINE
  5
72
330
2
100
AcDbEntity
  8
0
  6
Continuous
100
AcDbPolyline
 90
       26
 70
     0
 43
0.0
 10
14.25223113420574
 20
21.01013706734199
 10
12.50219896346135
 20
21.01013706734199
 10
12.50219896346135
 20
20.90113706734198
 42
0.157771401281339
 10
12.25219896346135
 20
20.45013706734199
 10
12.29735052045521
 20
20.4413429271888
 42
-0.1709509127273156
 10
12.56419896346136
 20
20.89488993581358
 10
12.56419896346136
 20
20.45013706734199
 10
12.61019896346136
 20
20.45013706734199
 10
12.61019896346136
 20
20.90113706734198
 10
13.04719896346137
 20
20.90113706734198
 10
13.04719896346137
 20
20.44227107694656
 10
13.09319896346136
 20
20.44227107694656
 10
13.09319896346136
 20
20.90113706734198
 10
13.53019896346137
 20
20.90113706734198
 10
13.53019896346137
 20
20.44227107694656
 10
13.57619896346136
 20
20.44227107694656
 10
13.57619896346136
 20
20.90113706734198
 10
14.01319896346137
 20
20.90113706734198
 10
14.01319896346137
 20
20.44227107694656
 10
14.05919896346137
 20
20.44227107694656
 10
14.05919896346137
 20
20.90113706734198
 10
14.36119896346139
 20
20.90113706734198
 10
14.36119896346139
 20
21.19813706734197
 42
0.4142135623730948
 10
14.29919896346138
 20
21.26013706734199
 10
14.25219896346135
 20
21.26013706734199
 10
14.25219896346135
 20
21.01013706734199
  0
LWPOLYLINE
  5
73
102
{ACAD_REACTORS
330
193
102
}
330
2
100
AcDbEntity
  8
0
100
AcDbPolyline
 90
       15
 70
     0
 43
0.0
 10
8.750698963461303
 20
34.74401472167875
 42
0.4142135623730951
 10
8.812698963461315
 20
34.68201472167874
 10
9.689698963461268
 20
34.68201472167874
 10
9.689698963461381
 20
35.93201472167874
 10
9.751698963461336
 20
35.93201472167874
 10
9.751698963461308
 20
36.55701472167874
 10
8.68869896346132
 20
36.55701472167874
 42
0.4142135623731003
 10
8.626698963461308
 20
36.49501472167873
 10
8.626698963461308
 20
35.96301472167875
 42
0.4142135623730951
 10
8.657698963461314
 20
35.93201472167874
 10
8.68869896346132
 20
35.93201472167874
 10
8.68869896346132
 20
35.71301472167875
 42
0.4142135623730951
 10
8.719698963461326
 20
35.68201472167874
 10
8.750698963461303
 20
35.68201472167874
 10
8.750698963461303
 20
34.74401473114807
  0
HATCH
  5
74
330
2
100
AcDbEntity
  8
0
  6
Continuous
100
AcDbHatch
 10
0.0
 20
0.0
 30
0.0
210
0.0
220
0.0
230
1.0
  2
STEEL
 70
     0
 71
     0
 91
        1
 92
        7
 72
     0
 73
     1
 93
        6
 10
9.751698963461279
 20
35.17801472167872
 10
9.751698963461365
 20
35.8978329856144
 10
9.689698963461353
 20
35.8978329856144
 10
9.689698963461268
 20
35.11601472167871
 10
10.34683035773602
 20
35.11601472167871
 10
10.34683035773602
 20
35.17801472167872
 97
        0
 75
     0
 76
     1
 52
-0.0000000000000127
 41
1.0
 77
     0
 78
     2
 53
44.99999999999999
 43
107.645083798987
 44
-8.088037759328358
 45
-0.0883883476483184
 46
0.0883883476483185
 79
     0
 53
44.99999999999999
 43
107.645083798987
 44
-8.025537759328358
 45
-0.0883883476483184
 46
0.0883883476483185
 79
     0
 47
0.003572857848563
 98
        1
 10
9.860274528605685
 20
35.15039663472248
  0
LINE
  5
75
330
2
100
AcDbEntity
  8
0
100
AcDbLine
 10
9.689698963461353
 20
35.8978329856144
 30
0.0
 11
9.689698963461268
 21
35.11601472167871
 31
0.0
  0
LINE
  5
76
330
2
100
AcDbEntity
  8
0
  6
Continuous
100
AcDbLine
 10
9.689698963461268
 20
35.11601472167871
 30
0.0
 11
10.34683035773602
 21
35.11601472167871
 31
0.0
  0
LINE
  5
77
330
2
100
AcDbEntity
  8
0
  6
Continuous
100
AcDbLine
 10
9.751698963461279
 20
35.17801472167872
 30
0.0
 11
10.34683035773602
 21
35.17801472167872
 31
0.0
  0
LINE
  5
78
330
2
100
AcDbEntity
  8
0
  6
Continuous
100
AcDbLine
 10
10.34683035773602
 20
35.17801472167872
 30
0.0
 11
10.34683035773602
 21
35.11601472167871
 31
0.0
  0
LINE
  5
79
330
2
100
AcDbEntity
  8
0
100
AcDbLine
 10
9.751698963461365
 20
35.8978329856144
 30
0.0
 11
9.751698963461279
 21
35.17801472167872
 31
0.0
  0
INSERT
  5
7A
330
2
100
AcDbEntity
  8
0
100
AcDbBlockReference
  2
8 x .75 FH
 10
9.751698963461308
 20
35.53792385364659
 30
0.0
 50
270.0
  0
INSERT
  5
C8
330
2
100
AcDbEntity
  8
0
100
AcDbBlockReference
  2
8 X .625 PH
 10
10.04926466059865
 20
35.17801472167872
 30
0.0
  0
LINE
  5
11D
330
2
100
AcDbEntity
  8
0
100
AcDbLine
 10
9.751698963461365
 20
35.8978329856144
 30
0.0
 11
9.689698963461381
 21
35.89783298561443
 31
0.0
  0
HATCH
  5
11E
330
2
100
AcDbEntity
  8
0
100
AcDbHatch
 10
0.0
 20
0.0
 30
0.0
210
0.0
220
0.0
230
1.0
  2
SOLID
 70
     1
 71
     0
 91
        1
 92
        7
 72
     1
 73
     1
 93
        2
 10
13.87719896346135
 20
29.88567649640203
 42
0.0
 10
13.87719896346138
 20
30.073176496402
 42
-0.6666666666666311
 97
        0
 75
     1
 76
     1
 47
0.0010014887122476
 98
        1
 10
13.92325903980827
 20
30.00058169244616
1001
GradientColor1ACI
1070
     5
1001
GradientColor2ACI
1070
     2
1001
ACAD
1010
0.0
1020
0.0
1030
0.0
  0
HATCH
  5
121
330
2
100
AcDbEntity
  8
0
100
AcDbHatch
 10
0.0
 20
0.0
 30
0.0
210
0.0
220
0.0
230
1.0
  2
SOLID
 70
     1
 71
     0
 91
        1
 92
        7
 72
     1
 73
     1
 93
        2
 10
12.96796880598128
 20
29.88567649640203
 42
0.0
 10
12.96796880598126
 20
30.073176496402
 42
0.6666666666666311
 97
        0
 75
     1
 76
     1
 47
0.0010014887122476
 98
        1
 10
12.92190872963437
 20
30.00058169244616
1001
GradientColor1ACI
1070
     5
1001
GradientColor2ACI
1070
     2
1001
ACAD
1010
0.0
1020
0.0
1030
0.0
  0
LWPOLYLINE
  5
122
102
{ACAD_REACTORS
330
1B5
102
}
330
2
100
AcDbEntity
  8
0
100
AcDbPolyline
 90
       11
 70
     1
 43
0.0
 10
12.96796880598126
 20
30.073176496402
 10
12.96796880598126
 20
30.32317649640203
 10
12.59396880598126
 20
30.323176496402
 10
12.59396880598123
 20
30.041676496402
 42
0.4142135623731695
 10
12.62496880598124
 20
30.01067649640203
 10
12.67149357426771
 20
30.01067649640203
 42
-0.235730494161761
 10
12.69626976884373
 20
29.9983081947232
 10
12.86566784311875
 20
29.77304479808086
 42
0.235730494161718
 10
12.89044403769478
 20
29.76067649640203
 10
12.96796880598128
 20
29.76067649640203
 10
12.96796880598128
 20
29.88567649640203
 42
-0.6666666666666588
  0
LWPOLYLINE
  5
123
330
2
100
AcDbEntity
  8
0
100
AcDbPolyline
 90
        4
 70
     0
 43
0.0
 10
13.71945888472132
 20
29.13557312825768
 10
13.71945888472132
 20
30.21417649640165
 10
13.87719896346138
 20
30.21417649640165
 10
13.87719896346138
 20
29.13557312825768
  0
LWPOLYLINE
  5
124
330
2
100
AcDbEntity
  8
0
100
AcDbPolyline
 90
        4
 70
     0
 43
0.0
 10
13.12570888472132
 20
29.13557312825768
 10
13.12570888472132
 20
30.21417649640165
 10
12.96796880598126
 20
30.21417649640165
 10
12.96796880598126
 20
29.13557312825768
  0
LWPOLYLINE
  5
125
330
2
100
AcDbEntity
  8
0
100
AcDbPolyline
 90
       14
 70
     1
 43
0.0
 10
13.23508388472132
 20
30.00435175545312
 42
-0.3359746306540741
 10
13.20257997497433
 20
29.98398899640136
 10
13.16670888472148
 20
30.00817649640152
 42
0.4142135623730951
 10
13.15108388472149
 20
29.99255149640152
 10
13.15108388472149
 20
29.81092649640135
 10
13.69408388472115
 20
29.81092649640135
 10
13.69408388472115
 20
29.99255149640152
 42
0.414213562373094
 10
13.67845888472115
 20
30.00817649640152
 10
13.64297109666299
 20
29.98398899640136
 42
-0.3208708054700532
 10
13.61008388472132
 20
30.00471466453376
 10
13.61008388472132
 20
30.06155149640193
 42
0.4142135623730951
 10
13.59445888472132
 20
30.07717649640194
 10
13.25070888472132
 20
30.07717649640194
 42
0.4142135623730951
 10
13.23508388472132
 20
30.06155149640193
  0
LWPOLYLINE
  5
126
330
2
100
AcDbEntity
  8
0
100
AcDbPolyline
 90
       14
 70
     1
 43
0.0
 10
13.24208388472184
 20
30.00313335530876
 42
-0.3593608004949541
 10
13.20008399739785
 20
29.97722933942799
 10
13.16486505028555
 20
30.00097710614677
 42
0.3524310491054993
 10
13.15808388472109
 20
29.99255149640152
 10
13.15808388472109
 20
29.81092649640135
 10
13.68708388472154
 20
29.81092649640135
 10
13.68708388472154
 20
29.99255149640152
 42
0.3518693664465323
 10
13.68031955701994
 20
30.000973403763
 10
13.64539516585395
 20
29.97716989958366
 42
-0.3446308864324803
 10
13.6030838847208
 20
30.00340881358528
 10
13.6030838847208
 20
30.06155149640193
 42
0.4142135623730946
 10
13.59445888472132
 20
30.07017649640142
 10
13.25070888472132
 20
30.07017649640142
 42
0.4142135623730946
 10
13.24208388472184
 20
30.06155149640193
  0
LWPOLYLINE
  5
127
330
2
100
AcDbEntity
  8
0
100
AcDbPolyline
 90
       10
 70
     1
 43
0.0
 10
13.26633388472132
 20
29.99961399640137
 42
-0.3584554666094669
 10
13.20143003856796
 20
29.95273899640137
 10
13.18233388472149
 20
29.95273899640137
 10
13.18233388472149
 20
29.84217649640135
 10
13.66283388472115
 20
29.84217649640135
 10
13.66283388472115
 20
29.95273899640137
 10
13.64373773087467
 20
29.95273899640137
 42
-0.3467993108968364
 10
13.57883388472132
 20
29.99961399640137
 10
13.57883388472132
 20
30.04592649640193
 10
13.26633388472132
 20
30.04592649640193
  0
LWPOLYLINE
  5
128
330
2
100
AcDbEntity
  8
0
100
AcDbPolyline
 90
        6
 70
     0
 43
0.0
 10
13.15108388472149
 20
29.83917649640165
 10
13.14133388472132
 20
29.83917649640165
 10
13.14133388472132
 20
29.80117649640119
 10
13.70383388472132
 20
29.80117649640119
 10
13.70383388472132
 20
29.83917649640165
 10
13.69408388472115
 20
29.83917649640165
  0
LINE
  5
129
330
2
100
AcDbEntity
  8
0
100
AcDbLine
 10
13.69408388472115
 20
29.99255149640152
 30
0.0
 11
13.71945888472132
 21
29.99255149640152
 31
0.0
  0
LINE
  5
12A
330
2
100
AcDbEntity
  8
0
100
AcDbLine
 10
13.69408388472115
 20
29.83917649640165
 30
0.0
 11
13.71945888472132
 21
29.83917649640165
 31
0.0
  0
LINE
  5
12B
330
2
100
AcDbEntity
  8
0
100
AcDbLine
 10
13.15108388472149
 20
29.99255149640152
 30
0.0
 11
13.12570888472132
 21
29.99255149640152
 31
0.0
  0
LINE
  5
12C
330
2
100
AcDbEntity
  8
0
100
AcDbLine
 10
13.15108388472149
 20
29.83917649640165
 30
0.0
 11
13.12570888472132
 21
29.83917649640165
 31
0.0
  0
HATCH
  5
12D
330
2
100
AcDbEntity
  8
0
  6
Continuous
100
AcDbHatch
 10
0.0
 20
0.0
 30
0.0
210
0.0
220
0.0
230
1.0
  2
DOTS
 70
     0
 71
     0
 91
        2
 92
        7
 72
     0
 73
     1
 93
        4
 10
13.15108388472149
 20
29.99255149640152
 10
13.12570888472132
 20
29.99255149640152
 10
13.12570888472132
 20
29.83917649640165
 10
13.15108388472149
 20
29.83917649640165
 97
        0
 92
        7
 72
     0
 73
     1
 93
        4
 10
13.71945888472132
 20
29.99255149640152
 10
13.69408388472115
 20
29.99255149640152
 10
13.69408388472115
 20
29.83917649640165
 10
13.71945888472132
 20
29.83917649640165
 97
        0
 75
     0
 76
     1
 52
360.0
 41
0.1
 77
     0
 78
     1
 53
360.0
 43
7.03222913918475
 44
32.28688123998831
 45
0.003125
 46
-0.00625
 79
     2
 49
0.0
 49
-0.00625
 47
0.0006001443632006
 98
        2
 10
13.13936359457406
 20
29.93496655635312
 10
13.70924852396987
 20
29.93136568255426
  0
HATCH
  5
12E
330
2
100
AcDbEntity
  8
0
  6
Continuous
100
AcDbHatch
 10
0.0
 20
0.0
 30
0.0
210
0.0
220
0.0
230
1.0
  2
DASH
 70
     0
 71
     0
 91
        1
 92
        7
 72
     1
 73
     1
 93
       16
 10
13.59445888472132
 20
30.07717649640194
 42
-0.4142135623730951
 10
13.61008388472132
 20
30.06155149640193
 42
0.0
 10
13.61008388472132
 20
30.00471466453376
 42
0.3208708054700533
 10
13.64297109666299
 20
29.98398899640136
 42
0.0
 10
13.67845888472115
 20
30.00817649640152
 42
-0.414213562373094
 10
13.69408388472115
 20
29.99255149640152
 42
0.0
 10
13.71945888472223
 20
29.99255149640152
 42
0.0
 10
13.71945888472041
 20
30.21417649640074
 42
0.0
 10
13.12570888472132
 20
30.21417649640074
 42
0.0
 10
13.12570888472132
 20
29.99255149640152
 42
0.0
 10
13.15108388472149
 20
29.99255149640152
 42
-0.4142135623730951
 10
13.16670888472148
 20
30.00817649640152
 42
0.0
 10
13.20257997497433
 20
29.98398899640136
 42
0.3359746306540741
 10
13.23508388472132
 20
30.00435175545312
 42
0.0
 10
13.23508388472132
 20
30.06155149640193
 42
-0.4142135623730951
 10
13.25070888472132
 20
30.07717649640194
 42
0.0
 97
        0
 75
     0
 76
     1
 52
360.0
 41
0.1
 77
     0
 78
     1
 53
360.0
 43
7.03222913918475
 44
32.28688123998831
 45
0.0125
 46
-0.0125
 79
     2
 49
0.0125
 49
-0.0125
 47
0.0009600803746669
 98
        1
 10
13.47160536480609
 20
30.12801576859596
  0
LINE
  5
12F
330
2
100
AcDbEntity
  8
0
100
AcDbLine
 10
12.96796880598126
 20
30.32317649640203
 30
0.0
 11
13.87719896346138
 21
30.21417649640165
 31
0.0
  0
LWPOLYLINE
  5
130
330
2
100
AcDbEntity
  8
0
100
AcDbPolyline
 90
        8
 70
     0
 43
0.0
 10
12.96796880598126
 20
30.32317649640203
 10
13.87719896346138
 20
30.32317649640203
 10
13.87719896346138
 20
30.21417649640165
 10
12.96796880598126
 20
30.21417649640165
 10
12.96796880598126
 20
30.32317649640203
 10
13.87719896346138
 20
30.21417649640165
 10
12.96796880598126
 20
30.21417649640165
 10
13.87719896346138
 20
30.32317649640203
  0
HATCH
  5
131
330
2
100
AcDbEntity
  8
0
100
AcDbHatch
 10
0.0
 20
0.0
 30
0.0
210
0.0
220
0.0
230
1.0
  2
SOLID
 70
     1
 71
     0
 91
        1
 92
        7
 72
     1
 73
     1
 93
        2
 10
13.87719896346135
 20
28.26046976011332
 42
0.0
 10
13.87719896346135
 20
28.07296976011335
 42
0.6666666666666311
 97
        0
 75
     1
 76
     1
 47
0.0010014887122476
 98
        1
 10
13.92325903980827
 20
28.14556456406919
1001
GradientColor1ACI
1070
     5
1001
GradientColor2ACI
1070
     2
1001
ACAD
1010
0.0
1020
0.0
1030
0.0
  0
HATCH
  5
132
330
2
100
AcDbEntity
  8
0
100
AcDbHatch
 10
0.0
 20
0.0
 30
0.0
210
0.0
220
0.0
230
1.0
  2
SOLID
 70
     1
 71
     0
 91
        1
 92
        7
 72
     1
 73
     1
 93
        2
 10
12.96796880598128
 20
28.26046976011332
 42
0.0
 10
12.96796880598123
 20
28.07296976011335
 42
-0.6666666666666311
 97
        0
 75
     1
 76
     1
 47
0.0010014887122476
 98
        1
 10
12.92190872963437
 20
28.14556456406919
1001
GradientColor1ACI
1070
     5
1001
GradientColor2ACI
1070
     2
1001
ACAD
1010
0.0
1020
0.0
1030
0.0
  0
LWPOLYLINE
  5
133
102
{ACAD_REACTORS
330
1D4
102
}
330
2
100
AcDbEntity
  8
0
100
AcDbPolyline
 90
       11
 70
     1
 43
0.0
 10
12.96796880598123
 20
28.07296976011335
 10
12.96796880598123
 20
27.82296976011333
 10
12.59396880598126
 20
27.82296976011335
 10
12.5939688059812
 20
28.10446976011334
 42
-0.4142135623731695
 10
12.62496880598121
 20
28.13546976011333
 10
12.67149357426768
 20
28.13546976011333
 42
0.235730494161761
 10
12.6962697688437
 20
28.14783806179216
 10
12.86566784311873
 20
28.37310145843449
 42
-0.235730494161718
 10
12.89044403769475
 20
28.38546976011333
 10
12.96796880598128
 20
28.38546976011333
 10
12.96796880598128
 20
28.26046976011332
 42
0.6666666666666588
  0
LWPOLYLINE
  5
134
330
2
100
AcDbEntity
  8
0
100
AcDbPolyline
 90
        4
 70
     0
 43
0.0
 10
13.71945888472129
 20
29.01057312825768
 10
13.71945888472129
 20
27.9319697601137
 10
13.87719896346135
 20
27.9319697601137
 10
13.87719896346135
 20
29.01057312825768
  0
LWPOLYLINE
  5
135
330
2
100
AcDbEntity
  8
0
100
AcDbPolyline
 90
        4
 70
     0
 43
0.0
 10
13.12570888472129
 20
29.01057312825768
 10
13.12570888472129
 20
27.9319697601137
 10
12.96796880598123
 20
27.9319697601137
 10
12.96796880598123
 20
29.01057312825768
  0
LWPOLYLINE
  5
136
330
2
100
AcDbEntity
  8
0
100
AcDbPolyline
 90
       14
 70
     1
 43
0.0
 10
13.23508388472129
 20
28.14179450106223
 42
0.3359746306540741
 10
13.2025799749743
 20
28.16215726011399
 10
13.16670888472146
 20
28.13796976011384
 42
-0.4142135623730951
 10
13.15108388472146
 20
28.15359476011384
 10
13.15108388472146
 20
28.335219760114
 10
13.69408388472112
 20
28.335219760114
 10
13.69408388472112
 20
28.15359476011384
 42
-0.414213562373094
 10
13.67845888472112
 20
28.13796976011384
 10
13.64297109666296
 20
28.16215726011399
 42
0.3208708054700532
 10
13.61008388472129
 20
28.14143159198159
 10
13.61008388472129
 20
28.08459476011342
 42
-0.4142135623730951
 10
13.59445888472129
 20
28.06896976011342
 10
13.25070888472129
 20
28.06896976011342
 42
-0.4142135623730951
 10
13.23508388472129
 20
28.08459476011342
  0
LWPOLYLINE
  5
137
330
2
100
AcDbEntity
  8
0
100
AcDbPolyline
 90
       14
 70
     1
 43
0.0
 10
13.24208388472181
 20
28.14301290120659
 42
0.3593608004949541
 10
13.20008399739782
 20
28.16891691708736
 10
13.16486505028553
 20
28.14516915036859
 42
-0.3524310491054993
 10
13.15808388472106
 20
28.15359476011384
 10
13.15808388472106
 20
28.335219760114
 10
13.68708388472152
 20
28.335219760114
 10
13.68708388472152
 20
28.15359476011384
 42
-0.3518693664465323
 10
13.68031955701991
 20
28.14517285275235
 10
13.64539516585393
 20
28.1689763569317
 42
0.3446308864324803
 10
13.60308388472077
 20
28.14273744293007
 10
13.60308388472077
 20
28.08459476011342
 42
-0.4142135623730946
 10
13.59445888472129
 20
28.07596976011394
 10
13.25070888472129
 20
28.07596976011394
 42
-0.4142135623730946
 10
13.24208388472181
 20
28.08459476011342
  0
LWPOLYLINE
  5
138
330
2
100
AcDbEntity
  8
0
100
AcDbPolyline
 90
       10
 70
     1
 43
0.0
 10
13.26633388472129
 20
28.14653226011399
 42
0.3584554666094669
 10
13.20143003856793
 20
28.19340726011399
 10
13.18233388472146
 20
28.19340726011399
 10
13.18233388472146
 20
28.303969760114
 10
13.66283388472112
 20
28.303969760114
 10
13.66283388472112
 20
28.19340726011399
 10
13.64373773087464
 20
28.19340726011399
 42
0.3467993108968364
 10
13.57883388472129
 20
28.14653226011399
 10
13.57883388472129
 20
28.10021976011342
 10
13.26633388472129
 20
28.10021976011342
  0
LWPOLYLINE
  5
139
330
2
100
AcDbEntity
  8
0
100
AcDbPolyline
 90
        6
 70
     0
 43
0.0
 10
13.15108388472146
 20
28.3069697601137
 10
13.14133388472129
 20
28.3069697601137
 10
13.14133388472129
 20
28.34496976011417
 10
13.70383388472129
 20
28.34496976011417
 10
13.70383388472129
 20
28.3069697601137
 10
13.69408388472112
 20
28.3069697601137
  0
LINE
  5
13A
330
2
100
AcDbEntity
  8
0
100
AcDbLine
 10
13.69408388472112
 20
28.15359476011384
 30
0.0
 11
13.71945888472129
 21
28.15359476011384
 31
0.0
  0
LINE
  5
13B
330
2
100
AcDbEntity
  8
0
100
AcDbLine
 10
13.69408388472112
 20
28.3069697601137
 30
0.0
 11
13.71945888472129
 21
28.3069697601137
 31
0.0
  0
LINE
  5
13C
330
2
100
AcDbEntity
  8
0
100
AcDbLine
 10
13.15108388472146
 20
28.15359476011384
 30
0.0
 11
13.12570888472129
 21
28.15359476011384
 31
0.0
  0
LINE
  5
13D
330
2
100
AcDbEntity
  8
0
100
AcDbLine
 10
13.15108388472146
 20
28.3069697601137
 30
0.0
 11
13.12570888472129
 21
28.3069697601137
 31
0.0
  0
HATCH
  5
13E
330
2
100
AcDbEntity
  8
0
  6
Continuous
100
AcDbHatch
 10
0.0
 20
0.0
 30
0.0
210
0.0
220
0.0
230
1.0
  2
DOTS
 70
     0
 71
     0
 91
        2
 92
        7
 72
     0
 73
     1
 93
        4
 10
13.15108388472146
 20
28.15359476011384
 10
13.12570888472129
 20
28.15359476011384
 10
13.12570888472129
 20
28.3069697601137
 10
13.15108388472146
 20
28.3069697601137
 97
        0
 92
        7
 72
     0
 73
     1
 93
        4
 10
13.71945888472129
 20
28.15359476011384
 10
13.69408388472112
 20
28.15359476011384
 10
13.69408388472112
 20
28.3069697601137
 10
13.71945888472129
 20
28.3069697601137
 97
        0
 75
     0
 76
     1
 52
360.0
 41
0.1
 77
     0
 78
     1
 53
360.0
 43
7.032229139184721
 44
31.4118812399883
 45
0.003125
 46
-0.00625
 79
     2
 49
0.0
 49
-0.00625
 47
0.0006001443632006
 98
        2
 10
13.13936359457403
 20
28.21117970016223
 10
13.70924852396985
 20
28.2147805739611
  0
HATCH
  5
13F
330
2
100
AcDbEntity
  8
0
  6
Continuous
100
AcDbHatch
 10
0.0
 20
0.0
 30
0.0
210
0.0
220
0.0
230
1.0
  2
DASH
 70
     0
 71
     0
 91
        1
 92
        7
 72
     1
 73
     1
 93
       16
 10
13.59445888472129
 20
28.06896976011342
 42
0.4142135623730951
 10
13.61008388472129
 20
28.08459476011342
 42
0.0
 10
13.61008388472129
 20
28.14143159198159
 42
-0.3208708054700533
 10
13.64297109666296
 20
28.16215726011399
 42
0.0
 10
13.67845888472112
 20
28.13796976011384
 42
0.414213562373094
 10
13.69408388472112
 20
28.15359476011384
 42
0.0
 10
13.7194588847222
 20
28.15359476011384
 42
0.0
 10
13.71945888472038
 20
27.93196976011461
 42
0.0
 10
13.12570888472129
 20
27.93196976011461
 42
0.0
 10
13.12570888472129
 20
28.15359476011384
 42
0.0
 10
13.15108388472146
 20
28.15359476011384
 42
0.4142135623730951
 10
13.16670888472146
 20
28.13796976011384
 42
0.0
 10
13.2025799749743
 20
28.16215726011399
 42
-0.3359746306540741
 10
13.23508388472129
 20
28.14179450106223
 42
0.0
 10
13.23508388472129
 20
28.08459476011342
 42
0.4142135623730951
 10
13.25070888472129
 20
28.06896976011342
 42
0.0
 97
        0
 75
     0
 76
     1
 52
360.0
 41
0.1
 77
     0
 78
     1
 53
360.0
 43
7.032229139184721
 44
31.4118812399883
 45
0.0125
 46
-0.0125
 79
     2
 49
0.0125
 49
-0.0125
 47
0.0009600803746669
 98
        1
 10
13.47160536480606
 20
28.0181304879194
  0
LINE
  5
140
330
2
100
AcDbEntity
  8
0
100
AcDbLine
 10
12.96796880598123
 20
27.82296976011333
 30
0.0
 11
13.87719896346135
 21
27.9319697601137
 31
0.0
  0
LWPOLYLINE
  5
141
330
2
100
AcDbEntity
  8
0
100
AcDbPolyline
 90
        8
 70
     0
 43
0.0
 10
12.96796880598123
 20
27.82296976011333
 10
13.87719896346135
 20
27.82296976011333
 10
13.87719896346135
 20
27.9319697601137
 10
12.96796880598123
 20
27.9319697601137
 10
12.96796880598123
 20
27.82296976011333
 10
13.87719896346135
 20
27.9319697601137
 10
12.96796880598123
 20
27.9319697601137
 10
13.87719896346135
 20
27.82296976011333
  0
LINE
  5
142
330
2
100
AcDbEntity
  8
0
  6
HIDDEN2
100
AcDbLine
 10
12.96796880598123
 20
29.13557312825768
 30
0.0
 11
13.87719896346135
 21
29.13557312825768
 31
0.0
  0
LINE
  5
144
330
2
100
AcDbEntity
  8
0
  6
HIDDEN2
100
AcDbLine
 10
13.87719896346138
 20
29.01057312825768
 30
0.0
 11
12.96796880598126
 21
29.01057312825768
 31
0.0
  0
HATCH
  5
145
330
2
100
AcDbEntity
  8
0
100
AcDbHatch
 10
0.0
 20
0.0
 30
0.0
210
0.0
220
0.0
230
1.0
  2
HONEY
 70
     0
 71
     0
 91
        2
 92
       16
 93
        9
 72
     1
 10
11.78405655994032
 20
34.38554625871771
 11
11.78405655994032
 21
34.4152229490972
 72
     1
 10
11.78405655994032
 20
34.41522294909717
 11
12.16145394632767
 21
34.41506729002671
 72
     1
 10
12.1614539463277
 20
34.41506729002671
 11
12.16132181727386
 21
34.09471872673311
 72
     1
 10
12.16132181727386
 20
34.09471872673313
 11
12.12782026426436
 21
34.09473254458345
 72
     1
 10
12.12782026426433
 20
34.09473254458345
 11
12.12794081243191
 21
34.38700310260401
 72
     1
 10
12.12794081243191
 20
34.38700310260401
 11
11.81451427959024
 21
34.38713237663853
 72
     1
 10
11.81451427959024
 20
34.38713237663853
 11
11.90942091940445
 21
34.29214741526943
 72
     1
 10
11.90942091940445
 20
34.29214741526943
 11
11.8773783896957
 21
34.29214741526943
 72
     1
 10
11.8773783896957
 20
34.29214741526943
 11
11.78405655994035
 21
34.38554625871771
 97
        0
 92
        1
 93
       11
 72
     1
 10
12.23112234588663
 20
34.08596727126431
 11
12.23123483182928
 21
34.35869086285854
 72
     2
 10
12.17410682071687
 20
34.35871442553656
 40
0.0571280159716573
 50
359.9763681265573
 51
449.9763681265644
 73
     1
 72
     1
 10
12.17413038339492
 20
34.41584243664897
 11
11.78327618500339
 21
34.41600364603568
 72
     1
 10
11.78327618500339
 20
34.41600364603568
 11
11.78322462825483
 21
34.29100365666807
 72
     1
 10
11.78322462825483
 20
34.29100365666807
 11
12.12719896346135
 21
34.29086178306955
 72
     1
 10
12.12719896346135
 20
34.29086178306955
 11
12.1270822575284
 21
34.00790677157298
 72
     2
 10
12.31459128328828
 20
34.02975117303538
 40
0.1887771506741734
 50
186.6448831998169
 51
353.3078530532888
 73
     1
 72
     1
 10
12.50208222563123
 20
34.00775210132733
 11
12.50221091463146
 21
34.31976021113056
 72
     2
 10
12.41340879188374
 20
34.31367069463599
 40
0.0890106691113012
 50
3.922859359099021
 51
176.0298768940037
 73
     1
 72
     1
 10
12.32461172264001
 20
34.31983346263186
 11
12.38869863512286
 21
34.10939640250945
 72
     2
 10
12.31165720214832
 20
34.08593405433882
 40
0.0805348631119007
 50
343.0623079543601
 51
540.0236318734479
 73
     0
 97
        0
 75
     1
 76
     1
 52
0.0
 41
0.2
 77
     0
 78
     3
 53
0.0
 43
-93.52370018815362
 44
-16.83034020103792
 45
0.0375
 46
0.021650635094611
 79
     2
 49
0.025
 49
-0.05
 53
120.0
 43
-93.52370018815362
 44
-16.83034020103792
 45
-0.0375
 46
0.021650635094611
 79
     2
 49
0.025
 49
-0.0499999999999999
 53
60.0
 43
-93.52370018815362
 44
-16.83034020103792
 45
0.0
 46
0.043301270189222
 79
     2
 49
-0.05
 49
0.025
 98
        1
 10
-93.52370018815362
 20
-16.83034020103792
1001
GradientColor1ACI
1070
     5
1001
GradientColor2ACI
1070
     2
1001
ACAD
1010
0.0
1020
0.0
1030
0.0
  0
LWPOLYLINE
  5
146
330
2
100
AcDbEntity
  8
0
100
AcDbPolyline
 90
       11
 70
     1
 43
0.0
 10
12.23112234588663
 20
34.08596727126431
 10
12.23123483182928
 20
34.35869086285854
 42
0.4142135623731042
 10
12.17413038339492
 20
34.41584243664897
 10
11.78327618500339
 20
34.41600364603568
 10
11.78322462825483
 20
34.29100365666807
 10
12.12719896346135
 20
34.29086178306955
 10
12.1270822575284
 20
34.00790677157298
 42
0.8898955318630001
 10
12.50208222563123
 20
34.00775210132733
 10
12.50221091463146
 20
34.31976021113056
 42
0.9333884728362816
 10
12.32461172264001
 20
34.31983346263186
 10
12.38869863512286
 20
34.10939640250945
 42
-1.16016115395227
  0
LWPOLYLINE
  5
147
330
2
100
AcDbEntity
  8
0
  6
Continuous
100
AcDbPolyline
 90
        9
 70
     1
 43
0.0
 10
11.78405655994032
 20
34.38554625871771
 10
11.78405655994032
 20
34.41522294909717
 10
12.1614539463277
 20
34.41506729002671
 10
12.16132181727386
 20
34.09471872673313
 10
12.12782026426433
 20
34.09473254458345
 10
12.12794081243191
 20
34.38700310260401
 10
11.81451427959024
 20
34.38713237663853
 10
11.90942091940445
 20
34.29214741526943
 10
11.8773783896957
 20
34.29214741526943
  0
LWPOLYLINE
  5
148
102
{ACAD_REACTORS
330
2A5
330
2E2
102
}
330
2
100
AcDbEntity
  8
0
  6
Continuous
100
AcDbPolyline
 90
       19
 70
     1
 43
0.0
 10
10.65197170396749
 20
13.71199553371748
 10
10.40230439673883
 20
13.71199553371748
 10
10.40230439673883
 20
13.52499553371747
 10
10.30247170396748
 20
13.52499553371747
 42
1.045128398166766
 10
10.31171318831451
 20
13.33840358296926
 42
-0.4419056050544676
 10
10.40247170396748
 20
13.25576699642998
 10
10.40247170396748
 20
12.39899553371747
 10
10.34047170396746
 20
12.33699553371745
 10
6.434471703967517
 20
12.33699553371745
 42
-0.4142135623730951
 10
6.372471703967505
 20
12.39899553371747
 10
6.372471703967505
 20
14.0249955337175
 42
-0.4142135623730951
 10
6.434471703967517
 20
14.08699553371745
 10
10.65169162686945
 20
14.08699553371748
 10
10.71369162686943
 20
14.0249955337175
 10
10.71369162686943
 20
13.99195658659919
 42
-0.3899024490717814
 10
10.91486447819662
 20
13.80695658659921
 10
10.96447170396749
 20
13.80695658659918
 10
10.96447170396749
 20
13.71199553371748
 10
10.83947170396749
 20
13.71199553371748
 42
0.7066666666666829
  0
LWPOLYLINE
  5
149
102
{ACAD_REACTORS
330
264
102
}
330
2
100
AcDbEntity
  8
0
  6
Continuous
100
AcDbPolyline
 90
       26
 70
     0
 43
0.0
 10
6.247466171462122
 20
14.0249955337175
 10
6.247477236472889
 20
11.9619955337174
 10
6.309477236472901
 20
11.9619955337174
 10
6.309477236472901
 20
11.47002770446185
 10
6.434477236472901
 20
11.47002770446185
 10
6.434477236472901
 20
11.96199553371745
 10
6.685477236472877
 20
11.9619955337174
 42
-0.4142135623730951
 10
6.747477236472889
 20
11.89999553371738
 10
6.747471168270578
 20
9.586995374061459
 42
-0.4142128141791537
 10
6.684971168270749
 20
9.52449553371737
 10
5.90246616688637
 20
9.52449553371737
 42
1.000000000000008
 10
5.684466166886352
 20
9.52449553371737
 10
5.609466171462145
 20
9.52449553371737
 10
5.609466171462145
 20
10.21149553371738
 10
5.559466171462133
 20
10.21149553371738
 10
5.559466171462133
 20
10.42993826078539
 42
0.9999999999999998
 10
5.559466171462133
 20
10.67993826078539
 10
5.559466171462133
 20
11.09101161908965
 42
0.9999999999999998
 10
5.559466171462133
 20
11.34101161908965
 10
5.559466171462133
 20
11.59101161908965
 42
0.9999999999999998
 10
5.559466171462133
 20
11.84101161908965
 10
5.559466171462133
 20
13.33693702482939
 42
0.9999999999999998
 10
5.559466171462133
 20
13.58693702482939
 10
5.559466171462133
 20
14.08699553371745
 10
6.184966171462122
 20
14.08699553371745
 42
-0.4142135623730951
 10
6.247466171462122
 20
14.02449553371745
  0
LWPOLYLINE
  5
14A
102
{ACAD_REACTORS
330
274
102
}
330
2
100
AcDbEntity
  8
0
100
AcDbPolyline
 90
       15
 70
     0
 43
0.0
 10
5.981466171462159
 20
8.585495533717406
 42
0.4142135623730951
 10
6.043466171462114
 20
8.647495533717417
 10
6.043466171462114
 20
9.52449553371737
 10
4.793466171462114
 20
9.524495533717484
 10
4.793466171462114
 20
9.586495533717439
 10
4.168466171462171
 20
9.58649553371741
 10
4.168466171462171
 20
8.523495533717422
 42
0.4142135623731003
 10
4.230466171462126
 20
8.46149553371741
 10
4.762466171462165
 20
8.46149553371741
 42
0.4142135623730951
 10
4.793466171462114
 20
8.492495533717416
 10
4.793466171462114
 20
8.523495533717422
 10
5.012466171462165
 20
8.523495533717422
 42
0.4142135623730951
 10
5.043466171462171
 20
8.554495533717428
 10
5.043466171462171
 20
8.585495533717406
 10
5.981466161992841
 20
8.585495533717406
  0
HATCH
  5
14B
330
2
100
AcDbEntity
  8
0
  6
Continuous
100
AcDbHatch
 10
0.0
 20
0.0
 30
0.0
210
0.0
220
0.0
230
1.0
  2
STEEL
 70
     0
 71
     0
 91
        1
 92
        7
 72
     0
 73
     1
 93
        6
 10
5.547466171462133
 20
9.586495533717382
 10
4.827647907526454
 20
9.586495533717467
 10
4.827647907526454
 20
9.524495533717455
 10
5.609466171462145
 20
9.52449553371737
 10
5.609466171462145
 20
10.18162692799212
 10
5.547466171462133
 20
10.18162692799212
 97
        0
 75
     0
 76
     1
 52
89.99999999999998
 41
1.0
 77
     0
 78
     2
 53
135.0
 43
48.81351865246924
 44
107.4798803692431
 45
-0.0883883476483185
 46
-0.0883883476483184
 79
     0
 53
135.0
 43
48.75101865246924
 44
107.4798803692431
 45
-0.0883883476483185
 46
-0.0883883476483184
 79
     0
 47
0.003572857848563
 98
        1
 10
5.575084258418428
 20
9.695071098861788
  0
LINE
  5
14C
330
2
100
AcDbEntity
  8
0
100
AcDbLine
 10
4.827647907526454
 20
9.524495533717455
 30
0.0
 11
5.609466171462145
 21
9.52449553371737
 31
0.0
  0
LINE
  5
14D
330
2
100
AcDbEntity
  8
0
  6
Continuous
100
AcDbLine
 10
5.609466171462145
 20
9.52449553371737
 30
0.0
 11
5.609466171462145
 21
10.18162692799212
 31
0.0
  0
LINE
  5
14E
330
2
100
AcDbEntity
  8
0
  6
Continuous
100
AcDbLine
 10
5.547466171462133
 20
9.586495533717382
 30
0.0
 11
5.547466171462133
 21
10.18162692799212
 31
0.0
  0
LINE
  5
14F
330
2
100
AcDbEntity
  8
0
  6
Continuous
100
AcDbLine
 10
5.547466171462133
 20
10.18162692799212
 30
0.0
 11
5.609466171462145
 21
10.18162692799212
 31
0.0
  0
LINE
  5
150
330
2
100
AcDbEntity
  8
0
100
AcDbLine
 10
4.827647907526454
 20
9.586495533717467
 30
0.0
 11
5.547466171462133
 21
9.586495533717382
 31
0.0
  0
INSERT
  5
151
330
2
100
AcDbEntity
  8
0
100
AcDbBlockReference
  2
8 x .75 FH
 10
5.187557039494322
 20
9.58649553371741
 30
0.0
  0
INSERT
  5
152
330
2
100
AcDbEntity
  8
0
100
AcDbBlockReference
  2
8 X .625 PH
 10
5.547466171462133
 20
9.884061230854754
 30
0.0
 50
90.0
  0
LINE
  5
153
330
2
100
AcDbEntity
  8
0
100
AcDbLine
 10
4.827647907526454
 20
9.586495533717467
 30
0.0
 11
4.827647907526454
 21
9.524495533717484
 31
0.0
  0
HATCH
  5
154
330
2
100
AcDbEntity
  8
0
100
AcDbHatch
 10
0.0
 20
0.0
 30
0.0
210
0.0
220
0.0
230
1.0
  2
SOLID
 70
     1
 71
     0
 91
        1
 92
        7
 72
     1
 73
     1
 93
        2
 10
10.83980439673883
 20
13.71199553371745
 42
0.0
 10
10.65230439673888
 20
13.71199553371748
 42
-0.6666666666666311
 97
        0
 75
     1
 76
     1
 47
0.0010014887122476
 98
        1
 10
10.72489920069472
 20
13.75805561006437
1001
GradientColor1ACI
1070
     5
1001
GradientColor2ACI
1070
     2
1001
ACAD
1010
0.0
1020
0.0
1030
0.0
  0
HATCH
  5
155
330
2
100
AcDbEntity
  8
0
100
AcDbHatch
 10
0.0
 20
0.0
 30
0.0
210
0.0
220
0.0
230
1.0
  2
SOLID
 70
     1
 71
     0
 91
        1
 92
        7
 72
     1
 73
     1
 93
        2
 10
10.83980439673883
 20
12.80276537623739
 42
0.0
 10
10.65230439673888
 20
12.80276537623736
 42
0.6666666666666311
 97
        0
 75
     1
 76
     1
 47
0.0010014887122476
 98
        1
 10
10.72489920069472
 20
12.75670529989047
1001
GradientColor1ACI
1070
     5
1001
GradientColor2ACI
1070
     2
1001
ACAD
1010
0.0
1020
0.0
1030
0.0
  0
LWPOLYLINE
  5
156
330
2
100
AcDbEntity
  8
0
100
AcDbPolyline
 90
       11
 70
     1
 43
0.0
 10
10.65230439673888
 20
12.80276537623736
 10
10.40230439673883
 20
12.80276537623736
 10
10.40230439673888
 20
12.42876537623736
 10
10.68380439673888
 20
12.42876537623734
 42
0.4142135623731695
 10
10.71480439673883
 20
12.45976537623734
 10
10.71480439673883
 20
12.50629014452381
 42
-0.235730494161761
 10
10.72717269841769
 20
12.53106633909984
 10
10.95243609506002
 20
12.70046441337486
 42
0.235730494161718
 10
10.96480439673882
 20
12.72524060795088
 10
10.96480439673882
 20
12.80276537623739
 10
10.83980439673883
 20
12.80276537623739
 42
-0.6666666666666588
  0
LWPOLYLINE
  5
157
330
2
100
AcDbEntity
  8
0
100
AcDbPolyline
 90
        4
 70
     0
 43
0.0
 10
11.5899077648832
 20
13.55425545497742
 10
10.5113043967392
 20
13.55425545497742
 10
10.5113043967392
 20
13.71199553371748
 10
11.5899077648832
 20
13.71199553371748
  0
LWPOLYLINE
  5
158
330
2
100
AcDbEntity
  8
0
100
AcDbPolyline
 90
        4
 70
     0
 43
0.0
 10
11.5899077648832
 20
12.96050545497742
 10
10.5113043967392
 20
12.96050545497742
 10
10.5113043967392
 20
12.80276537623736
 10
11.5899077648832
 20
12.80276537623736
  0
LWPOLYLINE
  5
159
330
2
100
AcDbEntity
  8
0
100
AcDbPolyline
 90
       14
 70
     1
 43
0.0
 10
10.72112913768774
 20
13.06988045497742
 42
-0.3359746306540741
 10
10.74149189673949
 20
13.03737654523043
 10
10.71730439673933
 20
13.00150545497759
 42
0.4142135623730951
 10
10.73292939673933
 20
12.98588045497759
 10
10.9145543967395
 20
12.98588045497759
 10
10.9145543967395
 20
13.52888045497725
 10
10.73292939673933
 20
13.52888045497725
 42
0.414213562373094
 10
10.71730439673933
 20
13.51325545497725
 10
10.74149189673949
 20
13.47776766691909
 42
-0.3208708054700532
 10
10.72076622860709
 20
13.44488045497742
 10
10.66392939673892
 20
13.44488045497742
 42
0.4142135623730951
 10
10.64830439673892
 20
13.42925545497742
 10
10.64830439673892
 20
13.08550545497742
 42
0.4142135623730951
 10
10.66392939673892
 20
13.06988045497742
  0
LWPOLYLINE
  5
15A
330
2
100
AcDbEntity
  8
0
100
AcDbPolyline
 90
       14
 70
     1
 43
0.0
 10
10.72234753783209
 20
13.07688045497794
 42
-0.3593608004949541
 10
10.74825155371286
 20
13.03488056765395
 10
10.72450378699409
 20
12.99966162054166
 42
0.3524310491054993
 10
10.73292939673933
 20
12.9928804549772
 10
10.9145543967395
 20
12.9928804549772
 10
10.9145543967395
 20
13.52188045497765
 10
10.73292939673933
 20
13.52188045497765
 42
0.3518693664465323
 10
10.72450748937785
 20
13.51511612727604
 10
10.74831099355719
 20
13.48019173611006
 42
-0.3446308864324803
 10
10.72207207955557
 20
13.4378804549769
 10
10.66392939673892
 20
13.4378804549769
 42
0.4142135623730946
 10
10.65530439673944
 20
13.42925545497742
 10
10.65530439673944
 20
13.08550545497742
 42
0.4142135623730946
 10
10.66392939673892
 20
13.07688045497794
  0
LWPOLYLINE
  5
15B
330
2
100
AcDbEntity
  8
0
100
AcDbPolyline
 90
       10
 70
     1
 43
0.0
 10
10.72586689673949
 20
13.10113045497742
 42
-0.3584554666094669
 10
10.77274189673949
 20
13.03622660882406
 10
10.77274189673949
 20
13.01713045497759
 10
10.8833043967395
 20
13.01713045497759
 10
10.8833043967395
 20
13.49763045497725
 10
10.77274189673949
 20
13.49763045497725
 10
10.77274189673949
 20
13.47853430113078
 42
-0.3467993108968364
 10
10.72586689673949
 20
13.41363045497742
 10
10.67955439673892
 20
13.41363045497742
 10
10.67955439673892
 20
13.10113045497742
  0
LWPOLYLINE
  5
15C
330
2
100
AcDbEntity
  8
0
100
AcDbPolyline
 90
        6
 70
     0
 43
0.0
 10
10.8863043967392
 20
12.98588045497759
 10
10.8863043967392
 20
12.97613045497742
 10
10.92430439673967
 20
12.97613045497742
 10
10.92430439673967
 20
13.53863045497742
 10
10.8863043967392
 20
13.53863045497742
 10
10.8863043967392
 20
13.52888045497725
  0
LINE
  5
15D
330
2
100
AcDbEntity
  8
0
100
AcDbLine
 10
10.73292939673933
 20
13.52888045497725
 30
0.0
 11
10.73292939673933
 21
13.55425545497742
 31
0.0
  0
LINE
  5
15E
330
2
100
AcDbEntity
  8
0
100
AcDbLine
 10
10.8863043967392
 20
13.52888045497725
 30
0.0
 11
10.8863043967392
 21
13.55425545497742
 31
0.0
  0
LINE
  5
15F
330
2
100
AcDbEntity
  8
0
100
AcDbLine
 10
10.73292939673933
 20
12.98588045497759
 30
0.0
 11
10.73292939673933
 21
12.96050545497742
 31
0.0
  0
LINE
  5
160
330
2
100
AcDbEntity
  8
0
100
AcDbLine
 10
10.8863043967392
 20
12.98588045497759
 30
0.0
 11
10.8863043967392
 21
12.96050545497742
 31
0.0
  0
HATCH
  5
161
330
2
100
AcDbEntity
  8
0
  6
Continuous
100
AcDbHatch
 10
0.0
 20
0.0
 30
0.0
210
0.0
220
0.0
230
1.0
  2
DOTS
 70
     0
 71
     0
 91
        2
 92
        7
 72
     0
 73
     1
 93
        4
 10
10.73292939673933
 20
12.98588045497759
 10
10.73292939673933
 20
12.96050545497742
 10
10.8863043967392
 20
12.96050545497742
 10
10.8863043967392
 20
12.98588045497759
 97
        0
 92
        7
 72
     0
 73
     1
 93
        4
 10
10.73292939673933
 20
13.55425545497742
 10
10.73292939673933
 20
13.52888045497725
 10
10.8863043967392
 20
13.52888045497725
 10
10.8863043967392
 20
13.55425545497742
 97
        0
 75
     0
 76
     1
 52
450.0
 41
0.1
 77
     0
 78
     1
 53
90.0
 43
8.43859965315255
 44
6.867025709440852
 45
0.00625
 46
0.003125
 79
     2
 49
0.0
 49
-0.00625
 47
0.0006001443632006
 98
        2
 10
10.79051433678773
 20
12.97416016483017
 10
10.79411521058659
 20
13.54404509422598
  0
HATCH
  5
162
330
2
100
AcDbEntity
  8
0
  6
Continuous
100
AcDbHatch
 10
0.0
 20
0.0
 30
0.0
210
0.0
220
0.0
230
1.0
  2
DASH
 70
     0
 71
     0
 91
        1
 92
        7
 72
     1
 73
     1
 93
       16
 10
10.64830439673892
 20
13.42925545497742
 42
-0.4142135623730951
 10
10.66392939673892
 20
13.44488045497742
 42
0.0
 10
10.72076622860709
 20
13.44488045497742
 42
0.3208708054700533
 10
10.74149189673949
 20
13.47776766691909
 42
0.0
 10
10.71730439673933
 20
13.51325545497725
 42
-0.414213562373094
 10
10.73292939673933
 20
13.52888045497725
 42
0.0
 10
10.73292939673933
 20
13.55425545497833
 42
0.0
 10
10.51130439674011
 20
13.55425545497651
 42
0.0
 10
10.51130439674011
 20
12.96050545497742
 42
0.0
 10
10.73292939673933
 20
12.96050545497742
 42
0.0
 10
10.73292939673933
 20
12.98588045497759
 42
-0.4142135623730951
 10
10.71730439673933
 20
13.00150545497759
 42
0.0
 10
10.74149189673949
 20
13.03737654523043
 42
0.3359746306540741
 10
10.72112913768774
 20
13.06988045497742
 42
0.0
 10
10.66392939673892
 20
13.06988045497742
 42
-0.4142135623730951
 10
10.64830439673892
 20
13.08550545497742
 42
0.0
 97
        0
 75
     0
 76
     1
 52
450.0
 41
0.1
 77
     0
 78
     1
 53
90.0
 43
8.43859965315255
 44
6.867025709440852
 45
0.0125
 46
0.0125
 79
     2
 49
0.0125
 49
-0.0125
 47
0.0009600803746669
 98
        1
 10
10.5974651245449
 20
13.30640193506219
  0
LINE
  5
163
330
2
100
AcDbEntity
  8
0
100
AcDbLine
 10
10.40230439673883
 20
12.80276537623736
 30
0.0
 11
10.5113043967392
 21
13.71199553371748
 31
0.0
  0
LWPOLYLINE
  5
164
330
2
100
AcDbEntity
  8
0
100
AcDbPolyline
 90
        8
 70
     0
 43
0.0
 10
10.40230439673883
 20
12.80276537623736
 10
10.40230439673883
 20
13.71199553371748
 10
10.5113043967392
 20
13.71199553371748
 10
10.5113043967392
 20
12.80276537623736
 10
10.40230439673883
 20
12.80276537623736
 10
10.5113043967392
 20
13.71199553371748
 10
10.5113043967392
 20
12.80276537623736
 10
10.40230439673883
 20
13.71199553371748
  0
LINE
  5
165
330
2
100
AcDbEntity
  8
0
  6
HIDDEN2
100
AcDbLine
 10
11.5899077648832
 20
12.80276537623736
 30
0.0
 11
11.5899077648832
 21
13.71199553371748
 31
0.0
  0
HATCH
  5
166
330
2
100
AcDbEntity
  8
0
100
AcDbHatch
 10
0.0
 20
0.0
 30
0.0
210
0.0
220
0.0
230
1.0
  2
HONEY
 70
     0
 71
     0
 91
        2
 92
       16
 93
        9
 72
     1
 10
6.339934634423173
 20
11.61885313019645
 11
6.310257944043712
 21
11.61885313019645
 72
     1
 10
6.310257944043712
 20
11.61885313019645
 11
6.31041360311417
 21
11.9962505165838
 72
     1
 10
6.31041360311417
 20
11.9962505165838
 11
6.630762166407748
 21
11.99611838752996
 72
     1
 10
6.630762166407748
 20
11.99611838752996
 11
6.630748348557403
 21
11.96261683452046
 72
     1
 10
6.630748348557403
 20
11.96261683452043
 11
6.338477790536842
 21
11.96273738268804
 72
     1
 10
6.338477790536842
 20
11.96273738268804
 11
6.338348516502321
 21
11.64931084984637
 72
     1
 10
6.338348516502321
 20
11.64931084984637
 11
6.433333477871428
 21
11.74421748966056
 72
     1
 10
6.433333477871428
 20
11.74421748966056
 11
6.433333477871428
 21
11.71217495995181
 72
     1
 10
6.433333477871428
 20
11.71217495995181
 11
6.339934634423144
 21
11.61885313019645
 97
        0
 92
        1
 93
       11
 72
     1
 10
6.639513621876574
 20
12.06591891614273
 11
6.366790030282345
 21
12.06603140208538
 72
     2
 10
6.366766467604293
 20
12.008903390973
 40
0.0571280159716573
 50
449.9763681265572
 51
539.9763681265643
 73
     1
 72
     1
 10
6.309638456491882
 20
12.00892695365103
 11
6.309477247105178
 21
11.61807275525949
 72
     1
 10
6.309477247105178
 20
11.61807275525949
 11
6.434477236472787
 21
11.61802119851093
 72
     1
 10
6.434477236472787
 20
11.61802119851093
 11
6.434619110071309
 21
11.96199553371745
 72
     1
 10
6.434619110071309
 20
11.96199553371745
 11
6.717574121567878
 21
11.9618788277845
 72
     2
 10
6.695729720105475
 20
12.14938785354438
 40
0.1887771506741734
 50
276.6448831998169
 51
443.3078530532887
 73
     1
 72
     1
 10
6.717728791813556
 20
12.33687879588733
 11
6.405720682010326
 21
12.33700748488759
 72
     2
 10
6.411810198504895
 20
12.24820536213984
 40
0.0890106691113012
 50
93.92285935909901
 51
266.0298768940037
 73
     1
 72
     1
 10
6.40564743050902
 20
12.15940829289612
 11
6.616084490631436
 21
12.22349520537896
 72
     2
 10
6.639546838802061
 20
12.14645377240443
 40
0.0805348631119007
 50
253.0623079543601
 51
450.0236318734478
 73
     0
 97
        0
 75
     1
 76
     1
 52
90.0
 41
0.2
 77
     0
 78
     3
 53
90.0
 43
57.55582109417881
 44
-93.6889036178975
 45
-0.021650635094611
 46
0.0375
 79
     2
 49
0.025
 49
-0.05
 53
210.0
 43
57.55582109417881
 44
-93.6889036178975
 45
-0.021650635094611
 46
-0.0375
 79
     2
 49
0.025
 49
-0.05
 53
150.0
 43
57.55582109417881
 44
-93.6889036178975
 45
-0.043301270189222
 46
0.0
 79
     2
 49
-0.05
 49
0.025
 98
        1
 10
57.55582109417881
 20
-93.6889036178975
1001
GradientColor1ACI
1070
     5
1001
GradientColor2ACI
1070
     2
1001
ACAD
1010
0.0
1020
0.0
1030
0.0
  0
LWPOLYLINE
  5
167
330
2
100
AcDbEntity
  8
0
100
AcDbPolyline
 90
       11
 70
     1
 43
0.0
 10
6.639513621876574
 20
12.06591891614273
 10
6.366790030282345
 20
12.06603140208538
 42
0.4142135623731042
 10
6.309638456491882
 20
12.00892695365103
 10
6.309477247105178
 20
11.61807275525949
 10
6.434477236472787
 20
11.61802119851093
 10
6.434619110071309
 20
11.96199553371745
 10
6.717574121567906
 20
11.96187882778453
 42
0.8898955318630001
 10
6.717728791813556
 20
12.33687879588733
 10
6.405720682010326
 20
12.33700748488759
 42
0.9333884728362816
 10
6.40564743050902
 20
12.15940829289612
 10
6.616084490631408
 20
12.22349520537899
 42
-1.16016115395227
  0
LWPOLYLINE
  5
168
330
2
100
AcDbEntity
  8
0
  6
Continuous
100
AcDbPolyline
 90
        9
 70
     1
 43
0.0
 10
6.339934634423173
 20
11.61885313019645
 10
6.310257944043712
 20
11.61885313019645
 10
6.31041360311417
 20
11.9962505165838
 10
6.630762166407748
 20
11.99611838752996
 10
6.630748348557403
 20
11.96261683452043
 10
6.338477790536842
 20
11.96273738268804
 10
6.338348516502321
 20
11.64931084984637
 10
6.433333477871428
 20
11.74421748966056
 10
6.433333477871428
 20
11.71217495995181
  0
LWPOLYLINE
  5
169
330
2
100
AcDbEntity
  8
0
100
AcDbPolyline
 90
        5
 70
     1
 43
0.0
 10
6.278719937730841
 20
14.33895634830519
 42
5.689634243636946
 10
6.126969937730848
 20
14.41666937600819
 42
-0.1896103651935995
 10
6.143719937730821
 20
14.37408783658087
 10
6.143719937730821
 20
12.58699553371745
 10
6.278719937730812
 20
12.58699553371745
  0
LWPOLYLINE
  5
16A
330
2
100
AcDbEntity
  8
0
100
AcDbPolyline
 90
        4
 70
     1
 43
0.0
 10
6.341219937730812
 20
14.27606195962168
 10
6.341219937730812
 20
12.58699553371745
 10
6.476219937730803
 20
12.58699553371745
 10
6.476219937730832
 20
14.32238792328267
 42
-0.1157106517014934
  0
LWPOLYLINE
  5
16B
102
{ACAD_REACTORS
330
320
102
}
330
2
100
AcDbEntity
  8
0
  6
Continuous
100
AcDbPolyline
 90
       21
 70
     0
 43
0.0
 10
17.55734382579891
 20
13.5339955337176
 10
17.55734382579891
 20
14.0249955337175
 42
0.4142135623730951
 10
17.4953438257989
 20
14.08699553371745
 10
13.27812390289693
 20
14.08699553371748
 10
13.21612390289692
 20
14.0249955337175
 10
13.21612390289692
 20
13.99195658659919
 42
0.3899024490717814
 10
13.01495105156976
 20
13.80695658659921
 10
12.9653438257989
 20
13.80695658659918
 10
12.96534382579892
 20
13.71199553371748
 10
13.09034382579892
 20
13.71199553371748
 42
-0.7066666666666829
 10
13.27784382579892
 20
13.71199553371748
 10
13.52751113302753
 20
13.71199553371748
 10
13.52751113302753
 20
13.52499553371747
 10
13.6273438257989
 20
13.52499553371747
 42
-1.045128398166766
 10
13.61810234145184
 20
13.33840358296926
 42
0.4419056050544676
 10
13.52734382579888
 20
13.25576699642998
 10
13.52734382579888
 20
12.39899553371747
 10
13.58934382579889
 20
12.33699553371745
 10
17.4328438257989
 20
12.33699553371745
 42
0.4142135623730951
 10
17.49484382579891
 20
12.39899553371747
 10
17.49484382579891
 20
12.88999553371759
  0
LWPOLYLINE
  5
16C
102
{ACAD_REACTORS
330
264
330
285
330
295
102
}
330
2
100
AcDbEntity
  8
0
  6
Continuous
100
AcDbPolyline
 90
       26
 70
     0
 43
0.0
 10
17.68234935830423
 20
14.0249955337175
 10
17.68233829329352
 20
11.9619955337174
 10
17.62033829329351
 20
11.9619955337174
 10
17.62033829329351
 20
11.47002770446185
 10
17.49533829329351
 20
11.47002770446185
 10
17.49533829329351
 20
11.96199553371745
 10
17.24433829329354
 20
11.9619955337174
 42
0.4142135623730951
 10
17.18233829329352
 20
11.89999553371738
 10
17.18234436149583
 20
9.586995374061459
 42
0.4142128141791537
 10
17.24484436149561
 20
9.52449553371737
 10
18.02734936288004
 20
9.52449553371737
 42
-1.000000000000008
 10
18.24534936288006
 20
9.52449553371737
 10
18.32034935830421
 20
9.52449553371737
 10
18.32034935830421
 20
10.21149553371738
 10
18.37034935830422
 20
10.21149553371738
 10
18.37034935830422
 20
10.42993826078539
 42
-0.9999999999999998
 10
18.37034935830422
 20
10.67993826078539
 10
18.37034935830422
 20
11.09101161908965
 42
-0.9999999999999998
 10
18.37034935830422
 20
11.34101161908965
 10
18.37034935830422
 20
11.59101161908965
 42
-0.9999999999999998
 10
18.37034935830422
 20
11.84101161908965
 10
18.37034935830422
 20
13.33693702482939
 42
-0.9999999999999998
 10
18.37034935830422
 20
13.58693702482939
 10
18.37034935830422
 20
14.08699553371745
 10
17.74484935830423
 20
14.08699553371745
 42
0.4142135623730951
 10
17.68234935830423
 20
14.02449553371745
  0
LWPOLYLINE
  5
16D
330
2
100
AcDbEntity
  8
0
100
AcDbPolyline
 90
       15
 70
     0
 43
0.0
 10
17.94834935830425
 20
8.585495533717406
 42
-0.4142135623730951
 10
17.88634935830424
 20
8.647495533717417
 10
17.88634935830424
 20
9.52449553371737
 10
19.13634935830424
 20
9.524495533717484
 10
19.13634935830424
 20
9.586495533717439
 10
19.76134935830424
 20
9.58649553371741
 10
19.76134935830424
 20
8.523495533717422
 42
-0.4142135623731003
 10
19.69934935830423
 20
8.46149553371741
 10
19.16734935830425
 20
8.46149553371741
 42
-0.4142135623730951
 10
19.13634935830424
 20
8.492495533717416
 10
19.13634935830424
 20
8.523495533717422
 10
18.91734935830425
 20
8.523495533717422
 42
-0.4142135623730951
 10
18.88634935830424
 20
8.554495533717428
 10
18.88634935830424
 20
8.585495533717406
 10
17.94834936777357
 20
8.585495533717406
  0
HATCH
  5
16E
330
2
100
AcDbEntity
  8
0
  6
Continuous
100
AcDbHatch
 10
0.0
 20
0.0
 30
0.0
210
0.0
220
0.0
230
1.0
  2
STEEL
 70
     0
 71
     0
 91
        1
 92
        7
 72
     0
 73
     1
 93
        6
 10
18.38234935830422
 20
9.586495533717382
 10
19.1021676222399
 20
9.586495533717467
 10
19.1021676222399
 20
9.524495533717455
 10
18.32034935830421
 20
9.52449553371737
 10
18.32034935830421
 20
10.18162692799212
 10
18.38234935830422
 20
10.18162692799212
 97
        0
 75
     0
 76
     1
 52
89.99999999999998
 41
1.0
 77
     0
 78
     2
 53
135.0
 43
49.43851865246924
 44
107.4798803692431
 45
-0.0883883476483185
 46
-0.0883883476483184
 79
     0
 53
135.0
 43
49.37601865246924
 44
107.4798803692431
 45
-0.0883883476483185
 46
-0.0883883476483184
 79
     0
 47
0.003572857848563
 98
        1
 10
18.35473127134799
 20
9.695071098861788
  0
LINE
  5
16F
330
2
100
AcDbEntity
  8
0
100
AcDbLine
 10
19.1021676222399
 20
9.524495533717455
 30
0.0
 11
18.32034935830421
 21
9.52449553371737
 31
0.0
  0
LINE
  5
170
330
2
100
AcDbEntity
  8
0
  6
Continuous
100
AcDbLine
 10
18.32034935830421
 20
9.52449553371737
 30
0.0
 11
18.32034935830421
 21
10.18162692799212
 31
0.0
  0
LINE
  5
171
330
2
100
AcDbEntity
  8
0
  6
Continuous
100
AcDbLine
 10
18.38234935830422
 20
9.586495533717382
 30
0.0
 11
18.38234935830422
 21
10.18162692799212
 31
0.0
  0
LINE
  5
172
330
2
100
AcDbEntity
  8
0
  6
Continuous
100
AcDbLine
 10
18.38234935830422
 20
10.18162692799212
 30
0.0
 11
18.32034935830421
 21
10.18162692799212
 31
0.0
  0
LINE
  5
173
330
2
100
AcDbEntity
  8
0
100
AcDbLine
 10
19.1021676222399
 20
9.586495533717467
 30
0.0
 11
18.38234935830422
 21
9.586495533717382
 31
0.0
  0
INSERT
  5
174
330
2
100
AcDbEntity
  8
0
100
AcDbBlockReference
  2
8 x .75 FH
 10
18.74225849027209
 20
9.58649553371741
 30
0.0
 41
-1.0
  0
INSERT
  5
175
330
2
100
AcDbEntity
  8
0
100
AcDbBlockReference
  2
8 X .625 PH
 10
18.38234935830422
 20
9.884061230854754
 30
0.0
 41
-1.0
 50
270.0
  0
LINE
  5
176
330
2
100
AcDbEntity
  8
0
100
AcDbLine
 10
19.1021676222399
 20
9.586495533717467
 30
0.0
 11
19.10216762223996
 21
9.524495533717484
 31
0.0
  0
HATCH
  5
177
330
2
100
AcDbEntity
  8
0
100
AcDbHatch
 10
0.0
 20
0.0
 30
0.0
210
0.0
220
0.0
230
1.0
  2
SOLID
 70
     1
 71
     0
 91
        1
 92
        7
 72
     1
 73
     1
 93
        2
 10
13.09001113302753
 20
13.71199553371745
 42
0.0
 10
13.27751113302753
 20
13.71199553371748
 42
0.6666666666666311
 97
        0
 75
     1
 76
     1
 47
0.0010014887122476
 98
        1
 10
13.20491632907169
 20
13.75805561006437
1001
GradientColor1ACI
1070
     5
1001
GradientColor2ACI
1070
     2
1001
ACAD
1010
0.0
1020
0.0
1030
0.0
  0
HATCH
  5
178
330
2
100
AcDbEntity
  8
0
100
AcDbHatch
 10
0.0
 20
0.0
 30
0.0
210
0.0
220
0.0
230
1.0
  2
SOLID
 70
     1
 71
     0
 91
        1
 92
        7
 72
     1
 73
     1
 93
        2
 10
13.09001113302753
 20
12.80276537623739
 42
0.0
 10
13.27751113302753
 20
12.80276537623736
 42
-0.6666666666666311
 97
        0
 75
     1
 76
     1
 47
0.0010014887122476
 98
        1
 10
13.20491632907169
 20
12.75670529989047
1001
GradientColor1ACI
1070
     5
1001
GradientColor2ACI
1070
     2
1001
ACAD
1010
0.0
1020
0.0
1030
0.0
  0
LWPOLYLINE
  5
179
330
2
100
AcDbEntity
  8
0
100
AcDbPolyline
 90
       11
 70
     1
 43
0.0
 10
13.27751113302753
 20
12.80276537623736
 10
13.52751113302753
 20
12.80276537623736
 10
13.52751113302753
 20
12.42876537623736
 10
13.24601113302753
 20
12.42876537623734
 42
-0.4142135623731695
 10
13.21501113302753
 20
12.45976537623734
 10
13.21501113302753
 20
12.50629014452381
 42
0.235730494161761
 10
13.20264283134872
 20
12.53106633909984
 10
12.97737943470639
 20
12.70046441337486
 42
-0.235730494161718
 10
12.96501113302753
 20
12.72524060795088
 10
12.96501113302753
 20
12.80276537623739
 10
13.09001113302753
 20
12.80276537623739
 42
0.6666666666666588
  0
LWPOLYLINE
  5
17A
330
2
100
AcDbEntity
  8
0
100
AcDbPolyline
 90
        4
 70
     0
 43
0.0
 10
12.33990776488321
 20
13.55425545497742
 10
13.41851113302715
 20
13.55425545497742
 10
13.41851113302715
 20
13.71199553371748
 10
12.33990776488321
 20
13.71199553371748
  0
LWPOLYLINE
  5
17B
330
2
100
AcDbEntity
  8
0
100
AcDbPolyline
 90
        4
 70
     0
 43
0.0
 10
12.33990776488321
 20
12.96050545497742
 10
13.41851113302715
 20
12.96050545497742
 10
13.41851113302715
 20
12.80276537623736
 10
12.33990776488321
 20
12.80276537623736
  0
LWPOLYLINE
  5
17C
330
2
100
AcDbEntity
  8
0
100
AcDbPolyline
 90
       14
 70
     1
 43
0.0
 10
13.20868639207862
 20
13.06988045497742
 42
0.3359746306540741
 10
13.18832363302687
 20
13.03737654523043
 10
13.21251113302702
 20
13.00150545497759
 42
-0.4142135623730951
 10
13.19688613302702
 20
12.98588045497759
 10
13.01526113302685
 20
12.98588045497759
 10
13.01526113302685
 20
13.52888045497725
 10
13.19688613302702
 20
13.52888045497725
 42
-0.414213562373094
 10
13.21251113302702
 20
13.51325545497725
 10
13.18832363302687
 20
13.47776766691909
 42
0.3208708054700532
 10
13.20904930115927
 20
13.44488045497742
 10
13.26588613302744
 20
13.44488045497742
 42
-0.4142135623730951
 10
13.28151113302743
 20
13.42925545497742
 10
13.28151113302743
 20
13.08550545497742
 42
-0.4142135623730951
 10
13.26588613302744
 20
13.06988045497742
  0
LWPOLYLINE
  5
17D
330
2
100
AcDbEntity
  8
0
100
AcDbPolyline
 90
       14
 70
     1
 43
0.0
 10
13.20746799193426
 20
13.07688045497794
 42
0.3593608004949541
 10
13.18156397605349
 20
13.03488056765395
 10
13.20531174277226
 20
12.99966162054166
 42
-0.3524310491054993
 10
13.19688613302702
 20
12.9928804549772
 10
13.01526113302685
 20
12.9928804549772
 10
13.01526113302685
 20
13.52188045497765
 10
13.19688613302702
 20
13.52188045497765
 42
-0.3518693664465323
 10
13.2053080403885
 20
13.51511612727604
 10
13.18150453620916
 20
13.48019173611006
 42
0.3446308864324803
 10
13.20774345021078
 20
13.4378804549769
 10
13.26588613302744
 20
13.4378804549769
 42
-0.4142135623730946
 10
13.27451113302692
 20
13.42925545497742
 10
13.27451113302692
 20
13.08550545497742
 42
-0.4142135623730946
 10
13.26588613302744
 20
13.07688045497794
  0
LWPOLYLINE
  5
17E
330
2
100
AcDbEntity
  8
0
100
AcDbPolyline
 90
       10
 70
     1
 43
0.0
 10
13.20394863302687
 20
13.10113045497742
 42
0.3584554666094669
 10
13.15707363302687
 20
13.03622660882406
 10
13.15707363302687
 20
13.01713045497759
 10
13.04651113302685
 20
13.01713045497759
 10
13.04651113302685
 20
13.49763045497725
 10
13.15707363302687
 20
13.49763045497725
 10
13.15707363302687
 20
13.47853430113078
 42
0.3467993108968364
 10
13.20394863302687
 20
13.41363045497742
 10
13.25026113302743
 20
13.41363045497742
 10
13.25026113302743
 20
13.10113045497742
  0
LWPOLYLINE
  5
17F
330
2
100
AcDbEntity
  8
0
100
AcDbPolyline
 90
        6
 70
     0
 43
0.0
 10
13.04351113302715
 20
12.98588045497759
 10
13.04351113302715
 20
12.97613045497742
 10
13.00551113302669
 20
12.97613045497742
 10
13.00551113302669
 20
13.53863045497742
 10
13.04351113302715
 20
13.53863045497742
 10
13.04351113302715
 20
13.52888045497725
  0
LINE
  5
180
330
2
100
AcDbEntity
  8
0
100
AcDbLine
 10
13.19688613302702
 20
13.52888045497725
 30
0.0
 11
13.19688613302702
 21
13.55425545497742
 31
0.0
  0
LINE
  5
181
330
2
100
AcDbEntity
  8
0
100
AcDbLine
 10
13.04351113302715
 20
13.52888045497725
 30
0.0
 11
13.04351113302715
 21
13.55425545497742
 31
0.0
  0
LINE
  5
182
330
2
100
AcDbEntity
  8
0
100
AcDbLine
 10
13.19688613302702
 20
12.98588045497759
 30
0.0
 11
13.19688613302702
 21
12.96050545497742
 31
0.0
  0
LINE
  5
183
330
2
100
AcDbEntity
  8
0
100
AcDbLine
 10
13.04351113302715
 20
12.98588045497759
 30
0.0
 11
13.04351113302715
 21
12.96050545497742
 31
0.0
  0
HATCH
  5
184
330
2
100
AcDbEntity
  8
0
  6
Continuous
100
AcDbHatch
 10
0.0
 20
0.0
 30
0.0
210
0.0
220
0.0
230
1.0
  2
DOTS
 70
     0
 71
     0
 91
        2
 92
        7
 72
     0
 73
     1
 93
        4
 10
13.19688613302702
 20
12.98588045497759
 10
13.19688613302702
 20
12.96050545497742
 10
13.04351113302715
 20
12.96050545497742
 10
13.04351113302715
 20
12.98588045497759
 97
        0
 92
        7
 72
     0
 73
     1
 93
        4
 10
13.19688613302702
 20
13.55425545497742
 10
13.19688613302702
 20
13.52888045497725
 10
13.04351113302715
 20
13.52888045497725
 10
13.04351113302715
 20
13.55425545497742
 97
        0
 75
     0
 76
     1
 52
450.0
 41
0.1
 77
     0
 78
     1
 53
90.0
 43
9.06359965315255
 44
6.867025709440852
 45
0.00625
 46
0.003125
 79
     2
 49
0.0
 49
-0.00625
 47
0.0006001443632006
 98
        2
 10
13.13930119297862
 20
12.97416016483017
 10
13.13570031917976
 20
13.54404509422598
  0
HATCH
  5
185
330
2
100
AcDbEntity
  8
0
  6
Continuous
100
AcDbHatch
 10
0.0
 20
0.0
 30
0.0
210
0.0
220
0.0
230
1.0
  2
DASH
 70
     0
 71
     0
 91
        1
 92
        7
 72
     1
 73
     1
 93
       16
 10
13.28151113302743
 20
13.42925545497742
 42
0.4142135623730951
 10
13.26588613302744
 20
13.44488045497742
 42
0.0
 10
13.20904930115927
 20
13.44488045497742
 42
-0.3208708054700533
 10
13.18832363302687
 20
13.47776766691909
 42
0.0
 10
13.21251113302702
 20
13.51325545497725
 42
0.414213562373094
 10
13.19688613302702
 20
13.52888045497725
 42
0.0
 10
13.19688613302702
 20
13.55425545497833
 42
0.0
 10
13.41851113302624
 20
13.55425545497651
 42
0.0
 10
13.41851113302624
 20
12.96050545497742
 42
0.0
 10
13.19688613302702
 20
12.96050545497742
 42
0.0
 10
13.19688613302702
 20
12.98588045497759
 42
0.4142135623730951
 10
13.21251113302702
 20
13.00150545497759
 42
0.0
 10
13.18832363302687
 20
13.03737654523043
 42
-0.3359746306540741
 10
13.20868639207862
 20
13.06988045497742
 42
0.0
 10
13.26588613302744
 20
13.06988045497742
 42
0.4142135623730951
 10
13.28151113302743
 20
13.08550545497742
 42
0.0
 97
        0
 75
     0
 76
     1
 52
450.0
 41
0.1
 77
     0
 78
     1
 53
90.0
 43
9.06359965315255
 44
6.867025709440852
 45
0.0125
 46
0.0125
 79
     2
 49
0.0125
 49
-0.0125
 47
0.0009600803746669
 98
        1
 10
13.33235040522146
 20
13.30640193506219
  0
LINE
  5
186
330
2
100
AcDbEntity
  8
0
100
AcDbLine
 10
13.52751113302753
 20
12.80276537623736
 30
0.0
 11
13.41851113302715
 21
13.71199553371748
 31
0.0
  0
LWPOLYLINE
  5
187
330
2
100
AcDbEntity
  8
0
100
AcDbPolyline
 90
        8
 70
     0
 43
0.0
 10
13.52751113302753
 20
12.80276537623736
 10
13.52751113302753
 20
13.71199553371748
 10
13.41851113302715
 20
13.71199553371748
 10
13.41851113302715
 20
12.80276537623736
 10
13.52751113302753
 20
12.80276537623736
 10
13.41851113302715
 20
13.71199553371748
 10
13.41851113302715
 20
12.80276537623736
 10
13.52751113302753
 20
13.71199553371748
  0
LINE
  5
188
330
2
100
AcDbEntity
  8
0
  6
HIDDEN2
100
AcDbLine
 10
12.33990776488321
 20
12.80276537623736
 30
0.0
 11
12.33990776488321
 21
13.71199553371748
 31
0.0
  0
HATCH
  5
189
330
2
100
AcDbEntity
  8
0
100
AcDbHatch
 10
0.0
 20
0.0
 30
0.0
210
0.0
220
0.0
230
1.0
  2
HONEY
 70
     0
 71
     0
 91
        2
 92
       16
 93
        9
 72
     1
 10
17.58988089534324
 20
11.61885313019645
 11
17.6195575857227
 21
11.61885313019645
 72
     1
 10
17.6195575857227
 20
11.61885313019645
 11
17.61940192665224
 21
11.9962505165838
 72
     1
 10
17.61940192665224
 20
11.9962505165838
 11
17.29905336335867
 21
11.99611838752996
 72
     1
 10
17.29905336335867
 20
11.99611838752996
 11
17.29906718120901
 21
11.96261683452046
 72
     1
 10
17.29906718120895
 20
11.96261683452043
 11
17.59133773922951
 21
11.96273738268802
 72
     1
 10
17.59133773922951
 20
11.96273738268804
 11
17.59146701326403
 21
11.64931084984637
 72
     1
 10
17.59146701326403
 20
11.64931084984637
 11
17.49648205189493
 21
11.74421748966056
 72
     1
 10
17.49648205189493
 20
11.74421748966056
 11
17.49648205189493
 21
11.71217495995181
 72
     1
 10
17.49648205189493
 20
11.71217495995181
 11
17.58988089534321
 21
11.61885313019645
 97
        0
 92
        1
 93
       11
 72
     1
 10
17.29030190788984
 20
12.06591891614273
 11
17.56302549948407
 21
12.06603140208538
 72
     2
 10
17.56304906216206
 20
12.008903390973
 40
0.0571280159716573
 50
269.9763681265572
 51
359.9763681265644
 73
     0
 72
     1
 10
17.62017707327447
 20
12.00892695365103
 11
17.62033828266118
 21
11.61807275525949
 72
     1
 10
17.62033828266118
 20
11.61807275525949
 11
17.49533829329357
 21
11.61802119851093
 72
     1
 10
17.49533829329357
 20
11.61802119851093
 11
17.49519641969505
 21
11.96199553371745
 72
     1
 10
17.49519641969505
 20
11.96199553371745
 11
17.21224140819848
 21
11.9618788277845
 72
     2
 10
17.23408580966088
 20
12.14938785354438
 40
0.1887771506741734
 50
96.64488319981693
 51
263.3078530532888
 73
     0
 72
     1
 10
17.21208673795286
 20
12.33687879588733
 11
17.52409484775609
 21
12.33700748488756
 72
     2
 10
17.51800533126152
 20
12.24820536213984
 40
0.0890106691113012
 50
-86.07714064090098
 51
86.02987689400375
 73
     0
 72
     1
 10
17.52416809925739
 20
12.15940829289612
 11
17.31373103913498
 21
12.22349520537896
 72
     2
 10
17.29026869096435
 20
12.14645377240443
 40
0.0805348631119007
 50
433.0623079543601
 51
630.0236318734479
 73
     1
 97
        0
 75
     1
 76
     1
 52
90.0
 41
0.2
 77
     0
 78
     3
 53
90.0
 43
58.18082109417881
 44
-93.6889036178975
 45
-0.021650635094611
 46
0.0375
 79
     2
 49
0.025
 49
-0.05
 53
210.0
 43
58.18082109417881
 44
-93.6889036178975
 45
-0.021650635094611
 46
-0.0375
 79
     2
 49
0.025
 49
-0.05
 53
150.0
 43
58.18082109417881
 44
-93.6889036178975
 45
-0.043301270189222
 46
0.0
 79
     2
 49
-0.05
 49
0.025
 98
        1
 10
-33.62600556441242
 20
-93.6889036178975
1001
GradientColor1ACI
1070
     5
1001
GradientColor2ACI
1070
     2
1001
ACAD
1010
0.0
1020
0.0
1030
0.0
  0
LWPOLYLINE
  5
18A
330
2
100
AcDbEntity
  8
0
100
AcDbPolyline
 90
       11
 70
     1
 43
0.0
 10
17.29030190788984
 20
12.06591891614273
 10
17.56302549948407
 20
12.06603140208538
 42
-0.4142135623731042
 10
17.62017707327447
 20
12.00892695365103
 10
17.62033828266118
 20
11.61807275525949
 10
17.49533829329357
 20
11.61802119851093
 10
17.49519641969505
 20
11.96199553371745
 10
17.21224140819851
 20
11.96187882778453
 42
-0.8898955318630001
 10
17.21208673795286
 20
12.33687879588733
 10
17.52409484775609
 20
12.33700748488759
 42
-0.9333884728362816
 10
17.52416809925739
 20
12.15940829289612
 10
17.31373103913495
 20
12.22349520537899
 42
1.16016115395227
  0
LWPOLYLINE
  5
18B
330
2
100
AcDbEntity
  8
0
  6
Continuous
100
AcDbPolyline
 90
        9
 70
     1
 43
0.0
 10
17.58988089534324
 20
11.61885313019645
 10
17.6195575857227
 20
11.61885313019645
 10
17.61940192665224
 20
11.9962505165838
 10
17.29905336335867
 20
11.99611838752996
 10
17.29906718120895
 20
11.96261683452043
 10
17.59133773922951
 20
11.96273738268804
 10
17.59146701326403
 20
11.64931084984637
 10
17.49648205189493
 20
11.74421748966056
 10
17.49648205189493
 20
11.71217495995181
  0
LWPOLYLINE
  5
18C
330
2
100
AcDbEntity
  8
0
100
AcDbPolyline
 90
        8
 70
     0
 43
0.0
 10
17.55734382579891
 20
13.5339955337176
 10
17.36984487301294
 20
13.5339955337176
 10
17.36984487301294
 20
13.46199553371748
 10
16.99484487301293
 20
13.46199553371748
 10
16.99484487301293
 20
12.96199553371748
 10
17.36984487301294
 20
12.96199553371748
 10
17.36984487301294
 20
12.88999553371759
 10
17.49484382579891
 20
12.88999553371759
  0
LWPOLYLINE
  5
18D
330
2
100
AcDbEntity
  8
0
100
AcDbPolyline
 90
        4
 70
     1
 43
0.0
 10
17.46984487301284
 20
13.5244955337176
 10
17.46984487301284
 20
12.8994955337176
 10
17.36984487301282
 20
12.8994955337176
 10
17.36984487301282
 20
13.5244955337176
  0
LWPOLYLINE
  5
18E
330
2
100
AcDbEntity
  8
0
100
AcDbPolyline
 90
        4
 70
     1
 43
0.0
 10
17.00984487301281
 20
13.44599553371752
 10
17.36984487301282
 20
13.44599553371752
 10
17.36984487301282
 20
12.97799553371756
 10
17.00984487301281
 20
12.97799553371756
  0
LWPOLYLINE
  5
18F
330
2
100
AcDbEntity
  8
0
100
AcDbPolyline
 90
        4
 70
     0
 43
0.0
 10
17.36984487301282
 20
13.02799553371751
 10
17.05984487301276
 20
13.02799553371751
 10
17.05984487301276
 20
13.39599553371757
 10
17.36984487301282
 20
13.39599553371757
  0
LWPOLYLINE
  5
190
330
2
100
AcDbEntity
  8
0
100
AcDbPolyline
 90
        4
 70
     1
 43
0.0
 10
17.35484487301272
 20
13.31899553371754
 42
0.4999999999999347
 10
17.07484487301275
 20
13.31899553371757
 10
17.07484487301275
 20
13.10899553371753
 42
0.4999999999998935
 10
17.35484487301272
 20
13.10899553371753
  0
DIMENSION
  5
191
102
{ACAD_XDICTIONARY
360
192
102
}
102
{ACAD_REACTORS
330
193
102
}
330
2
100
AcDbEntity
  8
0
100
AcDbDimension
  2
*D3
 10
9.751698963461336
 20
36.30649322834881
 30
0.0
 11
12.00194896346134
 21
36.30649322834881
 31
0.0
 71
     5
 42
4.500500000000016
  3
Knife
100
AcDbAlignedDimension
 13
14.25219896346135
 23
35.16601472167872
 33
0.0
 14
9.751698963461336
 24
35.93201472167874
 34
0.0
100
AcDbRotatedDimension
1001
ACAD
1000
DSTYLE
1002
{
1070
    40
1040
1.0
1002
}
  0
DIMENSION
  5
1A3
102
{ACAD_XDICTIONARY
360
1A4
102
}
102
{ACAD_REACTORS
330
1A5
102
}
330
2
100
AcDbEntity
  8
0
100
AcDbDimension
  2
*D4
 10
15.7717241210903
 20
18.63513706734849
 30
0.0
 11
15.7717241210903
 21
26.90057589451361
 31
0.0
  1
BOX
 71
     5
 42
16.53087765433022
  3
Knife
100
AcDbAlignedDimension
 13
14.25219896346135
 23
35.16601472167872
 33
0.0
 14
14.50219896346138
 24
18.63513706734849
 34
0.0
 50
90.0
100
AcDbRotatedDimension
1001
ACAD
1000
DSTYLE
1002
{
1070
    40
1040
1.0
1002
}
  0
DIMENSION
  5
1B3
102
{ACAD_XDICTIONARY
360
1B4
102
}
102
{ACAD_REACTORS
330
1B5
102
}
330
2
100
AcDbEntity
  8
0
100
AcDbDimension
  2
*D5
 10
7.950507529809328
 20
29.76067649640203
 30
0.0
 11
7.950507529809324
 21
32.0568428427877
 31
0.0
 71
     5
 42
4.592332692771346
  3
Knife
100
AcDbAlignedDimension
 13
9.689698963461268
 23
34.35300918917338
 33
0.0
 14
12.89044403769478
 24
29.76067649640203
 34
0.0
 50
90.0
100
AcDbRotatedDimension
1001
ACAD
1000
DSTYLE
1002
{
1070
    40
1040
1.0
1002
}
  0
DIMENSION
  5
1C4
330
2
100
AcDbEntity
  8
0
100
AcDbDimension
  2
*D6
 10
6.739008642781759
 20
29.76067649640203
 30
0.0
 11
6.739008642781755
 21
33.25154683837129
 31
0.0
 70
   128
 71
     5
 42
5.40533822527669
  3
Knife
100
AcDbAlignedDimension
 13
8.750698963461303
 23
35.16601472167872
 33
0.0
 14
12.89044403769478
 24
29.76067649640203
 34
0.0
 50
90.0
100
AcDbRotatedDimension
1001
ACAD
1000
DSTYLE
1002
{
1070
    40
1040
1.0
1002
}
  0
DIMENSION
  5
1D2
102
{ACAD_XDICTIONARY
360
1D3
102
}
102
{ACAD_REACTORS
330
1D4
102
}
330
2
100
AcDbEntity
  8
0
100
AcDbDimension
  2
*D7
 10
7.950507529809327
 20
21.01019866601537
 30
0.0
 11
7.950507529809324
 21
24.69783421306435
 31
0.0
 71
     5
 42
7.375271094097957
  3
Knife
100
AcDbAlignedDimension
 13
12.89044403769475
 23
28.38546976011333
 33
0.0
 14
12.56143591422134
 24
21.01019866601537
 34
0.0
 50
90.0
100
AcDbRotatedDimension
1001
ACAD
1000
DSTYLE
1002
{
1070
    40
1040
1.0
1002
}
  0
DIMENSION
  5
1E3
102
{ACAD_XDICTIONARY
360
1E4
102
}
102
{ACAD_REACTORS
330
1E5
102
}
330
2
100
AcDbEntity
  8
0
100
AcDbDimension
  2
*D8
 10
6.739008642781752
 20
18.6351370673485
 30
0.0
 11
6.739008642781749
 21
23.29041101292392
 31
0.0
 70
   128
 71
     5
 42
9.750332692764828
  3
Knife
100
AcDbAlignedDimension
 13
12.89044403769475
 23
28.38546976011333
 33
0.0
 14
8.652448963460159
 24
18.63513706734849
 34
0.0
 50
90.0
100
AcDbRotatedDimension
1001
ACAD
1000
DSTYLE
1002
{
1070
    40
1040
1.0
1002
}
  0
DIMENSION
  5
1F3
102
{ACAD_XDICTIONARY
360
1F4
102
}
102
{ACAD_REACTORS
330
1F5
102
}
330
2
100
AcDbEntity
  8
0
100
AcDbDimension
  2
*D9
 10
7.950507529809325
 20
18.6351370673485
 30
0.0
 11
7.950507529809321
 21
19.82263706734524
 31
0.0
 71
     5
 42
2.374999999993491
  3
Knife
100
AcDbAlignedDimension
 13
12.56419896346136
 23
21.01013706734199
 33
0.0
 14
8.652448963460159
 24
18.63513706734849
 34
0.0
 50
90.0
100
AcDbRotatedDimension
1001
ACAD
1000
DSTYLE
1002
{
1070
    40
1040
1.0
1002
}
  0
DIMENSION
  5
204
330
2
100
AcDbEntity
  8
0
100
AcDbDimension
  2
*D10
 10
10.05473067687626
 20
28.38546976011333
 30
0.0
 11
10.05473067687625
 21
29.07307312825768
 31
0.0
  1
DAYLIGHT OPENING
 71
     5
 42
1.375206736288703
  3
Knife
100
AcDbAlignedDimension
 13
10.38547578375205
 23
29.76067649640203
 33
0.0
 14
10.38547578375205
 24
28.38546976011333
 34
0.0
 50
90.0
100
AcDbRotatedDimension
1001
ACAD
1000
DSTYLE
1002
{
1070
    40
1040
1.0
1002
}
  0
DIMENSION
  5
212
102
{ACAD_XDICTIONARY
360
213
102
}
102
{ACAD_REACTORS
330
214
102
}
330
2
100
AcDbEntity
  8
0
100
AcDbDimension
  2
*D11
 10
14.25219896346135
 20
32.39655896675981
 30
0.0
 11
13.37719896346135
 21
32.39655896675981
 31
0.0
 71
     5
 42
1.75
  3
Knife
100
AcDbAlignedDimension
 13
12.50219896346135
 23
32.33800918917339
 33
0.0
 14
14.25219896346135
 24
32.33800918917339
 34
0.0
100
AcDbRotatedDimension
1001
ACAD
1000
DSTYLE
1002
{
1070
    40
1040
1.0
1002
}
  0
DIMENSION
  5
223
102
{ACAD_XDICTIONARY
360
224
102
}
102
{ACAD_REACTORS
330
225
102
}
330
2
100
AcDbEntity
  8
0
100
AcDbDimension
  2
*D12
 10
11.05554806961208
 20
33.97800631829133
 30
0.0
 11
11.05554806961208
 21
34.57201051998503
 31
0.0
 71
     5
 42
1.188008403387392
  3
Knife
100
AcDbAlignedDimension
 13
11.05067836968142
 23
35.16601472167872
 33
0.0
 14
11.05067525291755
 24
33.97800631829133
 34
0.0
 50
90.0
100
AcDbRotatedDimension
1001
ACAD
1000
DSTYLE
1002
{
1070
    40
1040
1.0
1002
}
  0
DIMENSION
  5
234
102
{ACAD_XDICTIONARY
360
235
102
}
102
{ACAD_REACTORS
330
236
102
}
330
2
100
AcDbEntity
  8
0
100
AcDbDimension
  2
*D13
 10
12.92464273966325
 20
35.16601472167872
 30
0.0
 11
13.61116819281155
 21
35.6648162856797
 31
0.0
 70
   128
 71
     5
 42
0.6880110650106986
  3
Knife
100
AcDbAlignedDimension
 13
12.12719896346129
 23
34.47800365666803
 33
0.0
 14
12.75417775170342
 24
35.16601472167872
 34
0.0
 50
90.0
100
AcDbRotatedDimension
1001
ACAD
1000
DSTYLE
1002
{
1070
    40
1040
1.0
1002
}
  0
DIMENSION
  5
245
330
2
100
AcDbEntity
  8
0
100
AcDbDimension
  2
*D14
 10
15.7717241210903
 20
35.91601472167872
 30
0.0
 11
16.45824957423859
 21
36.53945517436119
 31
0.0
 70
   128
 71
     5
 42
0.75
  3
Knife
100
AcDbAlignedDimension
 13
14.25219896346135
 23
35.16601472167872
 33
0.0
 14
14.25219896346135
 24
35.91601472167872
 34
0.0
 50
90.0
100
AcDbRotatedDimension
1001
ACAD
1000
DSTYLE
1002
{
1070
    40
1040
1.0
1002
}
  0
DIMENSION
  5
254
330
2
100
AcDbEntity
  8
0
100
AcDbDimension
  2
*D15
 10
17.47294435807953
 20
18.63513706734849
 30
0.0
 11
17.47294435807952
 21
27.27557589451361
 31
0.0
  1
ROUGH\POPENING
 71
     5
 42
17.28087765433022
  3
Knife
100
AcDbAlignedDimension
 13
14.25219896346135
 23
35.91601472167872
 33
0.0
 14
14.50219896346138
 24
18.63513706734849
 34
0.0
 50
90.0
100
AcDbRotatedDimension
1001
ACAD
1000
DSTYLE
1002
{
1070
    40
1040
1.0
1002
}
  0
DIMENSION
  5
262
102
{ACAD_XDICTIONARY
360
263
102
}
102
{ACAD_REACTORS
330
264
102
}
330
2
100
AcDbEntity
  8
0
100
AcDbDimension
  2
*D16
 10
18.37034935830422
 20
16.39079236791298
 30
0.0
 11
11.96490776488318
 21
16.39079236791298
 31
0.0
  1
BOX
 71
     5
 42
12.81088318684209
  3
Knife
100
AcDbAlignedDimension
 13
5.559466171462133
 23
14.08699553371745
 33
0.0
 14
18.37034935830422
 24
14.08699553371745
 34
0.0
100
AcDbRotatedDimension
1001
ACAD
1000
DSTYLE
1002
{
1070
    40
1040
1.0
1002
}
  0
DIMENSION
  5
272
102
{ACAD_XDICTIONARY
360
273
102
}
102
{ACAD_REACTORS
330
274
102
}
330
2
100
AcDbEntity
  8
0
100
AcDbDimension
  2
*D17
 10
4.353448597450096
 20
9.586495533717439
 30
0.0
 11
4.353448597450095
 21
11.83674553371745
 31
0.0
 71
     5
 42
4.500500000000016
  3
Knife
100
AcDbAlignedDimension
 13
5.559466171462133
 23
14.08699553371745
 33
0.0
 14
4.793466171462114
 24
9.586495533717439
 34
0.0
 50
90.0
100
AcDbRotatedDimension
1001
ACAD
1000
DSTYLE
1002
{
1070
    40
1040
1.0
1002
}
  0
DIMENSION
  5
283
102
{ACAD_XDICTIONARY
360
284
102
}
102
{ACAD_REACTORS
330
285
102
}
330
2
100
AcDbEntity
  8
0
100
AcDbDimension
  2
*D18
 10
18.37034935830422
 20
12.93142230057081
 30
0.0
 11
19.05687481145252
 21
12.93142230057081
 31
0.0
 70
   128
 71
     5
 42
0.6880055325053434
  3
Knife
100
AcDbAlignedDimension
 13
17.68234382579888
 23
12.99349553371745
 33
0.0
 14
18.37034935830422
 24
12.99349553371745
 34
0.0
100
AcDbRotatedDimension
1001
ACAD
1000
DSTYLE
1002
{
1070
    40
1040
1.0
1002
}
  0
DIMENSION
  5
293
102
{ACAD_XDICTIONARY
360
294
102
}
102
{ACAD_REACTORS
330
295
102
}
330
2
100
AcDbEntity
  8
0
100
AcDbDimension
  2
*D19
 10
18.37034935830422
 20
10.90567277464093
 30
0.0
 11
19.05687481145252
 21
10.90567277464093
 31
0.0
 70
   128
 71
     5
 42
1.188008030909543
  3
Knife
100
AcDbAlignedDimension
 13
17.18234132739468
 23
10.74349545388942
 33
0.0
 14
18.37034935830422
 24
10.88547493993752
 34
0.0
100
AcDbRotatedDimension
1001
ACAD
1000
DSTYLE
1002
{
1070
    40
1040
1.0
1002
}
  0
DIMENSION
  5
2A3
102
{ACAD_XDICTIONARY
360
2A4
102
}
102
{ACAD_REACTORS
330
2A5
102
}
330
2
100
AcDbEntity
  8
0
100
AcDbDimension
  2
*D20
 10
9.095693033200859
 20
12.33699553371745
 30
0.0
 11
9.095693033200856
 21
13.21199553371746
 31
0.0
 71
     5
 42
1.750000000000014
  3
Knife
100
AcDbAlignedDimension
 13
8.543081665418483
 23
14.08699553371747
 33
0.0
 14
8.543081665418483
 24
12.33699553371745
 34
0.0
 50
90.0
100
AcDbRotatedDimension
1001
ACAD
1000
DSTYLE
1002
{
1070
    40
1040
1.0
1002
}
  0
DIMENSION
  5
2B4
330
2
100
AcDbEntity
  8
0
100
AcDbDimension
  2
*D21
 10
5.059466171462133
 20
16.39079236791298
 30
0.0
 11
4.46323388834634
 21
16.39079236791298
 31
0.0
 71
     5
 42
0.5
  3
Knife
100
AcDbAlignedDimension
 13
5.559466171462133
 23
14.08699553371745
 33
0.0
 14
5.059466171462133
 24
14.08699553371745
 34
0.0
100
AcDbRotatedDimension
1001
ACAD
1000
DSTYLE
1002
{
1070
    40
1040
1.0
1002
}
  0
DIMENSION
  5
2C3
330
2
100
AcDbEntity
  8
0
100
AcDbDimension
  2
*D22
 10
18.87034935830422
 20
16.39079236791298
 30
0.0
 11
19.46658164142002
 21
16.39079236791298
 31
0.0
 71
     5
 42
0.5
  3
Knife
100
AcDbAlignedDimension
 13
18.37034935830422
 23
14.08699553371745
 33
0.0
 14
18.87034935830422
 24
14.08699553371745
 34
0.0
100
AcDbRotatedDimension
1001
ACAD
1000
DSTYLE
1002
{
1070
    40
1040
1.0
1002
}
  0
DIMENSION
  5
2D2
330
2
100
AcDbEntity
  8
0
100
AcDbDimension
  2
*D23
 10
5.059466171462133
 20
17.2671561012059
 30
0.0
 11
11.96490776488318
 21
17.2671561012059
 31
0.0
  1
ROUGH\POPENING
 71
     5
 42
13.81088318684209
  3
Knife
100
AcDbAlignedDimension
 13
18.87034935830422
 23
14.08699553371745
 33
0.0
 14
5.059466171462133
 24
14.08699553371745
 34
0.0
100
AcDbRotatedDimension
1001
ACAD
1000
DSTYLE
1002
{
1070
    40
1040
1.0
1002
}
  0
DIMENSION
  5
2E0
102
{ACAD_XDICTIONARY
360
2E1
102
}
102
{ACAD_REACTORS
330
2E2
102
}
330
2
100
AcDbEntity
  8
0
100
AcDbDimension
  2
*D24
 10
10.96447170396749
 20
14.67898592461795
 30
0.0
 11
8.668471703967497
 21
14.67898592461795
 31
0.0
 71
     5
 42
4.591999999999984
  3
Knife
100
AcDbAlignedDimension
 13
6.372471703967505
 23
14.02499553371747
 33
0.0
 14
10.96447170396749
 24
13.80695658659918
 34
0.0
100
AcDbRotatedDimension
1001
ACAD
1000
DSTYLE
1002
{
1070
    40
1040
1.0
1002
}
  0
DIMENSION
  5
2F1
330
2
100
AcDbEntity
  8
0
100
AcDbDimension
  2
*D25
 10
5.559466171462133
 20
15.62243812840619
 30
0.0
 11
8.261968937714812
 21
15.62243812840619
 31
0.0
 71
     5
 42
5.405005532505356
  3
Knife
100
AcDbAlignedDimension
 13
10.96447170396749
 23
13.80695658659918
 33
0.0
 14
5.559466171462133
 24
14.08699553371745
 34
0.0
100
AcDbRotatedDimension
1001
ACAD
1000
DSTYLE
1002
{
1070
    40
1040
1.0
1002
}
  0
DIMENSION
  5
300
330
2
100
AcDbEntity
  8
0
100
AcDbDimension
  2
*D27
 10
12.96534382579887
 20
14.67898592461795
 30
0.0
 11
15.26134382579886
 21
14.67898592461795
 31
0.0
 71
     5
 42
4.591999999999984
  3
Knife
100
AcDbAlignedDimension
 13
17.55734382579885
 23
14.02499553371747
 33
0.0
 14
12.96534382579887
 24
13.80695658659918
 34
0.0
 50
180.0
100
AcDbRotatedDimension
1001
ACAD
1000
DSTYLE
1002
{
1070
    40
1040
1.0
1002
}
  0
DIMENSION
  5
30F
330
2
100
AcDbEntity
  8
0
100
AcDbDimension
  2
*D26
 10
18.37034935830422
 20
15.62243812840619
 30
0.0
 11
15.66784659205154
 21
15.62243812840619
 31
0.0
 71
     5
 42
5.405005532505356
  3
Knife
100
AcDbAlignedDimension
 13
12.96534382579887
 23
13.80695658659918
 33
0.0
 14
18.37034935830422
 24
14.08699553371745
 34
0.0
 50
180.0
100
AcDbRotatedDimension
1001
ACAD
1000
DSTYLE
1002
{
1070
    40
1040
1.0
1002
}
  0
DIMENSION
  5
31E
102
{ACAD_XDICTIONARY
360
31F
102
}
102
{ACAD_REACTORS
330
320
102
}
330
2
100
AcDbEntity
  8
0
100
AcDbDimension
  2
*D28
 10
12.9653438257989
 20
14.67898592461795
 30
0.0
 11
11.96490776488319
 21
14.67898592461795
 31
0.0
  1
DAYLIGHT\POPENING
 71
     5
 42
2.000872121831406
  3
Knife
100
AcDbAlignedDimension
 13
10.96447170396749
 23
13.80695658659918
 33
0.0
 14
12.9653438257989
 24
13.80695658659978
 34
0.0
100
AcDbRotatedDimension
1001
ACAD
1000
DSTYLE
1002
{
1070
    40
1040
1.0
1002
}
  0
ENDSEC
  0
SECTION
  2
OBJECTS
  0
DICTIONARY
  5
B
330
0
100
AcDbDictionary
281
     1
  3
ACAD_COLOR
350
50
  3
ACAD_GROUP
350
3D
  3
ACAD_LAYOUT
350
18
  3
ACAD_MATERIAL
350
D
  3
ACAD_MLEADERSTYLE
350
53
  3
ACAD_MLINESTYLE
350
3E
  3
ACAD_PLOTSETTINGS
350
3F
  3
ACAD_PLOTSTYLENAME
350
A
  3
ACAD_SCALELIST
350
51
  3
ACAD_TABLESTYLE
350
52
  3
ACAD_VISUALSTYLE
350
31
  3
ACDB_RECOMPOSE_DATA
350
33A
  3
AcDbVariableDictionary
350
330
  0
DICTIONARY
  5
33
330
2E
100
AcDbDictionary
280
     1
281
     1
  0
DICTIONARY
  5
23
330
22
100
AcDbDictionary
280
     1
281
     1
  3
ACAD_LAYERSTATES
360
24
  0
DICTIONARY
  5
7
330
6
100
AcDbDictionary
280
     1
281
     1
  3
ADSK_XREC_LAYER_RECONCILED
360
8
  0
DICTIONARY
  5
7F
330
7E
100
AcDbDictionary
280
     1
281
     1
  0
DICTIONARY
  5
3
330
2
100
AcDbDictionary
280
     1
281
     1
  3
ACAD_SORTENTS
360
32E
  0
DICTIONARY
  5
192
330
191
100
AcDbDictionary
280
     1
281
     1
  3
ACAD_DIMASSOC
360
193
  0
DICTIONARY
  5
1A4
330
1A3
100
AcDbDictionary
280
     1
281
     1
  3
ACAD_DIMASSOC
360
1A5
  0
DICTIONARY
  5
1B4
330
1B3
100
AcDbDictionary
280
     1
281
     1
  3
ACAD_DIMASSOC
360
1B5
  0
DICTIONARY
  5
1D3
330
1D2
100
AcDbDictionary
280
     1
281
     1
  3
ACAD_DIMASSOC
360
1D4
  0
DICTIONARY
  5
1E4
330
1E3
100
AcDbDictionary
280
     1
281
     1
  3
ACAD_DIMASSOC
360
1E5
  0
DICTIONARY
  5
1F4
330
1F3
100
AcDbDictionary
280
     1
281
     1
  3
ACAD_DIMASSOC
360
1F5
  0
DICTIONARY
  5
213
330
212
100
AcDbDictionary
280
     1
281
     1
  3
ACAD_DIMASSOC
360
214
  0
DICTIONARY
  5
224
330
223
100
AcDbDictionary
280
     1
281
     1
  3
ACAD_DIMASSOC
360
225
  0
DICTIONARY
  5
235
330
234
100
AcDbDictionary
280
     1
281
     1
  3
ACAD_DIMASSOC
360
236
  0
DICTIONARY
  5
263
330
262
100
AcDbDictionary
280
     1
281
     1
  3
ACAD_DIMASSOC
360
264
  0
DICTIONARY
  5
273
330
272
100
AcDbDictionary
280
     1
281
     1
  3
ACAD_DIMASSOC
360
274
  0
DICTIONARY
  5
284
330
283
100
AcDbDictionary
280
     1
281
     1
  3
ACAD_DIMASSOC
360
285
  0
DICTIONARY
  5
294
330
293
100
AcDbDictionary
280
     1
281
     1
  3
ACAD_DIMASSOC
360
295
  0
DICTIONARY
  5
2A4
330
2A3
100
AcDbDictionary
280
     1
281
     1
  3
ACAD_DIMASSOC
360
2A5
  0
DICTIONARY
  5
2E1
330
2E0
100
AcDbDictionary
280
     1
281
     1
  3
ACAD_DIMASSOC
360
2E2
  0
DICTIONARY
  5
31F
330
31E
100
AcDbDictionary
280
     1
281
     1
  3
ACAD_DIMASSOC
360
320
  0
DICTIONARY
  5
50
102
{ACAD_REACTORS
330
B
102
}
330
B
100
AcDbDictionary
281
     1
  0
DICTIONARY
  5
3D
102
{ACAD_REACTORS
330
B
102
}
330
B
100
AcDbDictionary
281
     1
  0
DICTIONARY
  5
18
102
{ACAD_REACTORS
330
B
102
}
330
B
100
AcDbDictionary
281
     1
  3
Layout1
350
1F
  3
Model
350
17
  0
DICTIONARY
  5
D
102
{ACAD_REACTORS
330
B
102
}
330
B
100
AcDbDictionary
281
     1
  3
ByBlock
350
48
  3
ByLayer
350
40
  3
Global
350
C
  0
DICTIONARY
  5
53
102
{ACAD_REACTORS
330
B
102
}
330
B
100
AcDbDictionary
281
     1
  0
DICTIONARY
  5
3E
102
{ACAD_REACTORS
330
B
102
}
330
B
100
AcDbDictionary
281
     1
  3
Standard
350
54
  0
DICTIONARY
  5
3F
102
{ACAD_REACTORS
330
B
102
}
330
B
100
AcDbDictionary
281
     1
  0
ACDBDICTIONARYWDFLT
  5
A
102
{ACAD_REACTORS
330
B
102
}
330
B
100
AcDbDictionary
281
     1
  3
Normal
350
9
100
AcDbDictionaryWithDefault
340
9
  0
DICTIONARY
  5
51
102
{ACAD_REACTORS
330
B
102
}
330
B
100
AcDbDictionary
281
     1
  3
A0
350
59
  3
A1
350
5A
  3
A2
350
5B
  3
A3
350
5C
  3
A4
350
5D
  3
A5
350
5E
  3
A6
350
5F
  3
A7
350
60
  3
A8
350
61
  3
A9
350
62
  3
B0
350
63
  3
B1
350
64
  3
B2
350
65
  3
B3
350
66
  3
B4
350
67
  3
B5
350
68
  3
B6
350
69
  0
DICTIONARY
  5
52
102
{ACAD_REACTORS
330
B
102
}
330
B
100
AcDbDictionary
281
     1
  3
Standard
350
55
  0
DICTIONARY
  5
31
102
{ACAD_REACTORS
330
B
102
}
330
B
100
AcDbDictionary
281
     1
  3
2dWireframe
350
30
  3
Realistic
350
57
  3
Wireframe
350
58
  0
XRECORD
  5
33A
102
{ACAD_REACTORS
330
B
102
}
330
B
100
AcDbXrecord
280
     1
 90
        1
330
55
  0
DICTIONARY
  5
330
102
{ACAD_REACTORS
330
B
102
}
330
B
100
AcDbDictionary
281
     1
  3
CANNOSCALE
350
333
  3
CMLEADERSTYLE
350
332
  3
CTABLESTYLE
350
331
  3
DIMASSOC
350
338
  3
HIDETEXT
350
336
  3
INDEXCTL
350
335
  3
SORTENTS
350
334
  3
XCLIPFRAME
350
337
  0
DICTIONARY
  5
24
102
{ACAD_REACTORS
330
23
102
}
330
23
100
AcDbDictionary
281
     1
  0
XRECORD
  5
8
102
{ACAD_REACTORS
330
7
102
}
330
7
100
AcDbXrecord
280
     1
290
     1
  0
SORTENTSTABLE
  5
32E
102
{ACAD_REACTORS
330
3
102
}
330
3
100
AcDbSortentsTable
330
2
  0
DIMASSOC
  5
193
102
{ACAD_REACTORS
330
192
102
}
330
192
100
AcDbDimAssoc
330
191
 90
        3
 70
     0
 71
     0
  1
AcDbOsnapPointRef
 72
     1
331
6B
 73
     2
 91
       23
 40
1.0
 10
0.0
 20
0.0
 30
2.000000000000000E+50
 75
     0
  1
AcDbOsnapPointRef
 72
     1
331
73
 73
     2
 91
        4
 40
1.0
 10
0.0
 20
0.0
 30
2.000000000000000E+50
 75
     0
  0
DIMASSOC
  5
1A5
102
{ACAD_REACTORS
330
1A4
102
}
330
1A4
100
AcDbDimAssoc
330
1A3
 90
        2
 70
     0
 71
     0
  1
AcDbOsnapPointRef
 72
     1
331
6D
 73
     2
 91
        4
 40
1.0
 10
0.0
 20
0.0
 30
2.000000000000000E+50
 75
     0
  0
DIMASSOC
  5
1B5
102
{ACAD_REACTORS
330
1B4
102
}
330
1B4
100
AcDbDimAssoc
330
1B3
 90
        2
 70
     0
 71
     0
  1
AcDbOsnapPointRef
 72
     5
331
122
 73
     2
 91
        8
 40
4.712388980384689
 10
0.0
 20
0.0
 30
0.0
 75
     0
  0
DIMASSOC
  5
1D4
102
{ACAD_REACTORS
330
1D3
102
}
330
1D3
100
AcDbDimAssoc
330
1D2
 90
        3
 70
     0
 71
     0
  1
AcDbOsnapPointRef
 72
     1
331
133
 73
     2
 91
        8
 40
1.570796326795011
 10
0.0
 20
0.0
 30
2.000000000000000E+50
 75
     0
  1
AcDbOsnapPointRef
 72
     8
331
71
 73
     2
 91
        9
 40
4.667808905247888
 10
0.0
 20
0.0
 30
0.0
 75
     1
  1
AcDbOsnapPointRef
 72
     1
331
133
 73
     2
 91
        8
 40
1.570796326795011
 10
0.0
 20
0.0
 30
2.000000000000000E+50
 75
     0
  0
DIMASSOC
  5
1E5
102
{ACAD_REACTORS
330
1E4
102
}
330
1E4
100
AcDbDimAssoc
330
1E3
 90
        2
 70
     0
 71
     0
  1
AcDbOsnapPointRef
 72
     1
331
6C
 73
     2
 91
       36
 40
1.0
 10
0.0
 20
0.0
 30
2.000000000000000E+50
 75
     0
  0
DIMASSOC
  5
1F5
102
{ACAD_REACTORS
330
1F4
102
}
330
1F4
100
AcDbDimAssoc
330
1F3
 90
        1
 70
     0
 71
     0
  1
AcDbOsnapPointRef
 72
     1
331
71
 73
     2
 91
        9
 40
4.712388980384918
 10
0.0
 20
0.0
 30
2.000000000000000E+50
 75
     0
  0
DIMASSOC
  5
214
102
{ACAD_REACTORS
330
213
102
}
330
213
100
AcDbDimAssoc
330
212
 90
        3
 70
     0
 71
     0
  1
AcDbOsnapPointRef
 72
     2
331
6A
 73
     2
 91
        8
 40
0.5
 10
0.0
 20
0.0
 30
0.0
 75
     0
  1
AcDbOsnapPointRef
 72
     8
331
6A
 73
     2
 91
       12
 40
0.4631012931988857
 10
0.0
 20
0.0
 30
0.0
 75
     1
  1
AcDbOsnapPointRef
 72
     2
331
6A
 73
     2
 91
        8
 40
0.5
 10
0.0
 20
0.0
 30
0.0
 75
     0
  0
DIMASSOC
  5
225
102
{ACAD_REACTORS
330
224
102
}
330
224
100
AcDbDimAssoc
330
223
 90
        3
 70
     0
 71
     0
  1
AcDbOsnapPointRef
 72
     2
331
6B
 73
     2
 91
       17
 40
0.5
 10
0.0
 20
0.0
 30
0.0
 75
     0
  1
AcDbOsnapPointRef
 72
     8
331
6B
 73
     2
 91
        8
 40
0.4386180892848076
 10
0.0
 20
0.0
 30
0.0
 75
     1
  1
AcDbOsnapPointRef
 72
     2
331
6B
 73
     2
 91
       17
 40
0.5
 10
0.0
 20
0.0
 30
0.0
 75
     0
  0
DIMASSOC
  5
236
102
{ACAD_REACTORS
330
235
102
}
330
235
100
AcDbDimAssoc
330
234
 90
        3
 70
     0
 71
     0
  1
AcDbOsnapPointRef
 72
     1
331
6B
 73
     2
 91
        1
 40
1.0
 10
0.0
 20
0.0
 30
2.000000000000000E+50
 75
     0
  1
AcDbOsnapPointRef
 72
     2
331
6B
 73
     2
 91
       21
 40
0.5
 10
0.0
 20
0.0
 30
0.0
 75
     0
  0
DIMASSOC
  5
264
102
{ACAD_REACTORS
330
263
102
}
330
263
100
AcDbDimAssoc
330
262
 90
        3
 70
     0
 71
     0
  1
AcDbOsnapPointRef
 72
     1
331
149
 73
     2
 91
       23
 40
1.0
 10
0.0
 20
0.0
 30
2.000000000000000E+50
 75
     0
  1
AcDbOsnapPointRef
 72
     1
331
16C
 73
     2
 91
       23
 40
1.0
 10
0.0
 20
0.0
 30
2.000000000000000E+50
 75
     0
  0
DIMASSOC
  5
274
102
{ACAD_REACTORS
330
273
102
}
330
273
100
AcDbDimAssoc
330
272
 90
        2
 70
     0
 71
     0
  1
AcDbOsnapPointRef
 72
     1
331
14A
 73
     2
 91
        4
 40
1.0
 10
0.0
 20
0.0
 30
2.000000000000000E+50
 75
     0
  0
DIMASSOC
  5
285
102
{ACAD_REACTORS
330
284
102
}
330
284
100
AcDbDimAssoc
330
283
 90
        3
 70
     0
 71
     0
  1
AcDbOsnapPointRef
 72
     2
331
16C
 73
     2
 91
        1
 40
0.5
 10
0.0
 20
0.0
 30
0.0
 75
     0
  1
AcDbOsnapPointRef
 72
     8
331
16C
 73
     2
 91
       21
 40
0.7704153630961878
 10
0.0
 20
0.0
 30
0.0
 75
     1
  1
AcDbOsnapPointRef
 72
     2
331
16C
 73
     2
 91
        1
 40
0.5
 10
0.0
 20
0.0
 30
0.0
 75
     0
  0
DIMASSOC
  5
295
102
{ACAD_REACTORS
330
294
102
}
330
294
100
AcDbDimAssoc
330
293
 90
        3
 70
     0
 71
     0
  1
AcDbOsnapPointRef
 72
     2
331
16C
 73
     2
 91
        8
 40
0.5000000000000001
 10
0.0
 20
0.0
 30
0.0
 75
     0
  1
AcDbOsnapPointRef
 72
     2
331
16C
 73
     2
 91
       17
 40
0.5
 10
0.0
 20
0.0
 30
0.0
 75
     0
  0
DIMASSOC
  5
2A5
102
{ACAD_REACTORS
330
2A4
102
}
330
2A4
100
AcDbDimAssoc
330
2A3
 90
        3
 70
     0
 71
     0
  1
AcDbOsnapPointRef
 72
     2
331
148
 73
     2
 91
       12
 40
0.5
 10
0.0
 20
0.0
 30
0.0
 75
     0
  1
AcDbOsnapPointRef
 72
     8
331
148
 73
     2
 91
        8
 40
0.4601613001917579
 10
0.0
 20
0.0
 30
0.0
 75
     1
  1
AcDbOsnapPointRef
 72
     2
331
148
 73
     2
 91
       12
 40
0.5
 10
0.0
 20
0.0
 30
0.0
 75
     0
  0
DIMASSOC
  5
2E2
102
{ACAD_REACTORS
330
2E1
102
}
330
2E1
100
AcDbDimAssoc
330
2E0
 90
        3
 70
     0
 71
     0
  1
AcDbOsnapPointRef
 72
     5
331
148
 73
     2
 91
       11
 40
3.141592653589793
 10
0.0
 20
0.0
 30
0.0
 75
     0
  1
AcDbOsnapPointRef
 72
     1
331
148
 73
     2
 91
       16
 40
1.0
 10
0.0
 20
0.0
 30
2.000000000000000E+50
 75
     0
  0
DIMASSOC
  5
320
102
{ACAD_REACTORS
330
31F
102
}
330
31F
100
AcDbDimAssoc
330
31E
 90
        2
 70
     0
 71
     0
  1
AcDbOsnapPointRef
 72
     8
331
16B
 73
     2
 91
        8
 40
0.0
 10
0.0
 20
0.0
 30
0.0
 75
     1
  1
AcDbOsnapPointRef
 72
     0
 40
0.0
 10
10.96447170396749
 20
12.80272980077626
 30
0.0
 75
     0
  0
LAYOUT
  5
1F
102
{ACAD_XDICTIONARY
360
20
102
}
102
{ACAD_REACTORS
330
18
102
}
330
18
100
AcDbPlotSettings
  1

  2
Default Windows System Printer.pc3
  4
Letter
  6

 40
4.857749938964843
 41
4.857737064361572
 42
4.85772705078125
 43
4.011077880859375
 44
279.3999938964844
 45
215.8999938964844
 46
-0.730858697408237
 47
-3.856245104248928
 48
0.0
 49
0.0
140
0.0
141
0.0
142
1.0
143
1.0
 70
   692
 72
     0
 73
     1
 74
     1
  7
monochrome.ctb
 75
    16
147
1.0
148
0.0083604749971762
149
0.0163435974585369
100
AcDbLayout
  1
Layout1
 70
     1
 71
     1
 10
-0.0064249311656545
 20
-0.1631194818509899
 11
8.493574828538456
 21
10.83688027785312
 12
0.0
 22
0.0
 32
0.0
 14
-0.0001993256062995
 24
-0.0006438736622698
 34
-0.000000000000013
 15
8.45427583816383
 25
10.67440472088713
 35
0.0000000000000023
146
0.0
 13
0.0
 23
0.0
 33
0.0
 16
1.0
 26
0.0
 36
0.0
 17
0.0
 27
1.0
 37
0.0
 76
     0
330
1C
1001
ACAD_PSEXT
1000
Default Windows System Printer.pc3
1000
HP LaserJet Professional M1212nf MFP
1000
USB001
1000

1070
     0
  0
LAYOUT
  5
17
102
{ACAD_XDICTIONARY
360
19
102
}
102
{ACAD_REACTORS
330
18
102
}
330
18
100
AcDbPlotSettings
  1

  2
hp LaserJet 1000
  4
Letter
  6

 40
5.111750125885009
 41
5.11176061630249
 42
5.111740112304687
 43
5.11175537109375
 44
215.8999938964844
 45
279.3999938964844
 46
-1737.727141600119
 47
-1443.590822120185
 48
0.0
 49
0.0
140
0.0
141
0.0
142
1.0
143
1.0
 70
 11956
 72
     0
 73
     1
 74
     1
  7
monochrome.ctb
 75
    16
147
1.0
148
-1178909.293504616
149
-716480.0773740626
100
AcDbLayout
  1
Model
 70
     1
 71
     0
 10
0.0
 20
0.0
 11
12.0
 21
9.0
 12
0.0
 22
0.0
 32
0.0
 14
0.0
 24
0.0
 34
0.0
 15
0.0
 25
0.0
 35
0.0
146
0.0
 13
0.0
 23
0.0
 33
0.0
 16
1.0
 26
0.0
 36
0.0
 17
0.0
 27
1.0
 37
0.0
 76
     0
330
2
1001
ACAD_PSEXT
1000
hp LaserJet 1000
1000
hp LaserJet 1000
1000
USB001
1000

1070
     0
  0
MATERIAL
  5
48
102
{ACAD_XDICTIONARY
360
49
102
}
102
{ACAD_REACTORS
330
D
102
}
330
D
100
AcDbMaterial
  1
ByBlock
 72
     0
 43
0.0208333333333333
 43
0.0
 43
0.0
 43
0.0
 43
0.0
 43
0.0208333333333333
 43
0.0
 43
0.0
 43
0.0
 43
0.0
 43
1.0
 43
0.0
 43
0.0
 43
0.0
 43
0.0
 43
1.0
 77
     0
 47
0.0208333333333333
 47
0.0
 47
0.0
 47
0.0
 47
0.0
 47
0.0208333333333333
 47
0.0
 47
0.0
 47
0.0
 47
0.0
 47
1.0
 47
0.0
 47
0.0
 47
0.0
 47
0.0
 47
1.0
171
     0
 49
0.0208333333333333
 49
0.0
 49
0.0
 49
0.0
 49
0.0
 49
0.0208333333333333
 49
0.0
 49
0.0
 49
0.0
 49
0.0
 49
1.0
 49
0.0
 49
0.0
 49
0.0
 49
0.0
 49
1.0
175
     0
142
0.0208333333333333
142
0.0
142
0.0
142
0.0
142
0.0
142
0.0208333333333333
142
0.0
142
0.0
142
0.0
142
0.0
142
1.0
142
0.0
142
0.0
142
0.0
142
0.0
142
1.0
179
     0
144
0.0208333333333333
144
0.0
144
0.0
144
0.0
144
0.0
144
0.0208333333333333
144
0.0
144
0.0
144
0.0
144
0.0
144
1.0
144
0.0
144
0.0
144
0.0
144
0.0
144
1.0
147
0.0208333333333333
147
0.0
147
0.0
147
0.0
147
0.0
147
0.0208333333333333
147
0.0
147
0.0
147
0.0
147
0.0
147
1.0
147
0.0
147
0.0
147
0.0
147
0.0
147
1.0
  0
MATERIAL
  5
40
102
{ACAD_XDICTIONARY
360
41
102
}
102
{ACAD_REACTORS
330
D
102
}
330
D
100
AcDbMaterial
  1
ByLayer
 72
     0
 43
0.0208333333333333
 43
0.0
 43
0.0
 43
0.0
 43
0.0
 43
0.0208333333333333
 43
0.0
 43
0.0
 43
0.0
 43
0.0
 43
1.0
 43
0.0
 43
0.0
 43
0.0
 43
0.0
 43
1.0
 77
     0
 47
0.0208333333333333
 47
0.0
 47
0.0
 47
0.0
 47
0.0
 47
0.0208333333333333
 47
0.0
 47
0.0
 47
0.0
 47
0.0
 47
1.0
 47
0.0
 47
0.0
 47
0.0
 47
0.0
 47
1.0
171
     0
 49
0.0208333333333333
 49
0.0
 49
0.0
 49
0.0
 49
0.0
 49
0.0208333333333333
 49
0.0
 49
0.0
 49
0.0
 49
0.0
 49
1.0
 49
0.0
 49
0.0
 49
0.0
 49
0.0
 49
1.0
175
     0
142
0.0208333333333333
142
0.0
142
0.0
142
0.0
142
0.0
142
0.0208333333333333
142
0.0
142
0.0
142
0.0
142
0.0
142
1.0
142
0.0
142
0.0
142
0.0
142
0.0
142
1.0
179
     0
144
0.0208333333333333
144
0.0
144
0.0
144
0.0
144
0.0
144
0.0208333333333333
144
0.0
144
0.0
144
0.0
144
0.0
144
1.0
144
0.0
144
0.0
144
0.0
144
0.0
144
1.0
147
0.0208333333333333
147
0.0
147
0.0
147
0.0
147
0.0
147
0.0208333333333333
147
0.0
147
0.0
147
0.0
147
0.0
147
1.0
147
0.0
147
0.0
147
0.0
147
0.0
147
1.0
  0
MATERIAL
  5
C
102
{ACAD_XDICTIONARY
360
E
102
}
102
{ACAD_REACTORS
330
D
102
}
330
D
100
AcDbMaterial
  1
Global
 72
     0
 43
0.0208333333333333
 43
0.0
 43
0.0
 43
0.0
 43
0.0
 43
0.0208333333333333
 43
0.0
 43
0.0
 43
0.0
 43
0.0
 43
1.0
 43
0.0
 43
0.0
 43
0.0
 43
0.0
 43
1.0
 77
     0
 47
0.0208333333333333
 47
0.0
 47
0.0
 47
0.0
 47
0.0
 47
0.0208333333333333
 47
0.0
 47
0.0
 47
0.0
 47
0.0
 47
1.0
 47
0.0
 47
0.0
 47
0.0
 47
0.0
 47
1.0
171
     0
 49
0.0208333333333333
 49
0.0
 49
0.0
 49
0.0
 49
0.0
 49
0.0208333333333333
 49
0.0
 49
0.0
 49
0.0
 49
0.0
 49
1.0
 49
0.0
 49
0.0
 49
0.0
 49
0.0
 49
1.0
175
     0
142
0.0208333333333333
142
0.0
142
0.0
142
0.0
142
0.0
142
0.0208333333333333
142
0.0
142
0.0
142
0.0
142
0.0
142
1.0
142
0.0
142
0.0
142
0.0
142
0.0
142
1.0
179
     0
144
0.0208333333333333
144
0.0
144
0.0
144
0.0
144
0.0
144
0.0208333333333333
144
0.0
144
0.0
144
0.0
144
0.0
144
1.0
144
0.0
144
0.0
144
0.0
144
0.0
144
1.0
147
0.0208333333333333
147
0.0
147
0.0
147
0.0
147
0.0
147
0.0208333333333333
147
0.0
147
0.0
147
0.0
147
0.0
147
1.0
147
0.0
147
0.0
147
0.0
147
0.0
147
1.0
  0
MLINESTYLE
  5
54
102
{ACAD_REACTORS
330
3E
102
}
330
3E
100
AcDbMlineStyle
  2
STANDARD
 70
     0
  3

 62
   256
 51
90.0
 52
90.0
 71
     2
 49
0.5
 62
   256
  6
BYLAYER
 49
-0.5
 62
   256
  6
BYLAYER
  0
ACDBPLACEHOLDER
  5
9
102
{ACAD_REACTORS
330
A
102
}
330
A
  0
SCALE
  5
59
102
{ACAD_REACTORS
330
51
102
}
330
51
100
AcDbScale
 70
     0
300
1:1
140
1.0
141
1.0
290
     1
  0
SCALE
  5
5A
102
{ACAD_REACTORS
330
51
102
}
330
51
100
AcDbScale
 70
     0
300
1/128" = 1'-0"
140
0.0078125
141
12.0
290
     0
  0
SCALE
  5
5B
102
{ACAD_REACTORS
330
51
102
}
330
51
100
AcDbScale
 70
     0
300
1/64" = 1'-0"
140
0.015625
141
12.0
290
     0
  0
SCALE
  5
5C
102
{ACAD_REACTORS
330
51
102
}
330
51
100
AcDbScale
 70
     0
300
1/32" = 1'-0"
140
0.03125
141
12.0
290
     0
  0
SCALE
  5
5D
102
{ACAD_REACTORS
330
51
102
}
330
51
100
AcDbScale
 70
     0
300
1/16" = 1'-0"
140
0.0625
141
12.0
290
     0
  0
SCALE
  5
5E
102
{ACAD_REACTORS
330
51
102
}
330
51
100
AcDbScale
 70
     0
300
3/32" = 1'-0"
140
0.09375
141
12.0
290
     0
  0
SCALE
  5
5F
102
{ACAD_REACTORS
330
51
102
}
330
51
100
AcDbScale
 70
     0
300
1/8" = 1'-0"
140
0.125
141
12.0
290
     0
  0
SCALE
  5
60
102
{ACAD_REACTORS
330
51
102
}
330
51
100
AcDbScale
 70
     0
300
3/16" = 1'-0"
140
0.1875
141
12.0
290
     0
  0
SCALE
  5
61
102
{ACAD_REACTORS
330
51
102
}
330
51
100
AcDbScale
 70
     0
300
1/4" = 1'-0"
140
0.25
141
12.0
290
     0
  0
SCALE
  5
62
102
{ACAD_REACTORS
330
51
102
}
330
51
100
AcDbScale
 70
     0
300
3/8" = 1'-0"
140
0.375
141
12.0
290
     0
  0
SCALE
  5
63
102
{ACAD_REACTORS
330
51
102
}
330
51
100
AcDbScale
 70
     0
300
1/2" = 1'-0"
140
0.5
141
12.0
290
     0
  0
SCALE
  5
64
102
{ACAD_REACTORS
330
51
102
}
330
51
100
AcDbScale
 70
     0
300
3/4" = 1'-0"
140
0.75
141
12.0
290
     0
  0
SCALE
  5
65
102
{ACAD_REACTORS
330
51
102
}
330
51
100
AcDbScale
 70
     0
300
1" = 1'-0"
140
1.0
141
12.0
290
     0
  0
SCALE
  5
66
102
{ACAD_REACTORS
330
51
102
}
330
51
100
AcDbScale
 70
     0
300
1-1/2" = 1'-0"
140
1.5
141
12.0
290
     0
  0
SCALE
  5
67
102
{ACAD_REACTORS
330
51
102
}
330
51
100
AcDbScale
 70
     0
300
3" = 1'-0"
140
3.0
141
12.0
290
     0
  0
SCALE
  5
68
102
{ACAD_REACTORS
330
51
102
}
330
51
100
AcDbScale
 70
     0
300
6" = 1'-0"
140
6.0
141
12.0
290
     0
  0
SCALE
  5
69
102
{ACAD_REACTORS
330
51
102
}
330
51
100
AcDbScale
 70
     0
300
1'-0" = 1'-0"
140
12.0
141
12.0
290
     0
  0
TABLESTYLE
  5
55
102
{ACAD_XDICTIONARY
360
56
102
}
102
{ACAD_REACTORS
330
52
102
}
330
52
100
AcDbTableStyle
  3
Standard
 70
     0
 71
     0
 40
0.06
 41
0.06
280
     0
281
     0
  7
Standard
140
0.18
170
     2
 62
     0
 63
     7
283
     0
274
    -2
284
     1
 64
     0
275
    -2
285
     1
 65
     0
276
    -2
286
     1
 66
     0
277
    -2
287
     1
 67
     0
278
    -2
288
     1
 68
     0
279
    -2
289
     1
 69
     0
  7
Standard
140
0.25
170
     5
 62
     0
 63
     7
283
     0
274
    -2
284
     1
 64
     0
275
    -2
285
     1
 65
     0
276
    -2
286
     1
 66
     0
277
    -2
287
     1
 67
     0
278
    -2
288
     1
 68
     0
279
    -2
289
     1
 69
     0
  7
Standard
140
0.18
170
     5
 62
     0
 63
     7
283
     0
274
    -2
284
     1
 64
     0
275
    -2
285
     1
 65
     0
276
    -2
286
     1
 66
     0
277
    -2
287
     1
 67
     0
278
    -2
288
     1
 68
     0
279
    -2
289
     1
 69
     0
  0
VISUALSTYLE
  5
30
102
{ACAD_XDICTIONARY
360
33E
102
}
102
{ACAD_REACTORS
330
31
102
}
330
31
100
AcDbVisualStyle
  2
2dWireframe
 70
     4
 71
     0
 72
     2
 73
     0
 90
        0
 40
-0.6
 41
-30.0
 62
     5
 63
     7
 74
     1
 91
        4
 64
     7
 65
   257
 75
     1
175
     1
 42
1.0
 92
        0
 66
   257
 43
1.0
 76
     1
 77
     6
 78
     2
 67
     7
 79
     5
170
     0
171
     0
290
     0
174
     0
 93
        1
 44
0.0
173
     0
291
     0
 45
0.0
1001
ACAD
1000
AcDbSavedByObjectVersion
1070
     0
  0
VISUALSTYLE
  5
57
102
{ACAD_XDICTIONARY
360
343
102
}
102
{ACAD_REACTORS
330
31
102
}
330
31
100
AcDbVisualStyle
  2
Realistic
 70
     8
 71
     2
 72
     2
 73
     0
 90
        2
 40
-0.6
 41
30.0
 62
     5
 63
     7
 74
     0
 91
        0
 64
     7
 65
   257
 75
     1
175
     1
 42
1.0
 92
        8
 66
   257
 43
1.0
 76
     1
 77
     6
 78
     2
 67
     7
 79
     3
170
     0
171
     0
290
     0
174
     0
 93
       13
 44
0.0
173
     0
291
     0
 45
0.0
1001
ACAD
1000
AcDbSavedByObjectVersion
1070
     0
  0
VISUALSTYLE
  5
58
102
{ACAD_XDICTIONARY
360
345
102
}
102
{ACAD_REACTORS
330
31
102
}
330
31
100
AcDbVisualStyle
  2
Wireframe
 70
     5
 71
     0
 72
     2
 73
     0
 90
        0
 40
-0.6
 41
-30.0
 62
     5
 63
     7
 74
     1
 91
        4
 64
     7
 65
   257
 75
     1
175
     1
 42
1.0
 92
        0
 66
   257
 43
1.0
 76
     1
 77
     6
 78
     2
 67
     7
 79
     3
170
     0
171
     0
290
     0
174
     0
 93
        1
 44
0.0
173
     0
291
     0
 45
0.0
1001
ACAD
1000
AcDbSavedByObjectVersion
1070
     0
  0
DICTIONARYVAR
  5
333
102
{ACAD_REACTORS
330
330
102
}
330
330
100
DictionaryVariables
280
     0
  1
1:1
  0
DICTIONARYVAR
  5
332
102
{ACAD_REACTORS
330
330
102
}
330
330
100
DictionaryVariables
280
     0
  1
STANDARD
  0
DICTIONARYVAR
  5
331
102
{ACAD_REACTORS
330
330
102
}
330
330
100
DictionaryVariables
280
     0
  1
STANDARD
  0
DICTIONARYVAR
  5
338
102
{ACAD_REACTORS
330
330
102
}
330
330
100
DictionaryVariables
280
     0
  1
2
  0
DICTIONARYVAR
  5
336
102
{ACAD_REACTORS
330
330
102
}
330
330
100
DictionaryVariables
280
     0
  1
1
  0
DICTIONARYVAR
  5
335
102
{ACAD_REACTORS
330
330
102
}
330
330
100
DictionaryVariables
280
     0
  1
0
  0
DICTIONARYVAR
  5
334
102
{ACAD_REACTORS
330
330
102
}
330
330
100
DictionaryVariables
280
     0
  1
127
  0
DICTIONARYVAR
  5
337
102
{ACAD_REACTORS
330
330
102
}
330
330
100
DictionaryVariables
280
     0
  1
0
  0
DICTIONARY
  5
20
330
1F
100
AcDbDictionary
280
     1
281
     1
  3
ACAD_XREC_ROUNDTRIP
360
33D
  3
ADSK_XREC_LAYOUTTHUMBNAIL
360
21
  0
DICTIONARY
  5
19
330
17
100
AcDbDictionary
280
     1
281
     1
  3
ACAD_XREC_ROUNDTRIP
360
33C
  3
ADSK_XREC_LAYOUTTHUMBNAIL
360
1A
  0
DICTIONARY
  5
49
330
48
100
AcDbDictionary
280
     1
281
     1
  3
ACAD_XREC_ROUNDTRIP
360
341
  3
BUMPTILE
360
4A
  3
DIFFUSETILE
360
4B
  3
OPACITYTILE
360
4C
  3
REFLECTIONTILE
360
4D
  3
REFRACTIONTILE
360
4E
  3
SPECULARTILE
360
4F
  0
DICTIONARY
  5
41
330
40
100
AcDbDictionary
280
     1
281
     1
  3
ACAD_XREC_ROUNDTRIP
360
340
  3
BUMPTILE
360
42
  3
DIFFUSETILE
360
43
  3
OPACITYTILE
360
44
  3
REFLECTIONTILE
360
45
  3
REFRACTIONTILE
360
46
  3
SPECULARTILE
360
47
  0
DICTIONARY
  5
E
330
C
100
AcDbDictionary
280
     1
281
     1
  3
ACAD_XREC_ROUNDTRIP
360
33B
  3
BUMPTILE
360
F
  3
DIFFUSETILE
360
10
  3
OPACITYTILE
360
11
  3
REFLECTIONTILE
360
12
  3
REFRACTIONTILE
360
13
  3
SPECULARTILE
360
14
  0
DICTIONARY
  5
56
330
55
100
AcDbDictionary
280
     1
281
     1
  3
ACAD_ROUNDTRIP_2008_TABLESTYLE_CELLSTYLEMAP
360
339
  3
ACAD_XREC_ROUNDTRIP
360
342
  0
DICTIONARY
  5
33E
330
30
100
AcDbDictionary
280
     1
281
     1
  3
ACAD_XREC_ROUNDTRIP
360
33F
  0
DICTIONARY
  5
343
330
57
100
AcDbDictionary
280
     1
281
     1
  3
ACAD_XREC_ROUNDTRIP
360
344
  0
DICTIONARY
  5
345
330
58
100
AcDbDictionary
280
     1
281
     1
  3
ACAD_XREC_ROUNDTRIP
360
346
  0
XRECORD
  5
33D
102
{ACAD_REACTORS
330
20
102
}
330
20
100
AcDbXrecord
280
     1
102
SHADEPLOT
 70
     1
102
SHADEPLOTRESLEVEL
 70
     4
102
SHADEPLOTCUSTOMDPI
 70
   300
  0
XRECORD
  5
21
102
{ACAD_REACTORS
330
20
102
}
330
20
100
AcDbXrecord
280
     1
310
280000006B0000008C0000000100080000000000103B000000000000000000000001000000000000FFFFFF0000000000C8C8C8000000000000000000000000000000000000000000000000000000000000000000330000006600000099000000CC000000FF00000000330000333300006633000099330000CC330000FF3300
310
0000660000336600006666000099660000CC660000FF66000000990000339900006699000099990000CC990000FF99000000CC000033CC000066CC000099CC0000CCCC0000FFCC000000FF000033FF000066FF000099FF0000CCFF0000FFFF000000003300330033006600330099003300CC003300FF003300003333003333
310
33006633330099333300CC333300FF33330000663300336633006666330099663300CC663300FF66330000993300339933006699330099993300CC993300FF99330000CC330033CC330066CC330099CC3300CCCC3300FFCC330000FF330033FF330066FF330099FF3300CCFF3300FFFF330000006600330066006600660099
310
006600CC006600FF00660000336600333366006633660099336600CC336600FF33660000666600336666006666660099666600CC666600FF66660000996600339966006699660099996600CC996600FF99660000CC660033CC660066CC660099CC6600CCCC6600FFCC660000FF660033FF660066FF660099FF6600CCFF6600
310
FFFF660000009900330099006600990099009900CC009900FF00990000339900333399006633990099339900CC339900FF33990000669900336699006666990099669900CC669900FF66990000999900339999006699990099999900CC999900FF99990000CC990033CC990066CC990099CC9900CCCC9900FFCC990000FF99
310
0033FF990066FF990099FF9900CCFF9900FFFF99000000CC003300CC006600CC009900CC00CC00CC00FF00CC000033CC003333CC006633CC009933CC00CC33CC00FF33CC000066CC003366CC006666CC009966CC00CC66CC00FF66CC000099CC003399CC006699CC009999CC00CC99CC00FF99CC0000CCCC0033CCCC0066CC
310
CC0099CCCC00CCCCCC00FFCCCC0000FFCC0033FFCC0066FFCC0099FFCC00CCFFCC00FFFFCC000000FF003300FF006600FF009900FF00CC00FF00FF00FF000033FF003333FF006633FF009933FF00CC33FF00FF33FF000066FF003366FF006666FF009966FF00CC66FF00FF66FF000099FF003399FF006699FF009999FF00CC
310
99FF00FF99FF0000CCFF0033CCFF0066CCFF0099CCFF00CCCCFF00FFCCFF0000FFFF0033FFFF0066FFFF0099FFFF00CCFFFF00FFFFFF00000000000D0D0D001A1A1A00282828003535350043434300505050005D5D5D006B6B6B00787878008686860093939300A1A1A100AEAEAE00BBBBBB00C9C9C900D6D6D600E4E4E400
310
F1F1F100FFFFFF0000000000000000000000000000000000000000000000000000000000000000000000000000000000E2E2E2E2E2E2E2E2E2E2E2E2E2E2E2E2E2E2E2E2E2E2E2E2E2E2E2E2E2E2E2E2E2E2E2E2E2E2E2E2E2E2E2E2E2E2E2E2E2E2E2E2E2E2E2E2E2E2E2E2E2E2E2E2E2E2E2E2E2E2E2E2E2E2E2E2E2E2E2
310
E2E2E2E2E2E2E2E2E2E2E2E2E2E2E2E2E2E2E2E2E2E2E2E2E2E2E2E240E200000000000000000000000000000000000000000000000000000000000000000000000000000000000000000000000000000000000000000000000000000000000000000000000000000000000000000000000000000000000000000000000000
310
000000000000000000B8E20000000000000000000000000000000000000000000000000000000000000000000000000000000000000000000000000000000000000000000000000000000000000000000000000000000000000000000000000000000000000000000000000000000000000000000030E2E2E2E2E2E2E2E2E2
310
E2E2000000000000000000E2E2E2E2E2E2E2E2E2E2E2E2E2E2E2E200000000000000000000E2E2E2E2E2E2E2E2E2E2E2E2E2E2E2E200000000000000000000E2E2E2E2E2E2E2E2E2E2E2E2E2E2E2E2000000000000000000E2E2E2E2E2E2E2E2E2007EE200E200000000000000000000000000000000000000000000000000
310
0000000000000000000000000000000000000000000000000000000000000000000000000000000000000000000000000000000000000000000000000000000000000000000000000000000000E20000E200E20000000000000000000000000000000000000000000000000000000000000000000000000000000000000000
310
0000000000E2E2E20000000000000000000000000000000000000000000000000000000000000000000000000000000000000000000000000000E20001E200E200000000000000000000000000000000000000000000000000000000000000000000000000000000000000000000000000E2E2E20000000000000000000000
310
000000000000000000000000000000000000000000000000000000000000000000000000000000E20019E200E200000000000000000000000000000000000000000000000000000000000000000000000000000000000000000000000000000000000000000000000000000000000000000000000000000000000000000000
310
0000000000000000000000000000000000000000E20001E200E2000000000000000000000000000000000000000000000000000000000000000000000000000000000000000000000000E2E2E2E2E2000000000000000000000000000000000000000000000000000000000000000000000000000000000000000000000000
310
00E20000E200E2000000000000000000000000000000000000000000000000000000000000000000000000000000000000000000000000E2E2E2E2E200000000000000000000000000000000000000000000000000000000000000000000000000000000000000000000000000E20000E200E2000000000000000000000000
310
000000000000000000000000000000000000000000000000000000000000000000000000000000000000000000000000000000000000000000000000000000000000000000000000000000000000000000000000000000000000E20001E200E200000000000000000000000000000000000000000000000000000000000000
310
0000000000000000000000000000000000000000000000000000000000000000000000000000000000000000000000000000000000000000000000000000000000000000000000E20000E200000000000000000000000000000000000000000000000000000000000000000000000000000000000000000000000000000000
310
00000000000000000000000000000000000000000000000000000000000000000000000000000000000000000000000000000000000000E20000000000000000000000000000000000000000000000000000000000000000000000000000000000000000000000000000000000000000000000000000000000000000000000
310
000000000000000000000000000000000000000000000000000000000000000000000000E2000000000000000000000000000000000000000000000000000000000000000000000000000000000000000000000000000000000000000000000000000000000000000000000000000000000000000000000000000000000000
310
0000000000000000000000000000000000E2000000000000000000000000000000000000000000000000E2E2E2E2000000000000000000000000000000000000000000000000000000000000000000000000000000000000000000000000E2E2E2E2000000000000000000000000000000000000000000000000000000E200
310
0000000000000000000000000000000000000000000000E20000E2E2E2E2E200000000000000000000000000000000000000000000000000000000000000000000000000000000E2E2E2E2E20000E2000000000000000000000000000000000000000000000000000000E20000000000000000000000000000000000000000
310
00000000E20000E2E20000E200000000000000000000000000000000000000000000000000000000000000000000000000000000E20000E2000000E2000000000000000000000000000000000000000000000000000002E2000000000000000000000000000000000000000000000000E20000E2E20000E200000000000000
310
000000000000000000000000000000000000000000000000000000000000000000E20000E2000000E2000000000000000000000000000000000000000000000000000002E2000000000000000000000000000000000000000000000000E2E2E2E2E2E2E2E2E2E2000000000000000000000000000000000000000000000000
310
000000000000000000000000E2E2E2E2E2E2E2E2E2E20000000000000000000000000000000000000000000000000000FFE200000000000000000000000000000000000000000000000000E20000E2E2E2E200E2000000000000000000000000000000000000000000000000000000000000000000000000E200E2E2E20000
310
000000000000000000000000000000000000000000000000000000000000E200000000000000000000000000000000000000000000000000E2000000E2E2E200E2000000000000000000000000000000000000000000000000000000000000000000000000E200E2E2E2000000000000000000000000000000000000000000
310
0000000000000000000099E200E20000000000000000000000000000000000000000000000E2000000E2000000E2000000000000000000000000000000000000000000000000000000000000000000000000E20000E2E2E2E2E20000000000000000000000000000000000000000000000000000E20066E200E20000000000
310
000000000000000000000000000000000000E2000000E2000000E2000000000000000000000000000000000000000000000000000000000000000000000000E20000E2E2E2E2E20000000000000000000000000000000000000000000000000000E20066E200E20000000000000000000000000000000000000000000000E2
310
000000E2000000E20000000000000000000000000000000000000000000000000000000000000000000000E2E2E2E2E2E2E2E2E20000000000000000000000000000000000000000000000000000E20066E200E20000000000000000000000000000000000000000000000E2000000E2000000E20000000000000000000000
310
00000000000000000000000000000000000000000000000000E20000E2E2E2E2E20000000000000000000000000000000000000000000000000000E20000E200E2000000000000000000000000000000000000000000E2E2E2000000E20000E2E2000000000000000000000000000000000000000000000000000000000000
310
000000000000E2E200E2E20000000000000000000000000000000000000000000000000000000000E20099E200E2000000000000000000000000000000000000000000E2E2E2000000E20000E2E2000000000000000000000000000000000000000000000000000000000000000000000000E2E200E2E20000000000000000
310
000000000000000000000000000000000000000000E20000E200E2000000000000000000000000000000000000000000E2E2E2000000E200E2E2E2E200000000000000000000000000000000000000000000000000000000000000000000E2E2E20000E2000000000000000000000000000000000000000000000000000000
310
0000E200FFE200E20000000000000000000000000000000000000000000000E2000000E200E2E2E2E2E2E2E2E2E2E2E2E2E2E2E2E2E20000000000000000E2E2E2E2E2E2E2E2E2E2E2E2E2E2E2E20000E2E2E2E20000000000000000000000000000000000000000000000000000E20000E200E20000000000000000000000
310
000000000000000000000000E2000000E200E2E200000000000000E2E2E2000000E2E2E2000000000000E2E2E200000000000000000000000000E20000E2E2E2E20000000000000000000000000000000000000000000000000000E20000E200E20000000000000000000000000000000000000000000000E2000000E200E2
310
E200000000000000E2E2E2000000E2E2E2E2E20000E2E2E2E2E20000000000000000000000E2E2E2E2E2E2E2E2E20000000000000000000000000000000000000000000000000000E20000E200E20000000000000000000000000000000000000000000000E2000000E200E2E200000000000000E2E2E20000E2E2E2E200E2
310
0000E200E2E2E20000000000000000000000E2E2E20000E2E2E2E20000000000000000000000000000000000000000000000000000E20000E200E20000000000000000000000000000000000000000000000E2000000E200E2E200000000000000E2E2E20000E2E2E2E2E2E20000E2E2E2E2E2E200000000000000000000E2
310
E2E200E2E20000000000000000000000000000000000000000000000000000000000E2000FE200E20000000000000000000000000000000000000000000000E2000000E200E2E20000000000000000E200000000E2E2E2E2E20000E2E2E2E2E200000000000000000000000000E20000E20000000000000000000000000000
310
000000000000000000000000000000E20000E200E200000000000000000000000000000000000000000000E2E2E2E2E2E2E2E2E2E2E2E2E2E2E2E2E2E2E2E2E2E2E2E2E200E2E2E20000E2E2E2E2E2E2E2E2E2E2E2E2E2E2E2E2E2E2E2E200E2000000000000000000000000000000000000000000000000000000E20000E2
310
00E200000000000000000000000000000000000000000000000000E200E200E2E20000000000E2E2E2E2000000000000E200E2E2E20000E20000000000E2E2E2E2000000000000E20000E200E2000000000000000000000000000000000000000000000000000000E20000E200E20000000000000000000000000000000000
310
0000000000000000E200E200E2E2E2E2E2E2E2E2E2E2E2E2E2E2E2E2E2E2E2E2E2E2E2E2E2E2E2E2E2E2E2E2E2E2E2E2E2E2E2E2E20000E200E2000000000000000000000000000000000000000000000000000000E20000E200E200000000000000000000000000000000000000000000000000E200E200E2E20000000000
310
E2E2E2E2000000000000E2E2E2E2E20000E20000000000E2E2E2E2000000000000000000E200E2000000000000000000000000000000000000000000000000000000E2000FE2000000000000000000000000000000000000000000000000000000E200E200000000000000E2E2E20000000000000000E2000000000000E200
310
000000000000E2E2E20000000000000000E200E2000000000000000000000000000000000000000000000000000000000000E2000000000000000000000000000000000000000000000000000000E200E2E2E2E2E2E2E2E2E2E2E2E2E2E2E2E2E2E2E2E2000000000000E2E2E2E2E2E2E2E2E2E2E2E2E2E2E2E2E2E2E2E200
310
E20000000000000000000000000000000000000000000000000000000000F5E2000000000000000000000000000000000000000000000000000000E200E200000000000000E2E2E2E200000000000000E2000000000000E2000000000000E2E2E2E20000000000000000E200E2000000000000000000000000000000000000
310
000000000000000000000000E2000000000000000000000000000000000000000000000000E2E2E2E200E2000000000000000000000000000000000000000000E200000000000000000000000000000000000000000000E200E2E2E200000000000000000000000000000000000000000000000000000000E2000000000000
310
000000000000000000000000000000000000E2E200E2E2E2E2E2E2E2E2E2E2E2E2E2E2E2E2E2E2E2E2E2E2E2E2E2E2E2E2E2E2E2E2E2E2E2E2E2E2E2E2E2E2E2E2E2E2E2E2E2E2E2E200000000000000000000000000000000000000000000000000000000E2000000000000000000000000000000000000000000000000E2
310
E200E200E20000000000000000000000000000000000000000E2E2E2000000000000000000000000000000000000000000E200E2E2E200000000000000000000000000000000000000000000000000000000E2000000000000000000000000000000000000000000000000000000E200000000000000000000000000000000
310
000000000000E2E2E20000000000000000000000000000000000000000000000E200000000000000000000000000000000000000000000000000000000000FE2000000000000000000000000000000000000000000000000000000E2E2E2E2E2E2E2E2E2E2E2E2E2E2E2E2E2E2E2E2E2E2E2E2E2E2E2E2E2E2E2E2E2E2E2E2
310
E2E2E2E2E2E2E2E2E2E2E2E2E2E2000000000000000000000000000000000000000000000000000000000000E2000000000000000000000000000000000000000000000000000000E200000000000000000000000000000000000000000000E2E2E20000000000000000000000000000000000000000000000E20000000000
310
00000000000000000000000000000000000000000000000000E200E2000000000000000000000000000000000000000000000000000000000000000000000000000000000000000000000000000000000000000000000000000000000000000000000000000000000000000000000000000000000000000000000000000000
310
000000E20000E200E2000000000000000000000000000000000000000000000000000000000000000000000000000000000000000000000000000000000000000000000000000000000000000000000000000000000000000000000000000000000000000000000000000000000000E20000E200E200000000000000000000
310
0000000000000000000000000000000000000000000000000000000000000000000000000000000000000000000000000000000000000000000000000000000000000000000000000000000000000000000000000000000000000000E200F5E200E20000000000000000000000000000000000000000000000000000000000
310
0000E2E2E2E2E2E2E2E2E2E2E2E2E2E2E2E2E2E2E2E2E2E2E2E2E2E2E2E2E2E2E2E2E2E2E2E2E2E2E20000000000000000000000000000000000000000000000000000000000000000E20000E200E200000000000000000000000000000000000000000000000000000000000000E2000000E20000E2E2E2E2000000000000
310
000000000000000000E2E200000000E20000000000E20000000000000000000000000000000000000000000000000000000000000000E20000E200E200000000000000000000000000000000000000000000000000000000000000E2000000E20000E2E20000000000000000000000000000000000E2E200000000E2000000
310
0000E20000000000000000000000000000000000000000000000000000000000000000E20000E200E200000000000000000000000000000000000000000000000000000000000000E20000E2E2E200E2E2E2E2E20000000000000000000000000000E2E200000000E20000000000E200000000000000000000000000000000
310
00000000000000000000000000000000E20000E200E200000000000000000000000000000000000000000000000000000000000000E20000E2E2E200E2E2E2E2E2E2E2E2E2E2E2E2E2E2E2E2E2E2E2E2E200000000E20000000000E20000000000000000000000000000000000000000000000000000000000000000E200F5
310
E200E200000000000000000000000000000000000000000000000000000000000000E20000E2E2E200000000000000000000E2E2E2E2E2E2E2E2E2E2E2E200000000E20000000000E20000000000000000000000000000000000000000000000000000000000000000E20000E200E200000000000000000000000000000000
310
000000000000000000000000000000E2000000E2000000000000000000000000000000E2E20000E2E2E20000000000E20000000000E20000000000000000000000000000000000000000000000000000000000000000E200F5E200E200000000000000000000000000000000000000000000000000000000000000E2000000
310
E20000000000000000000000000000E2E2E2E2E2E2E2E20000000000E20000000000E20000000000000000000000000000000000000000000000000000000000000000E20000E200E200000000000000000000000000000000000000000000000000000000000000E2000000E2E2000000000000000000000000E2E2E2E2E2
310
E2E2E2E2E200000000E20000000000E20000000000000000000000000000000000000000000000000000000000000000E20000E200E200000000000000000000000000000000000000000000000000000000000000E2000000E2E2E2E2E2E2E2E2E2E2E2E2E2E2E2E2E2E2E2E2E2E2E2E200000000E20000000000E2000000
310
0000000000000000000000000000000000000000000000000000000000E20000E200E200000000000000000000000000000000000000000000000000000000000000E2000000E200000000000000000000000000E200E20000000000E20000000000E20000000000E200000000000000000000000000000000000000000000
310
00000000000000000000E20000E200E200000000000000000000000000000000000000000000000000000000000000E2000000E200000000000000000000000000E200E20000000000E20000000000E20000000000E20000000000000000000000000000000000000000000000000000000000000000E200F5E200E2000000
310
00000000000000000000000000000000000000000000000000000000E2000000E20000000000000000000000000000E2E20000000000E20000000000E20000000000E20000000000000000000000000000000000000000000000000000000000000000E20000E200E200000000000000000000000000000000000000000000
310
000000000000000000E2000000E2000000000000000000000000000000E20000000000E20000000000E20000000000E20000000000000000000000000000000000000000000000000000000000000000E20000E2000000000000000000000000000000000000000000000000000000000000000000E2000000E20000000000
310
00000000000000000000E20000000000E20000000000E20000000000E20000000000000000000000000000000000000000000000000000000000000000000000E200000000000000000000000000000000000000000000000000000000000000E2E2E2E20000E2000000000000000000000000000000E20000000000E20000
310
000000E20000000000E20000000000000000000000000000000000000000000000000000000000000000000000E200000000000000000000000000000000000000000000000000000000000000E2E2E2E20000E2000000000000000000000000000000E20000000000E20000000000E20000000000E2000000000000000000
310
00000000000000000000000000000000000000000000000000F5E20000000000000000000000000000000000000000000000000000000000000000E2E2E20000E2000000000000000000000000000000E20000000000E20000000000E20000000000E200000000000000000000000000000000000000000000000000000000
310
00000000000000E20000000000000000000000000000000000000000000000000000000000000000E2E2E20000E2000000000000000000000000000000E20000000000E20000000000E20000000000E20000000000000000000000000000000000000000000000000000000000000000000000E20000000000000000000000
310
00000000000000000000000000000000000000000000E2000000E2000000000000000000000000000000E20000000000E20000000000E20000000000E20000000000000000000000000000000000000000000000000000000000000000000000E2000000000000000000000000000000000000000000000000000000000000
310
000000E200E2E2E2E20000000000000000000000000000E20000000000E20000000000E20000000000E20000000000000000000000000000000000000000000000000000000000000000000000E2000000000000000000000000000000000000000000000000000000000000000000E20000E2E2E200000000000000000000
310
00000000E20000000000E20000000000E20000000000E200000000000000000000000000000000000000000000000000000000000000000000F5E2000000000000000000000000000000000000000000000000000000000000000000E20000E2E2E20000000000000000000000000000E20000000000E20000000000E20000
310
000000E20000000000000000000000000000000000000000000000000000000000000000000000E2000000000000000000000000000000000000000000000000000000000000000000E2000000E2000000000000000000000000000000E20000000000E20000000000E20000000000E2000000000000000000000000000000
310
00000000000000000000000000000000000000F5E200E200000000000000000000000000000000000000000000000000000000000000E2000000E2000000000000000000000000000000E20000000000E20000000000E20000000000E20000000000000000000000000000000000000000000000000000000000000000E200
310
00E200E200000000000000000000000000000000000000000000000000000000000000E2000000E2000000000000000000000000000000E20000000000E20000000000E20000000000E20000000000000000000000000000000000000000000000000000000000000000E20000E200E2000000000000000000000000000000
310
00000000000000000000000000000000E2000000E2000000000000000000000000000000E20000000000E20000000000E20000000000E20000000000000000000000000000000000000000000000000000000000000000E2007FE200E200000000000000000000000000000000000000000000000000000000000000E20000
310
00E2000000000000000000000000000000E20000000000E20000000000E20000000000E20000000000000000000000000000000000000000000000000000000000000000E20000E200E200000000000000000000000000000000000000000000000000000000000000E2000000E2000000000000000000000000000000E200
310
00000000E200000000E2E20000000000E20000000000000000000000000000000000000000000000000000000000000000E200F5E200E200000000000000000000000000000000000000000000000000000000000000E2000000E2000000000000000000000000000000E20000000000E200000000E2E2000000E2E2E20000
310
000000000000000000000000000000000000000000000000000000000000E20000E200E200000000000000000000000000000000000000000000000000000000000000E2000000E2000000000000000000000000000000E20000000000E20000000000E2000000E2E2E2E20000000000000000000000000000000000000000
310
0000000000000000000000E20000E200E200000000000000000000000000000000000000000000000000000000000000E2000000E2000000000000000000000000000000E20000000000E20000000000E2000000E2E2E20000000000000000000000000000000000000000000000000000000000000000E20000E200E20000
310
0000000000000000000000000000000000000000000000000000000000E2000000E2000000000000000000000000000000E2000000E200E20000000000E200000000E2E20000000000000000000000000000000000000000000000000000000000000000E20036E200E2000000000000000000000000000000000000000000
310
00000000000000000000E2000000E2000000000000000000000000000000E2E2E2E2E2E2E20000000000E20000000000E20000000000000000000000000000000000000000000000000000000000000000E200F5E200E200000000000000000000000000000000000000000000000000000000000000E2000000E2E2000000
310
000000E20000000000000000E2E2E2E2E2E20000000000E20000000000E20000000000000000000000000000000000000000000000000000000000000000E20000E200E200000000000000000000000000000000000000000000000000000000000000E2E2E2E2E2E2E2E2E2E2E2E2E2E2E2E2E2E2E2E2E2E2E20000E20000
310
00000000E20000000000E20000000000000000000000000000000000000000000000000000000000000000E200F5E200E2000000000000000000000000000000000000000000000000000000000000000000000000000000E2E2E2E2E2E2E2E2000000000000E20000E2000000000000E20000000000E20000000000000000
310
000000000000000000000000000000000000000000000000E20000E200E2000000000000000000000000000000000000000000000000000000000000000000000000000000E2E2E2E2E2E2E2E2000000000000E2E2E2E2000000000000E20000000000E2000000000000000000000000000000000000000000000000000000
310
0000000000E20000E200E200000000000000000000000000000000000000000000000000000000000000000000000000000000000000E2000000000000000000E20000E2000000000000E20000000000E20000000000000000000000000000000000000000000000000000000000000000E200F5E200E20000000000000000
310
0000000000000000000000000000000000000000000000E2E2E2E2E2E2E2E2E2E2E2E2E2E2E2E2E2E2E2E2E2E2E20000E2000000000000E20000000000E20000000000000000000000000000000000000000000000000000000000000000E20000E200E2000000000000000000000000000000000000000000000000000000
310
00000000E2000000E2000000000000E2000000000000000000E2E2E2E2E2E20000000000E20000000000E20000000000000000000000000000000000000000000000000000000000000000E200F5E2000000000000000000000000000000000000000000000000000000000000000000E2000000E200000000000000000000
310
0000000000E2E2E2E2E2E2E20000000000E20000000000E20000000000000000000000000000000000000000000000000000000000000000000000E2000000000000000000000000000000000000000000000000000000000000000000E2000000E2000000000000000000000000000000E2000000E200E20000000000E200
310
00000000E20000000000000000000000000000000000000000000000000000000000000000000000E2000000000000000000000000000000000000000000000000000000000000000000E2000000E2000000000000000000000000000000E20000000000E20000000000E20000000000E20000000000000000000000000000
310
000000000000000000000000000000000000000000E2000000000000000000000000000000000000000000000000000000000000000000E2000000E2000000000000000000000000000000E20000000000E20000000000E20000000000E2000000000000000000000000000000000000000000000000000000000000000000
310
0000E2000000000000000000000000000000000000000000000000000000000000000000E2000000E2000000000000000000000000000000E20000000000E20000000000E20000000000E20000000000000000000000000000000000000000000000000000000000000000000000E200000000000000000000000000000000
310
0000000000000000000000000000000000E200E2E2E2E20000000000000000000000000000E20000000000E20000000000E20000000000E20000000000000000000000000000000000000000000000000000000000000000000000E2000000000000000000000000000000000000000000000000000000000000000000E200
310
E2E2E2E20000000000000000000000000000E200E2E2E200E20000000000E20000000000E20000000000000000000000000000000000000000000000000000000000000000000000E2000000000000000000000000000000000000000000000000000000000000000000E200E2E2E2E20000000000000000000000000000E2
310
00E2E2E200E20000000000E20000000000E20000000000000000000000000000000000000000000000000000000000000000000000E2000000000000000000000000000000000000000000000000000000000000000000E2000000E2000000000000000000000000000000E2E2E2E2E2E2E2E200000000E20000000000E200
310
00000000000000000000000000000000000000000000000000000000000000000000E200E20000000000000000000000000000000000000000000000000000000000E2E2E2E20000E2000000000000000000000000000000E20000000000E20000000000E20000000000E20000000000000000000000000000000000000000
310
000000000000000000000000E200F5E200E20000000000000000000000000000000000000000000000000000000000E2E2E2E20000E2000000000000000000000000000000E20000000000E20000000000E20000000000E20000000000000000000000000000000000000000000000000000000000000000E20000E200E200
310
00000000000000000000000000000000000000000000000000000000E2E2E2E20000E2000000000000000000000000000000E20000000000E20000000000E20000000000E20000000000000000000000000000000000000000000000000000000000000000E200F5E200E20000000000000000000000000000000000000000
310
000000000000000000E2E2E2E20000E2000000000000000000000000000000E20000000000E20000000000E20000000000E20000000000000000000000000000000000000000000000000000000000000000E20000E200E200000000000000000000000000000000000000000000000000000000000000E2000000E2000000
310
0000E2E2E2E2E2E2E2E2E2E2E20000000000E20000000000E20000000000E20000000000000000000000000000000000000000000000000000000000000000E20000E200E200000000000000000000000000000000000000000000000000000000000000E2000000E2E200000000E2000000E2E2E2E2E2E2E20000000000E2
310
0000000000E20000000000E20000000000000000000000000000000000000000000000000000000000000000E200F5E200E200000000000000000000000000000000000000000000000000000000000000E2000000E2E2E2E2E2E2E200E2E2E2E2E2E2E2E2E2E2E2E2E2E2E20000000000E20000000000E200000000000000
310
00000000000000000000000000000000000000000000000000E20000E200E200000000000000000000000000000000000000000000000000000000000000E2000000000000E2E2E2E2E2E200E2E2E20000000000E2000000E20000000000E20000000000E20000000000000000000000000000000000000000000000000000
310
000000000000E20000E200E200000000000000000000000000000000000000000000000000000000000000E2E2E2E2E2E2E2E20000E2E2E2E2E2E2E2E2E2E2E2E2E2E2E2E2E2E2E2E2E2E2E20000000000E20000000000000000000000000000000000000000000000000000000000000000E20000E200E200000000000000
310
000000000000000000000000000000000000000000000000E2000000000000E200E2E2E2E2E200E20000000000E2E2E2E2E2E200000000E2E20000000000E20000000000000000000000000000000000000000000000000000000000000000E20000E200E20000000000000000000000000000000000000000000000000000
310
000000000000000000000000E2E2E2E2E200000000000000000000E2E2E2E2E20000000000E20000000000E20000000000000000000000000000000000000000000000000000000000000000E20000E200E20000000000000000000000000000000000000000000000000000000000000000000000000000E20000E2E20000
310
000000E2E2E2000000E2E2E2E2E2E2E2E2E2E2E2E2E2E2E2E20000000000000000000000000000000000000000000000000000000000000000E20000E200E20000000000000000000000000000000000000000000000000000000000000000000000000000E20000E2E2E2E2E2E2E2E2E2E2E2E2E2E2E2E2E20000000000E2
310
E2E2E20000000000000000000000000000000000000000000000000000000000000000000000E20000E200E20000000000000000000000000000000000000000000000000000000000000000000000000000E2E2E2E2E20000000000E2E2E2000000000000E2E200000000E2E2E20000000000000000000000000000000000
310
00000000000000000000000000000000000000E20000E200E200000000000000000000000000000000000000000000000000000000000000000000000000000000000000000000000000000000000000000000000000000000E2E2000000000000000000000000000000000000000000000000000000000000000000000000
310
E20000E200E2000000000000000000000000000000000000000000000000000000000000000000000000000000000000000000000000000000000000000000000000000000000000000000000000000000000000000000000000000000000000000000000000000000000000E20000E200E200000000E2E2E2E2E2E2E2E2E2
310
E2E2E2E2E2E2E2E2E2E2E2E2E2E2E2E2E2E2E2E2E2E2E2E2E2E2E2E200000000000000000000000000000000000000000000000000000000000000000000000000000000000000000000000000000000000000000000000000E20000E2000000000000E2E2E2E2E2E2E2E2E2E2E2E2E2E2E2E2E2E2E2E2E2E2E2E2E2E2E2E2
310
E2E2E2E2E2E2E2E2E200000000000000000000000000000000000000000000000000000000000000000000000000000000000000000000000000000000000000000000000000000000E2000000000000E2E2E2E2E2E2E2E2E2E2E2E2E2E2E2E2E2E2E2E2E2E2E2E2E2E2E2E2E2E2E2E2E2E2E2E2E200000000000000000000
310
000000000000000000000000000000000000000000000000000000000000000000000000000000000000000000000000000000000000E2000000000000E2E2E2E2E2E2E2E2E2E2E2E2E2E2E2E2E2E2E2E2E2E2E2E2E2E2E2E2E2E2E2E2E2E2E2E2E20000000000000000000000000000000000000000000000000000000000
310
00000000000000000000000000000000000000000000000000000000000000000000F5E20000000000E2E2E2E2E2E2E2E2E2E2E2E2E2E2E2E2E2E2E2E2E2E2E2E2E2E2E2E2E2E2E2E2E2E2E2E2E2E2E2E2E2E2E2E2E2E2E2E2E2E2E2E2E2E2E2E2E2E2E2E2E2E2E2E2E2E2E2E2E2E2E2E2E2E2E2E2E2E2E2E2E2E2E2E2E2E2
310
E2E2E2E2E2E2E2E2E2E2E2E2E2000000E2000000000000E2E2E2E2E2E2E2E2E2E2E2E2E2E2E2E2E2E2E2E2E2E2E2E2E2E2E2E2E2E2E2E2000000000000000000000000000000000000000000000000000000000000000000000000000000000000000000000000000000000000000000000000000000000000000000E20000
310
00000000E2E2E2E2E2E2E2E2E2E2E2E2E2E2E2E2E2E2E2E2E2E2E2E2E2E2E2E2E2E2E2E20000000000000000000000000000000000000000000000000000000000000000000000000000000000000000000000000000000000000000000000000000000000000000F5E2000000000000E2E2E2E2E2E2E2E2E2E2E2E2E2E2E2
310
E2E2E2E2E2E2E2E2E2E2E2E2E2E2E2E2E2000000000000000000000000000000000000000000000000000000000000000000000000E2E2E2E2E2E2E2E2E2E2E2E2E2E2E2E2E2E2E2E2E2E2E2E2E2E2E2E2E200000000E2000000000000E2E2E2E2E2E2E2E2E2E2E2E2E2E2E2E2E2E2E2E2E2E2E2E2E2E2E2E2E2E2E2E20000
310
00000000000000000000000000000000000000000000000000000000000000000000E2000000000000000000000000000000000000000000000000000000E2000000F5E20000000000000000000000000000000000000000000000000000000000000000000000000000000000000000000000000000000000000000000000
310
000000000000000000000000000000E20000E5E5E5E5E500E5E5E5E5E5E5E5E5E5E000E50025E525E5E500E200000000E20000000000000000000000000000000000000000000000000000000000000000000000000000000000000000000000000000000000000000000000000000000000000000000000000000E200E500
310
0000000000000000000000000000000000000000000000E5E200000000E200E2000000000000000000000000000000000000000000000000000000000000000000000000000000000000000000000000000000000000000000000000000000000000000000000000E2E5E50000000000E50000000000000000000000000000
310
0000E50000E200E20000E200E2000000000000000000000000000000000000000000000000000000000000000000000000000000000000000000000000000000000000000000000000000000000000000000000000E2E5E50000000000E500000000000000000000000000000000E50000E200E20000E200E2000000000000
310
000000000000000000000000000000000000000000000000000000000000000000000000000000000000000000000000000000000000000000000000000000000000E2E5E50000E500000000000000000000E50000000000000000E00000E200E200F5E200E200000000000000000000000000000000000000000000000000
310
0000000000000000000000000000000000000000000000000000000000000000000000000000000000000000000000E2000000000000E0000000040000E500000004002000E500000000E4E200E20000E200E20000000000000000000000000000000000000000000000000000000000000000000000000000000000000000
310
00000000000000000000000000000000000000000000000000000000E20000000000000000C0C00000000000000000C0C000000000000000E200E20000E200E2000000000000000000000000000000000000000000000000000000000000000000000000000000000000000000000000000000000000000000000000000000
310
000000000000000000E2000000000000000000000000000000000000000000000000000000E200E20000E200E2000000000000000000000000000000000000000000000000000000000000000000000000000000000000000000000000000000000000000000000000000000000000000000000000E2000000000000000000
310
000000000000000000000000000000000000E200E20000E200E2000000000000000000000000000000000000000000000000000000000000000000000000000000000000000000000000000000000000000000000000000000000000000000000000E2E2E2E2E2E2E2E2E2E2E2E2E2E2E2E2E2E2E2E2E2E2E2E2E2E2E2E2E2
310
00E200F5E200E2E2E2E2E2E2E2E2E2000000000000000000E2E2E2E2E2E2E2E2E2E2E2E2E2E2E2E200000000000000000000E2E2E2E2E2E2E2E2E2E2E2E2E2E2E2E200000000000000000000E2E2E2E2E2E2E2E2E2E2E2E2E2E2E2E2000000000000000000E2E2E2E2E2E2E2E2E2E200E20000000000000000000000000000
310
00000000000000000000000000000000000000000000000000000000000000000000000000000000000000000000000000000000000000000000000000000000000000000000000000000000000000000000000000000000000000E2F5E2000000000000000000000000000000000000000000000000000000000000000000
310
0000000000000000000000000000000000000000000000000000000000000000000000000000000000000000000000000000000000000000000000000000000000000000000000000000E2E2E2E2E2E2E2E2E2E2E2E2E2E2E2E2E2E2E2E2E2E2E2E2E2E2E2E2E2E2E2E2E2E2E2E2E2E2E2E2E2E2E2E2E2E2E2E2E2E2E2E2E2
310
E2E2E2E2E2E2E2E2E2E2E2E2E2E2E2E2E2E2E2E2E2E2E2E2E2E2E2E2E2E2E2E2E2E2E2E2E2E2E2E2E2E2E2E2E2E2E2E2E2E2E2E2E2E200
  0
XRECORD
  5
33C
102
{ACAD_REACTORS
330
19
102
}
330
19
100
AcDbXrecord
280
     1
102
SHADEPLOT
 70
     0
102
SHADEPLOTRESLEVEL
 70
     2
102
SHADEPLOTCUSTOMDPI
 70
   300
  0
XRECORD
  5
1A
102
{ACAD_REACTORS
330
19
102
}
330
19
100
AcDbXrecord
280
     1
310
280000000001000076000000010008000000000000760000000000000000000000010000000000000000000000000000C8C8C8000000000000000000000000000000000000000000000000000000000000000000330000006600000099000000CC000000FF00000000330000333300006633000099330000CC330000FF3300
310
0000660000336600006666000099660000CC660000FF66000000990000339900006699000099990000CC990000FF99000000CC000033CC000066CC000099CC0000CCCC0000FFCC000000FF000033FF000066FF000099FF0000CCFF0000FFFF000000003300330033006600330099003300CC003300FF003300003333003333
310
33006633330099333300CC333300FF33330000663300336633006666330099663300CC663300FF66330000993300339933006699330099993300CC993300FF99330000CC330033CC330066CC330099CC3300CCCC3300FFCC330000FF330033FF330066FF330099FF3300CCFF3300FFFF330000006600330066006600660099
310
006600CC006600FF00660000336600333366006633660099336600CC336600FF33660000666600336666006666660099666600CC666600FF66660000996600339966006699660099996600CC996600FF99660000CC660033CC660066CC660099CC6600CCCC6600FFCC660000FF660033FF660066FF660099FF6600CCFF6600
310
FFFF660000009900330099006600990099009900CC009900FF00990000339900333399006633990099339900CC339900FF33990000669900336699006666990099669900CC669900FF66990000999900339999006699990099999900CC999900FF99990000CC990033CC990066CC990099CC9900CCCC9900FFCC990000FF99
310
0033FF990066FF990099FF9900CCFF9900FFFF99000000CC003300CC006600CC009900CC00CC00CC00FF00CC000033CC003333CC006633CC009933CC00CC33CC00FF33CC000066CC003366CC006666CC009966CC00CC66CC00FF66CC000099CC003399CC006699CC009999CC00CC99CC00FF99CC0000CCCC0033CCCC0066CC
310
CC0099CCCC00CCCCCC00FFCCCC0000FFCC0033FFCC0066FFCC0099FFCC00CCFFCC00FFFFCC000000FF003300FF006600FF009900FF00CC00FF00FF00FF000033FF003333FF006633FF009933FF00CC33FF00FF33FF000066FF003366FF006666FF009966FF00CC66FF00FF66FF000099FF003399FF006699FF009999FF00CC
310
99FF00FF99FF0000CCFF0033CCFF0066CCFF0099CCFF00CCCCFF00FFCCFF0000FFFF0033FFFF0066FFFF0099FFFF00CCFFFF00FFFFFF00000000000D0D0D001A1A1A00282828003535350043434300505050005D5D5D006B6B6B00787878008686860093939300A1A1A100AEAEAE00BBBBBB00C9C9C900D6D6D600E4E4E400
310
F1F1F100FFFFFF000000000000000000000000000000000000000000000000000000000000000000000000000000000000000000000000000000000000000000000000000000000000000000000000000000000000000000000000000000000000000000000000000000000000000000000000000000000000000000000000
310
00000000000000000000000000000000000000000000000000000000000000000000000000000000000000000000000000000000000000000000000000000000000000000000000000000000000000000000000000000000000000000000000000000000000000000000000000000000000000000000000000000000000000
310
00000000000000000000000000000000000000000000000000000000000000000000000000000000000000000000000000000000000000000000000000000000000000000000000000000000000000000000000000000000000000000000000000000000000000000000000000000000000000000000000000000000000000
310
00000000000000000000000000000000000000000000000000000000000000000000000000000000000000000000000000000000000000000000000000000000000000000000000000000000000000000000000000000000000000000000000000000000000000000000000000000000000000000000000000000000000000
310
00000000000000000000000000000000000000000000000000000000000000000000000000000000000000000000000000000000000000000000000000000000000000000000000000000000000000000000000000000000000000000000000000000000000000000000000000000000000000000000000000000000000000
310
00000000000000000000000000000000000000000000000000000000000000000000000000000000000000000000000000000000000000000000000000000000000000000000000000000000000000000000000000000000000000000000000000000000000000000000000000000000000000000000000000000000000000
310
00000000000000000000000000000000000000000000000000000000000000000000000000000000000000000000000000000000000000000000000000000000000000000000000000000000000000000000000000000000000000000000000000000000000000000000000000000000000000000000000000000000000000
310
00000000000000000000000000000000000000000000000000000000000000000000000000000000000000000000000000000000000000000000000000000000000000000000000000000000000000000000000000000000000000000000000000000000000000000000000000000000000000000000000000000000000000
310
00000000000000000000000000000000000000000000000000000000000000000000000000000000000000000000000000000000000000000000000000000000000000000000000000000000000000000000000000000000000000000000000000000000000000000000000000000000000000000000000000000000000000
310
00000000000000000000000000000000000000000000000000000000000000000000000000000000000000000000000000000000000000000000000000000000000000000000000000000000000000000000000000000000000000000000000000000000000000000000000000000000000000000000000000000000000000
310
00000000000000000000000000000000000000000000000000000000000000000000000000000000000000000000000000000000000000000000000000000000000000000000000000000000000000000000000000000000000000000000000000000000000000000000000000000000000000000000000000000000000000
310
00000000000000000000000000000000000000000000000000000000000000000000000000000000000000000000000000000000000000000000000000000000000000000000000000000000000000000000000000000000000000000000000000000000000000000000000000000000000000000000000000000000000000
310
00000000000000000000000000000000000000000000000000000000000000000000000000000000000000000000000000000000000000000000000000000000000000000000000000000000000000000000000000000000000000000000000000000000000000000000000000000000000000000000000000000000000000
310
00000000000000000000000000000000000000000000000000000000000000000000000000000000000000000000000000000000000000000000000000000000000000000000000000000000000000000000000000000000000000000000000000000000000000000000000000000000000000000000000000000000000000
310
00000000000000000000000000000000000000000000000000000000000000000000000000000000000000000000000000000000000000000000000000000000000000000000000000000000000000000000000000000000000000000000000000000000000000000000000000000000000000000000000000000000000000
310
00000000000000000000000000000000000000000000000000000000000000000000000000000000000000000000000000000000000000000000000000000000000000000000000000000000000000000000000000000000000000000000000000000000000000000000000000000000000000000000000000000000000000
310
00000000000000000000000000000000000000000000000000000000000000000000000000000000000000000000000000000000000000000000000000000000000000000000000000000000000000000000000000000000000000000000000000000000000000000000000000000000000000000000000000000000000000
310
00000000000000000000000000000000000000000000000000000000000000000000000000000000000000000000000000000000000000000000000000000000000000000000000000000000000000000000000000000000000000000000000000000000000000000000000000000000000000000000000000000000000000
310
00000000000000000000000000000000000000000000000000000000000000000000000000000000000000000000000000000000000000000000000000000000000000000000000000000000000000000000000000000000000000000000000000000000000000000000000000000000000000000000000000000000000000
310
00000000000000000000000000000000000000000000000000000000000000000000000000000000000000000000000000000000000000000000000000000000000000000000000000000000000000000000000000000000000000000000000000000000000000000000000000000000000000000000000000000000000000
310
00000000000000000000000000000000000000000000000000000000000000000000000000000000000000000000000000000000000000000000000000000000000000000000000000000000000000000000000000000000000000000000000000000000000000000000000000000000000000000000000000000000000000
310
00000000000000000000000000000000000000000000000000000000000000000000000000000000000000000000000000000000000000000000000000000000000000000000000000000000000000000000000000000000000000000000000000000000000000000000000000000000000000000000000000000000000000
310
00000000000000000000000000000000000000000000000000000000000000000000000000000000000000000000000000000000000000000000000000000000000000000000000000000000000000000000000000000000000000000000000000000000000000000000000000000000000000000000000000000000000000
310
00000000000000000000000000000000000000000000000000000000000000000000000000000000000000000000000000000000000000000000000000000000000000000000000000000000000000000000000000000000000000000000000000000000000000000000000000000000000000000000000000000000000000
310
00000000000000000000000000000000000000000000000000000000000000000000000000000000000000000000000000000000000000000000000000000000000000000000000000000000000000000000000000000000000000000000000000000000000000000000000000000000000000000000000000000000000000
310
00000000000000000000000000000000000000000000000000000000000000000000000000000000000000000000000000000000000000000000000000000000000000000000000000000000000000000000000000000000000000000000000000000000000000000000000000000000000000000000000000000000000000
310
00000000000000000000000000000000000000000000000000000000000000000000000000000000000000000000000000000000000000000000000000000000000000000000000000000000000000000000000000000000000000000000000000000000000000000000000000000000000000000000000000000000000000
310
00000000000000000000000000000000000000000000000000000000000000000000000000000000000000000000000000000000000000000000000000000000000000000000000000000000000000000000000000000000000000000000000000000000000000000000000000000000000000000000000000000000000000
310
00000000000000000000000000000000000000000000000000000000000000000000000000000000000000000000000000000000000000000000000000000000000000000000000000000000000000000000000000000000000000000000000000000000000000000000000000000000000000000000000000000000000000
310
00000000000000000000000000000000000000000000000000000000000000000000000000000000000000000000000000000000000000000000000000000000000000000000000000000000000000000000000000000000000000000000000000000000000000000000000000000000000000000000000000000000000000
310
00000000000000000000000000000000000000000000000000000000000000000000000000000000000000000000000000000000000000000000000000000000000000000000000000000000000000000000000000000000000000000000000000000000000000000000000000000000000000000000000000000000000000
310
00000000000000000000000000000000000000000000000000000000000000000000000000000000000000000000000000000000000000000000000000000000000000000000000000000000000000000000000000000000000000000000000000000000000000000000000000000000000000000000000000000000000000
310
00000000000000000000000000000000000000000000000000000000000000000000000000000000000000000000000000000000000000000000000000000000000000000000000000000000000000000000000000000000000000000000000000000000000000000000000000000000000000000000000000000000000000
310
00000000000000000000000000000000000000000000000000000000000000000000000000000000000000000000000000000000000000000000000000000000000000000000000000000000000000000000000000000000000000000000000000000000000000000000000000000000000000000000000000000000000000
310
00000000000000000000000000000000000000000000000000000000000000000000000000000000000000000000000000000000000000000000000000000000000000000000000000000000000000000000000000000000000000000000000000000000000000000000000000000000000000000000000000000000000000
310
00000000000000000000000000000000000000000000000000000000000000000000000000000000000000000000000000000000000000000000000000000000000000000000000000000000000000000000000000000000000000000000000000000000000000000000000000000000000000000000000000000000000000
310
00000000000000000000000000000000000000000000000000000000000000000000000000000000000000000000000000000000000000000000000000000000000000000000000000000000000000000000000000000000000000000000000000000000000000000000000000000000000000000000000000000000000000
310
00000000000000000000000000000000000000000000000000000000000000000000000000000000000000000000000000000000000000000000000000000000000000000000000000000000000000000000000000000000000000000000000000000000000000000000000000000000000000000000000000000000000000
310
00000000000000000000000000000000000000000000000000000000000000000000000000000000000000000000000000000000000000000000000000000000000000000000000000000000000000000000000000000000000000000000000000000000000000000000000000000000000000000000000000000000000000
310
00000000000000000000000000000000000000000000000000000000000000000000000000000000000000000000000000000000000000000000000000000000000000000000000000000000000000000000000000000000000000000000000000000000000000000000000000000000000000000000000000000000000000
310
00000000000000000000000000000000000000000000000000000000000000000000000000000000000000000000000000000000000000000000000000000000000000000000000000000000000000000000000000000000000000000000000000000000000000000000000000000000000000000000000000000000000000
310
00000000000000000000000000000000000000000000000000000000000000000000000000000000000000000000000000000000000000000000000000000000000000000000000000000000000000000000000000000000000000000000000000000000000000000000000000000000000000000000000000000000000000
310
00000000000000000000000000000000000000000000000000000000000000000000000000000000000000000000000000000000000000000000000000000000000000000000000000000000000000000000000000000000000000000000000000000000000000000000000000000000000000000000000000000000000000
310
00000000000000000000000000000000000000000000000000000000000000000000000000000000000000000000000000000000000000000000000000000000000000000000000000000000000000000000000000000000000000000000000000000000000000000000000000000000000000000000000000000000000000
310
00000000000000000000000000000000000000000000000000000000000000000000000000000000000000000000000000000000000000000000000000000000000000000000000000000000000000000000000000000000000000000000000000000000000000000000000000000000000000000000000000000000000000
310
00000000000000000000000000000000000000000000000000000000000000000000000000000000000000000000000000000000000000000000000000000000000000000000000000000000000000000000000000000000000000000000000000000000000000000000000000000000000000000000000000000000000000
310
00000000000000000000000000000000000000000000000000000000000000000000000000000000000000000000000000000000000000000000000000000000000000000000000000000000000000000000000000000000000000000000000000000000000000000000000000000000000000000000000000000000000000
310
00000000000000000000000000000000000000000000000000000000000000000000000000000000000000000000000000000000000000000000000000000000000000000000000000000000000000000000000000000000000000000000000000000000000000000000000000000000000000000000000000000000000000
310
00000000000000000000000000000000000000000000000000000000000000000000000000000000000000000000000000000000000000000000000000000000000000000000000000000000000000000000000000000000000000000000000000000000000000000000000000000000000000000000000000000000000000
310
00000000000000000000000000000000000000000000000000000000000000000000000000000000000000000000000000000000000000000000000000000000000000000000000000000000000000000000000000000000000000000000000000000000000000000000000000000000000000000000000000000000000000
310
00000000000000000000000000000000000000000000000000000000000000000000000000000000000000000000000000000000000000000000000000000000000000000000000000000000000000000000000000000000000000000000000000000000000000000000000000000000000000000000000000000000000000
310
00000000000000000000000000000000000000000000000000000000000000000000000000000000000000000000000000000000000000000000000000000000000000000000000000000000000000000000000000000000000000000000000000000000000000000000000000000000000000000000000000000000000000
310
00000000000000000000000000000000000000000000000000000000000000000000000000000000000000000000000000000000000000000000000000000000000000000000000000000000000000000000000000000000000000000000000000000000000000000000000000000000000000000000000000000000000000
310
00000000000000000000000000000000000000000000000000000000000000000000000000000000000000000000000000000000000000000000000000000000000000000000000000000000000000000000000000000000000000000000000000000000000000000000000000000000000000000000000000000000000000
310
00000000000000000000000000000000000000000000000000000000000000000000000000000000000000000000000000000000000000000000000000000000000000000000000000000000000000000000000000000000000000000000000000000000000000000000000000000000000000000000000000000000000000
310
00000000000000000000000000000000000000000000000000000000F5F5F5F5F5F50000000000000000000000000000000000000000000000000000000000000000F5F5F5F5F5F500000000000000000000000000000000000000000000000000000000000000000000000000000000000000000000000000000000000000
310
00000000000000000000000000000000000000000000000000000000000000000000000000000000000000000000000000000000000000000000000000000000000000000000000000000000000000000000000000000000000000000000000000000000000000000000000000000000000000000000000000000000000000
310
000000000000000000000000000000000000000000000000000000000000F50000F500F50000000000000000000000000000000000000000000000000000000000000000F500F50000F50000000000000000000000000000000000000000000000000000000000000000000000000000000000000000000000000000000000
310
00000000000000000000000000000000000000000000000000000000000000000000000000000000000000000000000000000000000000000000000000000000000000000000000000000000000000000000000000000000000000000000000000000000000000000000000000000000000000000000000000000000000000
310
0000000000000000000000000000000000000000000000000000000000000000F50000F500F50000000000000000000000000000000000000000000000000000000000000000F500F50000F5000000000000000000000000000000000000000000000000000000000000000000000000000000000000000000000000000000
310
00000000000000000000000000000000000000000000000000000000000000000000000000000000000000000000000000000000000000000000000000000000000000000000000000000000000000000000000000000000000000000000000000000000000000000000000000000000000000000000000000000000000000
310
00000000000000000000000000000000000000000000000000000000000000000000F5F5F5F5F5F5F5F500000000000000000000000000000000000000000000000000000000F5F5F5F5F5F5F5F500000000000000000000000000000000000000000000000000000000000000000000000000000000000000000000000000
310
00000000000000000000000000000000000000000000000000000000000000000000000000000000000000000000000000000000000000000000000000000000000000000000000000000000000000000000000000000000000000000000000000000000000000000000000000000000000000000000000000000000000000
310
00000000000000000000000000000000000000000000000000000000000000000000000000F50000F5F5F5F500000000000000000000000000000000000000000000000000000000F5F5F5F5F50000000000000000000000000000000000000000000000000000000000000000000000000000000000000000000000000000
310
00000000000000000000000000000000000000000000000000000000000000000000000000000000000000000000000000000000000000000000000000000000000000000000000000000000000000000000000000000000000000000000000000000000000000000000000000000000000000000000000000000000000000
310
000000000000000000000000000000000000000000000000000000000000000000000000000000F50000F50000F500000000000000000000000000000000000000000000000000000000F50000F5F5F50000000000000000000000000000000000000000000000000000000000000000000000000000000000000000000000
310
00000000000000000000000000000000000000000000000000000000000000000000000000000000000000000000000000000000000000000000000000000000000000000000000000000000000000000000000000000000000000000000000000000000000000000000000000000000000000000000000000000000000000
310
0000000000000000000000000000000000000000000000000000000000000000000000000000000000F50000F50000F500000000000000000000000000000000000000000000000000000000F50000F5F5F5F50000000000000000000000000000000000000000000000000000000000000000000000000000000000000000
310
00000000000000000000000000000000000000000000000000000000000000000000000000000000000000000000000000000000000000000000000000000000000000000000000000000000000000000000000000000000000000000000000000000000000000000000000000000000000000000000000000000000000000
310
00000000000000000000000000000000000000000000000000000000000000000000000000000000000000F50000F50000F500000000000000000000000000000000000000000000000000000000F5F5F5F5F5F500000000000000000000000000000000000000000000000000000000000000000000000000000000000000
310
00000000000000000000000000000000000000000000000000000000000000000000000000000000000000000000000000000000000000000000000000000000000000000000000000000000000000000000000000000000000000000000000000000000000000000000000000000000000000000000000000000000000000
310
00000000000000000000000000000000000000000000000000000000000000000000000000000000000000F5F5F50000F500F5F500000000000000000000000000000000000000000000000000000000F5F500F500000000000000000000000000000000000000000000000000000000000000000000000000000000000000
310
00000000000000000000000000000000000000000000000000000000000000000000000000000000000000000000000000000000000000000000000000000000000000000000000000000000000000000000000000000000000000000000000000000000000000000000000000000000000000000000000000000000000000
310
00000000000000000000000000000000000000000000000000000000000000000000000000000000000000000000F5F50000F500F5F500000000000000000000000000000000000000000000000000000000F5F500F50000000000000000000000000000000000000000000000000000000000000000000000000000000000
310
00000000000000000000000000000000000000000000000000000000000000000000000000000000000000000000000000000000000000000000000000000000000000000000000000000000000000000000000000000000000000000000000000000000000000000000000000000000000000000000000000000000000000
310
00000000000000000000000000000000000000000000000000000000000000000000000000000000000000000000000000F50000F500F5F5F5F5F5F5F5F5F5F5F5F50000000000000000F5F5F5F5F5F5F5F5F5F5F5F500F5000000000000000000000000000000000000000000000000000000000000000000000000000000
310
00000000000000000000000000000000000000000000000000000000000000000000000000000000000000000000000000000000000000000000000000000000000000000000000000000000000000000000000000000000000000000000000000000000000000000000000000000000000000000000000000000000000000
310
000000000000000000000000000000000000000000000000000000000000000000000000000000000000000000000000000000F50000F500F5F5000000000000F50000F5F5F500000000F5F5F500000000000000000000F500F5F5F50000000000000000000000000000000000000000000000000000000000000000000000
310
00000000000000000000000000000000000000000000000000000000000000000000000000000000000000000000000000000000000000000000000000000000000000000000000000000000000000000000000000000000000000000000000000000000000000000000000000000000000000000000000000000000000000
310
0000000000000000000000000000000000000000000000000000000000000000000000000000000000000000000000000000000000F50000F500F5F50000000000F5F50000F5F5F5F5F500F5F5F5F50000000000000000F5F5F5F5F5F5F5000000000000000000000000000000000000000000000000000000000000000000
310
00000000000000000000000000000000000000000000000000000000000000000000000000000000000000000000000000000000000000000000000000000000000000000000000000000000000000000000000000000000000000000000000000000000000000000000000000000000000000000000000000000000000000
310
00000000000000000000000000000000000000000000000000000000000000000000000000000000000000000000000000000000000000F50000F500F5F50000000000F5F50000F5F5F500F500F500F5F50000000000000000F5F5F500F5F5F500000000000000000000000000000000000000000000000000000000000000
310
00000000000000000000000000000000000000000000000000000000000000000000000000000000000000000000000000000000000000000000000000000000000000000000000000000000000000000000000000000000000000000000000000000000000000000000000000000000000000000000000000000000000000
310
000000000000000000000000000000000000000000000000000000000000000000000000000000000000000000000000000000000000000000F50000F500F5F5000000000000F50000F5F5F5F5F500F5F5F5F50000000000000000F5F5F500F500000000000000000000000000000000000000000000000000000000000000
310
00000000000000000000000000000000000000000000000000000000000000000000000000000000000000000000000000000000000000000000000000000000000000000000000000000000000000000000000000000000000000000000000000000000000000000000000000000000000000000000000000000000000000
310
0000000000000000000000000000000000000000000000000000000000000000000000000000000000000000000000000000000000000000000000F5F5F5F5F5F5F5F5F5F5F5F5F5F5F5F5F5F5F5F5F5F500F5F5F5F5F5F5F5F5F5F5F5F5F5F5F5F500F5000000000000000000000000000000000000000000000000000000
310
00000000000000000000000000000000000000000000000000000000000000000000000000000000000000000000000000000000000000000000000000000000000000000000000000000000000000000000000000000000000000000000000000000000000000000000000000000000000000000000000000000000000000
310
000000000000000000000000000000000000000000000000000000000000000000000000000000000000000000000000000000000000000000000000000000F5F5F5F5F5000000F5F5F50000000000F5F5F5F500F500000000F5F5F50000000000F500F500F500000000000000000000000000000000000000000000000000
310
00000000000000000000000000000000000000000000000000000000000000000000000000000000000000000000000000000000000000000000000000000000000000000000000000000000000000000000000000000000000000000000000000000000000000000000000000000000000000000000000000000000000000
310
0000000000000000000000000000000000000000000000000000000000000000000000000000000000000000000000000000000000000000000000000000000000F5F5F5F5F5F5F5F5F5F5F5F5F5F5F5F5F5F5F5F5F5F5F5F5F5F5F5F5F5F5F5F5F5F5F500F500F50000000000000000000000000000000000000000000000
310
00000000000000000000000000000000000000000000000000000000000000000000000000000000000000000000000000000000000000000000000000000000000000000000000000000000000000000000000000000000000000000000000000000000000000000000000000000000000000000000000000000000000000
310
00000000000000000000000000000000000000000000000000000000000000000000000000000000000000000000000000000000000000000000000000000000000000F5F50000000000F5F5F5000000000000F500000000F50000000000F5F5F5000000000000F500F5000000000000000000000000000000000000000000
310
00000000000000000000000000000000000000000000000000000000000000000000000000000000000000000000000000000000000000000000000000000000000000000000000000000000000000000000000000000000000000000000000000000000000000000000000000000000000000000000000000000000000000
310
000000000000000000000000000000000000000000000000000000000000000000000000000000000000000000000000000000000000000000000000000000000000000000F5F5F5F5F5F5F5F5F5F5F5F5F5F5F5F5F500000000F5F5F5F5F5F5F5F5F5F5F5F5F5F5F5F500F500000000000000000000000000000000000000
310
00000000000000000000000000000000000000000000000000000000000000000000000000000000000000000000000000000000000000000000000000000000000000000000000000000000000000000000000000000000000000000000000000000000000000000000000000000000000000000000000000000000000000
310
0000000000000000000000000000000000000000000000000000000000000000000000000000000000000000000000000000000000000000000000000000000000000000F5F500F5F50000000000F5F5F5000000000000F500000000F5F500000000F5F5F5000000000000F500F5F500000000000000000000000000000000
310
00000000000000000000000000000000000000000000000000000000000000000000000000000000000000000000000000000000000000000000000000000000000000000000000000000000000000000000000000000000000000000000000000000000000000000000000000000000000000000000000000000000000000
310
00000000000000000000000000000000000000000000000000000000000000000000000000000000000000000000000000000000000000000000000000000000000000000000F5F5F5F5F500000000000000000000000000000000F50000000000000000000000000000000000F5F5F5F50000000000000000000000000000
310
00000000000000000000000000000000000000000000000000000000000000000000000000000000000000000000000000000000000000000000000000000000000000000000000000000000000000000000000000000000000000000000000000000000000000000000000000000000000000000000000000000000000000
310
000000000000000000000000000000000000000000000000000000000000000000000000000000000000000000000000000000000000000000000000000000000000000000000000F5F5F5F5F5F5F5F5F5F5F5F5F5F5F5F5F5F5F5F5F5F5F5F5F5F5F5F5F5F5F5F5F5F5F5F5F5F5F5F5F5F5F5000000000000000000000000
310
00000000000000000000000000000000000000000000000000000000000000000000000000000000000000000000000000000000000000000000000000000000000000000000000000000000000000000000000000000000000000000000000000000000000000000000000000000000000000000000000000000000000000
310
0000000000000000000000000000000000000000000000000000000000000000000000000000000000000000000000000000000000000000000000000000000000000000000000000000000000F500000000000000000000000000000000F5F5F5000000000000000000000000000000000000F50000000000000000000000
310
00000000000000000000000000000000000000000000000000000000000000000000000000000000000000000000000000000000000000000000000000000000000000000000000000000000000000000000000000000000000000000000000000000000000000000000000000000000000000000000000000000000000000
310
000000000000000000000000000000000000000000000000000000000000000000000000000000000000000000000000000000000000000000000000000000000000000000000000000000000000F5F5F5F5F5F5F5F5F5F5F5F5F5F5F5F5F5F5F5F5F5F5F5F5F5F5F5F5F5F5F5F5F5F5F5F5F5F5F5F5000000000000000000
310
00000000000000000000000000000000000000000000000000000000000000000000000000000000000000000000000000000000000000000000000000000000000000000000000000000000000000000000000000000000000000000000000000000000000000000000000000000000000000000000000000000000000000
310
00000000000000000000000000000000000000000000000000000000000000000000000000000000000000000000000000000000000000000000000000000000000000000000000000000000000000000000000000000000000000000000000000000000000000000000000000000000000000000000000000000000000000
310
00000000000000000000000000000000000000000000000000000000000000000000000000000000000000000000000000000000000000000000000000000000000000000000000000000000000000000000000000000000000000000000000000000000000000000000000000000000000000000000000000000000000000
310
00000000000000000000000000000000000000000000000000000000000000000000000000000000000000000000000000000000000000000000000000000000000000000000000000000000000000000000000000000000000000000000000000000000000000000000000000000000000000000000000000000000000000
310
00000000000000000000000000000000000000000000000000000000000000000000000000000000000000000000000000000000000000000000000000000000000000000000000000000000000000000000000000000000000000000000000000000000000000000000000000000000000000000000000000000000000000
310
000000000000000000000000000000000000000000000000000000000000000000000000000000000000000000000000000000000000000000000000000000000000000000000000000000000000000000000000000000000000F50000F50000000000000000000000000000000000000000F500000000F500000000000000
310
00000000000000000000000000000000000000000000000000000000000000000000000000000000000000000000000000000000000000000000000000000000000000000000000000000000000000000000000000000000000000000000000000000000000000000000000000000000000000000000000000000000000000
310
00000000000000000000000000000000000000000000000000000000000000000000000000000000000000000000000000000000000000000000000000000000000000000000000000000000000000000000000000000000000000F5F5F5F5F5F5F5F5F5F5F5F5F5F5F5F5F5F5F5F5F5F5F5F5F5F5F5F5F5F5F50000000000
310
00000000000000000000000000000000000000000000000000000000000000000000000000000000000000000000000000000000000000000000000000000000000000000000000000000000000000000000000000000000000000000000000000000000000000000000000000000000000000000000000000000000000000
310
000000000000000000000000000000000000000000000000000000000000000000000000000000000000000000000000000000000000000000000000000000000000000000000000000000000000000000000000000000000000000000F5000000F5F5F50000000000000000000000000000F5F50000F500000000F5000000
310
00000000000000000000000000000000000000000000000000000000000000000000000000000000000000000000000000000000000000000000000000000000000000000000000000000000000000000000000000000000000000000000000000000000000000000000000000000000000000000000000000000000000000
310
0000000000000000000000000000000000000000000000000000000000000000000000000000000000000000000000000000000000000000000000000000000000000000000000000000000000000000000000000000000000000000000000F500F5F5F5F5F5F5F5F5F5000000000000000000F5F5F50000F500000000F500
310
00000000000000000000000000000000000000000000000000000000000000000000000000000000000000000000000000000000000000000000000000000000000000000000000000000000000000000000000000000000000000000000000000000000000000000000000000000000000000000000000000000000000000
310
00000000000000000000000000000000000000000000000000000000000000000000000000000000000000000000000000000000000000000000000000000000000000000000000000000000000000000000000000000000000000000000000000F500F5F5F50000000000F5F5F5F5F5F5F5F5F5F5F5F5F50000F500000000
310
F5000000000000000000000000000000000000000000000000000000000000000000000000000000000000000000000000000000000000000000000000000000000000000000000000000000000000000000000000000000000000000000000000000000000000000000000000000000000000000000000000000000000000
310
000000000000000000000000000000000000000000000000000000000000000000000000000000000000000000000000000000000000000000000000000000000000000000000000000000000000000000000000000000000000000000000000000000F5000000F50000000000000000000000F5F5F5F5F5F5000000F50000
310
0000F500000000000000000000000000000000000000000000000000000000000000000000000000000000000000000000000000000000000000000000000000000000000000000000000000000000000000000000000000000000000000000000000000000000000000000000000000000000000000000000000000000000
310
0000000000000000000000000000000000000000000000000000000000000000000000000000000000000000000000000000000000000000000000000000000000000000000000000000000000000000000000000000000000000000000000000000000000F5000000F5000000000000000000F5F5F5F5F5F5F5F5000000F5
310
00000000F50000000000000000000000000000000000000000000000000000000000000000000000000000000000000000000000000000000000000000000000000000000000000000000000000000000000000000000000000000000000000000000000000000000000000000000000000000000000000000000000000000
310
00000000000000000000000000000000000000000000000000000000000000000000000000000000000000000000000000000000000000000000000000000000000000000000000000000000000000000000000000000000000000000000000000000000000000F50000F5F5F5F5F5F5F5F5F5F5F5F5F5F5F5F5F5F5F50000
310
00F500000000F5000000000000000000000000000000000000000000000000000000000000000000000000000000000000000000000000000000000000000000000000000000000000000000000000000000000000000000000000000000000000000000000000000000000000000000000000000000000000000000000000
310
000000000000000000000000000000000000000000000000000000000000000000000000000000000000000000000000000000000000000000000000000000000000000000000000000000000000000000000000000000000000000000000000000000000000000000F5000000F5000000000000000000F500F500000000F5
310
000000F500000000F500000000000000000000000000000000000000000000000000000000000000000000000000000000000000000000000000000000000000000000000000000000000000000000000000000000000000000000000000000000000000000000000000000000000000000000000000000000000000000000
310
0000000000000000000000000000000000000000000000000000000000000000000000000000000000000000000000000000000000000000000000000000000000000000000000000000000000000000000000000000000000000000000000000000000000000000000000F5000000F5000000000000000000F5F5F5000000
310
00F5000000F500000000F50000000000000000000000000000000000000000000000000000000000000000000000000000000000000000000000000000000000000000000000000000000000000000000000000000000000000000000000000000000000000000000000000000000000000000000000000000000000000000
310
00000000000000000000000000000000000000000000000000000000000000000000000000000000000000000000000000000000000000000000000000000000000000000000000000000000000000000000000000000000000000000000000000000000000000000000000000F5000000F50000000000000000000000F500
310
000000F5000000F500000000F5000000000000000000000000000000000000000000000000000000000000000000000000000000000000000000000000000000000000000000000000000000000000000000000000000000000000000000000000000000000000000000000000000000000000000000000000000000000000
310
000000000000000000000000000000000000000000000000000000000000000000000000000000000000000000000000000000000000000000000000000000000000000000000000000000000000000000000000000000000000000000000000000000000000000000000000000000F5000000F50000000000000000000000
310
F500000000F5000000F500000000F500000000000000000000000000000000000000000000000000000000000000000000000000000000000000000000000000000000000000000000000000000000000000000000000000000000000000000000000000000000000000000000000000000000000000000000000000000000
310
0000000000000000000000000000000000000000000000000000000000000000000000000000000000000000000000000000000000000000000000000000000000000000000000000000000000000000000000000000000000000000000000000000000000000000000000000000000000F5000000F5000000000000000000
310
0000F500000000F5000000F500000000F50000000000000000000000000000000000000000000000000000000000000000000000000000000000000000000000000000000000000000000000000000000000000000000000000000000000000000000000000000000000000000000000000000000000000000000000000000
310
000000000000000000000000000000000000000000000000000000000000000000000000000000000000000000000000000000000000000000000000000000000000000000000000000000000000000000000000000000000000000000000000000000000000000000000000000000000000F5F5F50000F500000000000000
310
00000000F500000000F5000000F500000000F5000000000000000000000000000000000000000000000000000000000000000000000000000000000000000000000000000000000000000000000000000000000000000000000000000000000000000000000000000000000000000000000000000000000000000000000000
310
0000000000000000000000000000000000000000000000000000000000000000000000000000000000000000000000000000000000000000000000000000000000000000000000000000000000000000000000000000000000000000000000000000000000000000000000000000000000000000F5F5000000F50000000000
310
000000000000F500000000F5000000F500000000F500000000000000000000000000000000000000000000000000000000000000000000000000000000000000000000000000000000000000000000000000000000000000000000000000000000000000000000000000000000000000000000000000000000000000000000
310
0000000000000000000000000000000000000000000000000000000000000000000000000000000000000000000000000000000000000000000000000000000000000000000000000000000000000000000000000000000000000000000000000000000000000000000000000000000000000000000000F5000000F5000000
310
0000000000000000F500000000F5000000F500000000F50000000000000000000000000000000000000000000000000000000000000000000000000000000000000000000000000000000000000000000000000000000000000000000000000000000000000000000000000000000000000000000000000000000000000000
310
00000000000000000000000000000000000000000000000000000000000000000000000000000000000000000000000000000000000000000000000000000000000000000000000000000000000000000000000000000000000000000000000000000000000000000000000000000000000000000000000000F500F5F5F500
310
00000000000000000000F500000000F5000000F500000000F5000000000000000000000000000000000000000000000000000000000000000000000000000000000000000000000000000000000000000000000000000000000000000000000000000000000000000000000000000000000000000000000000000000000000
310
000000000000000000000000000000000000000000000000000000000000000000000000000000000000000000000000000000000000000000000000000000000000000000000000000000000000000000000000000000000000000000000000000000000000000000000000000000000000000000000000000000F500F5F5
310
F50000000000000000000000F500000000F5000000F500000000F500000000000000000000000000000000000000000000000000000000000000000000000000000000000000000000000000000000000000000000000000000000000000000000000000000000000000000000000000000000000000000000000000000000
310
0000000000000000000000000000000000000000000000000000000000000000000000000000000000000000000000000000000000000000000000000000000000000000000000000000000000000000000000000000000000000000000000000000000000000000000000000000000000000000000000000000000000F500
310
00F5F50000000000000000000000F500000000F5000000F500000000F50000000000000000000000000000000000000000000000000000000000000000000000000000000000000000000000000000000000000000000000000000000000000000000000000000000000000000000000000000000000000000000000000000
310
00000000000000000000000000000000000000000000000000000000000000000000000000000000000000000000000000000000000000000000000000000000000000000000000000000000000000000000000000000000000000000000000000000000000000000000000000000000000000000000000000000000000000
310
F5000000F50000000000000000000000F500000000F5000000F500000000F5000000000000000000000000000000000000000000000000000000000000000000000000000000000000000000000000000000000000000000000000000000000000000000000000000000000000000000000000000000000000000000000000
310
00000000000000000000000000000000000000000000000000000000000000000000000000000000000000000000000000000000000000000000000000000000000000000000000000000000000000000000000000000000000000000000000000000000000000000000000000000000000000000000000000000000000000
310
0000F5000000F50000000000000000000000F500000000F5000000F500000000F500000000000000000000000000000000000000000000000000000000000000000000000000000000000000000000000000000000000000000000000000000000000000000000000000000000000000000000000000000000000000000000
310
00000000000000000000000000000000000000000000000000000000000000000000000000000000000000000000000000000000000000000000000000000000000000000000000000000000000000000000000000000000000000000000000000000000000000000000000000000000000000000000000000000000000000
310
00000000F5000000F50000000000000000000000F500000000F5000000F500000000F50000000000000000000000000000000000000000000000000000000000000000000000000000000000000000000000000000000000000000000000000000000000000000000000000000000000000000000000000000000000000000
310
00000000000000000000000000000000000000000000000000000000000000000000000000000000000000000000000000000000000000000000000000000000000000000000000000000000000000000000000000000000000000000000000000000000000000000000000000000000000000000000000000000000000000
310
000000000000F5000000F50000000000000000000000F500000000F5000000F500000000F5000000000000000000000000000000000000000000000000000000000000000000000000000000000000000000000000000000000000000000000000000000000000000000000000000000000000000000000000000000000000
310
00000000000000000000000000000000000000000000000000000000000000000000000000000000000000000000000000000000000000000000000000000000000000000000000000000000000000000000000000000000000000000000000000000000000000000000000000000000000000000000000000000000000000
310
0000000000000000F5000000F50000000000000000000000F500000000F50000F5F50000F5F5F500000000000000000000000000000000000000000000000000000000000000000000000000000000000000000000000000000000000000000000000000000000000000000000000000000000000000000000000000000000
310
00000000000000000000000000000000000000000000000000000000000000000000000000000000000000000000000000000000000000000000000000000000000000000000000000000000000000000000000000000000000000000000000000000000000000000000000000000000000000000000000000000000000000
310
00000000000000000000F5000000F50000000000000000000000F500000000F5000000F5000000F5F50000000000000000000000000000000000000000000000000000000000000000000000000000000000000000000000000000000000000000000000000000000000000000000000000000000000000000000000000000
310
00000000000000000000000000000000000000000000000000000000000000000000000000000000000000000000000000000000000000000000000000000000000000000000000000000000000000000000000000000000000000000000000000000000000000000000000000000000000000000000000000000000000000
310
000000000000000000000000F5000000F50000000000000000000000F50000F500F5000000F5000000F5F5000000000000000000000000000000000000000000000000000000000000000000000000000000000000000000000000000000000000000000000000000000000000000000000000000000000000000000000000
310
00000000000000000000000000000000000000000000000000000000000000000000000000000000000000000000000000000000000000000000000000000000000000000000000000000000000000000000000000000000000000000000000000000000000000000000000000000000000000000000000000000000000000
310
0000000000000000000000000000F5000000F50000000000000000000000F5F5F5F5F5F5000000F500000000F500000000000000000000000000000000000000000000000000000000000000000000000000000000000000000000000000000000000000000000000000000000000000000000000000000000000000000000
310
00000000000000000000000000000000000000000000000000000000000000000000000000000000000000000000000000000000000000000000000000000000000000000000000000000000000000000000000000000000000000000000000000000000000000000000000000000000000000000000000000000000000000
310
00000000000000000000000000000000F5F5F5F5F5F5F5F5F5F5F5F5F5F5F5F5F5F5F5F5F5F5000000F500000000F50000000000000000000000000000000000000000000000000000000000000000000000000000000000000000000000000000000000000000000000000000000000000000000000000000000000000000
310
00000000000000000000000000000000000000000000000000000000000000000000000000000000000000000000000000000000000000000000000000000000000000000000000000000000000000000000000000000000000000000000000000000000000000000000000000000000000000000000000000000000000000
310
000000000000000000000000000000000000F50000F50000000000F500000000000000F5F5F5F500000000F500000000F5000000000000000000000000000000000000000000000000000000000000000000000000000000000000000000000000000000000000000000000000000000000000000000000000000000000000
310
00000000000000000000000000000000000000000000000000000000000000000000000000000000000000000000000000000000000000000000000000000000000000000000000000000000000000000000000000000000000000000000000000000000000000000000000000000000000000000000000000000000000000
310
0000000000000000000000000000000000000000000000000000F5F5F5F5F5F50000000000F5F5F5F500000000F500000000F500000000000000000000000000000000000000000000000000000000000000000000000000000000000000000000000000000000000000000000000000000000000000000000000000000000
310
00000000000000000000000000000000000000000000000000000000000000000000000000000000000000000000000000000000000000000000000000000000000000000000000000000000000000000000000000000000000000000000000000000000000000000000000000000000000000000000000000000000000000
310
00000000000000000000000000000000000000000000000000000000000000F500000000000000F5F5F5F500000000F500000000F50000000000000000000000000000000000000000000000000000000000000000000000000000000000000000000000000000000000000000000000000000000000000000000000000000
310
00000000000000000000000000000000000000000000000000000000000000000000000000000000000000000000000000000000000000000000000000000000000000000000000000000000000000000000000000000000000000000000000000000000000000000000000000000000000000000000000000000000000000
310
000000000000000000000000000000000000000000000000F5F5F5F5F5F5F5F5F5F5F5F5F5F5F5F5F5F5F5F5F5F5000000F500000000F5000000000000000000000000000000000000000000000000000000000000000000000000000000000000000000000000000000000000000000000000000000000000000000000000
310
00000000000000000000000000000000000000000000000000000000000000000000000000000000000000000000000000000000000000000000000000000000000000000000000000000000000000000000000000000000000000000000000000000000000000000000000000000000000000000000000000000000000000
310
0000000000000000000000000000000000000000000000000000F5000000F50000000000000000000000F5F5F5F5F5F5000000F500000000F500000000000000000000000000000000000000000000000000000000000000000000000000000000000000000000000000000000000000000000000000000000000000000000
310
00000000000000000000000000000000000000000000000000000000000000000000000000000000000000000000000000000000000000000000000000000000000000000000000000000000000000000000000000000000000000000000000000000000000000000000000000000000000000000000000000000000000000
310
00000000000000000000000000000000000000000000000000000000F5000000F50000000000000000000000F5F5F5F5F5F5000000F500000000F50000000000000000000000000000000000000000000000000000000000000000000000000000000000000000000000000000000000000000000000000000000000000000
310
00000000000000000000000000000000000000000000000000000000000000000000000000000000000000000000000000000000000000000000000000000000000000000000000000000000000000000000000000000000000000000000000000000000000000000000000000000000000000000000000000000000000000
310
000000000000000000000000000000000000000000000000000000000000F5000000F50000000000000000000000F500000000F5000000F500000000F5000000000000000000000000000000000000000000000000000000000000000000000000000000000000000000000000000000000000000000000000000000000000
310
00000000000000000000000000000000000000000000000000000000000000000000000000000000000000000000000000000000000000000000000000000000000000000000000000000000000000000000000000000000000000000000000000000000000000000000000000000000000000000000000000000000000000
310
0000000000000000000000000000000000000000000000000000000000000000F5000000F50000000000000000000000F500000000F5000000F500000000F500000000000000000000000000000000000000000000000000000000000000000000000000000000000000000000000000000000000000000000000000000000
310
00000000000000000000000000000000000000000000000000000000000000000000000000000000000000000000000000000000000000000000000000000000000000000000000000000000000000000000000000000000000000000000000000000000000000000000000000000000000000000000000000000000000000
310
00000000000000000000000000000000000000000000000000000000000000000000F500F5F5F50000000000000000000000F500000000F5000000F500000000F50000000000000000000000000000000000000000000000000000000000000000000000000000000000000000000000000000000000000000000000000000
310
00000000000000000000000000000000000000000000000000000000000000000000000000000000000000000000000000000000000000000000000000000000000000000000000000000000000000000000000000000000000000000000000000000000000000000000000000000000000000000000000000000000000000
310
0000000000000000000000000000000000000000000000000000000000000000000000F5F5F5F5F5F50000000000000000000000F5F5F5F500F5000000F500000000F5000000000000000000000000000000000000000000000000000000000000000000000000000000000000000000000000000000000000000000000000
310
00000000000000000000000000000000000000000000000000000000000000000000000000000000000000000000000000000000000000000000000000000000000000000000000000000000000000000000000000000000000000000000000000000000000000000000000000000000000000000000000000000000000000
310
00000000000000000000000000000000000000000000000000000000000000000000000000F5F5F5F5F5F50000000000000000000000F5F5F5F5F5F5000000F500000000F500000000000000000000000000000000000000000000000000000000000000000000000000000000000000000000000000000000000000000000
310
00000000000000000000000000000000000000000000000000000000000000000000000000000000000000000000000000000000000000000000000000000000000000000000000000000000000000000000000000000000000000000000000000000000000000000000000000000000000000000000000000000000000000
310
000000000000000000000000000000000000000000000000000000000000000000000000000000F5F5F50000F50000000000000000000000F5F5F5F500F5000000F500000000F50000000000000000000000000000000000000000000000000000000000000000000000000000000000000000000000000000000000000000
310
00000000000000000000000000000000000000000000000000000000000000000000000000000000000000000000000000000000000000000000000000000000000000000000000000000000000000000000000000000000000000000000000000000000000000000000000000000000000000000000000000000000000000
310
000000000000000000000000000000000000000000000000000000000000000000000000000000000000F5000000F50000000000000000000000F500000000F5000000F500000000F5000000000000000000000000000000000000000000000000000000000000000000000000000000000000000000000000000000000000
310
00000000000000000000000000000000000000000000000000000000000000000000000000000000000000000000000000000000000000000000000000000000000000000000000000000000000000000000000000000000000000000000000000000000000000000000000000000000000000000000000000000000000000
310
0000000000000000000000000000000000000000000000000000000000000000000000000000000000000000F5000000F50000000000000000000000F500000000F5000000F500000000F500000000000000000000000000000000000000000000000000000000000000000000000000000000000000000000000000000000
310
00000000000000000000000000000000000000000000000000000000000000000000000000000000000000000000000000000000000000000000000000000000000000000000000000000000000000000000000000000000000000000000000000000000000000000000000000000000000000000000000000000000000000
310
00000000000000000000000000000000000000000000000000000000000000000000000000000000000000000000F5000000F500000000000000F50000F5F500000000F5000000F500000000F50000000000000000000000000000000000000000000000000000000000000000000000000000000000000000000000000000
310
00000000000000000000000000000000000000000000000000000000000000000000000000000000000000000000000000000000000000000000000000000000000000000000000000000000000000000000000000000000000000000000000000000000000000000000000000000000000000000000000000000000000000
310
000000000000000000000000000000000000000000000000000000000000000000000000000000000000000000000000F5000000F5000000F5F5F5F5F5F5F5F5F500000000F5000000F500000000F5000000000000000000000000000000000000000000000000000000000000000000000000000000000000000000000000
310
00000000000000000000000000000000000000000000000000000000000000000000000000000000000000000000000000000000000000000000000000000000000000000000000000000000000000000000000000000000000000000000000000000000000000000000000000000000000000000000000000000000000000
310
0000000000000000000000000000000000000000000000000000000000000000000000000000000000000000000000000000F50000F5F5F5F5F5F5F5F5F5F500F5F5F5F5F5F5F5F5000000F500000000F500000000000000000000000000000000000000000000000000000000000000000000000000000000000000000000
310
00000000000000000000000000000000000000000000000000000000000000000000000000000000000000000000000000000000000000000000000000000000000000000000000000000000000000000000000000000000000000000000000000000000000000000000000000000000000000000000000000000000000000
310
00000000000000000000000000000000000000000000000000000000000000000000000000000000000000000000000000000000F50000000000F5F5F5F5F5F5F5F5000000F5000000F5000000F500000000F50000000000000000000000000000000000000000000000000000000000000000000000000000000000000000
310
00000000000000000000000000000000000000000000000000000000000000000000000000000000000000000000000000000000000000000000000000000000000000000000000000000000000000000000000000000000000000000000000000000000000000000000000000000000000000000000000000000000000000
310
000000000000000000000000000000000000000000000000000000000000000000000000000000000000000000000000000000000000F5F5F5F5F5F5F5F5F5F5F5F5F5F5F5F5F5F5F5F5F5F5F5F5F5F500000000F5000000000000000000000000000000000000000000000000000000000000000000000000000000000000
310
00000000000000000000000000000000000000000000000000000000000000000000000000000000000000000000000000000000000000000000000000000000000000000000000000000000000000000000000000000000000000000000000000000000000000000000000000000000000000000000000000000000000000
310
0000000000000000000000000000000000000000000000000000000000000000000000000000000000000000000000000000000000000000000000000000F5F5F5F500000000000000F5F5F500F5000000F500000000F500000000000000000000000000000000000000000000000000000000000000000000000000000000
310
00000000000000000000000000000000000000000000000000000000000000000000000000000000000000000000000000000000000000000000000000000000000000000000000000000000000000000000000000000000000000000000000000000000000000000000000000000000000000000000000000000000000000
310
000000000000000000000000000000000000000000000000000000000000000000000000000000000000000000000000000000000000000000000000000000F5F500F5F5000000F5F5F50000F5F500F5F5F5F5F5F5F5F5F5F50000000000000000000000000000000000000000000000000000000000000000000000000000
310
00000000000000000000000000000000000000000000000000000000000000000000000000000000000000000000000000000000000000000000000000000000000000000000000000000000000000000000000000000000000000000000000000000000000000000000000000000000000000000000000000000000000000
310
0000000000000000000000000000000000000000000000000000000000000000000000000000000000000000000000000000000000000000000000000000000000F50000F5F5F5F5F5F5F5F5F5F5F5F5F5F5000000F5F5F5000000000000000000000000000000000000000000000000000000000000000000000000000000
310
00000000000000000000000000000000000000000000000000000000000000000000000000000000000000000000000000000000000000000000000000000000000000000000000000000000000000000000000000000000000000000000000000000000000000000000000000000000000000000000000000000000000000
310
00000000000000000000000000000000000000000000000000000000000000000000000000000000000000000000000000000000000000000000000000000000000000F5F5F5F5F5000000000000000000000000000000F5F5F500000000000000000000000000000000000000000000000000000000000000000000000000
310
00000000000000000000000000000000000000000000000000000000000000000000000000000000000000000000000000000000000000000000000000000000000000000000000000000000000000000000000000000000000000000000000000000000000000000000000000000000000000000000000000000000000000
310
00000000000000000000000000000000000000000000000000000000000000000000000000000000000000000000000000000000000000000000000000000000000000000000000000000000000000000000000000000000000000000000000000000000000000000000000000000000000000000000000000000000000000
310
00000000000000000000000000000000000000000000000000000000000000000000000000000000000000000000000000000000000000000000000000000000000000000000000000000000000000000000000000000000000000000000000000000000000000000000000000000000000000000000000000000000000000
310
00000000000000000000000000000000000000000000000000000000000000000000000000000000000000000000000000000000000000000000000000000000000000000000000000000000000000000000000000000000000000000000000000000000000000000000000000000000000000000000000000000000000000
310
00000000000000000000000000000000000000000000000000000000000000000000000000000000000000000000000000000000000000000000000000000000000000000000000000000000000000000000000000000000000000000000000000000000000000000000000000000000000000000000000000000000000000
310
00000000000000000000000000000000000000000000000000000000000000000000000000000000000000000000000000000000000000000000000000000000000000000000000000000000000000000000000000000000000000000000000000000000000000000000000000000000000000000000000000000000000000
310
00000000000000000000000000000000000000000000000000000000000000000000000000000000000000000000000000000000000000000000000000000000000000000000000000000000000000000000000000000000000000000000000000000000000000000000000000000000000000000000000000000000000000
310
00000000000000000000000000000000000000000000000000000000000000000000000000000000000000000000000000000000000000000000000000000000000000000000000000000000000000000000000000000000000000000000000000000000000000000000000000000000000000000000000000000000000000
310
00000000000000000000000000000000000000000000000000000000000000000000000000000000000000000000000000000000000000000000000000000000000000000000000000000000000000000000000000000000000000000000000000000000000000000000000000000000000000000000000000000000000000
310
00000000000000000000000000000000000000000000000000000000000000000000000000000000000000000000000000000000000000000000000000000000000000000000000000000000000000000000000000000000000000000000000000000000000000000000000000000000000000000000000000000000000000
310
00000000000000000000000000000000000000000000000000000000000000000000000000000000000000000000000000000000000000000000000000000000000000000000000000000000000000000000000000000000000000000000000000000000000000000000000000000000000000000000000000000000000000
310
00000000000000000000000000000000000000000000000000000000000000000000000000000000000000000000000000000000000000000000000000000000000000000000000000000000000000000000000000000000000000000000000000000000000000000000000000000000000000000000000000000000000000
310
00000000000000000000000000000000000000000000000000000000000000000000000000000000000000000000000000000000000000000000000000000000000000000000000000000000000000000000000000000000000000000000000000000000000000000000000000000000000000000000000000000000000000
310
00000000000000000000000000000000000000000000000000000000000000000000000000000000000000000000000000000000000000000000000000000000000000000000000000000000000000000000000000000000000000000000000000000000000000000000000000000000000000000000000000000000000000
310
00000000000000000000000000000000000000000000000000000000000000000000000000000000000000000000000000000000000000000000000000000000000000000000000000000000000000000000000000000000000000000000000000000000000000000000000000000000000000000000000000000000000000
310
00000000000000000000000000000000000000000000000000000000000000000000000000000000000000000000000000000000000000000000000000000000000000000000000000000000000000000000000000000000000000000000000000000000000000000000000000000000000000000000000000000000000000
310
00000000000000000000000000000000000000000000000000000000000000000000000000000000000000000000000000000000000000000000000000000000000000000000000000000000000000000000000000000000000000000000000000000000000000000000000000000000000000000000000000000000000000
310
00000000000000000000000000000000000000000000000000000000000000000000000000000000000000000000000000000000000000000000000000000000000000000000000000000000000000000000000000000000000000000000000000000000000000000000000000000000000000000000000000000000000000
310
00000000000000000000000000000000000000000000000000000000000000000000000000000000000000000000000000000000000000000000000000000000000000000000000000000000000000000000000000000000000000000000000000000000000000000000000000000000000000000000000000000000000000
310
00000000000000000000000000000000000000000000000000000000000000000000000000000000000000000000000000000000000000000000000000000000000000000000000000000000000000000000000000000000000000000000000000000000000000000000000000000000000000000000000000000000000000
310
00000000000000000000000000000000000000000000000000000000000000000000000000000000000000000000000000000000000000000000000000000000000000000000000000000000000000000000000000000000000000000000000000000000000000000000000000000000000000000000000000000000000000
310
00000000000000000000000000000000000000000000000000000000000000000000000000000000000000000000000000000000000000000000000000000000000000000000000000000000000000000000000000000000000000000000000000000000000000000000000000000000000000000000000000000000000000
310
00000000000000000000000000000000000000000000000000000000000000000000000000000000000000000000000000000000000000000000000000000000000000000000000000000000000000000000000000000000000000000000000000000000000000000000000000000000000000000000000000000000000000
310
00000000000000000000000000000000000000000000000000000000000000000000000000000000000000000000000000000000000000000000000000000000000000000000000000000000000000000000000000000000000000000000000000000000000000000000000000000000000000000000000000000000000000
310
00000000000000000000000000000000000000000000000000000000000000000000000000000000000000000000000000000000000000000000000000000000000000000000000000000000000000000000000000000000000000000000000000000000000000000000000000000000000000000000000000000000000000
310
00000000000000000000000000000000000000000000000000000000000000000000000000000000000000000000000000000000000000000000000000000000000000000000000000000000000000000000000000000000000000000000000000000000000000000000000000000000000000000000000000000000000000
310
00000000000000000000000000000000000000000000000000000000000000000000000000000000000000000000000000000000000000000000000000000000000000000000000000000000000000000000000000000000000000000000000000000000000000000000000000000000000000000000000000000000000000
310
000000000000000000000000000000000000000000000000000000000000
  0
XRECORD
  5
341
102
{ACAD_REACTORS
330
49
102
}
330
49
100
AcDbXrecord
280
     1
102
MATERIAL
148
0.0
149
0.0
149
0.0
 93
        0
 94
      127
282
     0
 72
     0
 77
     0
171
     0
175
     0
179
     0
273
     0
  0
XRECORD
  5
4A
102
{ACAD_REACTORS
330
49
102
}
330
49
100
AcDbXrecord
280
     1
270
     1
271
     1
  0
XRECORD
  5
4B
102
{ACAD_REACTORS
330
49
102
}
330
49
100
AcDbXrecord
280
     1
270
     1
271
     1
  0
XRECORD
  5
4C
102
{ACAD_REACTORS
330
49
102
}
330
49
100
AcDbXrecord
280
     1
270
     1
271
     1
  0
XRECORD
  5
4D
102
{ACAD_REACTORS
330
49
102
}
330
49
100
AcDbXrecord
280
     1
270
     1
271
     1
  0
XRECORD
  5
4E
102
{ACAD_REACTORS
330
49
102
}
330
49
100
AcDbXrecord
280
     1
270
     1
271
     1
  0
XRECORD
  5
4F
102
{ACAD_REACTORS
330
49
102
}
330
49
100
AcDbXrecord
280
     1
270
     1
271
     1
  0
XRECORD
  5
340
102
{ACAD_REACTORS
330
41
102
}
330
41
100
AcDbXrecord
280
     1
102
MATERIAL
148
0.0
149
0.0
149
0.0
 93
        0
 94
      127
282
     0
 72
     0
 77
     0
171
     0
175
     0
179
     0
273
     0
  0
XRECORD
  5
42
102
{ACAD_REACTORS
330
41
102
}
330
41
100
AcDbXrecord
280
     1
270
     1
271
     1
  0
XRECORD
  5
43
102
{ACAD_REACTORS
330
41
102
}
330
41
100
AcDbXrecord
280
     1
270
     1
271
     1
  0
XRECORD
  5
44
102
{ACAD_REACTORS
330
41
102
}
330
41
100
AcDbXrecord
280
     1
270
     1
271
     1
  0
XRECORD
  5
45
102
{ACAD_REACTORS
330
41
102
}
330
41
100
AcDbXrecord
280
     1
270
     1
271
     1
  0
XRECORD
  5
46
102
{ACAD_REACTORS
330
41
102
}
330
41
100
AcDbXrecord
280
     1
270
     1
271
     1
  0
XRECORD
  5
47
102
{ACAD_REACTORS
330
41
102
}
330
41
100
AcDbXrecord
280
     1
270
     1
271
     1
  0
XRECORD
  5
33B
102
{ACAD_REACTORS
330
E
102
}
330
E
100
AcDbXrecord
280
     1
102
MATERIAL
148
0.0
149
0.0
149
0.0
 93
        0
 94
      127
282
     0
 72
     0
 77
     0
171
     0
175
     0
179
     0
273
     0
  0
XRECORD
  5
F
102
{ACAD_REACTORS
330
E
102
}
330
E
100
AcDbXrecord
280
     1
270
     1
271
     1
  0
XRECORD
  5
10
102
{ACAD_REACTORS
330
E
102
}
330
E
100
AcDbXrecord
280
     1
270
     1
271
     1
  0
XRECORD
  5
11
102
{ACAD_REACTORS
330
E
102
}
330
E
100
AcDbXrecord
280
     1
270
     1
271
     1
  0
XRECORD
  5
12
102
{ACAD_REACTORS
330
E
102
}
330
E
100
AcDbXrecord
280
     1
270
     1
271
     1
  0
XRECORD
  5
13
102
{ACAD_REACTORS
330
E
102
}
330
E
100
AcDbXrecord
280
     1
270
     1
271
     1
  0
XRECORD
  5
14
102
{ACAD_REACTORS
330
E
102
}
330
E
100
AcDbXrecord
280
     1
270
     1
271
     1
  0
CELLSTYLEMAP
  5
339
102
{ACAD_REACTORS
330
56
102
}
330
56
100
AcDbCellStyleMap
 90
        3
300
CELLSTYLE
  1
TABLEFORMAT_BEGIN
 90
        5
170
     1
 91
        0
 92
    32768
 62
   257
 93
        1
300
CONTENTFORMAT
  1
CONTENTFORMAT_BEGIN
 90
        0
 91
        0
 92
        4
 93
        0
300

 40
0.0
140
1.0
 94
        5
 62
     0
340
26
144
0.25
309
CONTENTFORMAT_END
171
     1
301
MARGIN
  1
CELLMARGIN_BEGIN
 40
0.06
 40
0.06
 40
0.06
 40
0.06
 40
0.18
 40
0.18
309
CELLMARGIN_END
 94
        6
 95
        1
302
GRIDFORMAT
  1
GRIDFORMAT_BEGIN
 90
        0
 91
        1
 62
     0
 92
       -2
340
0
 93
        0
 40
0.045
309
GRIDFORMAT_END
 95
        2
302
GRIDFORMAT
  1
GRIDFORMAT_BEGIN
 90
        0
 91
        1
 62
     0
 92
       -2
340
0
 93
        0
 40
0.045
309
GRIDFORMAT_END
 95
        4
302
GRIDFORMAT
  1
GRIDFORMAT_BEGIN
 90
        0
 91
        1
 62
     0
 92
       -2
340
0
 93
        0
 40
0.045
309
GRIDFORMAT_END
 95
        8
302
GRIDFORMAT
  1
GRIDFORMAT_BEGIN
 90
        0
 91
        1
 62
     0
 92
       -2
340
0
 93
        0
 40
0.045
309
GRIDFORMAT_END
 95
       16
302
GRIDFORMAT
  1
GRIDFORMAT_BEGIN
 90
        0
 91
        1
 62
     0
 92
       -2
340
0
 93
        0
 40
0.045
309
GRIDFORMAT_END
 95
       32
302
GRIDFORMAT
  1
GRIDFORMAT_BEGIN
 90
        0
 91
        1
 62
     0
 92
       -2
340
0
 93
        0
 40
0.045
309
GRIDFORMAT_END
309
TABLEFORMAT_END
  1
CELLSTYLE_BEGIN
 90
        1
 91
        1
300
_TITLE
309
CELLSTYLE_END
300
CELLSTYLE
  1
TABLEFORMAT_BEGIN
 90
        5
170
     1
 91
        0
 92
        0
 62
   257
 93
        1
300
CONTENTFORMAT
  1
CONTENTFORMAT_BEGIN
 90
        0
 91
        0
 92
        4
 93
        0
300

 40
0.0
140
1.0
 94
        5
 62
     0
340
26
144
0.18
309
CONTENTFORMAT_END
171
     1
301
MARGIN
  1
CELLMARGIN_BEGIN
 40
0.06
 40
0.06
 40
0.06
 40
0.06
 40
0.18
 40
0.18
309
CELLMARGIN_END
 94
        6
 95
        1
302
GRIDFORMAT
  1
GRIDFORMAT_BEGIN
 90
        0
 91
        1
 62
     0
 92
       -2
340
0
 93
        0
 40
0.045
309
GRIDFORMAT_END
 95
        2
302
GRIDFORMAT
  1
GRIDFORMAT_BEGIN
 90
        0
 91
        1
 62
     0
 92
       -2
340
0
 93
        0
 40
0.045
309
GRIDFORMAT_END
 95
        4
302
GRIDFORMAT
  1
GRIDFORMAT_BEGIN
 90
        0
 91
        1
 62
     0
 92
       -2
340
0
 93
        0
 40
0.045
309
GRIDFORMAT_END
 95
        8
302
GRIDFORMAT
  1
GRIDFORMAT_BEGIN
 90
        0
 91
        1
 62
     0
 92
       -2
340
0
 93
        0
 40
0.045
309
GRIDFORMAT_END
 95
       16
302
GRIDFORMAT
  1
GRIDFORMAT_BEGIN
 90
        0
 91
        1
 62
     0
 92
       -2
340
0
 93
        0
 40
0.045
309
GRIDFORMAT_END
 95
       32
302
GRIDFORMAT
  1
GRIDFORMAT_BEGIN
 90
        0
 91
        1
 62
     0
 92
       -2
340
0
 93
        0
 40
0.045
309
GRIDFORMAT_END
309
TABLEFORMAT_END
  1
CELLSTYLE_BEGIN
 90
        2
 91
        1
300
_HEADER
309
CELLSTYLE_END
300
CELLSTYLE
  1
TABLEFORMAT_BEGIN
 90
        5
170
     1
 91
        0
 92
        0
 62
   257
 93
        1
300
CONTENTFORMAT
  1
CONTENTFORMAT_BEGIN
 90
        0
 91
        0
 92
        4
 93
        0
300

 40
0.0
140
1.0
 94
        2
 62
     0
340
26
144
0.18
309
CONTENTFORMAT_END
171
     1
301
MARGIN
  1
CELLMARGIN_BEGIN
 40
0.06
 40
0.06
 40
0.06
 40
0.06
 40
0.18
 40
0.18
309
CELLMARGIN_END
 94
        6
 95
        1
302
GRIDFORMAT
  1
GRIDFORMAT_BEGIN
 90
        0
 91
        1
 62
     0
 92
       -2
340
0
 93
        0
 40
0.045
309
GRIDFORMAT_END
 95
        2
302
GRIDFORMAT
  1
GRIDFORMAT_BEGIN
 90
        0
 91
        1
 62
     0
 92
       -2
340
0
 93
        0
 40
0.045
309
GRIDFORMAT_END
 95
        4
302
GRIDFORMAT
  1
GRIDFORMAT_BEGIN
 90
        0
 91
        1
 62
     0
 92
       -2
340
0
 93
        0
 40
0.045
309
GRIDFORMAT_END
 95
        8
302
GRIDFORMAT
  1
GRIDFORMAT_BEGIN
 90
        0
 91
        1
 62
     0
 92
       -2
340
0
 93
        0
 40
0.045
309
GRIDFORMAT_END
 95
       16
302
GRIDFORMAT
  1
GRIDFORMAT_BEGIN
 90
        0
 91
        1
 62
     0
 92
       -2
340
0
 93
        0
 40
0.045
309
GRIDFORMAT_END
 95
       32
302
GRIDFORMAT
  1
GRIDFORMAT_BEGIN
 90
        0
 91
        1
 62
     0
 92
       -2
340
0
 93
        0
 40
0.045
309
GRIDFORMAT_END
309
TABLEFORMAT_END
  1
CELLSTYLE_BEGIN
 90
        3
 91
        2
300
_DATA
309
CELLSTYLE_END
  0
XRECORD
  5
342
102
{ACAD_REACTORS
330
56
102
}
330
56
100
AcDbXrecord
280
     1
102
ACAD_ROUNDTRIP_PRE2007_TABLESTYLE
 90
        4
 91
        0
  1

 92
        4
 93
        0
  2

 94
        4
 95
        0
  3

  0
XRECORD
  5
33F
102
{ACAD_REACTORS
330
33E
102
}
330
33E
100
AcDbXrecord
280
     1
102
RTVSPropertyOp0
 70
     1
102
RTVSPropertyOp1
 70
     1
102
RTVSPropertyOp2
 70
     1
102
RTVSPropertyOp3
 70
     1
102
RTVSPropertyOp4
 70
     1
102
RTVSPropertyOp5
 70
     1
102
RTVSPropertyOp6
 70
     1
102
RTVSPropertyOp7
 70
     1
102
RTVSPropertyOp8
 70
     1
102
RTVSPropertyOp9
 70
     1
102
RTVSPropertyOp10
 70
     1
102
RTVSPropertyOp11
 70
     1
102
RTVSPropertyOp12
 70
     1
102
RTVSPropertyOp13
 70
     1
102
RTVSPropertyOp14
 70
     1
102
RTVSPropertyOp15
 70
     1
102
RTVSPropertyOp16
 70
     1
102
RTVSPropertyOp17
 70
     1
102
RTVSPropertyOp18
 70
     1
102
RTVSPropertyOp19
 70
     1
102
RTVSPropertyOp20
 70
     1
102
RTVSPropertyOp21
 70
     1
102
RTVSPropertyOp22
 70
     1
102
RTVSPropertyOp23
 70
     1
102
RTVSPropertyOp24
 70
     1
102
RTVSPropertyOp25
 70
     1
102
RTVSPropertyOp26
 70
     1
102
RTVSPropertyOp27
 70
     1
102
RTVSPropertyOp28
 70
     1
102
RTVSPropertyOp29
 70
     1
102
RTVSPropertyOp30
 70
     1
102
RTVSPropertyOp31
 70
     1
102
RTVSPropertyOp32
 70
     1
  0
XRECORD
  5
344
102
{ACAD_REACTORS
330
343
102
}
330
343
100
AcDbXrecord
280
     1
102
RTVSPropertyOp0
 70
     1
102
RTVSPropertyOp1
 70
     1
102
RTVSPropertyOp2
 70
     1
102
RTVSPropertyOp3
 70
     1
102
RTVSPropertyOp4
 70
     1
102
RTVSPropertyOp5
 70
     1
102
RTVSPropertyOp6
 70
     1
102
RTVSPropertyOp7
 70
     1
102
RTVSPropertyOp8
 70
     1
102
RTVSPropertyOp9
 70
     1
102
RTVSPropertyOp10
 70
     1
102
RTVSPropertyOp11
 70
     1
102
RTVSPropertyOp12
 70
     1
102
RTVSPropertyOp13
 70
     1
102
RTVSPropertyOp14
 70
     1
102
RTVSPropertyOp15
 70
     1
102
RTVSPropertyOp16
 70
     1
102
RTVSPropertyOp17
 70
     1
102
RTVSPropertyOp18
 70
     1
102
RTVSPropertyOp19
 70
     1
102
RTVSPropertyOp20
 70
     1
102
RTVSPropertyOp21
 70
     1
102
RTVSPropertyOp22
 70
     1
102
RTVSPropertyOp23
 70
     1
102
RTVSPropertyOp24
 70
     1
102
RTVSPropertyOp25
 70
     1
102
RTVSPropertyOp26
 70
     1
102
RTVSPropertyOp27
 70
     1
102
RTVSPropertyOp28
 70
     1
102
RTVSPropertyOp29
 70
     1
102
RTVSPropertyOp30
 70
     1
102
RTVSPropertyOp31
 70
     1
102
RTVSPropertyOp32
 70
     1
  0
XRECORD
  5
346
102
{ACAD_REACTORS
330
345
102
}
330
345
100
AcDbXrecord
280
     1
102
RTVSPropertyOp0
 70
     1
102
RTVSPropertyOp1
 70
     1
102
RTVSPropertyOp2
 70
     1
102
RTVSPropertyOp3
 70
     1
102
RTVSPropertyOp4
 70
     1
102
RTVSPropertyOp5
 70
     1
102
RTVSPropertyOp6
 70
     1
102
RTVSPropertyOp7
 70
     1
102
RTVSPropertyOp8
 70
     1
102
RTVSPropertyOp9
 70
     1
102
RTVSPropertyOp10
 70
     1
102
RTVSPropertyOp11
 70
     1
102
RTVSPropertyOp12
 70
     1
102
RTVSPropertyOp13
 70
     1
102
RTVSPropertyOp14
 70
     1
102
RTVSPropertyOp15
 70
     1
102
RTVSPropertyOp16
 70
     1
102
RTVSPropertyOp17
 70
     1
102
RTVSPropertyOp18
 70
     1
102
RTVSPropertyOp19
 70
     1
102
RTVSPropertyOp20
 70
     1
102
RTVSPropertyOp21
 70
     1
102
RTVSPropertyOp22
 70
     1
102
RTVSPropertyOp23
 70
     1
102
RTVSPropertyOp24
 70
     1
102
RTVSPropertyOp25
 70
     1
102
RTVSPropertyOp26
 70
     1
102
RTVSPropertyOp27
 70
     1
102
RTVSPropertyOp28
 70
     1
102
RTVSPropertyOp29
 70
     1
102
RTVSPropertyOp30
 70
     1
102
RTVSPropertyOp31
 70
     1
102
RTVSPropertyOp32
 70
     1
  0
ENDSEC
  0
EOF
