  0
SECTION
  2
HEADER
  9
$ACADVER
  1
AC1015
  9
$ACADMAINTVER
 70
    18
  9
$DWGCODEPAGE
  3
ANSI_1252
  9
$INSBASE
 10
45.56985470832787
 20
26.22665917395157
 30
0.0
  9
$EXTMIN
 10
36.62473684451987
 20
15.87182879954269
 30
0.0
  9
$EXTMAX
 10
48.06126848828614
 20
34.36567687895205
 30
0.0
  9
$LIMMIN
 10
0.0
 20
0.0
  9
$LIMMAX
 10
10000.0
 20
10000.0
  9
$ORTHOMODE
 70
     0
  9
$REGENMODE
 70
     1
  9
$FILLMODE
 70
     1
  9
$QTEXTMODE
 70
     0
  9
$MIRRTEXT
 70
     0
  9
$LTSCALE
 40
0.5
  9
$ATTMODE
 70
     1
  9
$TEXTSIZE
 40
0.25
  9
$TRACEWID
 40
0.05
  9
$TEXTSTYLE
  7
Standard
  9
$CLAYER
  8
0
  9
$CELTYPE
  6
ByLayer
  9
$CECOLOR
 62
   256
  9
$CELTSCALE
 40
1.0
  9
$DISPSILH
 70
     0
  9
$DIMSCALE
 40
0.0
  9
$DIMASZ
 40
0.156
  9
$DIMEXO
 40
0.04
  9
$DIMDLI
 40
0.38
  9
$DIMRND
 40
0.0
  9
$DIMDLE
 40
0.0
  9
$DIMEXE
 40
0.03
  9
$DIMTP
 40
0.0
  9
$DIMTM
 40
0.0
  9
$DIMTXT
 40
0.3125
  9
$DIMCEN
 40
0.0
  9
$DIMTSZ
 40
0.0
  9
$DIMTOL
 70
     0
  9
$DIMLIM
 70
     0
  9
$DIMTIH
 70
     1
  9
$DIMTOH
 70
     1
  9
$DIMSE1
 70
     0
  9
$DIMSE2
 70
     0
  9
$DIMTAD
 70
     0
  9
$DIMZIN
 70
     0
  9
$DIMBLK
  1
ArchTick
  9
$DIMASO
 70
     1
  9
$DIMSHO
 70
     1
  9
$DIMPOST
  1
\X
  9
$DIMAPOST
  1
mm
  9
$DIMALT
 70
     1
  9
$DIMALTD
 70
     0
  9
$DIMALTF
 40
25.4
  9
$DIMLFAC
 40
1.0
  9
$DIMTOFL
 70
     0
  9
$DIMTVP
 40
0.0
  9
$DIMTIX
 70
     0
  9
$DIMSOXD
 70
     0
  9
$DIMSAH
 70
     0
  9
$DIMBLK1
  1

  9
$DIMBLK2
  1

  9
$DIMSTYLE
  2
Knife
  9
$DIMCLRD
 70
     0
  9
$DIMCLRE
 70
     0
  9
$DIMCLRT
 70
     0
  9
$DIMTFAC
 40
1.0
  9
$DIMGAP
 40
0.04
  9
$DIMJUST
 70
     0
  9
$DIMSD1
 70
     0
  9
$DIMSD2
 70
     0
  9
$DIMTOLJ
 70
     1
  9
$DIMTZIN
 70
     0
  9
$DIMALTZ
 70
     0
  9
$DIMALTTZ
 70
     0
  9
$DIMUPT
 70
     0
  9
$DIMDEC
 70
     5
  9
$DIMTDEC
 70
     5
  9
$DIMALTU
 70
     2
  9
$DIMALTTD
 70
     0
  9
$DIMTXSTY
  7
Standard
  9
$DIMAUNIT
 70
     0
  9
$DIMADEC
 70
     1
  9
$DIMALTRND
 40
0.0
  9
$DIMAZIN
 70
     0
  9
$DIMDSEP
 70
    46
  9
$DIMATFIT
 70
     3
  9
$DIMFRAC
 70
     2
  9
$DIMLDRBLK
  1

  9
$DIMLUNIT
 70
     4
  9
$DIMLWD
 70
    -2
  9
$DIMLWE
 70
    -2
  9
$DIMTMOVE
 70
     0
  9
$LUNITS
 70
     2
  9
$LUPREC
 70
     4
  9
$SKETCHINC
 40
0.1
  9
$FILLETRAD
 40
0.0
  9
$AUNITS
 70
     0
  9
$AUPREC
 70
     0
  9
$MENU
  1
.
  9
$ELEVATION
 40
0.0
  9
$PELEVATION
 40
0.0
  9
$THICKNESS
 40
0.0
  9
$LIMCHECK
 70
     0
  9
$CHAMFERA
 40
0.0
  9
$CHAMFERB
 40
0.0
  9
$CHAMFERC
 40
0.0
  9
$CHAMFERD
 40
0.0
  9
$SKPOLY
 70
     0
  9
$TDCREATE
 40
2454538.540644179
  9
$TDUCREATE
 40
2454538.665644178
  9
$TDUPDATE
 40
2456098.435953588
  9
$TDUUPDATE
 40
2456098.560953588
  9
$TDINDWG
 40
0.2299498495
  9
$TDUSRTIMER
 40
0.2299498495
  9
$USRTIMER
 70
     1
  9
$ANGBASE
 50
0.0
  9
$ANGDIR
 70
     0
  9
$PDMODE
 70
     3
  9
$PDSIZE
 40
0.0
  9
$PLINEWID
 40
0.0
  9
$SPLFRAME
 70
     0
  9
$SPLINETYPE
 70
     6
  9
$SPLINESEGS
 70
    12
  9
$HANDSEED
  5
389
  9
$SURFTAB1
 70
     6
  9
$SURFTAB2
 70
     6
  9
$SURFTYPE
 70
     6
  9
$SURFU
 70
     6
  9
$SURFV
 70
     6
  9
$UCSBASE
  2

  9
$UCSNAME
  2

  9
$UCSORG
 10
0.0
 20
0.0
 30
0.0
  9
$UCSXDIR
 10
1.0
 20
0.0
 30
0.0
  9
$UCSYDIR
 10
0.0
 20
1.0
 30
0.0
  9
$UCSORTHOREF
  2

  9
$UCSORTHOVIEW
 70
     0
  9
$UCSORGTOP
 10
0.0
 20
0.0
 30
0.0
  9
$UCSORGBOTTOM
 10
0.0
 20
0.0
 30
0.0
  9
$UCSORGLEFT
 10
0.0
 20
0.0
 30
0.0
  9
$UCSORGRIGHT
 10
0.0
 20
0.0
 30
0.0
  9
$UCSORGFRONT
 10
0.0
 20
0.0
 30
0.0
  9
$UCSORGBACK
 10
0.0
 20
0.0
 30
0.0
  9
$PUCSBASE
  2

  9
$PUCSNAME
  2

  9
$PUCSORG
 10
0.0
 20
0.0
 30
0.0
  9
$PUCSXDIR
 10
1.0
 20
0.0
 30
0.0
  9
$PUCSYDIR
 10
0.0
 20
1.0
 30
0.0
  9
$PUCSORTHOREF
  2

  9
$PUCSORTHOVIEW
 70
     0
  9
$PUCSORGTOP
 10
0.0
 20
0.0
 30
0.0
  9
$PUCSORGBOTTOM
 10
0.0
 20
0.0
 30
0.0
  9
$PUCSORGLEFT
 10
0.0
 20
0.0
 30
0.0
  9
$PUCSORGRIGHT
 10
0.0
 20
0.0
 30
0.0
  9
$PUCSORGFRONT
 10
0.0
 20
0.0
 30
0.0
  9
$PUCSORGBACK
 10
0.0
 20
0.0
 30
0.0
  9
$USERI1
 70
     0
  9
$USERI2
 70
     0
  9
$USERI3
 70
     0
  9
$USERI4
 70
     0
  9
$USERI5
 70
     0
  9
$USERR1
 40
0.0
  9
$USERR2
 40
0.0
  9
$USERR3
 40
0.0
  9
$USERR4
 40
0.0
  9
$USERR5
 40
0.0
  9
$WORLDVIEW
 70
     1
  9
$SHADEDGE
 70
     3
  9
$SHADEDIF
 70
    70
  9
$TILEMODE
 70
     1
  9
$MAXACTVP
 70
    64
  9
$PINSBASE
 10
0.0
 20
0.0
 30
0.0
  9
$PLIMCHECK
 70
     0
  9
$PEXTMIN
 10
0.0000000075458644
 20
0.0000000082145277
 30
0.0
  9
$PEXTMAX
 10
8.454000007545857
 20
10.67400000821453
 30
0.0
  9
$PLIMMIN
 10
-0.0064249311656545
 20
-0.1631194818509899
  9
$PLIMMAX
 10
8.493574828538456
 20
10.83688027785312
  9
$UNITMODE
 70
     0
  9
$VISRETAIN
 70
     1
  9
$PLINEGEN
 70
     0
  9
$PSLTSCALE
 70
     1
  9
$TREEDEPTH
 70
  3020
  9
$CMLSTYLE
  2
Standard
  9
$CMLJUST
 70
     0
  9
$CMLSCALE
 40
1.0
  9
$PROXYGRAPHICS
 70
     1
  9
$MEASUREMENT
 70
     0
  9
$CELWEIGHT
370
    -1
  9
$ENDCAPS
280
     0
  9
$JOINSTYLE
280
     0
  9
$LWDISPLAY
290
     0
  9
$INSUNITS
 70
     1
  9
$HYPERLINKBASE
  1

  9
$STYLESHEET
  1

  9
$XEDIT
290
     1
  9
$CEPSNTYPE
380
     0
  9
$PSTYLEMODE
290
     1
  9
$FINGERPRINTGUID
  2
{325E20A5-0B84-4332-A2DA-807D326B838C}
  9
$VERSIONGUID
  2
{4E854601-D385-4D1C-92B9-FA8A7357BE00}
  9
$EXTNAMES
290
     1
  9
$PSVPSCALE
 40
0.0
  9
$OLESTARTUP
290
     0
  0
ENDSEC
  0
SECTION
  2
CLASSES
  0
CLASS
  1
ACDBDICTIONARYWDFLT
  2
AcDbDictionaryWithDefault
  3
ObjectDBX Classes
 90
        0
280
     0
281
     0
  0
CLASS
  1
ACDBPLACEHOLDER
  2
AcDbPlaceHolder
  3
ObjectDBX Classes
 90
        0
280
     0
281
     0
  0
CLASS
  1
LAYOUT
  2
AcDbLayout
  3
ObjectDBX Classes
 90
        0
280
     0
281
     0
  0
CLASS
  1
DICTIONARYVAR
  2
AcDbDictionaryVar
  3
ObjectDBX Classes
 90
        0
280
     0
281
     0
  0
CLASS
  1
TABLESTYLE
  2
AcDbTableStyle
  3
ObjectDBX Classes
 90
     4095
280
     0
281
     0
  0
CLASS
  1
SORTENTSTABLE
  2
AcDbSortentsTable
  3
ObjectDBX Classes
 90
        0
280
     0
281
     0
  0
CLASS
  1
DIMASSOC
  2
AcDbDimAssoc
  3
"AcDbDimAssoc|Product Desc:     AcDim ARX App For Dimension|Company:          Autodesk, Inc.|WEB Address:      www.autodesk.com"
 90
        0
280
     0
281
     0
  0
CLASS
  1
MATERIAL
  2
AcDbMaterial
  3
ObjectDBX Classes
 90
     1153
280
     0
281
     0
  0
CLASS
  1
VISUALSTYLE
  2
AcDbVisualStyle
  3
ObjectDBX Classes
 90
     4095
280
     0
281
     0
  0
CLASS
  1
SCALE
  2
AcDbScale
  3
ObjectDBX Classes
 90
     1153
280
     0
281
     0
  0
CLASS
  1
MLEADERSTYLE
  2
AcDbMLeaderStyle
  3
ACDB_MLEADERSTYLE_CLASS
 90
    36863
280
     0
281
     0
  0
CLASS
  1
CELLSTYLEMAP
  2
AcDbCellStyleMap
  3
ObjectDBX Classes
 90
     1152
280
     0
281
     0
  0
CLASS
  1
SOLID_BACKGROUND
  2
AcDbSolidBackground
  3
SCENEOE
 90
    36863
280
     0
281
     0
  0
CLASS
  1
NPOCOLLECTION
  2
AcDbImpNonPersistentObjectsCollection
  3
ObjectDBX Classes
 90
    33921
280
     0
281
     0
  0
ENDSEC
  0
SECTION
  2
TABLES
  0
TABLE
  2
VPORT
  5
2E
102
{ACAD_XDICTIONARY
360
33
102
}
330
0
100
AcDbSymbolTable
 70
     1
  0
VPORT
  5
2F
330
2E
100
AcDbSymbolTableRecord
100
AcDbViewportTableRecord
  2
*Active
 70
     0
 10
0.0
 20
0.0
 11
1.0
 21
1.0
 12
42.34300261898469
 22
25.11875281752857
 13
0.0
 23
0.0
 14
0.5
 24
0.5
 15
0.5
 25
0.5
 16
0.0
 26
0.0
 36
1.0
 17
0.0
 27
0.0
 37
0.0
 40
19.40256481532041
 41
2.183284457478005
 42
50.0
 43
0.0
 44
0.0
 50
0.0
 51
0.0
 71
     0
 72
  5000
 73
     1
 74
     3
 75
     0
 76
     0
 77
     0
 78
     0
281
     0
 65
     1
110
0.0
120
0.0
130
0.0
111
1.0
121
0.0
131
0.0
112
0.0
122
1.0
132
0.0
 79
     0
146
0.0
1001
ACAD_NAV_VCDISPLAY
1070
     3
  0
ENDTAB
  0
TABLE
  2
LTYPE
  5
29
330
0
100
AcDbSymbolTable
 70
     4
  0
LTYPE
  5
2A
330
29
100
AcDbSymbolTableRecord
100
AcDbLinetypeTableRecord
  2
ByBlock
 70
     0
  3

 72
    65
 73
     0
 40
0.0
  0
LTYPE
  5
2B
330
29
100
AcDbSymbolTableRecord
100
AcDbLinetypeTableRecord
  2
ByLayer
 70
     0
  3

 72
    65
 73
     0
 40
0.0
  0
LTYPE
  5
15
330
29
100
AcDbSymbolTableRecord
100
AcDbLinetypeTableRecord
  2
Continuous
 70
     0
  3
Solid line
 72
    65
 73
     0
 40
0.0
  0
LTYPE
  5
C6
330
29
100
AcDbSymbolTableRecord
100
AcDbLinetypeTableRecord
  2
CENTER
 70
     0
  3
____ _ ____ _ ____ _ ____ _ ____ _ ____ 
 72
    65
 73
     4
 40
2.0
 49
1.25
 74
     0
 49
-0.25
 74
     0
 49
0.25
 74
     0
 49
-0.25
 74
     0
  0
LTYPE
  5
143
330
29
100
AcDbSymbolTableRecord
100
AcDbLinetypeTableRecord
  2
HIDDEN2
 70
     0
  3
Hidden (.5x) _ _ _ _ _ _ _ _ _ _ _ _ _ _ _ _ _
 72
    65
 73
     2
 40
0.1875
 49
0.125
 74
     0
 49
-0.0625
 74
     0
  0
LTYPE
  5
149
330
29
100
AcDbSymbolTableRecord
100
AcDbLinetypeTableRecord
  2
HIDDEN
 70
     0
  3
Hidden __ __ __ __ __ __ __ __ __ __ __ __ __ __
 72
    65
 73
     2
 40
0.375
 49
0.25
 74
     0
 49
-0.125
 74
     0
  0
ENDTAB
  0
TABLE
  2
LAYER
  5
22
102
{ACAD_XDICTIONARY
360
23
102
}
330
0
100
AcDbSymbolTable
 70
     3
  0
LAYER
  5
6
102
{ACAD_XDICTIONARY
360
7
102
}
330
22
100
AcDbSymbolTableRecord
100
AcDbLayerTableRecord
  2
0
 70
     0
 62
     7
  6
Continuous
370
    18
390
9
  0
LAYER
  5
2B0
330
22
100
AcDbSymbolTableRecord
100
AcDbLayerTableRecord
  2
Defpoints
 70
     0
 62
     7
  6
Continuous
290
     0
370
    18
390
9
  0
LAYER
  5
7E
102
{ACAD_XDICTIONARY
360
7F
102
}
330
22
100
AcDbSymbolTableRecord
100
AcDbLayerTableRecord
  2
Screw
 70
     0
 62
     7
  6
Continuous
370
    18
390
9
  0
ENDTAB
  0
TABLE
  2
STYLE
  5
25
330
0
100
AcDbSymbolTable
 70
     1
  0
STYLE
  5
26
330
25
100
AcDbSymbolTableRecord
100
AcDbTextStyleTableRecord
  2
Standard
 70
     0
 40
0.0
 41
0.55
 50
5.0
 71
     0
 42
0.25
  3
lc______.ttf
  4

1001
ACAD
1000
Letter Gothic
1071
       50
  0
ENDTAB
  0
TABLE
  2
VIEW
  5
2C
330
0
100
AcDbSymbolTable
 70
     0
  0
ENDTAB
  0
TABLE
  2
UCS
  5
2D
330
0
100
AcDbSymbolTable
 70
     0
  0
ENDTAB
  0
TABLE
  2
APPID
  5
34
330
0
100
AcDbSymbolTable
 70
     5
  0
APPID
  5
27
330
34
100
AcDbSymbolTableRecord
100
AcDbRegAppTableRecord
  2
ACAD
 70
     0
  0
APPID
  5
1B
330
34
100
AcDbSymbolTableRecord
100
AcDbRegAppTableRecord
  2
ACAD_PSEXT
 70
     0
  0
APPID
  5
32
330
34
100
AcDbSymbolTableRecord
100
AcDbRegAppTableRecord
  2
ACAD_NAV_VCDISPLAY
 70
     0
  0
APPID
  5
11F
330
34
100
AcDbSymbolTableRecord
100
AcDbRegAppTableRecord
  2
GradientColor1ACI
 70
     0
  0
APPID
  5
120
330
34
100
AcDbSymbolTableRecord
100
AcDbRegAppTableRecord
  2
GradientColor2ACI
 70
     0
  0
ENDTAB
  0
TABLE
  2
DIMSTYLE
  5
35
330
0
100
AcDbSymbolTable
 70
     2
100
AcDbDimStyleTable
 71
     2
340
36
340
3B
  0
DIMSTYLE
105
3B
330
35
100
AcDbSymbolTableRecord
100
AcDbDimStyleTableRecord
  2
Standard
 70
     0
  3
"
 40
0.0
 41
0.095
 42
0.04
 44
0.04
140
0.125
141
0.0
147
0.04
179
     1
271
     6
272
     6
276
     2
277
     5
340
26
  0
DIMSTYLE
105
36
102
{ACAD_REACTORS
330
2A2
330
2B4
330
2C5
330
2D6
330
2E7
330
2F8
330
309
330
317
330
326
330
334
330
342
330
353
330
361
102
}
330
35
100
AcDbSymbolTableRecord
100
AcDbDimStyleTableRecord
  2
Knife
 70
     0
  3
\X
  4
mm
 40
0.0
 41
0.156
 42
0.04
 44
0.03
140
0.3125
141
0.0
147
0.04
170
     1
171
     0
179
     1
271
     5
272
     5
274
     0
276
     2
277
     4
340
26
342
37
  0
ENDTAB
  0
TABLE
  2
BLOCK_RECORD
  5
1
330
0
100
AcDbSymbolTable
 70
    16
  0
BLOCK_RECORD
  5
2
102
{ACAD_XDICTIONARY
360
3
102
}
330
1
100
AcDbSymbolTableRecord
100
AcDbBlockTableRecord
  2
*Model_Space
340
17
  0
BLOCK_RECORD
  5
1C
330
1
100
AcDbSymbolTableRecord
100
AcDbBlockTableRecord
  2
*Paper_Space
340
1F
  0
BLOCK_RECORD
  5
37
330
1
100
AcDbSymbolTableRecord
100
AcDbBlockTableRecord
  2
_ArchTick
340
0
102
{BLKREFS
331
2AB
331
2AC
331
2BE
331
2BF
331
2CE
331
2CF
331
2DF
331
2E0
331
2F0
331
2F1
331
301
331
302
331
310
331
311
331
31F
331
320
331
32D
331
32E
331
33B
331
33C
331
34B
331
34C
331
35A
331
35B
331
368
331
369
102
}
  0
BLOCK_RECORD
  5
7B
330
1
100
AcDbSymbolTableRecord
100
AcDbBlockTableRecord
  2
8 x .75 FH
340
0
310
2800000020000000200000000100080000000000000400000000000000000000000000000000000000000000000080000080000000808000800000008000800080800000C0C0C000C0DCC000F0CAA6000020400000206000002080000020A0000020C0000020E00000400000004020000040400000406000004080000040A0
310
000040C0000040E00000600000006020000060400000606000006080000060A0000060C0000060E00000800000008020000080400000806000008080000080A0000080C0000080E00000A0000000A0200000A0400000A0600000A0800000A0A00000A0C00000A0E00000C0000000C0200000C0400000C0600000C0800000C0
310
A00000C0C00000C0E00000E0000000E0200000E0400000E0600000E0800000E0A00000E0C00000E0E00040000000400020004000400040006000400080004000A0004000C0004000E00040200000402020004020400040206000402080004020A0004020C0004020E000404000004040200040404000404060004040800040
310
40A0004040C0004040E00040600000406020004060400040606000406080004060A0004060C0004060E00040800000408020004080400040806000408080004080A0004080C0004080E00040A0000040A0200040A0400040A0600040A0800040A0A00040A0C00040A0E00040C0000040C0200040C0400040C0600040C08000
310
40C0A00040C0C00040C0E00040E0000040E0200040E0400040E0600040E0800040E0A00040E0C00040E0E00080000000800020008000400080006000800080008000A0008000C0008000E00080200000802020008020400080206000802080008020A0008020C0008020E00080400000804020008040400080406000804080
310
008040A0008040C0008040E00080600000806020008060400080606000806080008060A0008060C0008060E00080800000808020008080400080806000808080008080A0008080C0008080E00080A0000080A0200080A0400080A0600080A0800080A0A00080A0C00080A0E00080C0000080C0200080C0400080C0600080C0
310
800080C0A00080C0C00080C0E00080E0000080E0200080E0400080E0600080E0800080E0A00080E0C00080E0E000C0000000C0002000C0004000C0006000C0008000C000A000C000C000C000E000C0200000C0202000C0204000C0206000C0208000C020A000C020C000C020E000C0400000C0402000C0404000C0406000C0
310
408000C040A000C040C000C040E000C0600000C0602000C0604000C0606000C0608000C060A000C060C000C060E000C0800000C0802000C0804000C0806000C0808000C080A000C080C000C080E000C0A00000C0A02000C0A04000C0A06000C0A08000C0A0A000C0A0C000C0A0E000C0C00000C0C02000C0C04000C0C06000
310
C0C08000C0C0A000F0FBFF00A4A0A000808080000000FF0000FF000000FFFF00FF000000FF00FF00FFFF0000FFFFFF0007070707070707070707070707070707070707070707070707070707070707070707070707070707070707070707070700070707070707070707070707070707070707070707070707070707070707
310
07000707070707070707070707070707070707070707070707070707070707070700070707070707070707070707070707070707070707070707070707070707070007070707070707070707070707070707070707070707070707070707070000000707070707070707070707070707070707070707070707070707070707
310
07000000070707070707070707070707070707070707070707070707070707000007000007070707070707070707070707070707070707070707070707070707000000000007070707070707070707070707070707070707070707070707070700070000000707070707070707070707070707070707070707070707070707
310
00000000000707070707070707070707070707070707070707070707070707070700070000000707070707070707070707070707070707070707070707070707000000000007070707070707070707070707070707070707070707070707070707000700000007070707070707070707070707070707070707070707070707
310
07000000000007070707070707070707070707070707070707070707070707070707000700000007070707070707070707070707070707070707070707070707070000000000070707070707070707070707070707070707070707070707070707070007000000070707070707070707070707070707070707070707070707
310
07070000000000070707070707070707070707070707070707070707070707070707070007000000070707070707070707070707070707070707070707070707070707000700000707070707070707070707070707070707070707070707070707070000000000070707070707070707070707070707070707070707070707
310
07070707000700000007070707070707070707070707070707070707070707070707070700000000070707070707070707070707070707070707070707070707070707000707000700070707070707070707070707070707070707070707070707070007070700070700070707070707070707070707070707070707070707
310
07070007070707000707070007070707070707070707070707070707070707070700000000000000000000000007070707070707070707070707070707070707070000000000000000000000000707070707070707070707070707070707070707070707070707000707070707070707070707070707070707070707070707
310
0707070707070707000707070707070707070707070707070707070707070707070707070707070707070707070707070707070707070707
102
{BLKREFS
331
7A
102
}
  0
BLOCK_RECORD
  5
C9
330
1
100
AcDbSymbolTableRecord
100
AcDbBlockTableRecord
  2
8 X .625 PH
340
0
310
2800000020000000200000000100080000000000000400000000000000000000000000000000000000000000000080000080000000808000800000008000800080800000C0C0C000C0DCC000F0CAA6000020400000206000002080000020A0000020C0000020E00000400000004020000040400000406000004080000040A0
310
000040C0000040E00000600000006020000060400000606000006080000060A0000060C0000060E00000800000008020000080400000806000008080000080A0000080C0000080E00000A0000000A0200000A0400000A0600000A0800000A0A00000A0C00000A0E00000C0000000C0200000C0400000C0600000C0800000C0
310
A00000C0C00000C0E00000E0000000E0200000E0400000E0600000E0800000E0A00000E0C00000E0E00040000000400020004000400040006000400080004000A0004000C0004000E00040200000402020004020400040206000402080004020A0004020C0004020E000404000004040200040404000404060004040800040
310
40A0004040C0004040E00040600000406020004060400040606000406080004060A0004060C0004060E00040800000408020004080400040806000408080004080A0004080C0004080E00040A0000040A0200040A0400040A0600040A0800040A0A00040A0C00040A0E00040C0000040C0200040C0400040C0600040C08000
310
40C0A00040C0C00040C0E00040E0000040E0200040E0400040E0600040E0800040E0A00040E0C00040E0E00080000000800020008000400080006000800080008000A0008000C0008000E00080200000802020008020400080206000802080008020A0008020C0008020E00080400000804020008040400080406000804080
310
008040A0008040C0008040E00080600000806020008060400080606000806080008060A0008060C0008060E00080800000808020008080400080806000808080008080A0008080C0008080E00080A0000080A0200080A0400080A0600080A0800080A0A00080A0C00080A0E00080C0000080C0200080C0400080C0600080C0
310
800080C0A00080C0C00080C0E00080E0000080E0200080E0400080E0600080E0800080E0A00080E0C00080E0E000C0000000C0002000C0004000C0006000C0008000C000A000C000C000C000E000C0200000C0202000C0204000C0206000C0208000C020A000C020C000C020E000C0400000C0402000C0404000C0406000C0
310
408000C040A000C040C000C040E000C0600000C0602000C0604000C0606000C0608000C060A000C060C000C060E000C0800000C0802000C0804000C0806000C0808000C080A000C080C000C080E000C0A00000C0A02000C0A04000C0A06000C0A08000C0A0A000C0A0C000C0A0E000C0C00000C0C02000C0C04000C0C06000
310
C0C08000C0C0A000F0FBFF00A4A0A000808080000000FF0000FF000000FFFF00FF000000FF00FF00FFFF0000FFFFFF0007070707070707070707070707070707070707070707070707070707070707070707070707070707070707070707070700070707070707070707070707070707070707070707070707070707070707
310
07000707070707070707070707070707070707070707070707070707070707070700070707070707070707070707070707070707070707070707070707070707070007070707070707070707070707070707070707070707070707070707070000000707070707070707070707070707070707070707070707070707070707
310
00000000070707070707070707070707070707070707070707070707070707070007000007070707070707070707070707070707070707070707070707070700000000000007070707070707070707070707070707070707070707070707070007070000000707070707070707070707070707070707070707070707070707
310
00000000070007070707070707070707070707070707070707070707070707070007070000000707070707070707070707070707070707070707070707070707000000000700070707070707070707070707070707070707070707070707070700070700000007070707070707070707070707070707070707070707070707
310
07000000000700070707070707070707070707070707070707070707070707070700070700000007070707070707070707070707070707070707070707070707070007070007000707070707070707070707070707070707070707070707070707000000000700070707070707070707070707070707070707070707070707
310
07070007070000000707070707070707070707070707070707070707070707070707000000000700070707070707070707070707070707070707070707070707070700070700000007070707070707070707070707070707070707070707070707070000000007000707070707070707070707070707070707070707070707
310
07070700070700000007070707070707070707070707070707070707070707070707070000000007000707070707070707070707070707070707070707070707070000000000000000000007070707070707070707070707070707070707070700070707070700070707070007070707070707070707070707070707070707
310
07000000000000000000000000070707070707070707070707070707070707070707000007070700070700000707070707070707070707070707070707070707070707070000000000000707070707070707070707070707070707070707070707070707070707000707070707070707070707070707070707070707070707
310
0707070707070707000707070707070707070707070707070707070707070707070707070707070707070707070707070707070707070707
102
{BLKREFS
331
C8
102
}
  0
BLOCK_RECORD
  5
2A5
330
1
100
AcDbSymbolTableRecord
100
AcDbBlockTableRecord
  2
*D3
340
0
  0
BLOCK_RECORD
  5
2B7
330
1
100
AcDbSymbolTableRecord
100
AcDbBlockTableRecord
  2
*D4
340
0
  0
BLOCK_RECORD
  5
2C8
330
1
100
AcDbSymbolTableRecord
100
AcDbBlockTableRecord
  2
*D5
340
0
  0
BLOCK_RECORD
  5
2D9
330
1
100
AcDbSymbolTableRecord
100
AcDbBlockTableRecord
  2
*D6
340
0
  0
BLOCK_RECORD
  5
2EA
330
1
100
AcDbSymbolTableRecord
100
AcDbBlockTableRecord
  2
*D7
340
0
  0
BLOCK_RECORD
  5
2FB
330
1
100
AcDbSymbolTableRecord
100
AcDbBlockTableRecord
  2
*D8
340
0
  0
BLOCK_RECORD
  5
30A
330
1
100
AcDbSymbolTableRecord
100
AcDbBlockTableRecord
  2
*D9
340
0
  0
BLOCK_RECORD
  5
318
330
1
100
AcDbSymbolTableRecord
100
AcDbBlockTableRecord
  2
*D10
340
0
  0
BLOCK_RECORD
  5
327
330
1
100
AcDbSymbolTableRecord
100
AcDbBlockTableRecord
  2
*D11
340
0
  0
BLOCK_RECORD
  5
335
330
1
100
AcDbSymbolTableRecord
100
AcDbBlockTableRecord
  2
*D12
340
0
  0
BLOCK_RECORD
  5
345
330
1
100
AcDbSymbolTableRecord
100
AcDbBlockTableRecord
  2
*D13
340
0
  0
BLOCK_RECORD
  5
354
330
1
100
AcDbSymbolTableRecord
100
AcDbBlockTableRecord
  2
*D14
340
0
  0
BLOCK_RECORD
  5
362
330
1
100
AcDbSymbolTableRecord
100
AcDbBlockTableRecord
  2
*D15
340
0
  0
ENDTAB
  0
ENDSEC
  0
SECTION
  2
BLOCKS
  0
BLOCK
  5
5
330
2
100
AcDbEntity
  8
0
100
AcDbBlockBegin
  2
*Model_Space
 70
     0
 10
0.0
 20
0.0
 30
0.0
  3
*Model_Space
  1

  0
ENDBLK
  5
16
330
2
100
AcDbEntity
  8
0
100
AcDbBlockEnd
  0
BLOCK
  5
1D
330
1C
100
AcDbEntity
 67
     1
  8
0
100
AcDbBlockBegin
  2
*Paper_Space
 70
     0
 10
0.0
 20
0.0
 30
0.0
  3
*Paper_Space
  1

  0
ENDBLK
  5
1E
330
1C
100
AcDbEntity
 67
     1
  8
0
100
AcDbBlockEnd
  0
BLOCK
  5
38
330
37
100
AcDbEntity
  8
0
100
AcDbBlockBegin
  2
_ArchTick
 70
     0
 10
0.0
 20
0.0
 30
0.0
  3
_ArchTick
  1

  0
LWPOLYLINE
  5
39
330
37
100
AcDbEntity
  8
0
  6
ByBlock
 62
     0
100
AcDbPolyline
 90
        2
 70
     0
 43
0.15
 10
-0.5
 20
-0.5
 10
0.5
 20
0.5
  0
ENDBLK
  5
3A
330
37
100
AcDbEntity
  8
0
100
AcDbBlockEnd
  0
BLOCK
  5
7C
330
7B
100
AcDbEntity
  8
0
 62
     7
370
     9
100
AcDbBlockBegin
  2
8 x .75 FH
 70
     0
 10
0.0
 20
0.0
 30
0.0
  3
8 x .75 FH
  1

  0
LINE
  5
7D
330
7B
100
AcDbEntity
  8
Screw
 62
     7
370
     9
100
AcDbLine
 10
0.0550146141445112
 20
-0.6503624430697528
 30
0.0
 11
-0.040994238129656
 21
-0.6842106249981726
 31
0.0
  0
LINE
  5
80
330
7B
100
AcDbEntity
  8
Screw
 62
     7
370
     9
100
AcDbLine
 10
0.082499999998845
 20
-0.5862344890166469
 30
0.0
 11
-0.0718750000007731
 21
-0.6184212499980504
 31
0.0
  0
LINE
  5
81
330
7B
100
AcDbEntity
  8
Screw
 62
     7
370
     9
100
AcDbLine
 10
0.0439236020391718
 20
-0.6439590442452073
 30
0.0
 11
0.0490410471671794
 21
-0.6316044388123601
 31
0.0
  0
LINE
  5
82
330
7B
100
AcDbEntity
  8
Screw
 62
     7
370
     9
100
AcDbLine
 10
0.029903226022725
 20
-0.6778072261735133
 30
0.0
 11
0.0229311243443817
 21
-0.6946393686034753
 31
0.0
  0
LINE
  5
83
330
7B
100
AcDbEntity
  8
Screw
 62
     7
370
     9
100
AcDbLine
 10
0.0578546239828484
 20
-0.6103265821309379
 30
0.0
 11
0.0490410471671794
 21
-0.6316044388123601
 31
0.0
  0
LINE
  5
84
330
7B
100
AcDbEntity
  8
Screw
 62
     7
370
     9
100
AcDbLine
 10
-0.0000000000006821
 20
-0.749999999998181
 30
0.0
 11
-0.0229311243459733
 21
-0.6946393686034753
 31
0.0
  0
LINE
  5
85
330
7B
100
AcDbEntity
  8
Screw
 62
     7
370
     9
100
AcDbLine
 10
-0.0718750000007731
 20
-0.6184212499980504
 30
0.0
 11
-0.0600000000014234
 21
-0.6115652155518774
 31
0.0
  0
LINE
  5
86
330
7B
100
AcDbEntity
  8
Screw
 62
     7
370
     9
100
AcDbLine
 10
-0.0718750000007731
 20
-0.6184212499981641
 30
0.0
 11
-0.0490410471686573
 21
-0.6316044388123601
 31
0.0
  0
LINE
  5
87
330
7B
100
AcDbEntity
  8
Screw
 62
     7
370
     9
100
AcDbLine
 10
-0.040994238129656
 20
-0.6842106249981726
 30
0.0
 11
-0.0299032260242029
 21
-0.6778072261735133
 31
0.0
  0
LINE
  5
88
330
7B
100
AcDbEntity
  8
Screw
 62
     7
370
     9
100
AcDbLine
 10
-0.040994238129656
 20
-0.6842106249981726
 30
0.0
 11
-0.0229311243459733
 21
-0.6946393686034753
 31
0.0
  0
LINE
  5
89
330
7B
100
AcDbEntity
  8
Screw
 62
     7
370
     9
100
AcDbLine
 10
-0.0299032260242029
 20
-0.6778072261735133
 30
0.0
 11
-0.0490410471686573
 21
-0.6316044388123601
 31
0.0
  0
LINE
  5
8A
330
7B
100
AcDbEntity
  8
Screw
 62
     7
370
     9
100
AcDbLine
 10
0.029903226022725
 20
-0.6778072261735133
 30
0.0
 11
0.0369515003608285
 21
-0.6607911866751693
 31
0.0
  0
LINE
  5
8B
330
7B
100
AcDbEntity
  8
Screw
 62
     7
370
     9
100
AcDbLine
 10
0.0578546239828484
 20
-0.6103265821309379
 30
0.0
 11
0.0632241464040817
 21
-0.5973634082783974
 31
0.0
  0
LINE
  5
8C
330
7B
100
AcDbEntity
  8
Screw
 62
     7
370
     9
100
AcDbLine
 10
0.0550146141445112
 20
-0.6503624430697528
 30
0.0
 11
0.0369515003608285
 21
-0.6607911866751693
 31
0.0
  0
LINE
  5
8D
330
7B
100
AcDbEntity
  8
Screw
 62
     7
370
     9
100
AcDbLine
 10
0.0550146141445112
 20
-0.6503624430697528
 30
0.0
 11
0.0439236020391718
 21
-0.6439590442452073
 31
0.0
  0
LINE
  5
8E
330
7B
100
AcDbEntity
  8
Screw
 62
     7
370
     9
100
AcDbLine
 10
0.0824999999986176
 20
-0.5862344890166469
 30
0.0
 11
0.063224146403968
 21
-0.5973634082782838
 31
0.0
  0
LINE
  5
8F
330
7B
100
AcDbEntity
  8
Screw
 62
     7
370
     9
100
AcDbLine
 10
0.0824999999986176
 20
-0.5862344890166469
 30
0.0
 11
0.0684796239821708
 21
-0.5781398211494207
 31
0.0
  0
LINE
  5
90
330
7B
100
AcDbEntity
  8
Screw
 62
     7
370
     9
100
AcDbLine
 10
-0.0000000000006821
 20
-0.749999999998181
 30
0.0
 11
0.0229311243443817
 21
-0.6946393686034753
 31
0.0
  0
LINE
  5
91
330
7B
100
AcDbEntity
  8
Screw
 62
     7
370
     9
100
AcDbLine
 10
0.0599999999988086
 20
-0.4018567450733599
 30
0.0
 11
0.0599999999988086
 21
-0.4416653579600052
 31
0.0
  0
LINE
  5
92
330
7B
100
AcDbEntity
  8
Screw
 62
     7
370
     9
100
AcDbLine
 10
0.0824999999987313
 20
-0.3888663640167351
 30
0.0
 11
0.0599999999988086
 21
-0.4018567450733599
 31
0.0
  0
LINE
  5
93
330
7B
100
AcDbEntity
  8
Screw
 62
     7
370
     9
100
AcDbLine
 10
0.0599999999988086
 20
-0.4676461200734821
 30
0.0
 11
0.0599999999988086
 21
-0.5074547329599
 31
0.0
  0
LINE
  5
94
330
7B
100
AcDbEntity
  8
Screw
 62
     7
370
     9
100
AcDbLine
 10
0.0824999999987313
 20
-0.5204451140167521
 30
0.0
 11
0.0599999999988086
 21
-0.5334354950734906
 31
0.0
  0
LINE
  5
95
330
7B
100
AcDbEntity
  8
Screw
 62
     7
370
     9
100
AcDbLine
 10
0.0824999999987313
 20
-0.5204451140167521
 30
0.0
 11
0.0599999999986949
 21
-0.5074547329599
 31
0.0
  0
LINE
  5
96
330
7B
100
AcDbEntity
  8
Screw
 62
     7
370
     9
100
AcDbLine
 10
0.0824999999987313
 20
-0.45465573901663
 30
0.0
 11
0.0599999999988086
 21
-0.4676461200734821
 31
0.0
  0
LINE
  5
97
330
7B
100
AcDbEntity
  8
Screw
 62
     7
370
     9
100
AcDbLine
 10
0.0824999999987313
 20
-0.45465573901663
 30
0.0
 11
0.0599999999988086
 21
-0.4416653579600052
 31
0.0
  0
LINE
  5
98
330
7B
100
AcDbEntity
  8
Screw
 62
     7
370
     9
100
AcDbLine
 10
0.0824999999987313
 20
-0.3888663640167351
 30
0.0
 11
-0.0825000000013461
 21
-0.4176219848775418
 31
0.0
  0
LINE
  5
99
330
7B
100
AcDbEntity
  8
Screw
 62
     7
370
     9
100
AcDbLine
 10
0.0824999999987313
 20
-0.5204451140167521
 30
0.0
 11
-0.0825000000013461
 21
-0.5492007348775588
 31
0.0
  0
LINE
  5
9A
330
7B
100
AcDbEntity
  8
Screw
 62
     7
370
     9
100
AcDbLine
 10
0.0824999999987313
 20
-0.45465573901663
 30
0.0
 11
-0.0825000000013461
 21
-0.4834113598775503
 31
0.0
  0
LINE
  5
9B
330
7B
100
AcDbEntity
  8
Screw
 62
     7
370
     9
100
AcDbLine
 10
0.0824999999987313
 20
-0.3888663640167351
 30
0.0
 11
0.0599999999988086
 21
-0.3758759829599967
 31
0.0
  0
LINE
  5
9C
330
7B
100
AcDbEntity
  8
Screw
 62
     7
370
     9
100
AcDbLine
 10
0.0824999999987313
 20
-0.5862344890167606
 30
0.0
 11
0.0599999999986949
 21
-0.5732441079599085
 31
0.0
  0
LINE
  5
9D
330
7B
100
AcDbEntity
  8
Screw
 62
     7
370
     9
100
AcDbLine
 10
0.0599999999988086
 20
-0.5334354950734906
 30
0.0
 11
0.0599999999988086
 21
-0.5732441079599085
 31
0.0
  0
LINE
  5
9E
330
7B
100
AcDbEntity
  8
Screw
 62
     7
370
     9
100
AcDbLine
 10
-0.0825000000012324
 20
-0.4834113598774366
 30
0.0
 11
-0.0600000000013097
 21
-0.4704209788208118
 31
0.0
  0
LINE
  5
9F
330
7B
100
AcDbEntity
  8
Screw
 62
     7
370
     9
100
AcDbLine
 10
-0.0825000000012324
 20
-0.483411359877664
 30
0.0
 11
-0.0600000000013097
 21
-0.4964017409342887
 31
0.0
  0
LINE
  5
A0
330
7B
100
AcDbEntity
  8
Screw
 62
     7
370
     9
100
AcDbLine
 10
-0.0825000000012324
 20
-0.5492007348775588
 30
0.0
 11
-0.0600000000013097
 21
-0.5362103538207066
 31
0.0
  0
LINE
  5
A1
330
7B
100
AcDbEntity
  8
Screw
 62
     7
370
     9
100
AcDbLine
 10
-0.0825000000012324
 20
-0.5492007348775588
 30
0.0
 11
-0.0600000000013097
 21
-0.5621911159342972
 31
0.0
  0
LINE
  5
A2
330
7B
100
AcDbEntity
  8
Screw
 62
     7
370
     9
100
AcDbLine
 10
-0.0825000000012324
 20
-0.4176219848775418
 30
0.0
 11
-0.0600000000013097
 21
-0.4306123659343939
 31
0.0
  0
LINE
  5
A3
330
7B
100
AcDbEntity
  8
Screw
 62
     7
370
     9
100
AcDbLine
 10
-0.0825000000012324
 20
-0.4176219848775418
 30
0.0
 11
-0.0600000000013097
 21
-0.4046316038208034
 31
0.0
  0
LINE
  5
A4
330
7B
100
AcDbEntity
  8
Screw
 62
     7
370
     9
100
AcDbLine
 10
-0.0600000000013097
 20
-0.5621911159342972
 30
0.0
 11
-0.0600000000013097
 21
-0.6115652155519911
 31
0.0
  0
LINE
  5
A5
330
7B
100
AcDbEntity
  8
Screw
 62
     7
370
     9
100
AcDbLine
 10
-0.0600000000013097
 20
-0.496401740934175
 30
0.0
 11
-0.0600000000013097
 21
-0.5362103538205929
 31
0.0
  0
LINE
  5
A6
330
7B
100
AcDbEntity
  8
Screw
 62
     7
370
     9
100
AcDbLine
 10
-0.0600000000013097
 20
-0.4306123659340529
 30
0.0
 11
-0.0600000000013097
 21
-0.4704209788206981
 31
0.0
  0
LINE
  5
A7
330
7B
100
AcDbEntity
  8
Screw
 62
     7
370
     9
100
AcDbLine
 10
0.0824999999987313
 20
-0.2572876140167182
 30
0.0
 11
0.0599999999988086
 21
-0.2442972329599797
 31
0.0
  0
LINE
  5
A8
330
7B
100
AcDbEntity
  8
Screw
 62
     7
370
     9
100
AcDbLine
 10
0.0824999999987313
 20
-0.323076989016613
 30
0.0
 11
-0.0825000000013461
 21
-0.3518326098775333
 31
0.0
  0
LINE
  5
A9
330
7B
100
AcDbEntity
  8
Screw
 62
     7
370
     9
100
AcDbLine
 10
0.0824999999987313
 20
-0.2572876140167182
 30
0.0
 11
-0.0825000000013461
 21
-0.2860432348775248
 31
0.0
  0
LINE
  5
AA
330
7B
100
AcDbEntity
  8
Screw
 62
     7
370
     9
100
AcDbLine
 10
0.0824999999987313
 20
-0.323076989016613
 30
0.0
 11
0.0599999999988086
 21
-0.3100866079599882
 31
0.0
  0
LINE
  5
AB
330
7B
100
AcDbEntity
  8
Screw
 62
     7
370
     9
100
AcDbLine
 10
0.0824999999987313
 20
-0.323076989016613
 30
0.0
 11
0.0599999999988086
 21
-0.3360673700734651
 31
0.0
  0
LINE
  5
AC
330
7B
100
AcDbEntity
  8
Screw
 62
     7
370
     9
100
AcDbLine
 10
0.0599999999988086
 20
-0.3360673700734651
 30
0.0
 11
0.0599999999988086
 21
-0.375875982959883
 31
0.0
  0
LINE
  5
AD
330
7B
100
AcDbEntity
  8
Screw
 62
     7
370
     9
100
AcDbLine
 10
0.0824999999987313
 20
-0.2572876140167182
 30
0.0
 11
0.0599999999988086
 21
-0.2702779950733429
 31
0.0
  0
LINE
  5
AE
330
7B
100
AcDbEntity
  8
Screw
 62
     7
370
     9
100
AcDbLine
 10
0.0599999999988086
 20
-0.2702779950733429
 30
0.0
 11
0.0599999999988086
 21
-0.3100866079599882
 31
0.0
  0
LINE
  5
AF
330
7B
100
AcDbEntity
  8
Screw
 62
     7
370
     9
100
AcDbLine
 10
-0.0600000000013097
 20
-0.2990336159340359
 30
0.0
 11
-0.0600000000013097
 21
-0.3388422288206812
 31
0.0
  0
LINE
  5
B0
330
7B
100
AcDbEntity
  8
Screw
 62
     7
370
     9
100
AcDbLine
 10
-0.0600000000013097
 20
-0.364822990934158
 30
0.0
 11
-0.0600000000013097
 21
-0.404631603820576
 31
0.0
  0
LINE
  5
B1
330
7B
100
AcDbEntity
  8
Screw
 62
     7
370
     9
100
AcDbLine
 10
-0.0825000000012324
 20
-0.2860432348775248
 30
0.0
 11
-0.0600000000013097
 21
-0.2730528538207864
 31
0.0
  0
LINE
  5
B2
330
7B
100
AcDbEntity
  8
Screw
 62
     7
370
     9
100
AcDbLine
 10
-0.0825000000012324
 20
-0.2860432348775248
 30
0.0
 11
-0.0600000000013097
 21
-0.2990336159343769
 31
0.0
  0
LINE
  5
B3
330
7B
100
AcDbEntity
  8
Screw
 62
     7
370
     9
100
AcDbLine
 10
-0.0825000000012324
 20
-0.351832609877647
 30
0.0
 11
-0.0600000000013097
 21
-0.3648229909342717
 31
0.0
  0
LINE
  5
B4
330
7B
100
AcDbEntity
  8
Screw
 62
     7
370
     9
100
AcDbLine
 10
-0.0825000000012324
 20
-0.3518326098774196
 30
0.0
 11
-0.0600000000013097
 21
-0.3388422288207948
 31
0.0
  0
LINE
  5
B5
330
7B
100
AcDbEntity
  8
Screw
 62
     7
370
     9
100
AcDbLine
 10
0.0599999999988086
 20
-0.2044886200734481
 30
0.0
 11
0.0599999999988086
 21
-0.244297232959866
 31
0.0
  0
LINE
  5
B6
330
7B
100
AcDbEntity
  8
Screw
 62
     7
370
     9
100
AcDbLine
 10
-0.0600000000013097
 20
-0.2332442409341411
 30
0.0
 11
-0.0600000000013097
 21
-0.273052853820559
 31
0.0
  0
LINE
  5
B7
330
7B
100
AcDbEntity
  8
Screw
 62
     7
370
     9
100
AcDbLine
 10
-0.0600000000013097
 20
-0.1430000000002565
 30
0.0
 11
-0.0600000000013097
 21
-0.2072634788206642
 31
0.0
  0
LINE
  5
B8
330
7B
100
AcDbEntity
  8
Screw
 62
     7
370
     9
100
AcDbLine
 10
-0.0825000000012324
 20
-0.22025385987763
 30
0.0
 11
-0.0600000000013097
 21
-0.2332442409342548
 31
0.0
  0
LINE
  5
B9
330
7B
100
AcDbEntity
  8
Screw
 62
     7
370
     9
100
AcDbLine
 10
-0.0825000000012324
 20
-0.2202538598774026
 30
0.0
 11
-0.0600000000013097
 21
-0.2072634788207779
 31
0.0
  0
LINE
  5
BA
330
7B
100
AcDbEntity
  8
Screw
 62
     7
370
     9
100
AcDbLine
 10
0.0824999999987313
 20
-0.191498239016596
 30
0.0
 11
-0.0825000000013461
 21
-0.2202538598775163
 31
0.0
  0
LINE
  5
BB
330
7B
100
AcDbEntity
  8
Screw
 62
     7
370
     9
100
AcDbLine
 10
0.0824999999987313
 20
-0.191498239016596
 30
0.0
 11
0.0599999999988086
 21
-0.1785078579599713
 31
0.0
  0
LINE
  5
BC
330
7B
100
AcDbEntity
  8
Screw
 62
     7
370
     9
100
AcDbLine
 10
0.0824999999987313
 20
-0.191498239016596
 30
0.0
 11
0.0599999999988086
 21
-0.2044886200734481
 31
0.0
  0
LINE
  5
BD
330
7B
100
AcDbEntity
  8
Screw
 62
     7
370
     9
100
AcDbLine
 10
0.0599999999989223
 20
-0.1430000000002565
 30
0.0
 11
0.0599999999988086
 21
-0.1785078579599713
 31
0.0
  0
LINE
  5
BE
330
7B
100
AcDbEntity
  8
Screw
 62
     7
370
     9
100
AcDbLine
 10
-0.1550000000002001
 20
0.0000000000001137
 30
0.0
 11
-0.1550000000020191
 21
-0.015999999999849
 31
0.0
  0
LINE
  5
BF
330
7B
100
AcDbEntity
  8
Screw
 62
     7
370
     9
100
AcDbLine
 10
0.1549999999986085
 20
0.0
 30
0.0
 11
0.1549999999986085
 21
-0.0159999999999627
 31
0.0
  0
LINE
  5
C0
330
7B
100
AcDbEntity
  8
Screw
 62
     7
370
     9
100
AcDbLine
 10
0.1549999999987222
 20
-0.0160000000006448
 30
0.0
 11
-0.155000000001337
 21
-0.0159999999999627
 31
0.0
  0
LINE
  5
C1
330
7B
100
AcDbEntity
  8
Screw
 62
     7
370
     9
100
AcDbLine
 10
0.1549999999987222
 20
0.0
 30
0.0
 11
-0.155000000001337
 21
0.0
 31
0.0
  0
LINE
  5
C2
330
7B
100
AcDbEntity
  8
Screw
 62
     7
370
     9
100
AcDbLine
 10
0.0599999999989223
 20
-0.1430000000000291
 30
0.0
 11
-0.0600000000013097
 21
-0.1430000000000291
 31
0.0
  0
LINE
  5
C3
330
7B
100
AcDbEntity
  8
Screw
 62
     7
370
     9
100
AcDbLine
 10
0.1549999999986085
 20
-0.0160000000006448
 30
0.0
 11
0.0599999999988086
 21
-0.1430000000001428
 31
0.0
  0
LINE
  5
C4
330
7B
100
AcDbEntity
  8
Screw
 62
     7
370
     9
100
AcDbLine
 10
-0.1550000000020191
 20
-0.0159999999999627
 30
0.0
 11
-0.0600000000013097
 21
-0.1430000000001428
 31
0.0
  0
LINE
  5
C5
330
7B
100
AcDbEntity
  8
Screw
  6
CENTER
 62
     7
370
     9
100
AcDbLine
 10
0.0
 20
0.0516137131638743
 30
0.0
 11
0.0
 21
-0.8012116686045374
 31
0.0
  0
ENDBLK
  5
C7
330
7B
100
AcDbEntity
  8
0
 62
     7
370
     9
100
AcDbBlockEnd
  0
BLOCK
  5
CA
330
C9
100
AcDbEntity
  8
0
 62
     5
100
AcDbBlockBegin
  2
8 X .625 PH
 70
     0
 10
0.0
 20
0.0
 30
0.0
  3
8 X .625 PH
  1

  0
LINE
  5
CB
330
C9
100
AcDbEntity
  8
Screw
  6
CENTER
 62
     7
370
     9
100
AcDbLine
 10
0.0
 20
0.1516137131640107
 30
0.0
 11
-0.0000000000001137
 21
-0.6762116686043101
 31
0.0
  0
LINE
  5
CC
330
C9
100
AcDbEntity
  8
Screw
 62
     7
370
     9
100
AcDbLine
 10
0.1549999999987222
 20
0.0400000000003047
 30
0.0
 11
0.1549999999986085
 21
0.0100000000001046
 31
0.0
  0
LINE
  5
CD
330
C9
100
AcDbEntity
  8
Screw
 62
     7
370
     9
100
AcDbLine
 10
-0.1550000000386262
 20
0.0400000000013279
 30
0.0
 11
-0.1550000000420368
 21
0.0100000000010141
 31
0.0
  0
LINE
  5
CE
330
C9
100
AcDbEntity
  8
Screw
 62
     7
370
     9
100
AcDbLine
 10
0.0599999999986949
 20
-0.0136992450730986
 30
0.0
 11
0.0599999999986949
 21
-0.0535078579597439
 31
0.0
  0
LINE
  5
CF
330
C9
100
AcDbEntity
  8
Screw
 62
     7
370
     9
100
AcDbLine
 10
0.0824999999986176
 20
-0.0007088640164739
 30
0.0
 11
0.0599999999986949
 21
-0.0136992450730986
 31
0.0
  0
LINE
  5
D0
330
C9
100
AcDbEntity
  8
Screw
 62
     7
370
     9
100
AcDbLine
 10
0.0824999999986176
 20
-0.0664982390163687
 30
0.0
 11
0.0599999999986949
 21
-0.0794886200732208
 31
0.0
  0
LINE
  5
D1
330
C9
100
AcDbEntity
  8
Screw
 62
     7
370
     9
100
AcDbLine
 10
0.0824999999986176
 20
-0.0664982390163687
 30
0.0
 11
0.0599999999986949
 21
-0.0535078579597439
 31
0.0
  0
LINE
  5
D2
330
C9
100
AcDbEntity
  8
Screw
 62
     7
370
     9
100
AcDbLine
 10
0.0824999999986176
 20
-0.0007088640164739
 30
0.0
 11
-0.0825000000014598
 21
-0.0294644848772805
 31
0.0
  0
LINE
  5
D3
330
C9
100
AcDbEntity
  8
Screw
 62
     7
370
     9
100
AcDbLine
 10
0.0824999999986176
 20
-0.0664982390163687
 30
0.0
 11
-0.0825000000014598
 21
-0.095253859877289
 31
0.0
  0
LINE
  5
D4
330
C9
100
AcDbEntity
  8
Screw
 62
     7
370
     9
100
AcDbLine
 10
0.0824999999986176
 20
-0.0007088640164739
 30
0.0
 11
0.0812722115064162
 21
0.0000000000001137
 31
0.0
  0
LINE
  5
D5
330
C9
100
AcDbEntity
  8
Screw
 62
     7
370
     9
100
AcDbLine
 10
-0.0825000000013461
 20
-0.0952538598771753
 30
0.0
 11
-0.0600000000014234
 21
-0.0822634788205505
 31
0.0
  0
LINE
  5
D6
330
C9
100
AcDbEntity
  8
Screw
 62
     7
370
     9
100
AcDbLine
 10
-0.0825000000013461
 20
-0.0952538598774027
 30
0.0
 11
-0.0600000000014234
 21
-0.1082442409340274
 31
0.0
  0
LINE
  5
D7
330
C9
100
AcDbEntity
  8
Screw
 62
     7
370
     9
100
AcDbLine
 10
-0.0825000000013461
 20
-0.0294644848772805
 30
0.0
 11
-0.0600000000014234
 21
-0.0424548659341326
 31
0.0
  0
LINE
  5
D8
330
C9
100
AcDbEntity
  8
Screw
 62
     7
370
     9
100
AcDbLine
 10
-0.0825000000013461
 20
-0.0294644848772805
 30
0.0
 11
-0.0600000000014234
 21
-0.0164741038205421
 31
0.0
  0
LINE
  5
D9
330
C9
100
AcDbEntity
  8
Screw
 62
     7
370
     9
100
AcDbLine
 10
-0.0600000000014234
 20
-0.0424548659337916
 30
0.0
 11
-0.0600000000014234
 21
-0.0822634788204369
 31
0.0
  0
LINE
  5
DA
330
C9
100
AcDbEntity
  8
Screw
 62
     7
370
     9
100
AcDbLine
 10
-0.0600000000015371
 20
0.0
 30
0.0
 11
-0.0600000000014234
 21
-0.0164741038203147
 31
0.0
  0
LINE
  5
DB
330
C9
100
AcDbEntity
  8
Screw
 62
     7
370
     9
100
AcDbLine
 10
-0.0600000000014234
 20
-0.1082442409339137
 30
0.0
 11
-0.0600000000014234
 21
-0.1480528538203316
 31
0.0
  0
LINE
  5
DC
330
C9
100
AcDbEntity
  8
Screw
 62
     7
370
     9
100
AcDbLine
 10
0.0599999999986949
 20
-0.0794886200732208
 30
0.0
 11
0.0599999999986949
 21
-0.1192972329596387
 31
0.0
  0
LINE
  5
DD
330
C9
100
AcDbEntity
  8
Screw
 62
     7
370
     9
100
AcDbLine
 10
-0.0825000000013461
 20
-0.2268326098771922
 30
0.0
 11
-0.0600000000014234
 21
-0.2138422288205675
 31
0.0
  0
LINE
  5
DE
330
C9
100
AcDbEntity
  8
Screw
 62
     7
370
     9
100
AcDbLine
 10
-0.0825000000013461
 20
-0.2268326098774196
 30
0.0
 11
-0.0600000000014234
 21
-0.2398229909340443
 31
0.0
  0
LINE
  5
DF
330
C9
100
AcDbEntity
  8
Screw
 62
     7
370
     9
100
AcDbLine
 10
-0.0825000000013461
 20
-0.1610432348772974
 30
0.0
 11
-0.0600000000014234
 21
-0.1740336159341496
 31
0.0
  0
LINE
  5
E0
330
C9
100
AcDbEntity
  8
Screw
 62
     7
370
     9
100
AcDbLine
 10
-0.0825000000013461
 20
-0.1610432348772974
 30
0.0
 11
-0.0600000000014234
 21
-0.148052853820559
 31
0.0
  0
LINE
  5
E1
330
C9
100
AcDbEntity
  8
Screw
 62
     7
370
     9
100
AcDbLine
 10
-0.0600000000014234
 20
-0.2398229909339307
 30
0.0
 11
-0.0600000000014234
 21
-0.2796316038203486
 31
0.0
  0
LINE
  5
E2
330
C9
100
AcDbEntity
  8
Screw
 62
     7
370
     9
100
AcDbLine
 10
-0.0600000000014234
 20
-0.1740336159338085
 30
0.0
 11
-0.0600000000014234
 21
-0.2138422288204538
 31
0.0
  0
LINE
  5
E3
330
C9
100
AcDbEntity
  8
Screw
 62
     7
370
     9
100
AcDbLine
 10
0.0599999999986949
 20
-0.1452779950731156
 30
0.0
 11
0.0599999999986949
 21
-0.1850866079597608
 31
0.0
  0
LINE
  5
E4
330
C9
100
AcDbEntity
  8
Screw
 62
     7
370
     9
100
AcDbLine
 10
0.0824999999986176
 20
-0.1322876140164908
 30
0.0
 11
0.0599999999986949
 21
-0.1452779950731156
 31
0.0
  0
LINE
  5
E5
330
C9
100
AcDbEntity
  8
Screw
 62
     7
370
     9
100
AcDbLine
 10
0.0599999999986949
 20
-0.2110673700732377
 30
0.0
 11
0.0599999999986949
 21
-0.2508759829596556
 31
0.0
  0
LINE
  5
E6
330
C9
100
AcDbEntity
  8
Screw
 62
     7
370
     9
100
AcDbLine
 10
0.0824999999986176
 20
-0.1980769890163856
 30
0.0
 11
0.0599999999986949
 21
-0.2110673700732377
 31
0.0
  0
LINE
  5
E7
330
C9
100
AcDbEntity
  8
Screw
 62
     7
370
     9
100
AcDbLine
 10
0.0824999999986176
 20
-0.1980769890163856
 30
0.0
 11
0.0599999999986949
 21
-0.1850866079597608
 31
0.0
  0
LINE
  5
E8
330
C9
100
AcDbEntity
  8
Screw
 62
     7
370
     9
100
AcDbLine
 10
0.0824999999986176
 20
-0.1322876140164908
 30
0.0
 11
-0.0825000000014598
 21
-0.1610432348772974
 31
0.0
  0
LINE
  5
E9
330
C9
100
AcDbEntity
  8
Screw
 62
     7
370
     9
100
AcDbLine
 10
0.0824999999986176
 20
-0.1980769890163856
 30
0.0
 11
-0.0825000000014598
 21
-0.2268326098773059
 31
0.0
  0
LINE
  5
EA
330
C9
100
AcDbEntity
  8
Screw
 62
     7
370
     9
100
AcDbLine
 10
0.0824999999986176
 20
-0.1322876140164908
 30
0.0
 11
0.0599999999986949
 21
-0.1192972329597524
 31
0.0
  0
LINE
  5
EB
330
C9
100
AcDbEntity
  8
Screw
 62
     7
370
     9
100
AcDbLine
 10
-0.0600000000014234
 20
-0.3056123659338255
 30
0.0
 11
-0.0600000000014234
 21
-0.3454209788204707
 31
0.0
  0
LINE
  5
EC
330
C9
100
AcDbEntity
  8
Screw
 62
     7
370
     9
100
AcDbLine
 10
-0.0600000000014234
 20
-0.3714017409339476
 30
0.0
 11
-0.0600000000014234
 21
-0.4112103538203656
 31
0.0
  0
LINE
  5
ED
330
C9
100
AcDbEntity
  8
Screw
 62
     7
370
     9
100
AcDbLine
 10
-0.0600000000014234
 20
-0.4371911159340698
 30
0.0
 11
-0.0600000000014234
 21
-0.4865652155517637
 31
0.0
  0
LINE
  5
EE
330
C9
100
AcDbEntity
  8
Screw
 62
     7
370
     9
100
AcDbLine
 10
-0.0825000000013461
 20
-0.2926219848773144
 30
0.0
 11
-0.0600000000014234
 21
-0.2796316038205759
 31
0.0
  0
LINE
  5
EF
330
C9
100
AcDbEntity
  8
Screw
 62
     7
370
     9
100
AcDbLine
 10
-0.0825000000013461
 20
-0.2926219848773144
 30
0.0
 11
-0.0600000000014234
 21
-0.3056123659341665
 31
0.0
  0
LINE
  5
F0
330
C9
100
AcDbEntity
  8
Screw
 62
     7
370
     9
100
AcDbLine
 10
-0.0825000000013461
 20
-0.4242007348773314
 30
0.0
 11
-0.0600000000014234
 21
-0.4371911159340698
 31
0.0
  0
LINE
  5
F1
330
C9
100
AcDbEntity
  8
Screw
 62
     7
370
     9
100
AcDbLine
 10
-0.0825000000013461
 20
-0.4242007348773314
 30
0.0
 11
-0.0600000000014234
 21
-0.4112103538204793
 31
0.0
  0
LINE
  5
F2
330
C9
100
AcDbEntity
  8
Screw
 62
     7
370
     9
100
AcDbLine
 10
-0.0825000000013461
 20
-0.3584113598774365
 30
0.0
 11
-0.0600000000014234
 21
-0.3714017409340613
 31
0.0
  0
LINE
  5
F3
330
C9
100
AcDbEntity
  8
Screw
 62
     7
370
     9
100
AcDbLine
 10
-0.0825000000013461
 20
-0.3584113598772092
 30
0.0
 11
-0.0600000000014234
 21
-0.3454209788205844
 31
0.0
  0
LINE
  5
F4
330
C9
100
AcDbEntity
  8
Screw
 62
     7
370
     9
100
AcDbLine
 10
0.0599999999986949
 20
-0.4084354950732632
 30
0.0
 11
0.0599999999986949
 21
-0.4482441079596811
 31
0.0
  0
LINE
  5
F5
330
C9
100
AcDbEntity
  8
Screw
 62
     7
370
     9
100
AcDbLine
 10
0.0824999999986176
 20
-0.4612344890165332
 30
0.0
 11
0.0599999999985812
 21
-0.4482441079596811
 31
0.0
  0
LINE
  5
F6
330
C9
100
AcDbEntity
  8
Screw
 62
     7
370
     9
100
AcDbLine
 10
0.0824999999986176
 20
-0.2638663640165078
 30
0.0
 11
0.0599999999986949
 21
-0.2508759829597693
 31
0.0
  0
LINE
  5
F7
330
C9
100
AcDbEntity
  8
Screw
 62
     7
370
     9
100
AcDbLine
 10
0.0824999999986176
 20
-0.3296557390164025
 30
0.0
 11
-0.0825000000014598
 21
-0.3584113598773229
 31
0.0
  0
LINE
  5
F8
330
C9
100
AcDbEntity
  8
Screw
 62
     7
370
     9
100
AcDbLine
 10
0.0824999999986176
 20
-0.3954451140165247
 30
0.0
 11
-0.0825000000014598
 21
-0.4242007348773314
 31
0.0
  0
LINE
  5
F9
330
C9
100
AcDbEntity
  8
Screw
 62
     7
370
     9
100
AcDbLine
 10
0.0824999999986176
 20
-0.2638663640165078
 30
0.0
 11
-0.0825000000014598
 21
-0.2926219848773144
 31
0.0
  0
LINE
  5
FA
330
C9
100
AcDbEntity
  8
Screw
 62
     7
370
     9
100
AcDbLine
 10
0.0824999999986176
 20
-0.3296557390164025
 30
0.0
 11
0.0599999999986949
 21
-0.3166653579597778
 31
0.0
  0
LINE
  5
FB
330
C9
100
AcDbEntity
  8
Screw
 62
     7
370
     9
100
AcDbLine
 10
0.0824999999986176
 20
-0.3296557390164025
 30
0.0
 11
0.0599999999986949
 21
-0.3426461200732547
 31
0.0
  0
LINE
  5
FC
330
C9
100
AcDbEntity
  8
Screw
 62
     7
370
     9
100
AcDbLine
 10
0.0824999999986176
 20
-0.3954451140165247
 30
0.0
 11
0.0599999999985812
 21
-0.3824547329596726
 31
0.0
  0
LINE
  5
FD
330
C9
100
AcDbEntity
  8
Screw
 62
     7
370
     9
100
AcDbLine
 10
0.0824999999986176
 20
-0.3954451140165247
 30
0.0
 11
0.0599999999986949
 21
-0.4084354950732632
 31
0.0
  0
LINE
  5
FE
330
C9
100
AcDbEntity
  8
Screw
 62
     7
370
     9
100
AcDbLine
 10
0.0599999999986949
 20
-0.3426461200732547
 30
0.0
 11
0.0599999999986949
 21
-0.3824547329596726
 31
0.0
  0
LINE
  5
FF
330
C9
100
AcDbEntity
  8
Screw
 62
     7
370
     9
100
AcDbLine
 10
0.0824999999986176
 20
-0.2638663640165078
 30
0.0
 11
0.0599999999986949
 21
-0.2768567450731325
 31
0.0
  0
LINE
  5
100
330
C9
100
AcDbEntity
  8
Screw
 62
     7
370
     9
100
AcDbLine
 10
0.0599999999986949
 20
-0.2768567450731325
 30
0.0
 11
0.0599999999986949
 21
-0.3166653579597778
 31
0.0
  0
LINE
  5
101
330
C9
100
AcDbEntity
  8
Screw
 62
     7
370
     9
100
AcDbLine
 10
-0.0000000000007958
 20
-0.6249999999979537
 30
0.0
 11
0.022931124344268
 21
-0.569639368603248
 31
0.0
  0
LINE
  5
102
330
C9
100
AcDbEntity
  8
Screw
 62
     7
370
     9
100
AcDbLine
 10
0.0824999999985039
 20
-0.4612344890164195
 30
0.0
 11
0.0684796239820571
 21
-0.4531398211491933
 31
0.0
  0
LINE
  5
103
330
C9
100
AcDbEntity
  8
Screw
 62
     7
370
     9
100
AcDbLine
 10
0.0824999999985039
 20
-0.4612344890164195
 30
0.0
 11
0.0632241464038543
 21
-0.4723634082780564
 31
0.0
  0
LINE
  5
104
330
C9
100
AcDbEntity
  8
Screw
 62
     7
370
     9
100
AcDbLine
 10
0.0550146141443975
 20
-0.5253624430695254
 30
0.0
 11
0.0439236020390581
 21
-0.5189590442449799
 31
0.0
  0
LINE
  5
105
330
C9
100
AcDbEntity
  8
Screw
 62
     7
370
     9
100
AcDbLine
 10
0.0550146141443975
 20
-0.5253624430695254
 30
0.0
 11
0.0369515003607148
 21
-0.5357911866749419
 31
0.0
  0
LINE
  5
106
330
C9
100
AcDbEntity
  8
Screw
 62
     7
370
     9
100
AcDbLine
 10
0.0578546239827347
 20
-0.4853265821307105
 30
0.0
 11
0.063224146403968
 21
-0.4723634082781701
 31
0.0
  0
LINE
  5
107
330
C9
100
AcDbEntity
  8
Screw
 62
     7
370
     9
100
AcDbLine
 10
0.0299032260226113
 20
-0.552807226173286
 30
0.0
 11
0.0369515003607148
 21
-0.5357911866749419
 31
0.0
  0
LINE
  5
108
330
C9
100
AcDbEntity
  8
Screw
 62
     7
370
     9
100
AcDbLine
 10
-0.0299032260243166
 20
-0.552807226173286
 30
0.0
 11
-0.049041047168771
 21
-0.5066044388121327
 31
0.0
  0
LINE
  5
109
330
C9
100
AcDbEntity
  8
Screw
 62
     7
370
     9
100
AcDbLine
 10
-0.0409942381297697
 20
-0.5592106249979452
 30
0.0
 11
-0.022931124346087
 21
-0.569639368603248
 31
0.0
  0
LINE
  5
10A
330
C9
100
AcDbEntity
  8
Screw
 62
     7
370
     9
100
AcDbLine
 10
-0.0409942381297697
 20
-0.5592106249979452
 30
0.0
 11
-0.0299032260243166
 21
-0.552807226173286
 31
0.0
  0
LINE
  5
10B
330
C9
100
AcDbEntity
  8
Screw
 62
     7
370
     9
100
AcDbLine
 10
-0.0718750000008868
 20
-0.4934212499979367
 30
0.0
 11
-0.049041047168771
 21
-0.5066044388121327
 31
0.0
  0
LINE
  5
10C
330
C9
100
AcDbEntity
  8
Screw
 62
     7
370
     9
100
AcDbLine
 10
-0.0718750000008868
 20
-0.493421249997823
 30
0.0
 11
-0.0600000000015371
 21
-0.48656521555165
 31
0.0
  0
LINE
  5
10D
330
C9
100
AcDbEntity
  8
Screw
 62
     7
370
     9
100
AcDbLine
 10
-0.0000000000007958
 20
-0.6249999999979537
 30
0.0
 11
-0.022931124346087
 21
-0.569639368603248
 31
0.0
  0
LINE
  5
10E
330
C9
100
AcDbEntity
  8
Screw
 62
     7
370
     9
100
AcDbLine
 10
0.0578546239827347
 20
-0.4853265821307105
 30
0.0
 11
0.0490410471670657
 21
-0.5066044388121327
 31
0.0
  0
LINE
  5
10F
330
C9
100
AcDbEntity
  8
Screw
 62
     7
370
     9
100
AcDbLine
 10
0.0299032260226113
 20
-0.552807226173286
 30
0.0
 11
0.022931124344268
 21
-0.569639368603248
 31
0.0
  0
LINE
  5
110
330
C9
100
AcDbEntity
  8
Screw
 62
     7
370
     9
100
AcDbLine
 10
0.0439236020390581
 20
-0.5189590442449799
 30
0.0
 11
0.0490410471670657
 21
-0.5066044388121327
 31
0.0
  0
LINE
  5
111
330
C9
100
AcDbEntity
  8
Screw
 62
     7
370
     9
100
AcDbLine
 10
0.0824999999987313
 20
-0.4612344890164195
 30
0.0
 11
-0.0718750000008868
 21
-0.493421249997823
 31
0.0
  0
LINE
  5
112
330
C9
100
AcDbEntity
  8
Screw
 62
     7
370
     9
100
AcDbLine
 10
0.0550146141443975
 20
-0.5253624430695254
 30
0.0
 11
-0.0409942381297697
 21
-0.5592106249979452
 31
0.0
  0
LINE
  5
113
330
C9
100
AcDbEntity
  8
Screw
 62
     7
370
     9
100
AcDbLine
 10
-0.1450000000420459
 20
-0.0000000000001137
 30
0.0
 11
0.1449999999986176
 21
0.0000000000001137
 31
0.0
  0
LINE
  5
114
330
C9
100
AcDbEntity
  8
Screw
 62
     7
370
     9
100
AcDbLine
 10
-0.1450000000385216
 20
0.0500000000004093
 30
0.0
 11
0.1449999999986176
 21
0.050000000000523
 31
0.0
  0
ARC
  5
115
330
C9
100
AcDbEntity
  8
Screw
 62
     7
370
     9
100
AcDbCircle
 10
0.1449999999986176
 20
0.0100000000001046
 30
0.0
 40
0.01
100
AcDbArc
 50
270.0
 51
0.0
  0
ARC
  5
116
330
C9
100
AcDbEntity
  8
Screw
 62
     7
370
     9
100
AcDbCircle
 10
-0.1450000000420459
 20
0.0099999999998772
 30
0.0
 40
0.01
100
AcDbArc
 50
179.9999999934667
 51
270.0
  0
LINE
  5
117
330
C9
100
AcDbEntity
  8
Screw
 62
     7
370
     9
100
AcDbLine
 10
-0.0570000000392383
 20
0.1000000000004775
 30
0.0
 11
0.0569999999995616
 21
0.1000000000003638
 31
0.0
  0
ARC
  5
118
330
C9
100
AcDbEntity
  8
Screw
 62
     7
370
     9
100
AcDbCircle
 10
0.1449999999986176
 20
0.0400000000003047
 30
0.0
 40
0.01
100
AcDbArc
 50
0.0
 51
90.0
  0
ARC
  5
119
330
C9
100
AcDbEntity
  8
Screw
 62
     7
370
     9
100
AcDbCircle
 10
-0.1450000000385216
 20
0.040000000000191
 30
0.0
 40
0.01
100
AcDbArc
 50
90.0
 51
179.9999999934862
  0
ARC
  5
11A
330
C9
100
AcDbEntity
  8
Screw
 62
     7
370
     9
100
AcDbCircle
 10
-0.0000000000198952
 20
-0.1142505253642412
 30
0.0
 40
0.2217031520327291
100
AcDbArc
 50
46.77058113432305
 51
75.10191228261263
  0
ARC
  5
11B
330
C9
100
AcDbEntity
  8
Screw
 62
     7
370
     9
100
AcDbCircle
 10
-0.0000000000198952
 20
-0.1142505253642412
 30
0.0
 40
0.2217031520327291
100
AcDbArc
 50
104.8980877173874
 51
133.2294188657414
  0
ENDBLK
  5
11C
330
C9
100
AcDbEntity
  8
0
 62
     5
100
AcDbBlockEnd
  0
BLOCK
  5
2A6
330
2A5
100
AcDbEntity
  8
0
100
AcDbBlockBegin
  2
*D3
 70
     1
 10
0.0
 20
0.0
 30
0.0
  3
*D3
  1

  0
LINE
  5
2A7
330
2A5
100
AcDbEntity
  8
0
 62
     0
370
    -2
100
AcDbLine
 10
42.25573684452831
 20
32.5289796032128
 30
0.0
 11
42.25573684452831
 21
33.67586501364389
 31
0.0
  0
LINE
  5
2A8
330
2A5
100
AcDbEntity
  8
0
 62
     0
370
    -2
100
AcDbLine
 10
37.75523684452827
 20
33.29497960321282
 30
0.0
 11
37.75523684452827
 21
33.67586501364389
 31
0.0
  0
LINE
  5
2A9
330
2A5
100
AcDbEntity
  8
0
 62
     0
370
    -2
100
AcDbLine
 10
42.25573684452831
 20
33.64586501364389
 30
0.0
 11
40.51674615353514
 21
33.64586501364389
 31
0.0
  0
LINE
  5
2AA
330
2A5
100
AcDbEntity
  8
0
 62
     0
370
    -2
100
AcDbLine
 10
37.75523684452827
 20
33.64586501364389
 30
0.0
 11
39.49422753552145
 21
33.64586501364389
 31
0.0
  0
INSERT
  5
2AB
330
2A5
100
AcDbEntity
  8
0
 62
     0
370
    -2
100
AcDbBlockReference
  2
_ArchTick
 10
42.25573684452831
 20
33.64586501364389
 30
0.0
 41
0.156
 42
0.156
 43
0.156
  0
INSERT
  5
2AC
330
2A5
100
AcDbEntity
  8
0
 62
     0
370
    -2
100
AcDbBlockReference
  2
_ArchTick
 10
37.75523684452827
 20
33.64586501364389
 30
0.0
 41
0.156
 42
0.156
 43
0.156
 50
180.0
  0
MTEXT
  5
2AD
330
2A5
100
AcDbEntity
  8
0
 62
     0
100
AcDbMText
 10
40.00548684452829
 20
33.84820949918525
 30
0.0
 40
0.3125
 41
0.0
 71
     5
 72
     1
  1
\A1;4 1/2"
 73
     1
 44
1.0
1001
ACAD
1000
MTEXTBEGIN
1070
    73
1070
     1
1070
    44
1040
1.0
1070
    74
1070
     0
1000
MTEXTEND
  0
MTEXT
  5
2AE
330
2A5
100
AcDbEntity
  8
0
 62
     0
100
AcDbMText
 10
40.00548684452829
 20
33.42597261283689
 30
0.0
 40
0.3125
 41
0.0
 71
     5
 72
     1
  1
\A1;[114mm]
 73
     1
 44
1.0
1001
ACAD
1000
MTEXTBEGIN
1070
    73
1070
     1
1070
    44
1040
1.0
1070
    74
1070
     0
1000
MTEXTEND
  0
POINT
  5
2AF
330
2A5
100
AcDbEntity
  8
Defpoints
 62
     0
100
AcDbPoint
 10
42.25573684452831
 20
32.4889796032128
 30
0.0
  0
POINT
  5
2B1
330
2A5
100
AcDbEntity
  8
Defpoints
 62
     0
100
AcDbPoint
 10
37.75523684452827
 20
33.25497960321282
 30
0.0
  0
POINT
  5
2B2
330
2A5
100
AcDbEntity
  8
Defpoints
 62
     0
100
AcDbPoint
 10
37.75523684452827
 20
33.64586501364389
 30
0.0
  0
ENDBLK
  5
2B3
330
2A5
100
AcDbEntity
  8
0
100
AcDbBlockEnd
  0
BLOCK
  5
2B8
330
2B7
100
AcDbEntity
  8
0
100
AcDbBlockBegin
  2
*D4
 70
     1
 10
0.0
 20
0.0
 30
0.0
  3
*D4
  1

  0
LINE
  5
2B9
330
2B7
100
AcDbEntity
  8
0
 62
     0
370
    -2
100
AcDbLine
 10
41.12223684452831
 20
31.80097407070745
 30
0.0
 11
40.90573085421965
 21
31.80097407070745
 31
0.0
  0
LINE
  5
2BA
330
2B7
100
AcDbEntity
  8
0
 62
     0
370
    -2
100
AcDbLine
 10
41.12223684452831
 20
32.4889796032128
 30
0.0
 11
40.90573085421965
 21
32.4889796032128
 31
0.0
  0
LINE
  5
2BB
330
2B7
100
AcDbEntity
  8
0
 62
     0
370
    -2
100
AcDbLine
 10
40.93573085421965
 20
31.80097407070745
 30
0.0
 11
40.93573085421965
 21
32.4889796032128
 31
0.0
  0
LINE
  5
2BC
330
2B7
100
AcDbEntity
  8
0
 62
     0
370
    -2
100
AcDbLine
 10
40.93573085421965
 20
32.4889796032128
 30
0.0
 11
40.93573085421965
 21
32.99251381326519
 31
0.0
  0
LINE
  5
2BD
330
2B7
100
AcDbEntity
  8
0
 62
     0
370
    -2
100
AcDbLine
 10
40.93573085421965
 20
32.99251381326519
 30
0.0
 11
41.09173085421965
 21
32.99251381326519
 31
0.0
  0
INSERT
  5
2BE
330
2B7
100
AcDbEntity
  8
0
 62
     0
370
    -2
100
AcDbBlockReference
  2
_ArchTick
 10
40.93573085421965
 20
31.80097407070745
 30
0.0
 41
0.156
 42
0.156
 43
0.156
 50
270.0
  0
INSERT
  5
2BF
330
2B7
100
AcDbEntity
  8
0
 62
     0
370
    -2
100
AcDbBlockReference
  2
_ArchTick
 10
40.93573085421965
 20
32.4889796032128
 30
0.0
 41
0.156
 42
0.156
 43
0.156
 50
90.0
  0
MTEXT
  5
2C0
330
2B7
100
AcDbEntity
  8
0
 62
     0
100
AcDbMText
 10
41.62225630736794
 20
32.99251381326519
 30
0.0
 40
0.3125
 41
0.0
 71
     5
 72
     1
  1
\A1;11/16"\P [17mm]
 73
     1
 44
1.0
1001
ACAD
1000
MTEXTBEGIN
1070
    73
1070
     1
1070
    44
1040
1.0
1070
    74
1070
     0
1000
MTEXTEND
  0
POINT
  5
2C1
330
2B7
100
AcDbEntity
  8
Defpoints
 62
     0
100
AcDbPoint
 10
41.16223684452831
 20
31.80097407070745
 30
0.0
  0
POINT
  5
2C2
330
2B7
100
AcDbEntity
  8
Defpoints
 62
     0
100
AcDbPoint
 10
41.16223684452831
 20
32.4889796032128
 30
0.0
  0
POINT
  5
2C3
330
2B7
100
AcDbEntity
  8
Defpoints
 62
     0
100
AcDbPoint
 10
40.93573085421965
 20
32.4889796032128
 30
0.0
  0
ENDBLK
  5
2C4
330
2B7
100
AcDbEntity
  8
0
100
AcDbBlockEnd
  0
BLOCK
  5
2C9
330
2C8
100
AcDbEntity
  8
0
100
AcDbBlockBegin
  2
*D5
 70
     1
 10
0.0
 20
0.0
 30
0.0
  3
*D5
  1

  0
LINE
  5
2CA
330
2C8
100
AcDbEntity
  8
0
 62
     0
370
    -2
100
AcDbLine
 10
38.88867957159628
 20
32.4889796032128
 30
0.0
 11
39.01976475527149
 21
32.4889796032128
 31
0.0
  0
LINE
  5
2CB
330
2C8
100
AcDbEntity
  8
0
 62
     0
370
    -2
100
AcDbLine
 10
38.88867645483382
 20
31.300971739055
 30
0.0
 11
39.01976475527149
 21
31.300971739055
 31
0.0
  0
LINE
  5
2CC
330
2C8
100
AcDbEntity
  8
0
 62
     0
370
    -2
100
AcDbLine
 10
38.98976475527149
 20
32.4889796032128
 30
0.0
 11
38.98976475527149
 21
32.31721255748225
 31
0.0
  0
LINE
  5
2CD
330
2C8
100
AcDbEntity
  8
0
 62
     0
370
    -2
100
AcDbLine
 10
38.98976475527149
 20
31.300971739055
 30
0.0
 11
38.98976475527149
 21
31.47273878478555
 31
0.0
  0
INSERT
  5
2CE
330
2C8
100
AcDbEntity
  8
0
 62
     0
370
    -2
100
AcDbBlockReference
  2
_ArchTick
 10
38.98976475527149
 20
32.4889796032128
 30
0.0
 41
0.156
 42
0.156
 43
0.156
 50
90.0
  0
INSERT
  5
2CF
330
2C8
100
AcDbEntity
  8
0
 62
     0
370
    -2
100
AcDbBlockReference
  2
_ArchTick
 10
38.98976475527149
 20
31.300971739055
 30
0.0
 41
0.156
 42
0.156
 43
0.156
 50
270.0
  0
MTEXT
  5
2D0
330
2C8
100
AcDbEntity
  8
0
 62
     0
100
AcDbMText
 10
38.98976475527149
 20
32.09732015667526
 30
0.0
 40
0.3125
 41
0.0
 71
     5
 72
     1
  1
\A1;1 3/16"
 73
     1
 44
1.0
1001
ACAD
1000
MTEXTBEGIN
1070
    73
1070
     1
1070
    44
1040
1.0
1070
    74
1070
     0
1000
MTEXTEND
  0
MTEXT
  5
2D1
330
2C8
100
AcDbEntity
  8
0
 62
     0
100
AcDbMText
 10
38.98976475527149
 20
31.67508327032691
 30
0.0
 40
0.3125
 41
0.0
 71
     5
 72
     1
  1
\A1;[30mm]
 73
     1
 44
1.0
1001
ACAD
1000
MTEXTBEGIN
1070
    73
1070
     1
1070
    44
1040
1.0
1070
    74
1070
     0
1000
MTEXTEND
  0
POINT
  5
2D2
330
2C8
100
AcDbEntity
  8
Defpoints
 62
     0
100
AcDbPoint
 10
38.84867957159628
 20
32.4889796032128
 30
0.0
  0
POINT
  5
2D3
330
2C8
100
AcDbEntity
  8
Defpoints
 62
     0
100
AcDbPoint
 10
38.84867645483382
 20
31.300971739055
 30
0.0
  0
POINT
  5
2D4
330
2C8
100
AcDbEntity
  8
Defpoints
 62
     0
100
AcDbPoint
 10
38.98976475527149
 20
31.300971739055
 30
0.0
  0
ENDBLK
  5
2D5
330
2C8
100
AcDbEntity
  8
0
100
AcDbBlockEnd
  0
BLOCK
  5
2DA
330
2D9
100
AcDbEntity
  8
0
100
AcDbBlockBegin
  2
*D6
 70
     1
 10
0.0
 20
0.0
 30
0.0
  3
*D6
  1

  0
LINE
  5
2DB
330
2D9
100
AcDbEntity
  8
0
 62
     0
370
    -2
100
AcDbLine
 10
42.23373684452834
 20
31.67597407070746
 30
0.0
 11
43.51113092166881
 21
31.67597407070746
 31
0.0
  0
LINE
  5
2DC
330
2D9
100
AcDbEntity
  8
0
 62
     0
370
    -2
100
AcDbLine
 10
42.01569789741004
 20
27.08397407070744
 30
0.0
 11
43.51113092166881
 21
27.08397407070744
 31
0.0
  0
LINE
  5
2DD
330
2D9
100
AcDbEntity
  8
0
 62
     0
370
    -2
100
AcDbLine
 10
43.4811309216688
 20
31.67597407070746
 30
0.0
 11
43.4811309216688
 21
29.8022109570558
 31
0.0
  0
LINE
  5
2DE
330
2D9
100
AcDbEntity
  8
0
 62
     0
370
    -2
100
AcDbLine
 10
43.4811309216688
 20
27.08397407070744
 30
0.0
 11
43.4811309216688
 21
28.9577371843591
 31
0.0
  0
INSERT
  5
2DF
330
2D9
100
AcDbEntity
  8
0
 62
     0
370
    -2
100
AcDbBlockReference
  2
_ArchTick
 10
43.4811309216688
 20
31.67597407070746
 30
0.0
 41
0.156
 42
0.156
 43
0.156
 50
90.0
  0
INSERT
  5
2E0
330
2D9
100
AcDbEntity
  8
0
 62
     0
370
    -2
100
AcDbBlockReference
  2
_ArchTick
 10
43.4811309216688
 20
27.08397407070744
 30
0.0
 41
0.156
 42
0.156
 43
0.156
 50
270.0
  0
MTEXT
  5
2E1
330
2D9
100
AcDbEntity
  8
0
 62
     0
100
AcDbMText
 10
43.4811309216688
 20
29.58231855624882
 30
0.0
 40
0.3125
 41
0.0
 71
     5
 72
     1
  1
\A1;4 19/32"
 73
     1
 44
1.0
1001
ACAD
1000
MTEXTBEGIN
1070
    73
1070
     1
1070
    44
1040
1.0
1070
    74
1070
     0
1000
MTEXTEND
  0
MTEXT
  5
2E2
330
2D9
100
AcDbEntity
  8
0
 62
     0
100
AcDbMText
 10
43.4811309216688
 20
29.16008166990046
 30
0.0
 40
0.3125
 41
0.0
 71
     5
 72
     1
  1
\A1;[117mm]
 73
     1
 44
1.0
1001
ACAD
1000
MTEXTBEGIN
1070
    73
1070
     1
1070
    44
1040
1.0
1070
    74
1070
     0
1000
MTEXTEND
  0
POINT
  5
2E3
330
2D9
100
AcDbEntity
  8
Defpoints
 62
     0
100
AcDbPoint
 10
42.19373684452834
 20
31.67597407070746
 30
0.0
  0
POINT
  5
2E4
330
2D9
100
AcDbEntity
  8
Defpoints
 62
     0
100
AcDbPoint
 10
41.97569789741004
 20
27.08397407070744
 30
0.0
  0
POINT
  5
2E5
330
2D9
100
AcDbEntity
  8
Defpoints
 62
     0
100
AcDbPoint
 10
43.4811309216688
 20
27.08397407070744
 30
0.0
  0
ENDBLK
  5
2E6
330
2D9
100
AcDbEntity
  8
0
100
AcDbBlockEnd
  0
BLOCK
  5
2EB
330
2EA
100
AcDbEntity
  8
0
100
AcDbBlockBegin
  2
*D7
 70
     1
 10
0.0
 20
0.0
 30
0.0
  3
*D7
  1

  0
LINE
  5
2EC
330
2EA
100
AcDbEntity
  8
0
 62
     0
370
    -2
100
AcDbLine
 10
42.01569789741004
 20
25.70810194887606
 30
0.0
 11
43.51113092166881
 21
25.70810194887606
 31
0.0
  0
LINE
  5
2ED
330
2EA
100
AcDbEntity
  8
0
 62
     0
370
    -2
100
AcDbLine
 10
42.29576901527273
 20
18.33310194887606
 30
0.0
 11
43.51113092166881
 21
18.33310194887606
 31
0.0
  0
LINE
  5
2EE
330
2EA
100
AcDbEntity
  8
0
 62
     0
370
    -2
100
AcDbLine
 10
43.4811309216688
 20
25.70810194887606
 30
0.0
 11
43.4811309216688
 21
22.44283883522442
 31
0.0
  0
LINE
  5
2EF
330
2EA
100
AcDbEntity
  8
0
 62
     0
370
    -2
100
AcDbLine
 10
43.4811309216688
 20
18.33310194887606
 30
0.0
 11
43.4811309216688
 21
21.59836506252771
 31
0.0
  0
INSERT
  5
2F0
330
2EA
100
AcDbEntity
  8
0
 62
     0
370
    -2
100
AcDbBlockReference
  2
_ArchTick
 10
43.4811309216688
 20
25.70810194887606
 30
0.0
 41
0.156
 42
0.156
 43
0.156
 50
90.0
  0
INSERT
  5
2F1
330
2EA
100
AcDbEntity
  8
0
 62
     0
370
    -2
100
AcDbBlockReference
  2
_ArchTick
 10
43.4811309216688
 20
18.33310194887606
 30
0.0
 41
0.156
 42
0.156
 43
0.156
 50
270.0
  0
MTEXT
  5
2F2
330
2EA
100
AcDbEntity
  8
0
 62
     0
100
AcDbMText
 10
43.4811309216688
 20
22.22294643441743
 30
0.0
 40
0.3125
 41
0.0
 71
     5
 72
     1
  1
\A1;7 3/8"
 73
     1
 44
1.0
1001
ACAD
1000
MTEXTBEGIN
1070
    73
1070
     1
1070
    44
1040
1.0
1070
    74
1070
     0
1000
MTEXTEND
  0
MTEXT
  5
2F3
330
2EA
100
AcDbEntity
  8
0
 62
     0
100
AcDbMText
 10
43.4811309216688
 20
21.80070954806907
 30
0.0
 40
0.3125
 41
0.0
 71
     5
 72
     1
  1
\A1;[187mm]
 73
     1
 44
1.0
1001
ACAD
1000
MTEXTBEGIN
1070
    73
1070
     1
1070
    44
1040
1.0
1070
    74
1070
     0
1000
MTEXTEND
  0
POINT
  5
2F4
330
2EA
100
AcDbEntity
  8
Defpoints
 62
     0
100
AcDbPoint
 10
41.97569789741004
 20
25.70810194887606
 30
0.0
  0
POINT
  5
2F5
330
2EA
100
AcDbEntity
  8
Defpoints
 62
     0
100
AcDbPoint
 10
42.25576901527273
 20
18.33310194887606
 30
0.0
  0
POINT
  5
2F6
330
2EA
100
AcDbEntity
  8
Defpoints
 62
     0
100
AcDbPoint
 10
43.4811309216688
 20
18.33310194887606
 30
0.0
  0
ENDBLK
  5
2F7
330
2EA
100
AcDbEntity
  8
0
100
AcDbBlockEnd
  0
BLOCK
  5
2FC
330
2FB
100
AcDbEntity
  8
0
100
AcDbBlockBegin
  2
*D8
 70
     1
 10
0.0
 20
0.0
 30
0.0
  3
*D8
  1

  0
LINE
  5
2FD
330
2FB
100
AcDbEntity
  8
0
 62
     0
370
    -2
100
AcDbLine
 10
42.29573684452831
 20
18.33310194887606
 30
0.0
 11
43.51113092166881
 21
18.33310194887606
 31
0.0
  0
LINE
  5
2FE
330
2FB
100
AcDbEntity
  8
0
 62
     0
370
    -2
100
AcDbLine
 10
42.54573684452837
 20
15.95810194888257
 30
0.0
 11
43.5111309216688
 21
15.95810194888257
 31
0.0
  0
LINE
  5
2FF
330
2FB
100
AcDbEntity
  8
0
 62
     0
370
    -2
100
AcDbLine
 10
43.4811309216688
 20
18.33310194887606
 30
0.0
 11
43.4811309216688
 21
17.56783883522767
 31
0.0
  0
LINE
  5
300
330
2FB
100
AcDbEntity
  8
0
 62
     0
370
    -2
100
AcDbLine
 10
43.4811309216688
 20
15.95810194888257
 30
0.0
 11
43.4811309216688
 21
16.72336506253096
 31
0.0
  0
INSERT
  5
301
330
2FB
100
AcDbEntity
  8
0
 62
     0
370
    -2
100
AcDbBlockReference
  2
_ArchTick
 10
43.4811309216688
 20
18.33310194887606
 30
0.0
 41
0.156
 42
0.156
 43
0.156
 50
90.0
  0
INSERT
  5
302
330
2FB
100
AcDbEntity
  8
0
 62
     0
370
    -2
100
AcDbBlockReference
  2
_ArchTick
 10
43.4811309216688
 20
15.95810194888257
 30
0.0
 41
0.156
 42
0.156
 43
0.156
 50
270.0
  0
MTEXT
  5
303
330
2FB
100
AcDbEntity
  8
0
 62
     0
100
AcDbMText
 10
43.4811309216688
 20
17.34794643442068
 30
0.0
 40
0.3125
 41
0.0
 71
     5
 72
     1
  1
\A1;2 3/8"
 73
     1
 44
1.0
1001
ACAD
1000
MTEXTBEGIN
1070
    73
1070
     1
1070
    44
1040
1.0
1070
    74
1070
     0
1000
MTEXTEND
  0
MTEXT
  5
304
330
2FB
100
AcDbEntity
  8
0
 62
     0
100
AcDbMText
 10
43.4811309216688
 20
16.92570954807233
 30
0.0
 40
0.3125
 41
0.0
 71
     5
 72
     1
  1
\A1;[60mm]
 73
     1
 44
1.0
1001
ACAD
1000
MTEXTBEGIN
1070
    73
1070
     1
1070
    44
1040
1.0
1070
    74
1070
     0
1000
MTEXTEND
  0
POINT
  5
305
330
2FB
100
AcDbEntity
  8
Defpoints
 62
     0
100
AcDbPoint
 10
42.25573684452831
 20
18.33310194887606
 30
0.0
  0
POINT
  5
306
330
2FB
100
AcDbEntity
  8
Defpoints
 62
     0
100
AcDbPoint
 10
42.50573684452837
 20
15.95810194888257
 30
0.0
  0
POINT
  5
307
330
2FB
100
AcDbEntity
  8
Defpoints
 62
     0
100
AcDbPoint
 10
43.4811309216688
 20
15.95810194888257
 30
0.0
  0
ENDBLK
  5
308
330
2FB
100
AcDbEntity
  8
0
100
AcDbBlockEnd
  0
BLOCK
  5
30B
330
30A
100
AcDbEntity
  8
0
100
AcDbBlockBegin
  2
*D9
 70
     1
 10
0.0
 20
0.0
 30
0.0
  3
*D9
  1

  0
LINE
  5
30C
330
30A
100
AcDbEntity
  8
0
 62
     0
370
    -2
100
AcDbLine
 10
42.54573684452837
 20
15.95810194888257
 30
0.0
 11
46.32826526955008
 21
15.95810194888257
 31
0.0
  0
LINE
  5
30D
330
30A
100
AcDbEntity
  8
0
 62
     0
370
    -2
100
AcDbLine
 10
42.29573684452831
 20
32.4889796032128
 30
0.0
 11
46.32826526955009
 21
32.4889796032128
 31
0.0
  0
LINE
  5
30E
330
30A
100
AcDbEntity
  8
0
 62
     0
370
    -2
100
AcDbLine
 10
46.29826526955008
 20
15.95810194888257
 30
0.0
 11
46.29826526955008
 21
24.02119629050632
 31
0.0
  0
LINE
  5
30F
330
30A
100
AcDbEntity
  8
0
 62
     0
370
    -2
100
AcDbLine
 10
46.29826526955008
 20
32.4889796032128
 30
0.0
 11
46.29826526955008
 21
24.42588526158904
 31
0.0
  0
INSERT
  5
310
330
30A
100
AcDbEntity
  8
0
 62
     0
370
    -2
100
AcDbBlockReference
  2
_ArchTick
 10
46.29826526955008
 20
15.95810194888257
 30
0.0
 41
0.156
 42
0.156
 43
0.156
 50
270.0
  0
INSERT
  5
311
330
30A
100
AcDbEntity
  8
0
 62
     0
370
    -2
100
AcDbBlockReference
  2
_ArchTick
 10
46.29826526955008
 20
32.4889796032128
 30
0.0
 41
0.156
 42
0.156
 43
0.156
 50
90.0
  0
MTEXT
  5
312
330
30A
100
AcDbEntity
  8
0
 62
     0
100
AcDbMText
 10
46.29826526955008
 20
24.22354077604769
 30
0.0
 40
0.3125
 41
0.0
 71
     5
 72
     1
  1
\A1;BOX
 73
     1
 44
1.0
1001
ACAD
1000
MTEXTBEGIN
1070
    73
1070
     1
1070
    44
1040
1.0
1070
    74
1070
     0
1000
MTEXTEND
  0
POINT
  5
313
330
30A
100
AcDbEntity
  8
Defpoints
 62
     0
100
AcDbPoint
 10
42.50573684452837
 20
15.95810194888257
 30
0.0
  0
POINT
  5
314
330
30A
100
AcDbEntity
  8
Defpoints
 62
     0
100
AcDbPoint
 10
42.25573684452831
 20
32.4889796032128
 30
0.0
  0
POINT
  5
315
330
30A
100
AcDbEntity
  8
Defpoints
 62
     0
100
AcDbPoint
 10
46.29826526955008
 20
32.4889796032128
 30
0.0
  0
ENDBLK
  5
316
330
30A
100
AcDbEntity
  8
0
100
AcDbBlockEnd
  0
BLOCK
  5
319
330
318
100
AcDbEntity
  8
0
100
AcDbBlockBegin
  2
*D10
 70
     1
 10
0.0
 20
0.0
 30
0.0
  3
*D10
  1

  0
LINE
  5
31A
330
318
100
AcDbEntity
  8
0
 62
     0
370
    -2
100
AcDbLine
 10
42.29573684452831
 20
32.4889796032128
 30
0.0
 11
46.32826526955009
 21
32.4889796032128
 31
0.0
  0
LINE
  5
31B
330
318
100
AcDbEntity
  8
0
 62
     0
370
    -2
100
AcDbLine
 10
42.29573684452831
 20
33.2389796032128
 30
0.0
 11
46.32826526955009
 21
33.2389796032128
 31
0.0
  0
LINE
  5
31C
330
318
100
AcDbEntity
  8
0
 62
     0
370
    -2
100
AcDbLine
 10
46.29826526955008
 20
32.4889796032128
 30
0.0
 11
46.29826526955008
 21
33.2389796032128
 31
0.0
  0
LINE
  5
31D
330
318
100
AcDbEntity
  8
0
 62
     0
370
    -2
100
AcDbLine
 10
46.29826526955008
 20
33.2389796032128
 30
0.0
 11
46.29826526955008
 21
33.80536949271578
 31
0.0
  0
LINE
  5
31E
330
318
100
AcDbEntity
  8
0
 62
     0
370
    -2
100
AcDbLine
 10
46.29826526955008
 20
33.80536949271578
 30
0.0
 11
46.45426526955009
 21
33.80536949271578
 31
0.0
  0
INSERT
  5
31F
330
318
100
AcDbEntity
  8
0
 62
     0
370
    -2
100
AcDbBlockReference
  2
_ArchTick
 10
46.29826526955008
 20
32.4889796032128
 30
0.0
 41
0.156
 42
0.156
 43
0.156
 50
270.0
  0
INSERT
  5
320
330
318
100
AcDbEntity
  8
0
 62
     0
370
    -2
100
AcDbBlockReference
  2
_ArchTick
 10
46.29826526955008
 20
33.2389796032128
 30
0.0
 41
0.156
 42
0.156
 43
0.156
 50
90.0
  0
MTEXT
  5
321
330
318
100
AcDbEntity
  8
0
 62
     0
100
AcDbMText
 10
46.98479072269837
 20
33.80536949271578
 30
0.0
 40
0.3125
 41
0.0
 71
     5
 72
     1
  1
\A1;3/4"\P [19mm]
 73
     1
 44
1.0
1001
ACAD
1000
MTEXTBEGIN
1070
    73
1070
     1
1070
    44
1040
1.0
1070
    74
1070
     0
1000
MTEXTEND
  0
POINT
  5
322
330
318
100
AcDbEntity
  8
Defpoints
 62
     0
100
AcDbPoint
 10
42.25573684452831
 20
32.4889796032128
 30
0.0
  0
POINT
  5
323
330
318
100
AcDbEntity
  8
Defpoints
 62
     0
100
AcDbPoint
 10
42.25573684452831
 20
33.2389796032128
 30
0.0
  0
POINT
  5
324
330
318
100
AcDbEntity
  8
Defpoints
 62
     0
100
AcDbPoint
 10
46.29826526955008
 20
33.2389796032128
 30
0.0
  0
ENDBLK
  5
325
330
318
100
AcDbEntity
  8
0
100
AcDbBlockEnd
  0
BLOCK
  5
328
330
327
100
AcDbEntity
  8
0
100
AcDbBlockBegin
  2
*D11
 70
     1
 10
0.0
 20
0.0
 30
0.0
  3
*D11
  1

  0
LINE
  5
329
330
327
100
AcDbEntity
  8
0
 62
     0
370
    -2
100
AcDbLine
 10
42.29573684452831
 20
33.2389796032128
 30
0.0
 11
47.57106656154505
 21
33.2389796032128
 31
0.0
  0
LINE
  5
32A
330
327
100
AcDbEntity
  8
0
 62
     0
370
    -2
100
AcDbLine
 10
42.54573684452837
 20
15.95810194888257
 30
0.0
 11
47.57106656154504
 21
15.95810194888257
 31
0.0
  0
LINE
  5
32B
330
327
100
AcDbEntity
  8
0
 62
     0
370
    -2
100
AcDbLine
 10
47.54106656154505
 20
33.2389796032128
 30
0.0
 11
47.54106656154505
 21
24.72420653348996
 31
0.0
  0
LINE
  5
32C
330
327
100
AcDbEntity
  8
0
 62
     0
370
    -2
100
AcDbLine
 10
47.54106656154504
 20
15.95810194888257
 30
0.0
 11
47.54106656154505
 21
23.79258974353255
 31
0.0
  0
INSERT
  5
32D
330
327
100
AcDbEntity
  8
0
 62
     0
370
    -2
100
AcDbBlockReference
  2
_ArchTick
 10
47.54106656154505
 20
33.2389796032128
 30
0.0
 41
0.156
 42
0.156
 43
0.156
 50
90.0
  0
INSERT
  5
32E
330
327
100
AcDbEntity
  8
0
 62
     0
370
    -2
100
AcDbBlockReference
  2
_ArchTick
 10
47.54106656154504
 20
15.95810194888257
 30
0.0
 41
0.156
 42
0.156
 43
0.156
 50
270.0
  0
MTEXT
  5
32F
330
327
100
AcDbEntity
  8
0
 62
     0
100
AcDbMText
 10
47.54106656154504
 20
24.25839813851126
 30
0.0
 40
0.3125
 41
0.0
 71
     5
 72
     1
  1
\A1;ROUGH\POPENING
 73
     1
 44
1.0
1001
ACAD
1000
MTEXTBEGIN
1070
    73
1070
     1
1070
    44
1040
1.0
1070
    74
1070
     0
1000
MTEXTEND
  0
POINT
  5
330
330
327
100
AcDbEntity
  8
Defpoints
 62
     0
100
AcDbPoint
 10
42.25573684452831
 20
33.2389796032128
 30
0.0
  0
POINT
  5
331
330
327
100
AcDbEntity
  8
Defpoints
 62
     0
100
AcDbPoint
 10
42.50573684452837
 20
15.95810194888257
 30
0.0
  0
POINT
  5
332
330
327
100
AcDbEntity
  8
Defpoints
 62
     0
100
AcDbPoint
 10
47.54106656154504
 20
15.95810194888257
 30
0.0
  0
ENDBLK
  5
333
330
327
100
AcDbEntity
  8
0
100
AcDbBlockEnd
  0
BLOCK
  5
336
330
335
100
AcDbEntity
  8
0
100
AcDbBlockBegin
  2
*D12
 70
     1
 10
0.0
 20
0.0
 30
0.0
  3
*D12
  1

  0
LINE
  5
337
330
335
100
AcDbEntity
  8
0
 62
     0
370
    -2
100
AcDbLine
 10
42.80341440953942
 20
27.08397407070744
 30
0.0
 11
43.51113092166881
 21
27.08397407070744
 31
0.0
  0
LINE
  5
338
330
335
100
AcDbEntity
  8
0
 62
     0
370
    -2
100
AcDbLine
 10
42.80341440953942
 20
25.70810194887606
 30
0.0
 11
43.51113092166881
 21
25.70810194887606
 31
0.0
  0
LINE
  5
339
330
335
100
AcDbEntity
  8
0
 62
     0
370
    -2
100
AcDbLine
 10
43.4811309216688
 20
27.08397407070744
 30
0.0
 11
43.4811309216688
 21
26.59838249533311
 31
0.0
  0
LINE
  5
33A
330
335
100
AcDbEntity
  8
0
 62
     0
370
    -2
100
AcDbLine
 10
43.4811309216688
 20
25.70810194887606
 30
0.0
 11
43.4811309216688
 21
26.19369352425039
 31
0.0
  0
INSERT
  5
33B
330
335
100
AcDbEntity
  8
0
 62
     0
370
    -2
100
AcDbBlockReference
  2
_ArchTick
 10
43.4811309216688
 20
27.08397407070744
 30
0.0
 41
0.156
 42
0.156
 43
0.156
 50
90.0
  0
INSERT
  5
33C
330
335
100
AcDbEntity
  8
0
 62
     0
370
    -2
100
AcDbBlockReference
  2
_ArchTick
 10
43.4811309216688
 20
25.70810194887606
 30
0.0
 41
0.156
 42
0.156
 43
0.156
 50
270.0
  0
MTEXT
  5
33D
330
335
100
AcDbEntity
  8
0
 62
     0
100
AcDbMText
 10
43.4811309216688
 20
26.39603800979176
 30
0.0
 40
0.3125
 41
0.0
 71
     5
 72
     1
  1
\A1;DAYLIGHT OPENING
 73
     1
 44
1.0
1001
ACAD
1000
MTEXTBEGIN
1070
    73
1070
     1
1070
    44
1040
1.0
1070
    74
1070
     0
1000
MTEXTEND
  0
POINT
  5
33E
330
335
100
AcDbEntity
  8
Defpoints
 62
     0
100
AcDbPoint
 10
42.76341440953942
 20
27.08397407070744
 30
0.0
  0
POINT
  5
33F
330
335
100
AcDbEntity
  8
Defpoints
 62
     0
100
AcDbPoint
 10
42.76341440953942
 20
25.70810194887606
 30
0.0
  0
POINT
  5
340
330
335
100
AcDbEntity
  8
Defpoints
 62
     0
100
AcDbPoint
 10
43.4811309216688
 20
25.70810194887606
 30
0.0
  0
ENDBLK
  5
341
330
335
100
AcDbEntity
  8
0
100
AcDbBlockEnd
  0
BLOCK
  5
346
330
345
100
AcDbEntity
  8
0
100
AcDbBlockBegin
  2
*D13
 70
     1
 10
0.0
 20
0.0
 30
0.0
  3
*D13
  1

  0
LINE
  5
347
330
345
100
AcDbEntity
  8
0
 62
     0
370
    -2
100
AcDbLine
 10
40.50573684452831
 20
29.62097407070747
 30
0.0
 11
40.50573684452831
 21
29.36740001707898
 31
0.0
  0
LINE
  5
348
330
345
100
AcDbEntity
  8
0
 62
     0
370
    -2
100
AcDbLine
 10
42.25573684452831
 20
29.62097407070747
 30
0.0
 11
42.25573684452831
 21
29.36740001707898
 31
0.0
  0
LINE
  5
349
330
345
100
AcDbEntity
  8
0
 62
     0
370
    -2
100
AcDbLine
 10
40.50573684452831
 20
29.39740001707898
 30
0.0
 11
40.93779858651035
 21
29.39740001707898
 31
0.0
  0
LINE
  5
34A
330
345
100
AcDbEntity
  8
0
 62
     0
370
    -2
100
AcDbLine
 10
42.25573684452831
 20
29.39740001707898
 30
0.0
 11
41.82367510254628
 21
29.39740001707898
 31
0.0
  0
INSERT
  5
34B
330
345
100
AcDbEntity
  8
0
 62
     0
370
    -2
100
AcDbBlockReference
  2
_ArchTick
 10
40.50573684452831
 20
29.39740001707898
 30
0.0
 41
0.156
 42
0.156
 43
0.156
 50
180.0
  0
INSERT
  5
34C
330
345
100
AcDbEntity
  8
0
 62
     0
370
    -2
100
AcDbBlockReference
  2
_ArchTick
 10
42.25573684452831
 20
29.39740001707898
 30
0.0
 41
0.156
 42
0.156
 43
0.156
  0
MTEXT
  5
34D
330
345
100
AcDbEntity
  8
0
 62
     0
100
AcDbMText
 10
41.38073684452831
 20
29.59974450262034
 30
0.0
 40
0.3125
 41
0.0
 71
     5
 72
     1
  1
\A1;1 3/4"
 73
     1
 44
1.0
1001
ACAD
1000
MTEXTBEGIN
1070
    73
1070
     1
1070
    44
1040
1.0
1070
    74
1070
     0
1000
MTEXTEND
  0
MTEXT
  5
34E
330
345
100
AcDbEntity
  8
0
 62
     0
100
AcDbMText
 10
41.38073684452831
 20
29.17750761627198
 30
0.0
 40
0.3125
 41
0.0
 71
     5
 72
     1
  1
\A1;[44mm]
 73
     1
 44
1.0
1001
ACAD
1000
MTEXTBEGIN
1070
    73
1070
     1
1070
    44
1040
1.0
1070
    74
1070
     0
1000
MTEXTEND
  0
POINT
  5
34F
330
345
100
AcDbEntity
  8
Defpoints
 62
     0
100
AcDbPoint
 10
40.50573684452831
 20
29.66097407070747
 30
0.0
  0
POINT
  5
350
330
345
100
AcDbEntity
  8
Defpoints
 62
     0
100
AcDbPoint
 10
42.25573684452831
 20
29.66097407070747
 30
0.0
  0
POINT
  5
351
330
345
100
AcDbEntity
  8
Defpoints
 62
     0
100
AcDbPoint
 10
42.25573684452831
 20
29.39740001707898
 30
0.0
  0
ENDBLK
  5
352
330
345
100
AcDbEntity
  8
0
100
AcDbBlockEnd
  0
BLOCK
  5
355
330
354
100
AcDbEntity
  8
0
100
AcDbBlockBegin
  2
*D14
 70
     1
 10
0.0
 20
0.0
 30
0.0
  3
*D14
  1

  0
LINE
  5
356
330
354
100
AcDbEntity
  8
0
 62
     0
370
    -2
100
AcDbLine
 10
42.01569789741004
 20
27.08397407070744
 30
0.0
 11
45.01105001019383
 21
27.08397407070744
 31
0.0
  0
LINE
  5
357
330
354
100
AcDbEntity
  8
0
 62
     0
370
    -2
100
AcDbLine
 10
42.29573684452831
 20
32.4889796032128
 30
0.0
 11
45.01105001019383
 21
32.4889796032128
 31
0.0
  0
LINE
  5
358
330
354
100
AcDbEntity
  8
0
 62
     0
370
    -2
100
AcDbLine
 10
44.98105001019383
 20
27.08397407070744
 30
0.0
 11
44.98105001019383
 21
30.16641203480385
 31
0.0
  0
LINE
  5
359
330
354
100
AcDbEntity
  8
0
 62
     0
370
    -2
100
AcDbLine
 10
44.98105001019383
 20
32.4889796032128
 30
0.0
 11
44.98105001019383
 21
31.13312465529253
 31
0.0
  0
INSERT
  5
35A
330
354
100
AcDbEntity
  8
0
 62
     0
370
    -2
100
AcDbBlockReference
  2
_ArchTick
 10
44.98105001019383
 20
27.08397407070744
 30
0.0
 41
0.156
 42
0.156
 43
0.156
 50
270.0
  0
INSERT
  5
35B
330
354
100
AcDbEntity
  8
0
 62
     0
370
    -2
100
AcDbBlockReference
  2
_ArchTick
 10
44.98105001019383
 20
32.4889796032128
 30
0.0
 41
0.156
 42
0.156
 43
0.156
 50
90.0
  0
MTEXT
  5
35C
330
354
100
AcDbEntity
  8
0
 62
     0
100
AcDbMText
 10
44.98105001019382
 20
30.6497683450482
 30
0.0
 40
0.3125
 41
0.0
 71
     5
 72
     1
  1
\A1;5 13/32"\P [137mm]
 73
     1
 44
1.0
1001
ACAD
1000
MTEXTBEGIN
1070
    73
1070
     1
1070
    44
1040
1.0
1070
    74
1070
     0
1000
MTEXTEND
  0
POINT
  5
35D
330
354
100
AcDbEntity
  8
Defpoints
 62
     0
100
AcDbPoint
 10
41.97569789741004
 20
27.08397407070744
 30
0.0
  0
POINT
  5
35E
330
354
100
AcDbEntity
  8
Defpoints
 62
     0
100
AcDbPoint
 10
42.25573684452831
 20
32.4889796032128
 30
0.0
  0
POINT
  5
35F
330
354
100
AcDbEntity
  8
Defpoints
 62
     0
100
AcDbPoint
 10
44.98105001019383
 20
32.4889796032128
 30
0.0
  0
ENDBLK
  5
360
330
354
100
AcDbEntity
  8
0
100
AcDbBlockEnd
  0
BLOCK
  5
363
330
362
100
AcDbEntity
  8
0
100
AcDbBlockBegin
  2
*D15
 70
     1
 10
0.0
 20
0.0
 30
0.0
  3
*D15
  1

  0
LINE
  5
364
330
362
100
AcDbEntity
  8
0
 62
     0
370
    -2
100
AcDbLine
 10
42.01569789741004
 20
25.70810194887606
 30
0.0
 11
45.01105001019382
 21
25.70810194887606
 31
0.0
  0
LINE
  5
365
330
362
100
AcDbEntity
  8
0
 62
     0
370
    -2
100
AcDbLine
 10
42.54573684452837
 20
15.95810194888257
 30
0.0
 11
45.01105001019381
 21
15.95810194888257
 31
0.0
  0
LINE
  5
366
330
362
100
AcDbEntity
  8
0
 62
     0
370
    -2
100
AcDbLine
 10
44.98105001019382
 20
25.70810194887606
 30
0.0
 11
44.98105001019382
 21
21.25533883522767
 31
0.0
  0
LINE
  5
367
330
362
100
AcDbEntity
  8
0
 62
     0
370
    -2
100
AcDbLine
 10
44.98105001019381
 20
15.95810194888257
 30
0.0
 11
44.98105001019382
 21
20.41086506253097
 31
0.0
  0
INSERT
  5
368
330
362
100
AcDbEntity
  8
0
 62
     0
370
    -2
100
AcDbBlockReference
  2
_ArchTick
 10
44.98105001019382
 20
25.70810194887606
 30
0.0
 41
0.156
 42
0.156
 43
0.156
 50
90.0
  0
INSERT
  5
369
330
362
100
AcDbEntity
  8
0
 62
     0
370
    -2
100
AcDbBlockReference
  2
_ArchTick
 10
44.98105001019381
 20
15.95810194888257
 30
0.0
 41
0.156
 42
0.156
 43
0.156
 50
270.0
  0
MTEXT
  5
36A
330
362
100
AcDbEntity
  8
0
 62
     0
100
AcDbMText
 10
44.98105001019381
 20
21.03544643442068
 30
0.0
 40
0.3125
 41
0.0
 71
     5
 72
     1
  1
\A1;9 3/4"
 73
     1
 44
1.0
1001
ACAD
1000
MTEXTBEGIN
1070
    73
1070
     1
1070
    44
1040
1.0
1070
    74
1070
     0
1000
MTEXTEND
  0
MTEXT
  5
36B
330
362
100
AcDbEntity
  8
0
 62
     0
100
AcDbMText
 10
44.98105001019381
 20
20.61320954807233
 30
0.0
 40
0.3125
 41
0.0
 71
     5
 72
     1
  1
\A1;[248mm]
 73
     1
 44
1.0
1001
ACAD
1000
MTEXTBEGIN
1070
    73
1070
     1
1070
    44
1040
1.0
1070
    74
1070
     0
1000
MTEXTEND
  0
POINT
  5
36C
330
362
100
AcDbEntity
  8
Defpoints
 62
     0
100
AcDbPoint
 10
41.97569789741004
 20
25.70810194887606
 30
0.0
  0
POINT
  5
36D
330
362
100
AcDbEntity
  8
Defpoints
 62
     0
100
AcDbPoint
 10
42.50573684452837
 20
15.95810194888257
 30
0.0
  0
POINT
  5
36E
330
362
100
AcDbEntity
  8
Defpoints
 62
     0
100
AcDbPoint
 10
44.98105001019381
 20
15.95810194888257
 30
0.0
  0
ENDBLK
  5
36F
330
362
100
AcDbEntity
  8
0
100
AcDbBlockEnd
  0
ENDSEC
  0
SECTION
  2
ENTITIES
  0
LWPOLYLINE
  5
6A
102
{ACAD_REACTORS
330
2D8
330
344
102
}
330
2
100
AcDbEntity
  8
0
  6
Continuous
100
AcDbPolyline
 90
       19
 70
     1
 43
0.0
 10
41.88073684452837
 20
27.39647407070747
 10
41.88073684452837
 20
27.64614137793611
 10
41.69373684452835
 20
27.64614137793611
 10
41.69373684452835
 20
27.74597407070748
 42
1.045128398166766
 10
41.50714489378009
 20
27.73673258636042
 42
-0.4419056050544676
 10
41.42450830724084
 20
27.64597407070745
 10
40.56773684452832
 20
27.64597407070745
 10
40.50573684452831
 20
27.70797407070747
 10
40.50573684452831
 20
31.61397407070747
 42
-0.4142135623730951
 10
40.56773684452832
 20
31.67597407070746
 10
42.19373684452835
 20
31.67597407070746
 42
-0.4142135623730951
 10
42.25573684452831
 20
31.61397407070747
 10
42.25573684452831
 20
27.39675414780551
 10
42.19373684452835
 20
27.3347541478055
 10
42.16069789741005
 20
27.3347541478055
 42
-0.3899024490717814
 10
41.97569789741004
 20
27.13358129647834
 10
41.97569789741004
 20
27.08397407070744
 10
41.88073684452831
 20
27.08397407070747
 10
41.88073684452831
 20
27.20897407070747
 42
0.7066666666666829
  0
LWPOLYLINE
  5
6B
102
{ACAD_REACTORS
330
2A4
330
2B6
330
2C7
102
}
330
2
100
AcDbEntity
  8
0
  6
Continuous
100
AcDbPolyline
 90
       26
 70
     0
 43
0.0
 10
42.19373684452835
 20
31.80097960321281
 10
40.13073684452826
 20
31.8009685382021
 10
40.13073684452826
 20
31.73896853820209
 10
39.63876901527271
 20
31.73896853820209
 10
39.63876901527271
 20
31.61396853820209
 10
40.13073684452831
 20
31.61396853820209
 10
40.13073684452826
 20
31.36296853820208
 42
-0.4142135623730951
 10
40.06873684452824
 20
31.3009685382021
 10
37.75573668487232
 20
31.30097460640441
 42
-0.4142128141791537
 10
37.69323684452826
 20
31.36347460640418
 10
37.69323684452826
 20
32.14597960778862
 42
1.000000000000008
 10
37.69323684452826
 20
32.36397960778864
 10
37.69323684452826
 20
32.43897960321279
 10
38.38023684452827
 20
32.43897960321279
 10
38.38023684452827
 20
32.4889796032128
 10
38.59867957159628
 20
32.4889796032128
 42
0.9999999999999998
 10
38.84867957159628
 20
32.4889796032128
 10
39.25975292990051
 20
32.4889796032128
 42
0.9999999999999998
 10
39.50975292990051
 20
32.4889796032128
 10
39.75975292990052
 20
32.4889796032128
 42
0.9999999999999998
 10
40.00975292990051
 20
32.4889796032128
 10
41.50567833564025
 20
32.4889796032128
 42
0.9999999999999998
 10
41.75567833564025
 20
32.4889796032128
 10
42.25573684452831
 20
32.4889796032128
 10
42.25573684452831
 20
31.86347960321281
 42
-0.4142135623730951
 10
42.19323684452831
 20
31.80097960321281
  0
LWPOLYLINE
  5
6C
330
2
100
AcDbEntity
  8
0
100
AcDbPolyline
 90
       48
 70
     1
 43
0.0
 10
36.69271387460475
 20
16.76981317242392
 42
0.3099869661589099
 10
36.83111499739033
 20
16.84625691052427
 42
0.6346282874007124
 10
36.77225596788929
 20
16.86790955218679
 42
-0.2491068491705158
 10
36.69613273309523
 20
16.82747476454391
 10
36.65598684452715
 20
16.82747476454391
 42
-0.4142135623730951
 10
36.62473684451987
 20
16.85872476454391
 10
36.62473684451987
 20
16.87305789917376
 10
36.62473684451987
 20
16.92404851228205
 42
-0.3892015183906261
 10
36.65306964979794
 20
16.95493355839296
 10
41.64749007778261
 20
17.38624558293553
 42
0.3892015181633394
 10
41.67673684453046
 20
17.41812692084112
 10
41.67673684453046
 20
17.49285194887419
 42
0.4142135623730951
 10
41.64548684451591
 20
17.52410194887419
 10
41.59273684452062
 20
17.52410194887419
 42
-0.4142135623731034
 10
41.56173684451795
 20
17.55510194886595
 42
-0.4142135623730867
 10
41.59273684452062
 20
17.5861019488759
 10
41.70748684452854
 20
17.5861019488759
 42
-0.4142135623730951
 10
41.73873684452854
 20
17.55485194886499
 10
41.73873684452854
 20
17.3612504013024
 42
-0.3892015181726193
 10
41.70949007777955
 20
17.32936906339658
 10
41.37473684452714
 20
17.30046018462211
 10
41.37473684452714
 20
17.05110194887605
 10
41.31273684452906
 20
17.05110194887605
 10
41.31273684452906
 20
17.29510594063571
 10
40.68773684449996
 20
17.24113170693566
 10
40.68773684449996
 20
17.05110194887605
 10
40.62573684453826
 20
17.05110194887605
 10
40.62573684453826
 20
17.23577746294244
 10
36.90787074389851
 20
16.91470710494441
 42
-0.4513779684185582
 10
36.68673684452523
 20
16.70810194888257
 10
36.68673684452523
 20
16.30210194888353
 10
36.74873684453058
 20
16.30210194888353
 42
-0.4142135623730951
 10
36.87373684450875
 20
16.17710194888353
 10
36.87373684450875
 20
16.02010194888429
 10
37.15573684452983
 20
16.02010194888429
 42
-0.9999999999999998
 10
37.15573684452983
 20
15.95810194888257
 10
36.65598684452715
 20
15.95810194888257
 42
-0.4142135623730951
 10
36.62473684451987
 20
15.98935194888257
 10
36.62473684451987
 20
16.08310194888257
 42
-0.9999999999999998
 10
36.68673684452523
 20
16.08310194888257
 10
36.68673684452523
 20
16.02110194887358
 10
36.81173684451795
 20
16.02110194887358
 10
36.81173684451795
 20
16.17760194888545
 42
0.4142135623730951
 10
36.74923684451068
 20
16.24010194888545
 10
36.65598684452715
 20
16.24010194888545
 42
-0.4142135623730951
 10
36.62473684451987
 20
16.27135194888545
 10
36.62473684451987
 20
16.73881317242852
 42
-0.4142135623730951
 10
36.65573684452983
 20
16.76981317242392
  0
LWPOLYLINE
  5
6D
102
{ACAD_REACTORS
330
2FA
102
}
330
2
100
AcDbEntity
  8
0
100
AcDbPolyline
 90
        6
 70
     1
 43
0.0
 10
42.25573684452837
 20
17.33378799539353
 10
42.3487368445364
 20
17.33378799539353
 10
42.47473684452569
 20
17.26104186147789
 42
-0.2679491924311338
 10
42.50573684452837
 20
17.20734828643184
 10
42.50573684452837
 20
15.95810194888257
 10
42.25573684452837
 20
15.95810194888257
  0
LWPOLYLINE
  5
6E
330
2
100
AcDbEntity
  8
0
100
AcDbPolyline
 90
       16
 70
     1
 43
0.0
 10
42.25573684452837
 20
16.84760194887597
 10
42.25573684452837
 20
16.06710194887931
 10
42.06866802387383
 20
16.06710194887931
 10
42.00573684452836
 20
15.95810194888257
 10
37.55373684454543
 20
15.95810194888257
 42
-0.414213562373095
 10
37.49173684452552
 20
16.02010194888429
 10
37.49173684452552
 20
16.23910194887433
 10
37.24173684452552
 20
16.23910194887433
 10
37.24173684452552
 20
16.10010194888239
 42
-0.4142135623730951
 10
37.17973684454199
 20
16.0381019488734
 10
36.9057368445371
 20
16.0381019488734
 10
36.9057368445371
 20
16.8511019488826
 10
39.4057368445371
 20
17.05110194887605
 10
41.94423684453562
 20
17.05110194887605
 42
-0.4142135623730951
 10
42.00623684453563
 20
16.98910194887615
 10
42.00623684453563
 20
16.84760194887597
  0
LWPOLYLINE
  5
6F
330
2
100
AcDbEntity
  8
0
  6
Continuous
100
AcDbPolyline
 90
       13
 70
     1
 43
0.0
 10
41.59873684452833
 20
17.64410194887604
 42
0.4142135623730951
 10
41.53673684452832
 20
17.58210194887603
 10
41.53673684452832
 20
17.38181042875506
 10
40.54392147976904
 20
17.30367416498679
 42
-0.5289142198612735
 10
40.52775329458637
 20
17.32381930621265
 10
40.67921523620867
 20
17.81922899456886
 42
-0.329750547140315
 10
40.73850613107839
 20
17.86310194887603
 10
42.19373684452835
 20
17.86310194887603
 42
-0.4142135623730951
 10
42.25573684452837
 20
17.80110194887605
 10
42.25573684452837
 20
17.05110194887605
 10
41.75573684452837
 20
17.05110194887605
 10
41.75573684452837
 20
17.58210194887603
 42
0.4142135623730956
 10
41.69373684452835
 20
17.64410194887604
  0
LWPOLYLINE
  5
70
330
2
100
AcDbEntity
  8
0
  6
Continuous
100
AcDbPolyline
 90
        7
 70
     1
 43
0.0
 10
39.88073684452832
 20
18.08210194887685
 10
39.88073684452832
 20
19.01060308496032
 42
-0.3738846794848032
 10
39.98834020690862
 20
19.1343865935534
 10
40.50573684452831
 20
19.20710194887685
 10
40.50573684452831
 20
18.39510194887605
 10
40.34973684452836
 20
18.39510194887605
 10
40.03673684452826
 20
18.08210194887685
  0
LWPOLYLINE
  5
71
102
{ACAD_REACTORS
330
2E9
102
}
330
2
100
AcDbEntity
  8
0
  6
Continuous
100
AcDbPolyline
 90
       19
 70
     1
 43
0.0
 10
41.88073684452831
 20
25.39560194887604
 10
41.88073684452831
 20
25.1459346416474
 10
41.69373684452835
 20
25.1459346416474
 10
41.69373684452835
 20
25.04610194887603
 42
-1.045128398166766
 10
41.50714489378015
 20
25.05534343322309
 42
0.4419056050544676
 10
41.42450830724084
 20
25.14610194887605
 10
40.56773684452832
 20
25.14610194887605
 10
40.50573684452831
 20
25.08410194887604
 10
40.50573684452831
 20
18.39510194887605
 42
0.4142135623730951
 10
40.56773684452832
 20
18.33310194887606
 10
42.1937368445283
 20
18.33310194887606
 42
0.4142135623730951
 10
42.25573684452831
 20
18.39510194887605
 10
42.25573684452831
 20
25.395321871778
 10
42.1937368445283
 20
25.45732187177801
 10
42.16069789741005
 20
25.45732187177801
 42
0.3899024490717814
 10
41.97569789741004
 20
25.65849472310516
 10
41.97569789741004
 20
25.70810194887606
 10
41.88073684452831
 20
25.70810194887604
 10
41.88073684452831
 20
25.58310194887603
 42
-0.7066666666666826
  0
LWPOLYLINE
  5
72
102
{ACAD_REACTORS
330
2E9
330
2FA
102
}
330
2
100
AcDbEntity
  8
0
  6
Continuous
100
AcDbPolyline
 90
       26
 70
     0
 43
0.0
 10
42.25576901527273
 20
18.33310194887606
 10
40.50573684452831
 20
18.33310194887606
 10
40.50573684452831
 20
18.22410194887605
 42
0.157771401281339
 10
40.25573684452831
 20
17.77310194887606
 10
40.30088840152217
 20
17.76430780872287
 42
-0.1709509127273156
 10
40.56773684452832
 20
18.21785481734766
 10
40.56773684452832
 20
17.77310194887606
 10
40.61373684452831
 20
17.77310194887606
 10
40.61373684452831
 20
18.22410194887605
 10
41.05073684452833
 20
18.22410194887605
 10
41.05073684452833
 20
17.76523595848063
 10
41.09673684452832
 20
17.76523595848063
 10
41.09673684452832
 20
18.22410194887605
 10
41.53373684452833
 20
18.22410194887605
 10
41.53373684452833
 20
17.76523595848063
 10
41.57973684452833
 20
17.76523595848063
 10
41.57973684452833
 20
18.22410194887605
 10
42.01673684452834
 20
18.22410194887605
 10
42.01673684452834
 20
17.76523595848063
 10
42.06273684452833
 20
17.76523595848063
 10
42.06273684452833
 20
18.22410194887605
 10
42.36473684452835
 20
18.22410194887605
 10
42.36473684452835
 20
18.52110194887605
 42
0.4142135623730948
 10
42.30273684452834
 20
18.58310194887606
 10
42.25573684452831
 20
18.58310194887606
 10
42.25573684452831
 20
18.33310194887606
  0
LWPOLYLINE
  5
73
102
{ACAD_REACTORS
330
2A4
102
}
330
2
100
AcDbEntity
  8
0
100
AcDbPolyline
 90
       15
 70
     0
 43
0.0
 10
36.75423684452829
 20
32.06697960321283
 42
0.4142135623730951
 10
36.8162368445283
 20
32.00497960321282
 10
37.69323684452826
 20
32.00497960321282
 10
37.69323684452837
 20
33.25497960321282
 10
37.75523684452827
 20
33.25497960321282
 10
37.75523684452827
 20
33.87997960321282
 10
36.69223684452828
 20
33.87997960321282
 42
0.4142135623731003
 10
36.63023684452827
 20
33.81797960321281
 10
36.63023684452827
 20
33.28597960321282
 42
0.4142135623730951
 10
36.66123684452827
 20
33.25497960321282
 10
36.69223684452828
 20
33.25497960321282
 10
36.69223684452828
 20
33.03597960321282
 42
0.4142135623730951
 10
36.72323684452829
 20
33.00497960321282
 10
36.75423684452829
 20
33.00497960321282
 10
36.75423684452829
 20
32.06697961268215
  0
HATCH
  5
74
330
2
100
AcDbEntity
  8
0
  6
Continuous
100
AcDbHatch
 10
0.0
 20
0.0
 30
0.0
210
0.0
220
0.0
230
1.0
  2
STEEL
 70
     0
 71
     0
 91
        1
 92
        7
 72
     0
 73
     1
 93
        6
 10
37.75523684452827
 20
32.5009796032128
 10
37.75523684452833
 20
33.22079786714848
 10
37.69323684452832
 20
33.22079786714848
 10
37.69323684452826
 20
32.43897960321279
 10
38.35036823880301
 20
32.43897960321279
 10
38.35036823880301
 20
32.5009796032128
 97
        0
 75
     0
 76
     1
 52
-0.0000000000000127
 41
1.0
 77
     0
 78
     2
 53
44.99999999999999
 43
135.6486216800539
 44
-10.76507287779428
 45
-0.0883883476483184
 46
0.0883883476483185
 79
     0
 53
44.99999999999999
 43
135.6486216800539
 44
-10.70257287779428
 45
-0.0883883476483184
 46
0.0883883476483185
 79
     0
 47
0.003572857848563
 98
        1
 10
37.86381240967268
 20
32.47336151625656
  0
LINE
  5
75
330
2
100
AcDbEntity
  8
0
100
AcDbLine
 10
37.69323684452832
 20
33.22079786714848
 30
0.0
 11
37.69323684452826
 21
32.43897960321279
 31
0.0
  0
LINE
  5
76
330
2
100
AcDbEntity
  8
0
  6
Continuous
100
AcDbLine
 10
37.69323684452826
 20
32.43897960321279
 30
0.0
 11
38.35036823880301
 21
32.43897960321279
 31
0.0
  0
LINE
  5
77
330
2
100
AcDbEntity
  8
0
  6
Continuous
100
AcDbLine
 10
37.75523684452827
 20
32.5009796032128
 30
0.0
 11
38.35036823880301
 21
32.5009796032128
 31
0.0
  0
LINE
  5
78
330
2
100
AcDbEntity
  8
0
  6
Continuous
100
AcDbLine
 10
38.35036823880301
 20
32.5009796032128
 30
0.0
 11
38.35036823880301
 21
32.43897960321279
 31
0.0
  0
LINE
  5
79
330
2
100
AcDbEntity
  8
0
100
AcDbLine
 10
37.75523684452833
 20
33.22079786714848
 30
0.0
 11
37.75523684452827
 21
32.5009796032128
 31
0.0
  0
INSERT
  5
7A
330
2
100
AcDbEntity
  8
0
100
AcDbBlockReference
  2
8 x .75 FH
 10
37.75523684452827
 20
32.86088873518067
 30
0.0
 50
270.0
  0
INSERT
  5
C8
330
2
100
AcDbEntity
  8
0
100
AcDbBlockReference
  2
8 X .625 PH
 10
38.05280254166559
 20
32.5009796032128
 30
0.0
  0
LINE
  5
11D
330
2
100
AcDbEntity
  8
0
100
AcDbLine
 10
37.75523684452833
 20
33.22079786714848
 30
0.0
 11
37.69323684452837
 21
33.22079786714851
 31
0.0
  0
HATCH
  5
11E
330
2
100
AcDbEntity
  8
0
100
AcDbHatch
 10
0.0
 20
0.0
 30
0.0
210
0.0
220
0.0
230
1.0
  2
SOLID
 70
     1
 71
     0
 91
        1
 92
        7
 72
     1
 73
     1
 93
        2
 10
41.88073684452831
 20
27.2086413779361
 42
0.0
 10
41.88073684452837
 20
27.39614137793608
 42
-0.6666666666666311
 97
        0
 75
     1
 76
     1
 47
0.0010014887122476
 98
        1
 10
41.92679692087523
 20
27.32354657398024
1001
GradientColor1ACI
1070
     5
1001
GradientColor2ACI
1070
     2
1001
ACAD
1010
0.0
1020
0.0
1030
0.0
  0
HATCH
  5
121
330
2
100
AcDbEntity
  8
0
100
AcDbHatch
 10
0.0
 20
0.0
 30
0.0
210
0.0
220
0.0
230
1.0
  2
SOLID
 70
     1
 71
     0
 91
        1
 92
        7
 72
     1
 73
     1
 93
        2
 10
40.97150668704824
 20
27.2086413779361
 42
0.0
 10
40.97150668704824
 20
27.39614137793608
 42
0.6666666666666311
 97
        0
 75
     1
 76
     1
 47
0.0010014887122476
 98
        1
 10
40.92544661070133
 20
27.32354657398024
1001
GradientColor1ACI
1070
     5
1001
GradientColor2ACI
1070
     2
1001
ACAD
1010
0.0
1020
0.0
1030
0.0
  0
LWPOLYLINE
  5
122
330
2
100
AcDbEntity
  8
0
100
AcDbPolyline
 90
       11
 70
     1
 43
0.0
 10
40.97150668704824
 20
27.39614137793608
 10
40.97150668704824
 20
27.64614137793611
 10
40.59750668704822
 20
27.64614137793607
 10
40.59750668704822
 20
27.36464137793608
 42
0.4142135623731695
 10
40.62850668704817
 20
27.33364137793611
 10
40.6750314553347
 20
27.33364137793611
 42
-0.235730494161761
 10
40.69980764991072
 20
27.32127307625727
 10
40.86920572418574
 20
27.09600967961494
 42
0.235730494161718
 10
40.89398191876177
 20
27.08364137793611
 10
40.97150668704824
 20
27.08364137793611
 10
40.97150668704824
 20
27.2086413779361
 42
-0.6666666666666588
  0
LWPOLYLINE
  5
123
330
2
100
AcDbEntity
  8
0
100
AcDbPolyline
 90
        4
 70
     0
 43
0.0
 10
41.7229967657883
 20
26.45853800979175
 10
41.7229967657883
 20
27.53714137793572
 10
41.88073684452837
 20
27.53714137793572
 10
41.88073684452837
 20
26.45853800979175
  0
LWPOLYLINE
  5
124
330
2
100
AcDbEntity
  8
0
100
AcDbPolyline
 90
        4
 70
     0
 43
0.0
 10
41.1292467657883
 20
26.45853800979175
 10
41.1292467657883
 20
27.53714137793572
 10
40.97150668704824
 20
27.53714137793572
 10
40.97150668704824
 20
26.45853800979175
  0
LWPOLYLINE
  5
125
330
2
100
AcDbEntity
  8
0
100
AcDbPolyline
 90
       14
 70
     1
 43
0.0
 10
41.23862176578831
 20
27.32731663698719
 42
-0.3359746306540741
 10
41.20611785604132
 20
27.30695387793544
 10
41.17024676578847
 20
27.3311413779356
 42
0.4142135623730951
 10
41.15462176578847
 20
27.3155163779356
 10
41.15462176578847
 20
27.13389137793543
 10
41.69762176578814
 20
27.13389137793543
 10
41.69762176578814
 20
27.3155163779356
 42
0.414213562373094
 10
41.68199676578814
 20
27.3311413779356
 10
41.64650897772998
 20
27.30695387793544
 42
-0.3208708054700532
 10
41.61362176578831
 20
27.32767954606784
 10
41.61362176578831
 20
27.38451637793601
 42
0.4142135623730951
 10
41.5979967657883
 20
27.40014137793601
 10
41.2542467657883
 20
27.40014137793601
 42
0.4142135623730951
 10
41.23862176578831
 20
27.38451637793601
  0
LWPOLYLINE
  5
126
330
2
100
AcDbEntity
  8
0
100
AcDbPolyline
 90
       14
 70
     1
 43
0.0
 10
41.24562176578883
 20
27.32609823684284
 42
-0.3593608004949541
 10
41.20362187846484
 20
27.30019422096207
 10
41.16840293135254
 20
27.32394198768084
 42
0.3524310491054993
 10
41.16162176578808
 20
27.3155163779356
 10
41.16162176578808
 20
27.13389137793543
 10
41.69062176578854
 20
27.13389137793543
 10
41.69062176578854
 20
27.3155163779356
 42
0.3518693664465323
 10
41.68385743808693
 20
27.32393828529708
 10
41.64893304692094
 20
27.30013478111774
 42
-0.3446308864324803
 10
41.60662176578779
 20
27.32637369511936
 10
41.60662176578779
 20
27.38451637793601
 42
0.4142135623730946
 10
41.5979967657883
 20
27.39314137793549
 10
41.2542467657883
 20
27.39314137793549
 42
0.4142135623730946
 10
41.24562176578883
 20
27.38451637793601
  0
LWPOLYLINE
  5
127
330
2
100
AcDbEntity
  8
0
100
AcDbPolyline
 90
       10
 70
     1
 43
0.0
 10
41.26987176578831
 20
27.32257887793544
 42
-0.3584554666094669
 10
41.20496791963495
 20
27.27570387793544
 10
41.18587176578848
 20
27.27570387793544
 10
41.18587176578848
 20
27.16514137793543
 10
41.66637176578814
 20
27.16514137793543
 10
41.66637176578814
 20
27.27570387793544
 10
41.64727561194166
 20
27.27570387793544
 42
-0.3467993108968364
 10
41.58237176578831
 20
27.32257887793544
 10
41.58237176578831
 20
27.36889137793601
 10
41.26987176578831
 20
27.36889137793601
  0
LWPOLYLINE
  5
128
330
2
100
AcDbEntity
  8
0
100
AcDbPolyline
 90
        6
 70
     0
 43
0.0
 10
41.15462176578847
 20
27.16214137793573
 10
41.14487176578831
 20
27.16214137793573
 10
41.14487176578831
 20
27.12414137793526
 10
41.70737176578831
 20
27.12414137793526
 10
41.70737176578831
 20
27.16214137793573
 10
41.69762176578814
 20
27.16214137793573
  0
LINE
  5
129
330
2
100
AcDbEntity
  8
0
100
AcDbLine
 10
41.69762176578814
 20
27.3155163779356
 30
0.0
 11
41.7229967657883
 21
27.3155163779356
 31
0.0
  0
LINE
  5
12A
330
2
100
AcDbEntity
  8
0
100
AcDbLine
 10
41.69762176578814
 20
27.16214137793573
 30
0.0
 11
41.7229967657883
 21
27.16214137793573
 31
0.0
  0
LINE
  5
12B
330
2
100
AcDbEntity
  8
0
100
AcDbLine
 10
41.15462176578847
 20
27.3155163779356
 30
0.0
 11
41.1292467657883
 21
27.3155163779356
 31
0.0
  0
LINE
  5
12C
330
2
100
AcDbEntity
  8
0
100
AcDbLine
 10
41.15462176578847
 20
27.16214137793573
 30
0.0
 11
41.1292467657883
 21
27.16214137793573
 31
0.0
  0
HATCH
  5
12D
330
2
100
AcDbEntity
  8
0
  6
Continuous
100
AcDbHatch
 10
0.0
 20
0.0
 30
0.0
210
0.0
220
0.0
230
1.0
  2
DOTS
 70
     0
 71
     0
 91
        2
 92
        7
 72
     0
 73
     1
 93
        4
 10
41.15462176578847
 20
27.3155163779356
 10
41.1292467657883
 20
27.3155163779356
 10
41.1292467657883
 20
27.16214137793573
 10
41.15462176578847
 20
27.16214137793573
 97
        0
 92
        7
 72
     0
 73
     1
 93
        4
 10
41.7229967657883
 20
27.3155163779356
 10
41.69762176578814
 20
27.3155163779356
 10
41.69762176578814
 20
27.16214137793573
 10
41.7229967657883
 20
27.16214137793573
 97
        0
 75
     0
 76
     1
 52
360.0
 41
0.1
 77
     0
 78
     1
 53
360.0
 43
35.03576702025174
 44
29.60984612152238
 45
0.003125
 46
-0.00625
 79
     2
 49
0.0
 49
-0.00625
 47
0.0006001443632006
 98
        2
 10
41.14290147564105
 20
27.25793143788719
 10
41.71278640503686
 20
27.25433056408834
  0
HATCH
  5
12E
330
2
100
AcDbEntity
  8
0
  6
Continuous
100
AcDbHatch
 10
0.0
 20
0.0
 30
0.0
210
0.0
220
0.0
230
1.0
  2
DASH
 70
     0
 71
     0
 91
        1
 92
        7
 72
     1
 73
     1
 93
       16
 10
41.5979967657883
 20
27.40014137793601
 42
-0.4142135623730951
 10
41.61362176578831
 20
27.38451637793601
 42
0.0
 10
41.61362176578831
 20
27.32767954606784
 42
0.3208708054700533
 10
41.64650897772998
 20
27.30695387793544
 42
0.0
 10
41.68199676578814
 20
27.3311413779356
 42
-0.414213562373094
 10
41.69762176578814
 20
27.3155163779356
 42
0.0
 10
41.72299676578922
 20
27.3155163779356
 42
0.0
 10
41.7229967657874
 20
27.53714137793482
 42
0.0
 10
41.1292467657883
 20
27.53714137793482
 42
0.0
 10
41.1292467657883
 20
27.3155163779356
 42
0.0
 10
41.15462176578847
 20
27.3155163779356
 42
-0.4142135623730951
 10
41.17024676578847
 20
27.3311413779356
 42
0.0
 10
41.20611785604132
 20
27.30695387793544
 42
0.3359746306540741
 10
41.23862176578831
 20
27.32731663698719
 42
0.0
 10
41.23862176578831
 20
27.38451637793601
 42
-0.4142135623730951
 10
41.2542467657883
 20
27.40014137793601
 42
0.0
 97
        0
 75
     0
 76
     1
 52
360.0
 41
0.1
 77
     0
 78
     1
 53
360.0
 43
35.03576702025174
 44
29.60984612152238
 45
0.0125
 46
-0.0125
 79
     2
 49
0.0125
 49
-0.0125
 47
0.0009600803746669
 98
        1
 10
41.47514324587308
 20
27.45098065013003
  0
LINE
  5
12F
330
2
100
AcDbEntity
  8
0
100
AcDbLine
 10
40.97150668704824
 20
27.64614137793611
 30
0.0
 11
41.88073684452837
 21
27.53714137793572
 31
0.0
  0
LWPOLYLINE
  5
130
330
2
100
AcDbEntity
  8
0
100
AcDbPolyline
 90
        8
 70
     0
 43
0.0
 10
40.97150668704824
 20
27.64614137793611
 10
41.88073684452837
 20
27.64614137793611
 10
41.88073684452837
 20
27.53714137793572
 10
40.97150668704824
 20
27.53714137793572
 10
40.97150668704824
 20
27.64614137793611
 10
41.88073684452837
 20
27.53714137793572
 10
40.97150668704824
 20
27.53714137793572
 10
41.88073684452837
 20
27.64614137793611
  0
HATCH
  5
131
330
2
100
AcDbEntity
  8
0
100
AcDbHatch
 10
0.0
 20
0.0
 30
0.0
210
0.0
220
0.0
230
1.0
  2
SOLID
 70
     1
 71
     0
 91
        1
 92
        7
 72
     1
 73
     1
 93
        2
 10
41.88073684452831
 20
25.5834346416474
 42
0.0
 10
41.88073684452831
 20
25.39593464164743
 42
0.6666666666666311
 97
        0
 75
     1
 76
     1
 47
0.0010014887122476
 98
        1
 10
41.92679692087523
 20
25.46852944560327
1001
GradientColor1ACI
1070
     5
1001
GradientColor2ACI
1070
     2
1001
ACAD
1010
0.0
1020
0.0
1030
0.0
  0
HATCH
  5
132
330
2
100
AcDbEntity
  8
0
100
AcDbHatch
 10
0.0
 20
0.0
 30
0.0
210
0.0
220
0.0
230
1.0
  2
SOLID
 70
     1
 71
     0
 91
        1
 92
        7
 72
     1
 73
     1
 93
        2
 10
40.97150668704824
 20
25.5834346416474
 42
0.0
 10
40.97150668704819
 20
25.39593464164743
 42
-0.6666666666666311
 97
        0
 75
     1
 76
     1
 47
0.0010014887122476
 98
        1
 10
40.92544661070133
 20
25.46852944560327
1001
GradientColor1ACI
1070
     5
1001
GradientColor2ACI
1070
     2
1001
ACAD
1010
0.0
1020
0.0
1030
0.0
  0
LWPOLYLINE
  5
133
330
2
100
AcDbEntity
  8
0
100
AcDbPolyline
 90
       11
 70
     1
 43
0.0
 10
40.97150668704819
 20
25.39593464164743
 10
40.97150668704819
 20
25.1459346416474
 10
40.59750668704822
 20
25.14593464164743
 10
40.59750668704817
 20
25.42743464164742
 42
-0.4142135623731695
 10
40.62850668704817
 20
25.4584346416474
 10
40.67503145533464
 20
25.4584346416474
 42
0.235730494161761
 10
40.69980764991067
 20
25.47080294332623
 10
40.86920572418569
 20
25.69606633996857
 42
-0.235730494161718
 10
40.89398191876171
 20
25.7084346416474
 10
40.97150668704824
 20
25.7084346416474
 10
40.97150668704824
 20
25.5834346416474
 42
0.6666666666666588
  0
LWPOLYLINE
  5
134
330
2
100
AcDbEntity
  8
0
100
AcDbPolyline
 90
        4
 70
     0
 43
0.0
 10
41.72299676578825
 20
26.33353800979175
 10
41.72299676578825
 20
25.25493464164778
 10
41.88073684452831
 20
25.25493464164778
 10
41.88073684452831
 20
26.33353800979175
  0
LWPOLYLINE
  5
135
330
2
100
AcDbEntity
  8
0
100
AcDbPolyline
 90
        4
 70
     0
 43
0.0
 10
41.12924676578825
 20
26.33353800979175
 10
41.12924676578825
 20
25.25493464164778
 10
40.97150668704819
 20
25.25493464164778
 10
40.97150668704819
 20
26.33353800979175
  0
LWPOLYLINE
  5
136
330
2
100
AcDbEntity
  8
0
100
AcDbPolyline
 90
       14
 70
     1
 43
0.0
 10
41.23862176578825
 20
25.46475938259631
 42
0.3359746306540741
 10
41.20611785604125
 20
25.48512214164806
 10
41.17024676578842
 20
25.46093464164791
 42
-0.4142135623730951
 10
41.15462176578842
 20
25.47655964164791
 10
41.15462176578842
 20
25.65818464164808
 10
41.69762176578808
 20
25.65818464164808
 10
41.69762176578808
 20
25.47655964164791
 42
-0.414213562373094
 10
41.68199676578808
 20
25.46093464164791
 10
41.64650897772992
 20
25.48512214164806
 42
0.3208708054700532
 10
41.61362176578825
 20
25.46439647351566
 10
41.61362176578825
 20
25.4075596416475
 42
-0.4142135623730951
 10
41.59799676578825
 20
25.3919346416475
 10
41.25424676578825
 20
25.3919346416475
 42
-0.4142135623730951
 10
41.23862176578825
 20
25.4075596416475
  0
LWPOLYLINE
  5
137
330
2
100
AcDbEntity
  8
0
100
AcDbPolyline
 90
       14
 70
     1
 43
0.0
 10
41.24562176578876
 20
25.46597778274067
 42
0.3593608004949541
 10
41.20362187846478
 20
25.49188179862144
 10
41.16840293135249
 20
25.46813403190267
 42
-0.3524310491054993
 10
41.16162176578803
 20
25.47655964164791
 10
41.16162176578803
 20
25.65818464164808
 10
41.69062176578847
 20
25.65818464164808
 10
41.69062176578847
 20
25.47655964164791
 42
-0.3518693664465323
 10
41.68385743808687
 20
25.46813773428643
 10
41.64893304692088
 20
25.49194123846577
 42
0.3446308864324803
 10
41.60662176578774
 20
25.46570232446415
 10
41.60662176578774
 20
25.4075596416475
 42
-0.4142135623730946
 10
41.59799676578825
 20
25.39893464164801
 10
41.25424676578825
 20
25.39893464164801
 42
-0.4142135623730946
 10
41.24562176578876
 20
25.4075596416475
  0
LWPOLYLINE
  5
138
330
2
100
AcDbEntity
  8
0
100
AcDbPolyline
 90
       10
 70
     1
 43
0.0
 10
41.26987176578825
 20
25.46949714164806
 42
0.3584554666094669
 10
41.20496791963489
 20
25.51637214164806
 10
41.18587176578841
 20
25.51637214164806
 10
41.18587176578841
 20
25.62693464164808
 10
41.66637176578809
 20
25.62693464164808
 10
41.66637176578809
 20
25.51637214164806
 10
41.64727561194161
 20
25.51637214164806
 42
0.3467993108968364
 10
41.58237176578825
 20
25.46949714164806
 10
41.58237176578825
 20
25.4231846416475
 10
41.26987176578825
 20
25.4231846416475
  0
LWPOLYLINE
  5
139
330
2
100
AcDbEntity
  8
0
100
AcDbPolyline
 90
        6
 70
     0
 43
0.0
 10
41.15462176578842
 20
25.62993464164778
 10
41.14487176578825
 20
25.62993464164778
 10
41.14487176578825
 20
25.66793464164824
 10
41.70737176578825
 20
25.66793464164824
 10
41.70737176578825
 20
25.62993464164778
 10
41.69762176578808
 20
25.62993464164778
  0
LINE
  5
13A
330
2
100
AcDbEntity
  8
0
100
AcDbLine
 10
41.69762176578808
 20
25.47655964164791
 30
0.0
 11
41.72299676578825
 21
25.47655964164791
 31
0.0
  0
LINE
  5
13B
330
2
100
AcDbEntity
  8
0
100
AcDbLine
 10
41.69762176578808
 20
25.62993464164778
 30
0.0
 11
41.72299676578825
 21
25.62993464164778
 31
0.0
  0
LINE
  5
13C
330
2
100
AcDbEntity
  8
0
100
AcDbLine
 10
41.15462176578842
 20
25.47655964164791
 30
0.0
 11
41.12924676578825
 21
25.47655964164791
 31
0.0
  0
LINE
  5
13D
330
2
100
AcDbEntity
  8
0
100
AcDbLine
 10
41.15462176578842
 20
25.62993464164778
 30
0.0
 11
41.12924676578825
 21
25.62993464164778
 31
0.0
  0
HATCH
  5
13E
330
2
100
AcDbEntity
  8
0
  6
Continuous
100
AcDbHatch
 10
0.0
 20
0.0
 30
0.0
210
0.0
220
0.0
230
1.0
  2
DOTS
 70
     0
 71
     0
 91
        2
 92
        7
 72
     0
 73
     1
 93
        4
 10
41.15462176578842
 20
25.47655964164791
 10
41.12924676578825
 20
25.47655964164791
 10
41.12924676578825
 20
25.62993464164778
 10
41.15462176578842
 20
25.62993464164778
 97
        0
 92
        7
 72
     0
 73
     1
 93
        4
 10
41.72299676578825
 20
25.47655964164791
 10
41.69762176578808
 20
25.47655964164791
 10
41.69762176578808
 20
25.62993464164778
 10
41.72299676578825
 20
25.62993464164778
 97
        0
 75
     0
 76
     1
 52
360.0
 41
0.1
 77
     0
 78
     1
 53
360.0
 43
35.03576702025168
 44
28.73484612152238
 45
0.003125
 46
-0.00625
 79
     2
 49
0.0
 49
-0.00625
 47
0.0006001443632006
 98
        2
 10
41.142901475641
 20
25.53414458169631
 10
41.71278640503681
 20
25.53774545549517
  0
HATCH
  5
13F
330
2
100
AcDbEntity
  8
0
  6
Continuous
100
AcDbHatch
 10
0.0
 20
0.0
 30
0.0
210
0.0
220
0.0
230
1.0
  2
DASH
 70
     0
 71
     0
 91
        1
 92
        7
 72
     1
 73
     1
 93
       16
 10
41.59799676578825
 20
25.3919346416475
 42
0.4142135623730951
 10
41.61362176578825
 20
25.4075596416475
 42
0.0
 10
41.61362176578825
 20
25.46439647351566
 42
-0.3208708054700533
 10
41.64650897772992
 20
25.48512214164806
 42
0.0
 10
41.68199676578808
 20
25.46093464164791
 42
0.414213562373094
 10
41.69762176578808
 20
25.47655964164791
 42
0.0
 10
41.72299676578916
 20
25.47655964164791
 42
0.0
 10
41.72299676578734
 20
25.25493464164869
 42
0.0
 10
41.12924676578825
 20
25.25493464164869
 42
0.0
 10
41.12924676578825
 20
25.47655964164791
 42
0.0
 10
41.15462176578842
 20
25.47655964164791
 42
0.4142135623730951
 10
41.17024676578842
 20
25.46093464164791
 42
0.0
 10
41.20611785604125
 20
25.48512214164806
 42
-0.3359746306540741
 10
41.23862176578825
 20
25.46475938259631
 42
0.0
 10
41.23862176578825
 20
25.4075596416475
 42
0.4142135623730951
 10
41.25424676578825
 20
25.3919346416475
 42
0.0
 97
        0
 75
     0
 76
     1
 52
360.0
 41
0.1
 77
     0
 78
     1
 53
360.0
 43
35.03576702025168
 44
28.73484612152238
 45
0.0125
 46
-0.0125
 79
     2
 49
0.0125
 49
-0.0125
 47
0.0009600803746669
 98
        1
 10
41.47514324587302
 20
25.34109536945347
  0
LINE
  5
140
330
2
100
AcDbEntity
  8
0
100
AcDbLine
 10
40.97150668704819
 20
25.1459346416474
 30
0.0
 11
41.88073684452831
 21
25.25493464164778
 31
0.0
  0
LWPOLYLINE
  5
141
330
2
100
AcDbEntity
  8
0
100
AcDbPolyline
 90
        8
 70
     0
 43
0.0
 10
40.97150668704819
 20
25.1459346416474
 10
41.88073684452831
 20
25.1459346416474
 10
41.88073684452831
 20
25.25493464164778
 10
40.97150668704819
 20
25.25493464164778
 10
40.97150668704819
 20
25.1459346416474
 10
41.88073684452831
 20
25.25493464164778
 10
40.97150668704819
 20
25.25493464164778
 10
41.88073684452831
 20
25.1459346416474
  0
LINE
  5
142
330
2
100
AcDbEntity
  8
0
  6
HIDDEN2
100
AcDbLine
 10
37.0263610078153
 20
26.4585380097917
 30
0.0
 11
41.88073684452831
 21
26.45853800979175
 31
0.0
  0
LINE
  5
144
330
2
100
AcDbEntity
  8
0
  6
HIDDEN2
100
AcDbLine
 10
41.88073684452837
 20
26.33353800979175
 30
0.0
 11
37.0263610078153
 21
26.33353800979175
 31
0.0
  0
HATCH
  5
145
330
2
100
AcDbEntity
  8
0
100
AcDbHatch
 10
0.0
 20
0.0
 30
0.0
210
0.0
220
0.0
230
1.0
  2
HONEY
 70
     0
 71
     0
 91
        2
 92
       16
 93
        9
 72
     1
 10
39.78759444100729
 20
31.70851114025179
 11
39.78759444100729
 21
31.73818783063128
 72
     1
 10
39.78759444100729
 20
31.73818783063125
 11
40.16499182739465
 21
31.73803217156079
 72
     1
 10
40.16499182739465
 20
31.73803217156079
 11
40.16485969834081
 21
31.41768360826719
 72
     1
 10
40.16485969834081
 20
31.41768360826721
 11
40.13135814533131
 21
31.41769742611753
 72
     1
 10
40.13135814533126
 20
31.41769742611753
 11
40.13147869349888
 21
31.70996798413809
 72
     1
 10
40.13147869349888
 20
31.70996798413809
 11
39.8180521606572
 21
31.71009725817261
 72
     1
 10
39.8180521606572
 20
31.71009725817261
 11
39.91295880047142
 21
31.6151122968035
 72
     1
 10
39.91295880047142
 20
31.6151122968035
 11
39.88091627076267
 21
31.6151122968035
 72
     1
 10
39.88091627076267
 20
31.6151122968035
 11
39.78759444100735
 21
31.70851114025179
 97
        0
 92
        1
 93
       11
 72
     1
 10
40.23466022695362
 20
31.40893215279839
 11
40.23477271289624
 21
31.68165574439262
 72
     2
 10
40.17764470178383
 20
31.68167930707064
 40
0.0571280159716573
 50
359.9763681265573
 51
449.9763681265644
 73
     1
 72
     1
 10
40.17766826446188
 20
31.73880731818305
 11
39.78681406607035
 21
31.73896852756975
 72
     1
 10
39.78681406607035
 20
31.73896852756975
 11
39.78676250932182
 21
31.61396853820214
 72
     1
 10
39.78676250932182
 20
31.61396853820214
 11
40.13073684452836
 21
31.61382666460362
 72
     1
 10
40.13073684452831
 20
31.61382666460362
 11
40.13062013859536
 21
31.33087165310705
 72
     2
 10
40.31812916435524
 20
31.35271605456946
 40
0.1887771506741734
 50
186.6448831998169
 51
353.3078530532888
 73
     1
 72
     1
 10
40.50562010669819
 20
31.33071698286141
 11
40.50574879569842
 21
31.64272509266464
 72
     2
 10
40.4169466729507
 20
31.63663557617006
 40
0.0890106691113012
 50
3.922859359099021
 51
176.0298768940037
 73
     1
 72
     1
 10
40.328149603707
 20
31.64279834416594
 11
40.39223651618982
 21
31.43236128404352
 72
     2
 10
40.31519508321531
 20
31.4088989358729
 40
0.0805348631119007
 50
343.0623079543601
 51
540.0236318734479
 73
     0
 97
        0
 75
     1
 76
     1
 52
0.0
 41
0.2
 77
     0
 78
     3
 53
0.0
 43
-65.52016230708665
 44
-19.50737531950385
 45
0.0375
 46
0.021650635094611
 79
     2
 49
0.025
 49
-0.05
 53
120.0
 43
-65.52016230708665
 44
-19.50737531950385
 45
-0.0375
 46
0.021650635094611
 79
     2
 49
0.025
 49
-0.0499999999999999
 53
60.0
 43
-65.52016230708665
 44
-19.50737531950385
 45
0.0
 46
0.043301270189222
 79
     2
 49
-0.05
 49
0.025
 98
        1
 10
-65.52016230708665
 20
-19.50737531950385
1001
GradientColor1ACI
1070
     5
1001
GradientColor2ACI
1070
     2
1001
ACAD
1010
0.0
1020
0.0
1030
0.0
  0
LWPOLYLINE
  5
146
330
2
100
AcDbEntity
  8
0
100
AcDbPolyline
 90
       11
 70
     1
 43
0.0
 10
40.23466022695362
 20
31.40893215279839
 10
40.23477271289624
 20
31.68165574439262
 42
0.4142135623731042
 10
40.17766826446188
 20
31.73880731818305
 10
39.78681406607035
 20
31.73896852756975
 10
39.78676250932182
 20
31.61396853820214
 10
40.13073684452831
 20
31.61382666460362
 10
40.13062013859536
 20
31.33087165310705
 42
0.8898955318630001
 10
40.50562010669819
 20
31.33071698286141
 10
40.50574879569842
 20
31.64272509266464
 42
0.9333884728362816
 10
40.328149603707
 20
31.64279834416594
 10
40.39223651618982
 20
31.43236128404352
 42
-1.16016115395227
  0
LWPOLYLINE
  5
147
330
2
100
AcDbEntity
  8
0
  6
Continuous
100
AcDbPolyline
 90
        9
 70
     1
 43
0.0
 10
39.78759444100729
 20
31.70851114025179
 10
39.78759444100729
 20
31.73818783063125
 10
40.16499182739465
 20
31.73803217156079
 10
40.16485969834081
 20
31.41768360826721
 10
40.13135814533126
 20
31.41769742611753
 10
40.13147869349888
 20
31.70996798413809
 10
39.8180521606572
 20
31.71009725817261
 10
39.91295880047142
 20
31.6151122968035
 10
39.88091627076267
 20
31.6151122968035
  0
LINE
  5
148
330
2
100
AcDbEntity
  8
0
  6
HIDDEN
100
AcDbLine
 10
39.94323684452837
 20
17.99010194887604
 30
0.0
 11
39.94323684452837
 21
18.08210194887685
 31
0.0
  0
LINE
  5
14A
330
2
100
AcDbEntity
  8
0
  6
HIDDEN
100
AcDbLine
 10
39.94323684452837
 20
19.11885626043362
 30
0.0
 11
39.94323684452832
 21
26.33353800979175
 31
0.0
  0
LINE
  5
14B
330
2
100
AcDbEntity
  8
0
  6
HIDDEN
100
AcDbLine
 10
39.94323684452826
 20
26.45853800979172
 30
0.0
 11
39.94323684452832
 21
31.14497407070745
 31
0.0
  0
LINE
  5
14C
330
2
100
AcDbEntity
  8
0
100
AcDbLine
 10
40.12942704708371
 20
31.14497407070745
 30
0.0
 11
40.12942704708371
 21
26.45853800979172
 31
0.0
  0
LINE
  5
14D
330
2
100
AcDbEntity
  8
0
100
AcDbLine
 10
40.12942704708376
 20
26.33353800979175
 30
0.0
 11
40.12942704708365
 21
19.15421505583718
 31
0.0
  0
LINE
  5
14E
330
2
100
AcDbEntity
  8
0
100
AcDbLine
 10
40.12942704708365
 20
18.17479215143201
 30
0.0
 11
40.12942704708365
 21
17.99010194887604
 31
0.0
  0
LINE
  5
14F
330
2
100
AcDbEntity
  8
0
100
AcDbLine
 10
39.06642704708378
 20
31.14497407070745
 30
0.0
 11
39.06642704708378
 21
26.4585380097917
 31
0.0
  0
LINE
  5
150
330
2
100
AcDbEntity
  8
0
100
AcDbLine
 10
39.12892704708378
 20
31.14497407070745
 30
0.0
 11
39.12892704708378
 21
26.4585380097917
 31
0.0
  0
LINE
  5
151
330
2
100
AcDbEntity
  8
0
100
AcDbLine
 10
39.19142704708378
 20
31.14497407070745
 30
0.0
 11
39.19142704708378
 21
26.4585380097917
 31
0.0
  0
LINE
  5
152
330
2
100
AcDbEntity
  8
0
100
AcDbLine
 10
39.06642704708378
 20
26.33353800979175
 30
0.0
 11
39.06642704708378
 21
17.99010194887604
 31
0.0
  0
LINE
  5
153
330
2
100
AcDbEntity
  8
0
100
AcDbLine
 10
39.12892704708378
 20
26.33353800979175
 30
0.0
 11
39.12892704708378
 21
17.99010194887604
 31
0.0
  0
LINE
  5
154
330
2
100
AcDbEntity
  8
0
100
AcDbLine
 10
39.19142704708378
 20
26.33353800979175
 30
0.0
 11
39.19142704708378
 21
17.99010194887604
 31
0.0
  0
LINE
  5
155
330
2
100
AcDbEntity
  8
0
100
AcDbLine
 10
40.50573684452831
 20
31.14497407070745
 30
0.0
 11
37.75442704708377
 21
31.14497407070745
 31
0.0
  0
LINE
  5
156
330
2
100
AcDbEntity
  8
0
100
AcDbLine
 10
40.12942704708365
 20
17.99010194887607
 30
0.0
 11
37.75442704708377
 21
17.99010194887607
 31
0.0
  0
LINE
  5
157
330
2
100
AcDbEntity
  8
0
100
AcDbLine
 10
40.56773684452832
 20
18.33310194887606
 30
0.0
 11
40.28773684452818
 21
18.33310194887606
 31
0.0
  0
LWPOLYLINE
  5
158
330
2
100
AcDbEntity
  8
0
100
AcDbPolyline
 90
        2
 70
     0
 43
0.0
 10
37.69323684452826
 20
32.00497960321282
 10
37.17924198452823
 20
32.00497960321282
  0
LWPOLYLINE
  5
159
330
2
100
AcDbEntity
  8
0
  6
Continuous
100
AcDbPolyline
 90
        2
 70
     0
 43
0.0
 10
37.2412368445282
 20
30.87689648088302
 10
37.08323684452825
 20
30.87689648088302
  0
LWPOLYLINE
  5
15A
330
2
100
AcDbEntity
  8
0
  6
Continuous
100
AcDbPolyline
 90
        4
 70
     1
 43
0.0
 10
37.03723684452825
 20
30.75189648088302
 10
37.03723684452825
 20
31.75189648088302
 10
37.08323684452825
 20
31.75189648088302
 10
37.08323684452825
 20
30.75189648088302
  0
LWPOLYLINE
  5
15B
330
2
100
AcDbEntity
  8
0
  6
Continuous
100
AcDbPolyline
 90
        4
 70
     1
 43
0.0
 10
37.28723684452825
 20
30.75189648088302
 10
37.2412368445282
 20
30.75189648088302
 10
37.2412368445282
 20
31.75189648088302
 10
37.28723684452825
 20
31.75189648088302
  0
LWPOLYLINE
  5
15C
330
2
100
AcDbEntity
  8
0
  6
Continuous
100
AcDbPolyline
 90
        2
 70
     0
 43
0.0
 10
37.08323684452825
 20
31.62689648088302
 10
37.2412368445282
 20
31.62689648088302
  0
LWPOLYLINE
  5
15D
330
2
100
AcDbEntity
  8
0
  6
Continuous
100
AcDbPolyline
 90
       23
 70
     0
 43
0.0
 10
37.56223684452823
 20
31.58997960321283
 10
37.62423684452824
 20
31.58997960321285
 10
37.62423684452824
 20
31.35797960321283
 10
37.56223684452823
 20
31.35797960321283
 10
37.56223684452823
 20
31.41197960321283
 10
37.52223684452821
 20
31.41197960321286
 10
37.52223684452821
 20
31.31797960321283
 10
37.69323684452826
 20
31.31797960321283
 10
37.69323684452826
 20
32.00497960321282
 10
36.75523684452822
 20
32.00497960321282
 10
36.75523684452822
 20
31.31797960321283
 10
36.80523684452822
 20
31.31797960321283
 10
36.80523684452822
 20
31.95497960321283
 10
37.13123684452825
 20
31.95497960321283
 10
37.13123684452825
 20
31.71612657137489
 42
2.878390015866671
 10
37.19323684452826
 20
31.71612657137489
 10
37.19323684452826
 20
31.95497960321283
 10
37.64323684452825
 20
31.95497960321281
 10
37.64323684452825
 20
31.62997960321282
 10
37.52223684452821
 20
31.62997960321282
 10
37.52223684452821
 20
31.53597960321282
 10
37.56223684452823
 20
31.53597960321282
 10
37.56223684452823
 20
31.58997960321283
  0
LWPOLYLINE
  5
15E
330
2
100
AcDbEntity
  8
0
100
AcDbPolyline
 90
       14
 70
     1
 43
0.0
 10
36.92723684452824
 20
30.020896480883
 10
36.92723684452824
 20
31.73889648088302
 10
36.88123684452825
 20
31.73889648088302
 10
36.88123684452825
 20
29.97489648088301
 10
37.24113684452823
 20
29.97489648088301
 10
37.24113684452823
 20
29.81839648088304
 10
37.03763684452821
 20
29.81839648088304
 10
37.03763684452821
 20
29.77089648088302
 10
37.28863684452824
 20
29.77089648088302
 10
37.28863684452824
 20
29.97489648088301
 10
37.44323684452826
 20
29.97489648088301
 10
37.4432368445282
 20
31.73889648088302
 10
37.39723684452821
 20
31.73889648088302
 10
37.39723684452821
 20
30.020896480883
  0
LWPOLYLINE
  5
15F
330
2
100
AcDbEntity
  8
0
  6
Continuous
100
AcDbPolyline
 90
        2
 70
     0
 43
0.0
 10
37.24109691191791
 20
18.17009128362703
 10
37.08309691191789
 20
18.17009128362703
  0
LWPOLYLINE
  5
160
330
2
100
AcDbEntity
  8
0
  6
Continuous
100
AcDbPolyline
 90
        4
 70
     1
 43
0.0
 10
37.0370969119179
 20
18.25093506239013
 10
37.0370969119179
 20
17.25093506239012
 10
37.08309691191789
 20
17.25093506239012
 10
37.08309691191789
 20
18.25093506239013
  0
LWPOLYLINE
  5
161
330
2
100
AcDbEntity
  8
0
  6
Continuous
100
AcDbPolyline
 90
        4
 70
     1
 43
0.0
 10
37.2870969119179
 20
18.25093506239013
 10
37.24109691191791
 20
18.25093506239013
 10
37.24109691191791
 20
17.25093506239012
 10
37.2870969119179
 20
17.25093506239012
  0
LWPOLYLINE
  5
162
330
2
100
AcDbEntity
  8
0
  6
Continuous
100
AcDbPolyline
 90
        2
 70
     0
 43
0.0
 10
37.08309691191789
 20
17.37593506239013
 10
37.24109691191791
 20
17.37593506239013
  0
LWPOLYLINE
  5
163
330
2
100
AcDbEntity
  8
0
100
AcDbPolyline
 90
       13
 70
     0
 43
0.0
 10
37.19477965550931
 20
17.12685428023279
 10
37.7877802655093
 20
17.12685428023279
 10
37.7877802655093
 20
17.0628542802328
 10
36.88178026550929
 20
17.0628542802328
 42
0.4142135623733725
 10
36.85178026550932
 20
17.0328542802328
 10
36.85178026550932
 20
16.97209396352834
 10
36.7877802655093
 20
16.97209396352834
 10
36.7877802655093
 20
17.03485428023278
 42
-0.4142135623730046
 10
36.87978026550928
 20
17.12685428023282
 10
37.1337802655093
 20
17.12685428023282
 10
37.1337802655093
 20
17.25877921468408
 42
-3.799063757930514
 10
37.19477965550931
 20
17.26124883770718
 10
37.19477965550931
 20
17.12685364023279
  0
LWPOLYLINE
  5
164
330
2
100
AcDbEntity
  8
0
100
AcDbPolyline
 90
       14
 70
     1
 43
0.0
 10
36.88123684452825
 20
17.40193506239014
 10
36.88123684452825
 20
19.16593506239015
 10
37.24113684452823
 20
19.16593506239015
 10
37.24113684452823
 20
19.32243506239011
 10
37.03763684452821
 20
19.32243506239011
 10
37.03763684452821
 20
19.36993506239012
 10
37.28863684452824
 20
19.36993506239012
 10
37.28863684452824
 20
19.16593506239015
 10
37.4432368445282
 20
19.16593506239015
 10
37.4432368445282
 20
17.40193506239014
 10
37.39723684452821
 20
17.40193506239014
 10
37.39723684452821
 20
19.11993506239013
 10
36.92723684452824
 20
19.11993506239013
 10
36.92723684452824
 20
17.40193506239014
  0
LWPOLYLINE
  5
165
330
2
100
AcDbEntity
  8
0
  6
Continuous
100
AcDbPolyline
 90
        2
 70
     0
 43
0.0
 10
37.4337368445282
 20
31.54055655295669
 10
37.56573684452826
 20
31.50397960321278
  0
LWPOLYLINE
  5
166
330
2
100
AcDbEntity
  8
0
  6
Continuous
100
AcDbPolyline
 90
        2
 70
     0
 43
0.0
 10
37.4337368445282
 20
31.47147960321276
 10
37.59073684452824
 20
31.47147960321276
  0
LWPOLYLINE
  5
167
330
2
100
AcDbEntity
  8
0
  6
Continuous
100
AcDbPolyline
 90
        2
 70
     0
 43
0.0
 10
37.4337368445282
 20
31.47647960321275
 10
37.59073684452824
 20
31.47647960321275
  0
LWPOLYLINE
  5
168
330
2
100
AcDbEntity
  8
0
  6
Continuous
100
AcDbPolyline
 90
        3
 70
     0
 43
0.0
 10
37.59073684452824
 20
31.48064626987947
 10
37.56573684452826
 20
31.48064626987947
 10
37.4337368445282
 20
31.48538856406886
  0
LWPOLYLINE
  5
169
330
2
100
AcDbEntity
  8
0
  6
Continuous
100
AcDbPolyline
 90
        3
 70
     0
 43
0.0
 10
37.59073684452824
 20
31.4839796032128
 10
37.56573684452826
 20
31.4839796032128
 10
37.4337368445282
 20
31.49340166323863
  0
LWPOLYLINE
  5
16A
330
2
100
AcDbEntity
  8
0
  6
Continuous
100
AcDbPolyline
 90
        3
 70
     0
 43
0.0
 10
37.59073684452824
 20
31.48731293654613
 10
37.56573684452826
 20
31.48731293654613
 10
37.4337368445282
 20
31.5013697179901
  0
LWPOLYLINE
  5
16B
330
2
100
AcDbEntity
  8
0
  6
Continuous
100
AcDbPolyline
 90
        3
 70
     0
 43
0.0
 10
37.59073684452824
 20
31.49064626987946
 10
37.56573684452826
 20
31.49064626987946
 10
37.4337368445282
 20
31.50929337556126
  0
LWPOLYLINE
  5
16C
330
2
100
AcDbEntity
  8
0
  6
Continuous
100
AcDbPolyline
 90
        3
 70
     0
 43
0.0
 10
37.59073684452824
 20
31.49397960321279
 10
37.56573684452826
 20
31.49397960321279
 10
37.4337368445282
 20
31.51717327084903
  0
LWPOLYLINE
  5
16D
330
2
100
AcDbEntity
  8
0
  6
Continuous
100
AcDbPolyline
 90
        3
 70
     0
 43
0.0
 10
37.59073684452824
 20
31.49731293654613
 10
37.56573684452826
 20
31.49731293654613
 10
37.4337368445282
 20
31.52501002670216
  0
LWPOLYLINE
  5
16E
330
2
100
AcDbEntity
  8
0
  6
Continuous
100
AcDbPolyline
 90
        3
 70
     0
 43
0.0
 10
37.59073684452824
 20
31.50064626987945
 10
37.56573684452826
 20
31.50064626987945
 10
37.4337368445282
 20
31.53280425420554
  0
LWPOLYLINE
  5
16F
330
2
100
AcDbEntity
  8
0
  6
Continuous
100
AcDbPolyline
 90
        3
 70
     0
 43
0.0
 10
37.4337368445282
 20
31.46257064235671
 10
37.56573684452826
 20
31.46731293654615
 10
37.59073684452824
 20
31.46731293654615
  0
LWPOLYLINE
  5
170
330
2
100
AcDbEntity
  8
0
  6
Continuous
100
AcDbPolyline
 90
        3
 70
     0
 43
0.0
 10
37.4337368445282
 20
31.45455754318694
 10
37.56573684452826
 20
31.46397960321277
 10
37.59073684452824
 20
31.46397960321277
  0
LWPOLYLINE
  5
171
330
2
100
AcDbEntity
  8
0
  6
Continuous
100
AcDbPolyline
 90
        3
 70
     0
 43
0.0
 10
37.4337368445282
 20
31.44658948843552
 10
37.56573684452826
 20
31.46064626987943
 10
37.59073684452824
 20
31.46064626987943
  0
LWPOLYLINE
  5
172
330
2
100
AcDbEntity
  8
0
  6
Continuous
100
AcDbPolyline
 90
        3
 70
     0
 43
0.0
 10
37.4337368445282
 20
31.43866583086437
 10
37.56573684452826
 20
31.4573129365461
 10
37.59073684452824
 20
31.4573129365461
  0
LWPOLYLINE
  5
173
330
2
100
AcDbEntity
  8
0
  6
Continuous
100
AcDbPolyline
 90
        3
 70
     0
 43
0.0
 10
37.4337368445282
 20
31.43078593557654
 10
37.56573684452826
 20
31.45397960321278
 10
37.59073684452824
 20
31.45397960321278
  0
LWPOLYLINE
  5
174
330
2
100
AcDbEntity
  8
0
  6
Continuous
100
AcDbPolyline
 90
        3
 70
     0
 43
0.0
 10
37.4337368445282
 20
31.4229491797234
 10
37.56573684452826
 20
31.45064626987944
 10
37.59073684452824
 20
31.45064626987944
  0
LWPOLYLINE
  5
175
330
2
100
AcDbEntity
  8
0
  6
Continuous
100
AcDbPolyline
 90
        3
 70
     0
 43
0.0
 10
37.4337368445282
 20
31.41515495222002
 10
37.56573684452826
 20
31.44731293654611
 10
37.59073684452824
 20
31.44731293654611
  0
LWPOLYLINE
  5
176
330
2
100
AcDbEntity
  8
0
  6
Continuous
100
AcDbPolyline
 90
       10
 70
     0
 43
0.0
 10
37.4337368445282
 20
31.37820148431548
 10
37.56573684452826
 20
31.44397960321278
 10
37.56573684452826
 20
31.36460460321281
 10
37.62073684452821
 20
31.36460460321281
 10
37.62073684452821
 20
31.58335460321281
 10
37.56573684452826
 20
31.58335460321281
 10
37.56573684452826
 20
31.50397960321278
 10
37.59073684452824
 20
31.50397960321278
 10
37.59073684452824
 20
31.44397960321278
 10
37.56573684452826
 20
31.44397960321278
  0
LWPOLYLINE
  5
177
330
2
100
AcDbEntity
  8
0
  6
Continuous
100
AcDbPolyline
 90
        3
 70
     0
 43
0.0
 10
37.4337368445282
 20
31.39465846023565
 10
37.56573684452826
 20
31.44397960321278
 10
37.4337368445282
 20
31.40740265346888
  0
LWPOLYLINE
  5
178
330
2
100
AcDbEntity
  8
0
  6
Continuous
100
AcDbPolyline
 90
        2
 70
     0
 43
0.0
 10
37.4337368445282
 20
31.3871461308657
 10
37.56237888046286
 20
31.44304911773658
  0
LWPOLYLINE
  5
179
330
2
100
AcDbEntity
  8
0
  6
Continuous
100
AcDbPolyline
 90
        3
 70
     0
 43
0.0
 10
37.4337368445282
 20
31.56975772211009
 10
37.56573684452826
 20
31.50397960321278
 10
37.4337368445282
 20
31.55330074618992
  0
LWPOLYLINE
  5
17A
330
2
100
AcDbEntity
  8
0
  6
Continuous
100
AcDbPolyline
 90
        2
 70
     0
 43
0.0
 10
37.4337368445282
 20
31.56081307555986
 10
37.56237888046286
 20
31.50491008868899
  0
LWPOLYLINE
  5
17B
330
2
100
AcDbEntity
  8
0
  6
HIDDEN2
100
AcDbPolyline
 90
        4
 70
     0
 43
0.02
 10
37.16476078363712
 20
29.89664648088304
 10
37.07286100781528
 20
29.89664648088304
 42
0.4142135623730951
 10
37.0263610078153
 20
29.85014648088302
 10
37.0263610078153
 20
26.4585380097917
  0
LWPOLYLINE
  5
17C
330
2
100
AcDbEntity
  8
0
100
AcDbPolyline
 90
        2
 70
     1
 43
0.078125
 10
37.16476078363712
 20
29.93570898088304
 42
1.0
 10
37.16476078363712
 20
29.85758398088304
 42
1.0
  0
LWPOLYLINE
  5
17D
330
2
100
AcDbEntity
  8
0
  6
HIDDEN2
100
AcDbPolyline
 90
        4
 70
     0
 43
0.02
 10
37.16476078363712
 20
19.24486822300214
 10
37.07286100781528
 20
19.24486822300214
 42
-0.4142135623730951
 10
37.0263610078153
 20
19.29136822300215
 10
37.0263610078153
 20
26.33353800979175
  0
LWPOLYLINE
  5
17E
330
2
100
AcDbEntity
  8
0
100
AcDbPolyline
 90
        2
 70
     1
 43
0.078125
 10
37.16476078363712
 20
19.20580572300214
 42
-1.0
 10
37.16476078363712
 20
19.28393072300214
 42
-1.0
  0
LINE
  5
17F
330
2
100
AcDbEntity
  8
0
100
AcDbLine
 10
37.75442704708377
 20
31.14497407070745
 30
0.0
 11
37.75442704708377
 21
26.45853800979172
 31
0.0
  0
LINE
  5
180
330
2
100
AcDbEntity
  8
0
100
AcDbLine
 10
37.75442704708382
 20
26.33353800979178
 30
0.0
 11
37.75442704708377
 21
17.99010194887607
 31
0.0
  0
LWPOLYLINE
  5
181
330
2
100
AcDbEntity
  8
0
  6
Continuous
100
AcDbPolyline
 90
        6
 70
     1
 43
0.0
 10
40.50442704708376
 20
17.28746256888472
 10
40.65729238781313
 20
17.78746256888472
 10
37.75442704708377
 20
17.78746256888472
 10
37.75442704708377
 20
17.14813861068087
 10
38.12942704708376
 20
17.14813861068087
 10
38.12942704708376
 20
17.08242997307279
  0
LWPOLYLINE
  5
182
330
2
100
AcDbEntity
  8
0
  6
Continuous
100
AcDbPolyline
 90
        2
 70
     0
 43
0.0
 10
37.86130204708371
 20
17.99731211291326
 10
37.86130204708371
 20
17.81746256888469
  0
LWPOLYLINE
  5
183
330
2
100
AcDbEntity
  8
0
  6
Continuous
100
AcDbPolyline
 90
        2
 70
     0
 43
0.0
 10
37.86630204708371
 20
17.99731211291326
 10
37.86630204708371
 20
17.81746256888469
  0
LWPOLYLINE
  5
184
330
2
100
AcDbEntity
  8
0
  6
Continuous
100
AcDbPolyline
 90
        3
 70
     0
 43
0.0
 10
37.87046871375043
 20
17.81746256888469
 10
37.87046871375043
 20
17.84246256888467
 10
37.87521100793981
 20
17.99731211291326
  0
LWPOLYLINE
  5
185
330
2
100
AcDbEntity
  8
0
  6
Continuous
100
AcDbPolyline
 90
        3
 70
     0
 43
0.0
 10
37.87380204708376
 20
17.81746256888469
 10
37.87380204708376
 20
17.84246256888467
 10
37.88322410710958
 20
17.99731211291326
  0
LWPOLYLINE
  5
186
330
2
100
AcDbEntity
  8
0
  6
Continuous
100
AcDbPolyline
 90
        3
 70
     0
 43
0.0
 10
37.87713538041709
 20
17.81746256888469
 10
37.87713538041709
 20
17.84246256888467
 10
37.89119216186106
 20
17.99731211291326
  0
LWPOLYLINE
  5
187
330
2
100
AcDbEntity
  8
0
  6
Continuous
100
AcDbPolyline
 90
        3
 70
     0
 43
0.0
 10
37.88046871375042
 20
17.81746256888469
 10
37.88046871375042
 20
17.84246256888467
 10
37.89911581943221
 20
17.99731211291326
  0
LWPOLYLINE
  5
188
330
2
100
AcDbEntity
  8
0
  6
Continuous
100
AcDbPolyline
 90
        3
 70
     0
 43
0.0
 10
37.88380204708375
 20
17.81746256888469
 10
37.88380204708375
 20
17.84246256888467
 10
37.90699571471999
 20
17.99731211291326
  0
LWPOLYLINE
  5
189
330
2
100
AcDbEntity
  8
0
  6
Continuous
100
AcDbPolyline
 90
        3
 70
     0
 43
0.0
 10
37.85239308622767
 20
17.99731211291326
 10
37.85713538041711
 20
17.84246256888467
 10
37.85713538041711
 20
17.81746256888469
  0
LWPOLYLINE
  5
18A
330
2
100
AcDbEntity
  8
0
  6
Continuous
100
AcDbPolyline
 90
        3
 70
     0
 43
0.0
 10
37.84437998705789
 20
17.99731211291326
 10
37.85380204708372
 20
17.84246256888467
 10
37.85380204708372
 20
17.81746256888469
  0
LWPOLYLINE
  5
18B
330
2
100
AcDbEntity
  8
0
  6
Continuous
100
AcDbPolyline
 90
        3
 70
     0
 43
0.0
 10
37.83641193230648
 20
17.99731211291326
 10
37.85046871375039
 20
17.84246256888467
 10
37.85046871375039
 20
17.81746256888469
  0
LWPOLYLINE
  5
18C
330
2
100
AcDbEntity
  8
0
  6
Continuous
100
AcDbPolyline
 90
        3
 70
     0
 43
0.0
 10
37.82848827473532
 20
17.99731211291326
 10
37.84713538041706
 20
17.84246256888467
 10
37.84713538041706
 20
17.81746256888469
  0
LWPOLYLINE
  5
18D
330
2
100
AcDbEntity
  8
0
  6
Continuous
100
AcDbPolyline
 90
        3
 70
     0
 43
0.0
 10
37.8206083794475
 20
17.99731211291326
 10
37.84380204708373
 20
17.84246256888467
 10
37.84380204708373
 20
17.81746256888469
  0
LWPOLYLINE
  5
18E
330
2
100
AcDbEntity
  8
0
  6
Continuous
100
AcDbPolyline
 90
        3
 70
     0
 43
0.0
 10
37.81277162359436
 20
17.99731211291326
 10
37.8404687137504
 20
17.84246256888467
 10
37.8404687137504
 20
17.81746256888469
  0
LWPOLYLINE
  5
18F
330
2
100
AcDbEntity
  8
0
  6
Continuous
100
AcDbPolyline
 90
        3
 70
     0
 43
0.0
 10
37.80497739609098
 20
17.99731211291326
 10
37.83713538041707
 20
17.84246256888467
 10
37.83713538041707
 20
17.81746256888469
  0
LWPOLYLINE
  5
190
330
2
100
AcDbEntity
  8
0
  6
Continuous
100
AcDbPolyline
 90
        3
 70
     0
 43
0.0
 10
37.7844809041066
 20
17.99731211291326
 10
37.83380204708374
 20
17.84246256888467
 10
37.76802392818644
 20
17.99731211291326
  0
LWPOLYLINE
  5
191
330
2
100
AcDbEntity
  8
0
  6
Continuous
100
AcDbPolyline
 90
        2
 70
     0
 43
0.0
 10
37.77696857473666
 20
17.99731211291326
 10
37.83287156160753
 20
17.84582053295007
  0
LWPOLYLINE
  5
192
330
2
100
AcDbEntity
  8
0
  6
Continuous
100
AcDbPolyline
 90
        2
 70
     0
 43
0.0
 10
37.96836289406253
 20
17.99731211291326
 10
37.96836289406253
 20
17.81746256888469
  0
LWPOLYLINE
  5
193
330
2
100
AcDbEntity
  8
0
  6
Continuous
100
AcDbPolyline
 90
        2
 70
     0
 43
0.0
 10
37.96336289406253
 20
17.99731211291326
 10
37.96336289406253
 20
17.81746256888469
  0
LWPOLYLINE
  5
194
330
2
100
AcDbEntity
  8
0
  6
Continuous
100
AcDbPolyline
 90
        3
 70
     0
 43
0.0
 10
37.95919622739581
 20
17.81746256888469
 10
37.95919622739581
 20
17.84246256888467
 10
37.95445393320643
 20
17.99731211291326
  0
LWPOLYLINE
  5
195
330
2
100
AcDbEntity
  8
0
  6
Continuous
100
AcDbPolyline
 90
        3
 70
     0
 43
0.0
 10
37.95586289406248
 20
17.81746256888469
 10
37.95586289406248
 20
17.84246256888467
 10
37.94644083403665
 20
17.99731211291326
  0
LWPOLYLINE
  5
196
330
2
100
AcDbEntity
  8
0
  6
Continuous
100
AcDbPolyline
 90
        3
 70
     0
 43
0.0
 10
37.95252956072915
 20
17.81746256888469
 10
37.95252956072915
 20
17.84246256888467
 10
37.93847277928518
 20
17.99731211291326
  0
LWPOLYLINE
  5
197
330
2
100
AcDbEntity
  8
0
  6
Continuous
100
AcDbPolyline
 90
        3
 70
     0
 43
0.0
 10
37.94919622739582
 20
17.81746256888469
 10
37.94919622739582
 20
17.84246256888467
 10
37.93054912171403
 20
17.99731211291326
  0
LWPOLYLINE
  5
198
330
2
100
AcDbEntity
  8
0
  6
Continuous
100
AcDbPolyline
 90
        3
 70
     0
 43
0.0
 10
37.94586289406249
 20
17.81746256888469
 10
37.94586289406249
 20
17.84246256888467
 10
37.92266922642625
 20
17.99731211291326
  0
LWPOLYLINE
  5
199
330
2
100
AcDbEntity
  8
0
  6
Continuous
100
AcDbPolyline
 90
        3
 70
     0
 43
0.0
 10
37.97727185491857
 20
17.99731211291326
 10
37.97252956072913
 20
17.84246256888467
 10
37.97252956072913
 20
17.81746256888469
  0
LWPOLYLINE
  5
19A
330
2
100
AcDbEntity
  8
0
  6
Continuous
100
AcDbPolyline
 90
        3
 70
     0
 43
0.0
 10
37.98528495408834
 20
17.99731211291326
 10
37.97586289406252
 20
17.84246256888467
 10
37.97586289406252
 20
17.81746256888469
  0
LWPOLYLINE
  5
19B
330
2
100
AcDbEntity
  8
0
  6
Continuous
100
AcDbPolyline
 90
        3
 70
     0
 43
0.0
 10
37.99325300883976
 20
17.99731211291326
 10
37.97919622739585
 20
17.84246256888467
 10
37.97919622739585
 20
17.81746256888469
  0
LWPOLYLINE
  5
19C
330
2
100
AcDbEntity
  8
0
  6
Continuous
100
AcDbPolyline
 90
        3
 70
     0
 43
0.0
 10
38.00117666641091
 20
17.99731211291326
 10
37.98252956072918
 20
17.84246256888467
 10
37.98252956072918
 20
17.81746256888469
  0
LWPOLYLINE
  5
19D
330
2
100
AcDbEntity
  8
0
  6
Continuous
100
AcDbPolyline
 90
        3
 70
     0
 43
0.0
 10
38.00905656169874
 20
17.99731211291326
 10
37.98586289406251
 20
17.84246256888467
 10
37.98586289406251
 20
17.81746256888469
  0
LWPOLYLINE
  5
19E
330
2
100
AcDbEntity
  8
0
100
AcDbPolyline
 90
        4
 70
     1
 43
0.0
 10
37.75442704708377
 20
17.84246256888467
 10
37.75442704708377
 20
17.78746256888472
 10
40.23084732810781
 20
17.78746256888472
 10
40.23084732810781
 20
17.84246256888467
  0
LWPOLYLINE
  5
19F
330
2
100
AcDbEntity
  8
0
  6
Continuous
100
AcDbPolyline
 90
        2
 70
     0
 43
0.0
 10
38.07042374104128
 20
17.99731211291326
 10
38.07042374104128
 20
17.81746256888469
  0
LWPOLYLINE
  5
1A0
330
2
100
AcDbEntity
  8
0
  6
Continuous
100
AcDbPolyline
 90
        2
 70
     0
 43
0.0
 10
38.06542374104129
 20
17.99731211291326
 10
38.06542374104129
 20
17.81746256888469
  0
LWPOLYLINE
  5
1A1
330
2
100
AcDbEntity
  8
0
  6
Continuous
100
AcDbPolyline
 90
        3
 70
     0
 43
0.0
 10
38.06125707437457
 20
17.81746256888469
 10
38.06125707437457
 20
17.84246256888467
 10
38.05651478018518
 20
17.99731211291326
  0
LWPOLYLINE
  5
1A2
330
2
100
AcDbEntity
  8
0
  6
Continuous
100
AcDbPolyline
 90
        3
 70
     0
 43
0.0
 10
38.05792374104124
 20
17.81746256888469
 10
38.05792374104124
 20
17.84246256888467
 10
38.04850168101541
 20
17.99731211291326
  0
LWPOLYLINE
  5
1A3
330
2
100
AcDbEntity
  8
0
  6
Continuous
100
AcDbPolyline
 90
        3
 70
     0
 43
0.0
 10
38.05459040770791
 20
17.81746256888469
 10
38.05459040770791
 20
17.84246256888467
 10
38.04053362626394
 20
17.99731211291326
  0
LWPOLYLINE
  5
1A4
330
2
100
AcDbEntity
  8
0
  6
Continuous
100
AcDbPolyline
 90
        3
 70
     0
 43
0.0
 10
38.05125707437458
 20
17.81746256888469
 10
38.05125707437458
 20
17.84246256888467
 10
38.03260996869278
 20
17.99731211291326
  0
LWPOLYLINE
  5
1A5
330
2
100
AcDbEntity
  8
0
  6
Continuous
100
AcDbPolyline
 90
        3
 70
     0
 43
0.0
 10
38.04792374104124
 20
17.81746256888469
 10
38.04792374104124
 20
17.84246256888467
 10
38.02473007340501
 20
17.99731211291326
  0
LWPOLYLINE
  5
1A6
330
2
100
AcDbEntity
  8
0
  6
Continuous
100
AcDbPolyline
 90
        3
 70
     0
 43
0.0
 10
38.07933270189733
 20
17.99731211291326
 10
38.07459040770789
 20
17.84246256888467
 10
38.07459040770789
 20
17.81746256888469
  0
LWPOLYLINE
  5
1A7
330
2
100
AcDbEntity
  8
0
  6
Continuous
100
AcDbPolyline
 90
        3
 70
     0
 43
0.0
 10
38.0873458010671
 20
17.99731211291326
 10
38.07792374104128
 20
17.84246256888467
 10
38.07792374104128
 20
17.81746256888469
  0
LWPOLYLINE
  5
1A8
330
2
100
AcDbEntity
  8
0
  6
Continuous
100
AcDbPolyline
 90
        3
 70
     0
 43
0.0
 10
38.09531385581852
 20
17.99731211291326
 10
38.08125707437461
 20
17.84246256888467
 10
38.08125707437461
 20
17.81746256888469
  0
LWPOLYLINE
  5
1A9
330
2
100
AcDbEntity
  8
0
  6
Continuous
100
AcDbPolyline
 90
        3
 70
     0
 43
0.0
 10
38.10323751338967
 20
17.99731211291326
 10
38.08459040770794
 20
17.84246256888467
 10
38.08459040770794
 20
17.81746256888469
  0
LWPOLYLINE
  5
1AA
330
2
100
AcDbEntity
  8
0
  6
Continuous
100
AcDbPolyline
 90
        3
 70
     0
 43
0.0
 10
38.1111174086775
 20
17.99731211291326
 10
38.08792374104127
 20
17.84246256888467
 10
38.08792374104127
 20
17.81746256888469
  0
LWPOLYLINE
  5
1AB
330
2
100
AcDbEntity
  8
0
  6
Continuous
100
AcDbPolyline
 90
        2
 70
     0
 43
0.0
 10
38.17248458802004
 20
17.99731211291326
 10
38.17248458802004
 20
17.81746256888469
  0
LWPOLYLINE
  5
1AC
330
2
100
AcDbEntity
  8
0
  6
Continuous
100
AcDbPolyline
 90
        2
 70
     0
 43
0.0
 10
38.16748458802005
 20
17.99731211291326
 10
38.16748458802005
 20
17.81746256888469
  0
LWPOLYLINE
  5
1AD
330
2
100
AcDbEntity
  8
0
  6
Continuous
100
AcDbPolyline
 90
        3
 70
     0
 43
0.0
 10
38.16331792135333
 20
17.81746256888469
 10
38.16331792135333
 20
17.84246256888467
 10
38.15857562716394
 20
17.99731211291326
  0
LWPOLYLINE
  5
1AE
330
2
100
AcDbEntity
  8
0
  6
Continuous
100
AcDbPolyline
 90
        3
 70
     0
 43
0.0
 10
38.15998458801999
 20
17.81746256888469
 10
38.15998458801999
 20
17.84246256888467
 10
38.15056252799417
 20
17.99731211291326
  0
LWPOLYLINE
  5
1AF
330
2
100
AcDbEntity
  8
0
  6
Continuous
100
AcDbPolyline
 90
        3
 70
     0
 43
0.0
 10
38.15665125468667
 20
17.81746256888469
 10
38.15665125468667
 20
17.84246256888467
 10
38.1425944732427
 20
17.99731211291326
  0
LWPOLYLINE
  5
1B0
330
2
100
AcDbEntity
  8
0
  6
Continuous
100
AcDbPolyline
 90
        3
 70
     0
 43
0.0
 10
38.15331792135334
 20
17.81746256888469
 10
38.15331792135334
 20
17.84246256888467
 10
38.13467081567154
 20
17.99731211291326
  0
LWPOLYLINE
  5
1B1
330
2
100
AcDbEntity
  8
0
  6
Continuous
100
AcDbPolyline
 90
        3
 70
     0
 43
0.0
 10
38.14998458802
 20
17.81746256888469
 10
38.14998458802
 20
17.84246256888467
 10
38.12679092038377
 20
17.99731211291326
  0
LWPOLYLINE
  5
1B2
330
2
100
AcDbEntity
  8
0
  6
Continuous
100
AcDbPolyline
 90
        3
 70
     0
 43
0.0
 10
38.18139354887609
 20
17.99731211291326
 10
38.17665125468665
 20
17.84246256888467
 10
38.17665125468665
 20
17.81746256888469
  0
LWPOLYLINE
  5
1B3
330
2
100
AcDbEntity
  8
0
  6
Continuous
100
AcDbPolyline
 90
        3
 70
     0
 43
0.0
 10
38.18940664804586
 20
17.99731211291326
 10
38.17998458802004
 20
17.84246256888467
 10
38.17998458802004
 20
17.81746256888469
  0
LWPOLYLINE
  5
1B4
330
2
100
AcDbEntity
  8
0
  6
Continuous
100
AcDbPolyline
 90
        3
 70
     0
 43
0.0
 10
38.19737470279728
 20
17.99731211291326
 10
38.18331792135337
 20
17.84246256888467
 10
38.18331792135337
 20
17.81746256888469
  0
LWPOLYLINE
  5
1B5
330
2
100
AcDbEntity
  8
0
  6
Continuous
100
AcDbPolyline
 90
        3
 70
     0
 43
0.0
 10
38.20529836036843
 20
17.99731211291326
 10
38.18665125468669
 20
17.84246256888467
 10
38.18665125468669
 20
17.81746256888469
  0
LWPOLYLINE
  5
1B6
330
2
100
AcDbEntity
  8
0
  6
Continuous
100
AcDbPolyline
 90
        3
 70
     0
 43
0.0
 10
38.21317825565626
 20
17.99731211291326
 10
38.18998458802003
 20
17.84246256888467
 10
38.18998458802003
 20
17.81746256888469
  0
LWPOLYLINE
  5
1B7
330
2
100
AcDbEntity
  8
0
  6
Continuous
100
AcDbPolyline
 90
        2
 70
     0
 43
0.0
 10
38.2745454349988
 20
17.99731211291326
 10
38.2745454349988
 20
17.81746256888469
  0
LWPOLYLINE
  5
1B8
330
2
100
AcDbEntity
  8
0
  6
Continuous
100
AcDbPolyline
 90
        2
 70
     0
 43
0.0
 10
38.2695454349988
 20
17.99731211291326
 10
38.2695454349988
 20
17.81746256888469
  0
LWPOLYLINE
  5
1B9
330
2
100
AcDbEntity
  8
0
  6
Continuous
100
AcDbPolyline
 90
        3
 70
     0
 43
0.0
 10
38.26537876833209
 20
17.81746256888469
 10
38.26537876833209
 20
17.84246256888467
 10
38.2606364741427
 20
17.99731211291326
  0
LWPOLYLINE
  5
1BA
330
2
100
AcDbEntity
  8
0
  6
Continuous
100
AcDbPolyline
 90
        3
 70
     0
 43
0.0
 10
38.26204543499875
 20
17.81746256888469
 10
38.26204543499875
 20
17.84246256888467
 10
38.25262337497293
 20
17.99731211291326
  0
LWPOLYLINE
  5
1BB
330
2
100
AcDbEntity
  8
0
  6
Continuous
100
AcDbPolyline
 90
        3
 70
     0
 43
0.0
 10
38.25871210166543
 20
17.81746256888469
 10
38.25871210166543
 20
17.84246256888467
 10
38.24465532022145
 20
17.99731211291326
  0
LWPOLYLINE
  5
1BC
330
2
100
AcDbEntity
  8
0
  6
Continuous
100
AcDbPolyline
 90
        3
 70
     0
 43
0.0
 10
38.25537876833209
 20
17.81746256888469
 10
38.25537876833209
 20
17.84246256888467
 10
38.2367316626503
 20
17.99731211291326
  0
LWPOLYLINE
  5
1BD
330
2
100
AcDbEntity
  8
0
  6
Continuous
100
AcDbPolyline
 90
        3
 70
     0
 43
0.0
 10
38.25204543499877
 20
17.81746256888469
 10
38.25204543499877
 20
17.84246256888467
 10
38.22885176736253
 20
17.99731211291326
  0
LWPOLYLINE
  5
1BE
330
2
100
AcDbEntity
  8
0
  6
Continuous
100
AcDbPolyline
 90
        3
 70
     0
 43
0.0
 10
38.28345439585485
 20
17.99731211291326
 10
38.27871210166541
 20
17.84246256888467
 10
38.27871210166541
 20
17.81746256888469
  0
LWPOLYLINE
  5
1BF
330
2
100
AcDbEntity
  8
0
  6
Continuous
100
AcDbPolyline
 90
        3
 70
     0
 43
0.0
 10
38.29146749502462
 20
17.99731211291326
 10
38.28204543499879
 20
17.84246256888467
 10
38.28204543499879
 20
17.81746256888469
  0
LWPOLYLINE
  5
1C0
330
2
100
AcDbEntity
  8
0
  6
Continuous
100
AcDbPolyline
 90
        3
 70
     0
 43
0.0
 10
38.29943554977603
 20
17.99731211291326
 10
38.28537876833213
 20
17.84246256888467
 10
38.28537876833213
 20
17.81746256888469
  0
LWPOLYLINE
  5
1C1
330
2
100
AcDbEntity
  8
0
  6
Continuous
100
AcDbPolyline
 90
        3
 70
     0
 43
0.0
 10
38.30735920734719
 20
17.99731211291326
 10
38.28871210166545
 20
17.84246256888467
 10
38.28871210166545
 20
17.81746256888469
  0
LWPOLYLINE
  5
1C2
330
2
100
AcDbEntity
  8
0
  6
Continuous
100
AcDbPolyline
 90
        3
 70
     0
 43
0.0
 10
38.31523910263502
 20
17.99731211291326
 10
38.29204543499879
 20
17.84246256888467
 10
38.29204543499879
 20
17.81746256888469
  0
LWPOLYLINE
  5
1C3
330
2
100
AcDbEntity
  8
0
  6
Continuous
100
AcDbPolyline
 90
        2
 70
     0
 43
0.0
 10
38.37660628197756
 20
17.99731211291326
 10
38.37660628197756
 20
17.81746256888469
  0
LWPOLYLINE
  5
1C4
330
2
100
AcDbEntity
  8
0
  6
Continuous
100
AcDbPolyline
 90
        2
 70
     0
 43
0.0
 10
38.37160628197756
 20
17.99731211291326
 10
38.37160628197756
 20
17.81746256888469
  0
LWPOLYLINE
  5
1C5
330
2
100
AcDbEntity
  8
0
  6
Continuous
100
AcDbPolyline
 90
        3
 70
     0
 43
0.0
 10
38.36743961531084
 20
17.81746256888469
 10
38.36743961531084
 20
17.84246256888467
 10
38.36269732112146
 20
17.99731211291326
  0
LWPOLYLINE
  5
1C6
330
2
100
AcDbEntity
  8
0
  6
Continuous
100
AcDbPolyline
 90
        3
 70
     0
 43
0.0
 10
38.36410628197752
 20
17.81746256888469
 10
38.36410628197752
 20
17.84246256888467
 10
38.35468422195169
 20
17.99731211291326
  0
LWPOLYLINE
  5
1C7
330
2
100
AcDbEntity
  8
0
  6
Continuous
100
AcDbPolyline
 90
        3
 70
     0
 43
0.0
 10
38.36077294864418
 20
17.81746256888469
 10
38.36077294864418
 20
17.84246256888467
 10
38.34671616720021
 20
17.99731211291326
  0
LWPOLYLINE
  5
1C8
330
2
100
AcDbEntity
  8
0
  6
Continuous
100
AcDbPolyline
 90
        3
 70
     0
 43
0.0
 10
38.35743961531085
 20
17.81746256888469
 10
38.35743961531085
 20
17.84246256888467
 10
38.33879250962906
 20
17.99731211291326
  0
LWPOLYLINE
  5
1C9
330
2
100
AcDbEntity
  8
0
  6
Continuous
100
AcDbPolyline
 90
        3
 70
     0
 43
0.0
 10
38.35410628197752
 20
17.81746256888469
 10
38.35410628197752
 20
17.84246256888467
 10
38.33091261434129
 20
17.99731211291326
  0
LWPOLYLINE
  5
1CA
330
2
100
AcDbEntity
  8
0
  6
Continuous
100
AcDbPolyline
 90
        3
 70
     0
 43
0.0
 10
38.3855152428336
 20
17.99731211291326
 10
38.38077294864417
 20
17.84246256888467
 10
38.38077294864417
 20
17.81746256888469
  0
LWPOLYLINE
  5
1CB
330
2
100
AcDbEntity
  8
0
  6
Continuous
100
AcDbPolyline
 90
        3
 70
     0
 43
0.0
 10
38.39352834200338
 20
17.99731211291326
 10
38.38410628197755
 20
17.84246256888467
 10
38.38410628197755
 20
17.81746256888469
  0
LWPOLYLINE
  5
1CC
330
2
100
AcDbEntity
  8
0
  6
Continuous
100
AcDbPolyline
 90
        3
 70
     0
 43
0.0
 10
38.40149639675479
 20
17.99731211291326
 10
38.38743961531088
 20
17.84246256888467
 10
38.38743961531088
 20
17.81746256888469
  0
LWPOLYLINE
  5
1CD
330
2
100
AcDbEntity
  8
0
  6
Continuous
100
AcDbPolyline
 90
        3
 70
     0
 43
0.0
 10
38.40942005432595
 20
17.99731211291326
 10
38.39077294864421
 20
17.84246256888467
 10
38.39077294864421
 20
17.81746256888469
  0
LWPOLYLINE
  5
1CE
330
2
100
AcDbEntity
  8
0
  6
Continuous
100
AcDbPolyline
 90
        3
 70
     0
 43
0.0
 10
38.41729994961378
 20
17.99731211291326
 10
38.39410628197754
 20
17.84246256888467
 10
38.39410628197754
 20
17.81746256888469
  0
LWPOLYLINE
  5
1CF
330
2
100
AcDbEntity
  8
0
  6
Continuous
100
AcDbPolyline
 90
        2
 70
     0
 43
0.0
 10
38.47866712895632
 20
17.99731211291326
 10
38.47866712895632
 20
17.81746256888469
  0
LWPOLYLINE
  5
1D0
330
2
100
AcDbEntity
  8
0
  6
Continuous
100
AcDbPolyline
 90
        2
 70
     0
 43
0.0
 10
38.47366712895632
 20
17.99731211291326
 10
38.47366712895632
 20
17.81746256888469
  0
LWPOLYLINE
  5
1D1
330
2
100
AcDbEntity
  8
0
  6
Continuous
100
AcDbPolyline
 90
        3
 70
     0
 43
0.0
 10
38.4695004622896
 20
17.81746256888469
 10
38.4695004622896
 20
17.84246256888467
 10
38.46475816810022
 20
17.99731211291326
  0
LWPOLYLINE
  5
1D2
330
2
100
AcDbEntity
  8
0
  6
Continuous
100
AcDbPolyline
 90
        3
 70
     0
 43
0.0
 10
38.46616712895627
 20
17.81746256888469
 10
38.46616712895627
 20
17.84246256888467
 10
38.45674506893045
 20
17.99731211291326
  0
LWPOLYLINE
  5
1D3
330
2
100
AcDbEntity
  8
0
  6
Continuous
100
AcDbPolyline
 90
        3
 70
     0
 43
0.0
 10
38.46283379562294
 20
17.81746256888469
 10
38.46283379562294
 20
17.84246256888467
 10
38.44877701417897
 20
17.99731211291326
  0
LWPOLYLINE
  5
1D4
330
2
100
AcDbEntity
  8
0
  6
Continuous
100
AcDbPolyline
 90
        3
 70
     0
 43
0.0
 10
38.45950046228961
 20
17.81746256888469
 10
38.45950046228961
 20
17.84246256888467
 10
38.44085335660782
 20
17.99731211291326
  0
LWPOLYLINE
  5
1D5
330
2
100
AcDbEntity
  8
0
  6
Continuous
100
AcDbPolyline
 90
        3
 70
     0
 43
0.0
 10
38.45616712895628
 20
17.81746256888469
 10
38.45616712895628
 20
17.84246256888467
 10
38.43297346132004
 20
17.99731211291326
  0
LWPOLYLINE
  5
1D6
330
2
100
AcDbEntity
  8
0
  6
Continuous
100
AcDbPolyline
 90
        3
 70
     0
 43
0.0
 10
38.48757608981236
 20
17.99731211291326
 10
38.48283379562293
 20
17.84246256888467
 10
38.48283379562293
 20
17.81746256888469
  0
LWPOLYLINE
  5
1D7
330
2
100
AcDbEntity
  8
0
  6
Continuous
100
AcDbPolyline
 90
        3
 70
     0
 43
0.0
 10
38.49558918898214
 20
17.99731211291326
 10
38.48616712895631
 20
17.84246256888467
 10
38.48616712895631
 20
17.81746256888469
  0
LWPOLYLINE
  5
1D8
330
2
100
AcDbEntity
  8
0
  6
Continuous
100
AcDbPolyline
 90
        3
 70
     0
 43
0.0
 10
38.50355724373356
 20
17.99731211291326
 10
38.48950046228964
 20
17.84246256888467
 10
38.48950046228964
 20
17.81746256888469
  0
LWPOLYLINE
  5
1D9
330
2
100
AcDbEntity
  8
0
  6
Continuous
100
AcDbPolyline
 90
        3
 70
     0
 43
0.0
 10
38.51148090130471
 20
17.99731211291326
 10
38.49283379562297
 20
17.84246256888467
 10
38.49283379562297
 20
17.81746256888469
  0
LWPOLYLINE
  5
1DA
330
2
100
AcDbEntity
  8
0
  6
Continuous
100
AcDbPolyline
 90
        3
 70
     0
 43
0.0
 10
38.51936079659254
 20
17.99731211291326
 10
38.4961671289563
 20
17.84246256888467
 10
38.4961671289563
 20
17.81746256888469
  0
LWPOLYLINE
  5
1DB
330
2
100
AcDbEntity
  8
0
  6
Continuous
100
AcDbPolyline
 90
        2
 70
     0
 43
0.0
 10
38.58072797593507
 20
17.99731211291326
 10
38.58072797593507
 20
17.81746256888469
  0
LWPOLYLINE
  5
1DC
330
2
100
AcDbEntity
  8
0
  6
Continuous
100
AcDbPolyline
 90
        2
 70
     0
 43
0.0
 10
38.57572797593508
 20
17.99731211291326
 10
38.57572797593508
 20
17.81746256888469
  0
LWPOLYLINE
  5
1DD
330
2
100
AcDbEntity
  8
0
  6
Continuous
100
AcDbPolyline
 90
        3
 70
     0
 43
0.0
 10
38.57156130926836
 20
17.81746256888469
 10
38.57156130926836
 20
17.84246256888467
 10
38.56681901507898
 20
17.99731211291326
  0
LWPOLYLINE
  5
1DE
330
2
100
AcDbEntity
  8
0
  6
Continuous
100
AcDbPolyline
 90
        3
 70
     0
 43
0.0
 10
38.56822797593503
 20
17.81746256888469
 10
38.56822797593503
 20
17.84246256888467
 10
38.55880591590921
 20
17.99731211291326
  0
LWPOLYLINE
  5
1DF
330
2
100
AcDbEntity
  8
0
  6
Continuous
100
AcDbPolyline
 90
        3
 70
     0
 43
0.0
 10
38.5648946426017
 20
17.81746256888469
 10
38.5648946426017
 20
17.84246256888467
 10
38.55083786115773
 20
17.99731211291326
  0
LWPOLYLINE
  5
1E0
330
2
100
AcDbEntity
  8
0
  6
Continuous
100
AcDbPolyline
 90
        3
 70
     0
 43
0.0
 10
38.56156130926837
 20
17.81746256888469
 10
38.56156130926837
 20
17.84246256888467
 10
38.54291420358658
 20
17.99731211291326
  0
LWPOLYLINE
  5
1E1
330
2
100
AcDbEntity
  8
0
  6
Continuous
100
AcDbPolyline
 90
        3
 70
     0
 43
0.0
 10
38.55822797593504
 20
17.81746256888469
 10
38.55822797593504
 20
17.84246256888467
 10
38.53503430829881
 20
17.99731211291326
  0
LWPOLYLINE
  5
1E2
330
2
100
AcDbEntity
  8
0
  6
Continuous
100
AcDbPolyline
 90
        3
 70
     0
 43
0.0
 10
38.58963693679113
 20
17.99731211291326
 10
38.58489464260168
 20
17.84246256888467
 10
38.58489464260168
 20
17.81746256888469
  0
LWPOLYLINE
  5
1E3
330
2
100
AcDbEntity
  8
0
  6
Continuous
100
AcDbPolyline
 90
        3
 70
     0
 43
0.0
 10
38.5976500359609
 20
17.99731211291326
 10
38.58822797593507
 20
17.84246256888467
 10
38.58822797593507
 20
17.81746256888469
  0
LWPOLYLINE
  5
1E4
330
2
100
AcDbEntity
  8
0
  6
Continuous
100
AcDbPolyline
 90
        3
 70
     0
 43
0.0
 10
38.60561809071231
 20
17.99731211291326
 10
38.5915613092684
 20
17.84246256888467
 10
38.5915613092684
 20
17.81746256888469
  0
LWPOLYLINE
  5
1E5
330
2
100
AcDbEntity
  8
0
  6
Continuous
100
AcDbPolyline
 90
        3
 70
     0
 43
0.0
 10
38.61354174828347
 20
17.99731211291326
 10
38.59489464260173
 20
17.84246256888467
 10
38.59489464260173
 20
17.81746256888469
  0
LWPOLYLINE
  5
1E6
330
2
100
AcDbEntity
  8
0
  6
Continuous
100
AcDbPolyline
 90
        3
 70
     0
 43
0.0
 10
38.6214216435713
 20
17.99731211291326
 10
38.59822797593506
 20
17.84246256888467
 10
38.59822797593506
 20
17.81746256888469
  0
LWPOLYLINE
  5
1E7
330
2
100
AcDbEntity
  8
0
  6
Continuous
100
AcDbPolyline
 90
        2
 70
     0
 43
0.0
 10
38.68278882291384
 20
17.99731211291326
 10
38.68278882291384
 20
17.81746256888469
  0
LWPOLYLINE
  5
1E8
330
2
100
AcDbEntity
  8
0
  6
Continuous
100
AcDbPolyline
 90
        2
 70
     0
 43
0.0
 10
38.67778882291384
 20
17.99731211291326
 10
38.67778882291384
 20
17.81746256888469
  0
LWPOLYLINE
  5
1E9
330
2
100
AcDbEntity
  8
0
  6
Continuous
100
AcDbPolyline
 90
        3
 70
     0
 43
0.0
 10
38.67362215624712
 20
17.81746256888469
 10
38.67362215624712
 20
17.84246256888467
 10
38.66887986205774
 20
17.99731211291326
  0
LWPOLYLINE
  5
1EA
330
2
100
AcDbEntity
  8
0
  6
Continuous
100
AcDbPolyline
 90
        3
 70
     0
 43
0.0
 10
38.67028882291379
 20
17.81746256888469
 10
38.67028882291379
 20
17.84246256888467
 10
38.66086676288797
 20
17.99731211291326
  0
LWPOLYLINE
  5
1EB
330
2
100
AcDbEntity
  8
0
  6
Continuous
100
AcDbPolyline
 90
        3
 70
     0
 43
0.0
 10
38.66695548958046
 20
17.81746256888469
 10
38.66695548958046
 20
17.84246256888467
 10
38.65289870813649
 20
17.99731211291326
  0
LWPOLYLINE
  5
1EC
330
2
100
AcDbEntity
  8
0
  6
Continuous
100
AcDbPolyline
 90
        3
 70
     0
 43
0.0
 10
38.66362215624713
 20
17.81746256888469
 10
38.66362215624713
 20
17.84246256888467
 10
38.64497505056533
 20
17.99731211291326
  0
LWPOLYLINE
  5
1ED
330
2
100
AcDbEntity
  8
0
  6
Continuous
100
AcDbPolyline
 90
        3
 70
     0
 43
0.0
 10
38.6602888229138
 20
17.81746256888469
 10
38.6602888229138
 20
17.84246256888467
 10
38.63709515527757
 20
17.99731211291326
  0
LWPOLYLINE
  5
1EE
330
2
100
AcDbEntity
  8
0
  6
Continuous
100
AcDbPolyline
 90
        3
 70
     0
 43
0.0
 10
38.69169778376988
 20
17.99731211291326
 10
38.68695548958044
 20
17.84246256888467
 10
38.68695548958044
 20
17.81746256888469
  0
LWPOLYLINE
  5
1EF
330
2
100
AcDbEntity
  8
0
  6
Continuous
100
AcDbPolyline
 90
        3
 70
     0
 43
0.0
 10
38.69971088293965
 20
17.99731211291326
 10
38.69028882291383
 20
17.84246256888467
 10
38.69028882291383
 20
17.81746256888469
  0
LWPOLYLINE
  5
1F0
330
2
100
AcDbEntity
  8
0
  6
Continuous
100
AcDbPolyline
 90
        3
 70
     0
 43
0.0
 10
38.70767893769107
 20
17.99731211291326
 10
38.69362215624716
 20
17.84246256888467
 10
38.69362215624716
 20
17.81746256888469
  0
LWPOLYLINE
  5
1F1
330
2
100
AcDbEntity
  8
0
  6
Continuous
100
AcDbPolyline
 90
        3
 70
     0
 43
0.0
 10
38.71560259526223
 20
17.99731211291326
 10
38.69695548958049
 20
17.84246256888467
 10
38.69695548958049
 20
17.81746256888469
  0
LWPOLYLINE
  5
1F2
330
2
100
AcDbEntity
  8
0
  6
Continuous
100
AcDbPolyline
 90
        3
 70
     0
 43
0.0
 10
38.72348249055006
 20
17.99731211291326
 10
38.70028882291382
 20
17.84246256888467
 10
38.70028882291382
 20
17.81746256888469
  0
LWPOLYLINE
  5
1F3
330
2
100
AcDbEntity
  8
0
  6
Continuous
100
AcDbPolyline
 90
        2
 70
     0
 43
0.0
 10
38.7848496698926
 20
17.99731211291326
 10
38.7848496698926
 20
17.81746256888469
  0
LWPOLYLINE
  5
1F4
330
2
100
AcDbEntity
  8
0
  6
Continuous
100
AcDbPolyline
 90
        2
 70
     0
 43
0.0
 10
38.7798496698926
 20
17.99731211291326
 10
38.7798496698926
 20
17.81746256888469
  0
LWPOLYLINE
  5
1F5
330
2
100
AcDbEntity
  8
0
  6
Continuous
100
AcDbPolyline
 90
        3
 70
     0
 43
0.0
 10
38.77568300322588
 20
17.81746256888469
 10
38.77568300322588
 20
17.84246256888467
 10
38.7709407090365
 20
17.99731211291326
  0
LWPOLYLINE
  5
1F6
330
2
100
AcDbEntity
  8
0
  6
Continuous
100
AcDbPolyline
 90
        3
 70
     0
 43
0.0
 10
38.77234966989255
 20
17.81746256888469
 10
38.77234966989255
 20
17.84246256888467
 10
38.76292760986672
 20
17.99731211291326
  0
LWPOLYLINE
  5
1F7
330
2
100
AcDbEntity
  8
0
  6
Continuous
100
AcDbPolyline
 90
        3
 70
     0
 43
0.0
 10
38.76901633655922
 20
17.81746256888469
 10
38.76901633655922
 20
17.84246256888467
 10
38.75495955511525
 20
17.99731211291326
  0
LWPOLYLINE
  5
1F8
330
2
100
AcDbEntity
  8
0
  6
Continuous
100
AcDbPolyline
 90
        3
 70
     0
 43
0.0
 10
38.76568300322589
 20
17.81746256888469
 10
38.76568300322589
 20
17.84246256888467
 10
38.74703589754409
 20
17.99731211291326
  0
LWPOLYLINE
  5
1F9
330
2
100
AcDbEntity
  8
0
  6
Continuous
100
AcDbPolyline
 90
        3
 70
     0
 43
0.0
 10
38.76234966989256
 20
17.81746256888469
 10
38.76234966989256
 20
17.84246256888467
 10
38.73915600225632
 20
17.99731211291326
  0
LWPOLYLINE
  5
1FA
330
2
100
AcDbEntity
  8
0
  6
Continuous
100
AcDbPolyline
 90
        3
 70
     0
 43
0.0
 10
38.79375863074864
 20
17.99731211291326
 10
38.7890163365592
 20
17.84246256888467
 10
38.7890163365592
 20
17.81746256888469
  0
LWPOLYLINE
  5
1FB
330
2
100
AcDbEntity
  8
0
  6
Continuous
100
AcDbPolyline
 90
        3
 70
     0
 43
0.0
 10
38.80177172991841
 20
17.99731211291326
 10
38.79234966989259
 20
17.84246256888467
 10
38.79234966989259
 20
17.81746256888469
  0
LWPOLYLINE
  5
1FC
330
2
100
AcDbEntity
  8
0
  6
Continuous
100
AcDbPolyline
 90
        3
 70
     0
 43
0.0
 10
38.80973978466983
 20
17.99731211291326
 10
38.79568300322592
 20
17.84246256888467
 10
38.79568300322592
 20
17.81746256888469
  0
LWPOLYLINE
  5
1FD
330
2
100
AcDbEntity
  8
0
  6
Continuous
100
AcDbPolyline
 90
        3
 70
     0
 43
0.0
 10
38.81766344224099
 20
17.99731211291326
 10
38.79901633655925
 20
17.84246256888467
 10
38.79901633655925
 20
17.81746256888469
  0
LWPOLYLINE
  5
1FE
330
2
100
AcDbEntity
  8
0
  6
Continuous
100
AcDbPolyline
 90
        3
 70
     0
 43
0.0
 10
38.82554333752882
 20
17.99731211291326
 10
38.80234966989258
 20
17.84246256888467
 10
38.80234966989258
 20
17.81746256888469
  0
LWPOLYLINE
  5
1FF
330
2
100
AcDbEntity
  8
0
  6
Continuous
100
AcDbPolyline
 90
        2
 70
     0
 43
0.0
 10
38.88691051687136
 20
17.99731211291326
 10
38.88691051687136
 20
17.81746256888469
  0
LWPOLYLINE
  5
200
330
2
100
AcDbEntity
  8
0
  6
Continuous
100
AcDbPolyline
 90
        2
 70
     0
 43
0.0
 10
38.88191051687136
 20
17.99731211291326
 10
38.88191051687136
 20
17.81746256888469
  0
LWPOLYLINE
  5
201
330
2
100
AcDbEntity
  8
0
  6
Continuous
100
AcDbPolyline
 90
        3
 70
     0
 43
0.0
 10
38.87774385020464
 20
17.81746256888469
 10
38.87774385020464
 20
17.84246256888467
 10
38.87300155601526
 20
17.99731211291326
  0
LWPOLYLINE
  5
202
330
2
100
AcDbEntity
  8
0
  6
Continuous
100
AcDbPolyline
 90
        3
 70
     0
 43
0.0
 10
38.87441051687131
 20
17.81746256888469
 10
38.87441051687131
 20
17.84246256888467
 10
38.86498845684548
 20
17.99731211291326
  0
LWPOLYLINE
  5
203
330
2
100
AcDbEntity
  8
0
  6
Continuous
100
AcDbPolyline
 90
        3
 70
     0
 43
0.0
 10
38.87107718353798
 20
17.81746256888469
 10
38.87107718353798
 20
17.84246256888467
 10
38.85702040209401
 20
17.99731211291326
  0
LWPOLYLINE
  5
204
330
2
100
AcDbEntity
  8
0
  6
Continuous
100
AcDbPolyline
 90
        3
 70
     0
 43
0.0
 10
38.86774385020465
 20
17.81746256888469
 10
38.86774385020465
 20
17.84246256888467
 10
38.84909674452286
 20
17.99731211291326
  0
LWPOLYLINE
  5
205
330
2
100
AcDbEntity
  8
0
  6
Continuous
100
AcDbPolyline
 90
        3
 70
     0
 43
0.0
 10
38.86441051687132
 20
17.81746256888469
 10
38.86441051687132
 20
17.84246256888467
 10
38.84121684923508
 20
17.99731211291326
  0
LWPOLYLINE
  5
206
330
2
100
AcDbEntity
  8
0
  6
Continuous
100
AcDbPolyline
 90
        3
 70
     0
 43
0.0
 10
38.8958194777274
 20
17.99731211291326
 10
38.89107718353796
 20
17.84246256888467
 10
38.89107718353796
 20
17.81746256888469
  0
LWPOLYLINE
  5
207
330
2
100
AcDbEntity
  8
0
  6
Continuous
100
AcDbPolyline
 90
        3
 70
     0
 43
0.0
 10
38.90383257689718
 20
17.99731211291326
 10
38.89441051687135
 20
17.84246256888467
 10
38.89441051687135
 20
17.81746256888469
  0
LWPOLYLINE
  5
208
330
2
100
AcDbEntity
  8
0
  6
Continuous
100
AcDbPolyline
 90
        3
 70
     0
 43
0.0
 10
38.91180063164859
 20
17.99731211291326
 10
38.89774385020468
 20
17.84246256888467
 10
38.89774385020468
 20
17.81746256888469
  0
LWPOLYLINE
  5
209
330
2
100
AcDbEntity
  8
0
  6
Continuous
100
AcDbPolyline
 90
        3
 70
     0
 43
0.0
 10
38.91972428921974
 20
17.99731211291326
 10
38.90107718353801
 20
17.84246256888467
 10
38.90107718353801
 20
17.81746256888469
  0
LWPOLYLINE
  5
20A
330
2
100
AcDbEntity
  8
0
  6
Continuous
100
AcDbPolyline
 90
        3
 70
     0
 43
0.0
 10
38.92760418450757
 20
17.99731211291326
 10
38.90441051687134
 20
17.84246256888467
 10
38.90441051687134
 20
17.81746256888469
  0
LWPOLYLINE
  5
20B
330
2
100
AcDbEntity
  8
0
  6
Continuous
100
AcDbPolyline
 90
        2
 70
     0
 43
0.0
 10
38.98897136385011
 20
17.99731211291326
 10
38.98897136385011
 20
17.81746256888469
  0
LWPOLYLINE
  5
20C
330
2
100
AcDbEntity
  8
0
  6
Continuous
100
AcDbPolyline
 90
        2
 70
     0
 43
0.0
 10
38.98397136385012
 20
17.99731211291326
 10
38.98397136385012
 20
17.81746256888469
  0
LWPOLYLINE
  5
20D
330
2
100
AcDbEntity
  8
0
  6
Continuous
100
AcDbPolyline
 90
        3
 70
     0
 43
0.0
 10
38.9798046971834
 20
17.81746256888469
 10
38.9798046971834
 20
17.84246256888467
 10
38.97506240299401
 20
17.99731211291326
  0
LWPOLYLINE
  5
20E
330
2
100
AcDbEntity
  8
0
  6
Continuous
100
AcDbPolyline
 90
        3
 70
     0
 43
0.0
 10
38.97647136385007
 20
17.81746256888469
 10
38.97647136385007
 20
17.84246256888467
 10
38.96704930382424
 20
17.99731211291326
  0
LWPOLYLINE
  5
20F
330
2
100
AcDbEntity
  8
0
  6
Continuous
100
AcDbPolyline
 90
        3
 70
     0
 43
0.0
 10
38.97313803051673
 20
17.81746256888469
 10
38.97313803051673
 20
17.84246256888467
 10
38.95908124907277
 20
17.99731211291326
  0
LWPOLYLINE
  5
210
330
2
100
AcDbEntity
  8
0
  6
Continuous
100
AcDbPolyline
 90
        3
 70
     0
 43
0.0
 10
38.96980469718341
 20
17.81746256888469
 10
38.96980469718341
 20
17.84246256888467
 10
38.95115759150161
 20
17.99731211291326
  0
LWPOLYLINE
  5
211
330
2
100
AcDbEntity
  8
0
  6
Continuous
100
AcDbPolyline
 90
        3
 70
     0
 43
0.0
 10
38.96647136385008
 20
17.81746256888469
 10
38.96647136385008
 20
17.84246256888467
 10
38.94327769621384
 20
17.99731211291326
  0
LWPOLYLINE
  5
212
330
2
100
AcDbEntity
  8
0
  6
Continuous
100
AcDbPolyline
 90
        3
 70
     0
 43
0.0
 10
38.99788032470616
 20
17.99731211291326
 10
38.99313803051672
 20
17.84246256888467
 10
38.99313803051672
 20
17.81746256888469
  0
LWPOLYLINE
  5
213
330
2
100
AcDbEntity
  8
0
  6
Continuous
100
AcDbPolyline
 90
        3
 70
     0
 43
0.0
 10
39.00589342387593
 20
17.99731211291326
 10
38.99647136385011
 20
17.84246256888467
 10
38.99647136385011
 20
17.81746256888469
  0
LWPOLYLINE
  5
214
330
2
100
AcDbEntity
  8
0
  6
Continuous
100
AcDbPolyline
 90
        3
 70
     0
 43
0.0
 10
39.01386147862735
 20
17.99731211291326
 10
38.99980469718343
 20
17.84246256888467
 10
38.99980469718343
 20
17.81746256888469
  0
LWPOLYLINE
  5
215
330
2
100
AcDbEntity
  8
0
  6
Continuous
100
AcDbPolyline
 90
        3
 70
     0
 43
0.0
 10
39.0217851361985
 20
17.99731211291326
 10
39.00313803051677
 20
17.84246256888467
 10
39.00313803051677
 20
17.81746256888469
  0
LWPOLYLINE
  5
216
330
2
100
AcDbEntity
  8
0
  6
Continuous
100
AcDbPolyline
 90
        3
 70
     0
 43
0.0
 10
39.02966503148633
 20
17.99731211291326
 10
39.0064713638501
 20
17.84246256888467
 10
39.0064713638501
 20
17.81746256888469
  0
LWPOLYLINE
  5
217
330
2
100
AcDbEntity
  8
0
  6
Continuous
100
AcDbPolyline
 90
        2
 70
     0
 43
0.0
 10
39.09103221082887
 20
17.99731211291326
 10
39.09103221082887
 20
17.81746256888469
  0
LWPOLYLINE
  5
218
330
2
100
AcDbEntity
  8
0
  6
Continuous
100
AcDbPolyline
 90
        2
 70
     0
 43
0.0
 10
39.08603221082888
 20
17.99731211291326
 10
39.08603221082888
 20
17.81746256888469
  0
LWPOLYLINE
  5
219
330
2
100
AcDbEntity
  8
0
  6
Continuous
100
AcDbPolyline
 90
        3
 70
     0
 43
0.0
 10
39.08186554416216
 20
17.81746256888469
 10
39.08186554416216
 20
17.84246256888467
 10
39.07712324997277
 20
17.99731211291326
  0
LWPOLYLINE
  5
21A
330
2
100
AcDbEntity
  8
0
  6
Continuous
100
AcDbPolyline
 90
        3
 70
     0
 43
0.0
 10
39.07853221082883
 20
17.81746256888469
 10
39.07853221082883
 20
17.84246256888467
 10
39.069110150803
 20
17.99731211291326
  0
LWPOLYLINE
  5
21B
330
2
100
AcDbEntity
  8
0
  6
Continuous
100
AcDbPolyline
 90
        3
 70
     0
 43
0.0
 10
39.0751988774955
 20
17.81746256888469
 10
39.0751988774955
 20
17.84246256888467
 10
39.06114209605153
 20
17.99731211291326
  0
LWPOLYLINE
  5
21C
330
2
100
AcDbEntity
  8
0
  6
Continuous
100
AcDbPolyline
 90
        3
 70
     0
 43
0.0
 10
39.07186554416217
 20
17.81746256888469
 10
39.07186554416217
 20
17.84246256888467
 10
39.05321843848037
 20
17.99731211291326
  0
LWPOLYLINE
  5
21D
330
2
100
AcDbEntity
  8
0
  6
Continuous
100
AcDbPolyline
 90
        3
 70
     0
 43
0.0
 10
39.06853221082883
 20
17.81746256888469
 10
39.06853221082883
 20
17.84246256888467
 10
39.0453385431926
 20
17.99731211291326
  0
LWPOLYLINE
  5
21E
330
2
100
AcDbEntity
  8
0
  6
Continuous
100
AcDbPolyline
 90
        3
 70
     0
 43
0.0
 10
39.09994117168492
 20
17.99731211291326
 10
39.09519887749548
 20
17.84246256888467
 10
39.09519887749548
 20
17.81746256888469
  0
LWPOLYLINE
  5
21F
330
2
100
AcDbEntity
  8
0
  6
Continuous
100
AcDbPolyline
 90
        3
 70
     0
 43
0.0
 10
39.10795427085469
 20
17.99731211291326
 10
39.09853221082887
 20
17.84246256888467
 10
39.09853221082887
 20
17.81746256888469
  0
LWPOLYLINE
  5
220
330
2
100
AcDbEntity
  8
0
  6
Continuous
100
AcDbPolyline
 90
        3
 70
     0
 43
0.0
 10
39.11592232560611
 20
17.99731211291326
 10
39.10186554416219
 20
17.84246256888467
 10
39.10186554416219
 20
17.81746256888469
  0
LWPOLYLINE
  5
221
330
2
100
AcDbEntity
  8
0
  6
Continuous
100
AcDbPolyline
 90
        3
 70
     0
 43
0.0
 10
39.12384598317726
 20
17.99731211291326
 10
39.10519887749553
 20
17.84246256888467
 10
39.10519887749553
 20
17.81746256888469
  0
LWPOLYLINE
  5
222
330
2
100
AcDbEntity
  8
0
  6
Continuous
100
AcDbPolyline
 90
        3
 70
     0
 43
0.0
 10
39.13172587846509
 20
17.99731211291326
 10
39.10853221082886
 20
17.84246256888467
 10
39.10853221082886
 20
17.81746256888469
  0
LWPOLYLINE
  5
223
330
2
100
AcDbEntity
  8
0
  6
Continuous
100
AcDbPolyline
 90
        2
 70
     0
 43
0.0
 10
39.19309305780763
 20
17.99731211291326
 10
39.19309305780763
 20
17.81746256888469
  0
LWPOLYLINE
  5
224
330
2
100
AcDbEntity
  8
0
  6
Continuous
100
AcDbPolyline
 90
        2
 70
     0
 43
0.0
 10
39.18809305780764
 20
17.99731211291326
 10
39.18809305780764
 20
17.81746256888469
  0
LWPOLYLINE
  5
225
330
2
100
AcDbEntity
  8
0
  6
Continuous
100
AcDbPolyline
 90
        3
 70
     0
 43
0.0
 10
39.18392639114092
 20
17.81746256888469
 10
39.18392639114092
 20
17.84246256888467
 10
39.17918409695153
 20
17.99731211291326
  0
LWPOLYLINE
  5
226
330
2
100
AcDbEntity
  8
0
  6
Continuous
100
AcDbPolyline
 90
        3
 70
     0
 43
0.0
 10
39.18059305780758
 20
17.81746256888469
 10
39.18059305780758
 20
17.84246256888467
 10
39.17117099778176
 20
17.99731211291326
  0
LWPOLYLINE
  5
227
330
2
100
AcDbEntity
  8
0
  6
Continuous
100
AcDbPolyline
 90
        3
 70
     0
 43
0.0
 10
39.17725972447426
 20
17.81746256888469
 10
39.17725972447426
 20
17.84246256888467
 10
39.16320294303029
 20
17.99731211291326
  0
LWPOLYLINE
  5
228
330
2
100
AcDbEntity
  8
0
  6
Continuous
100
AcDbPolyline
 90
        3
 70
     0
 43
0.0
 10
39.17392639114093
 20
17.81746256888469
 10
39.17392639114093
 20
17.84246256888467
 10
39.15527928545913
 20
17.99731211291326
  0
LWPOLYLINE
  5
229
330
2
100
AcDbEntity
  8
0
  6
Continuous
100
AcDbPolyline
 90
        3
 70
     0
 43
0.0
 10
39.17059305780759
 20
17.81746256888469
 10
39.17059305780759
 20
17.84246256888467
 10
39.14739939017136
 20
17.99731211291326
  0
LWPOLYLINE
  5
22A
330
2
100
AcDbEntity
  8
0
  6
Continuous
100
AcDbPolyline
 90
        3
 70
     0
 43
0.0
 10
39.20200201866368
 20
17.99731211291326
 10
39.19725972447423
 20
17.84246256888467
 10
39.19725972447423
 20
17.81746256888469
  0
LWPOLYLINE
  5
22B
330
2
100
AcDbEntity
  8
0
  6
Continuous
100
AcDbPolyline
 90
        3
 70
     0
 43
0.0
 10
39.21001511783345
 20
17.99731211291326
 10
39.20059305780763
 20
17.84246256888467
 10
39.20059305780763
 20
17.81746256888469
  0
LWPOLYLINE
  5
22C
330
2
100
AcDbEntity
  8
0
  6
Continuous
100
AcDbPolyline
 90
        3
 70
     0
 43
0.0
 10
39.21798317258487
 20
17.99731211291326
 10
39.20392639114096
 20
17.84246256888467
 10
39.20392639114096
 20
17.81746256888469
  0
LWPOLYLINE
  5
22D
330
2
100
AcDbEntity
  8
0
  6
Continuous
100
AcDbPolyline
 90
        3
 70
     0
 43
0.0
 10
39.22590683015602
 20
17.99731211291326
 10
39.20725972447428
 20
17.84246256888467
 10
39.20725972447428
 20
17.81746256888469
  0
LWPOLYLINE
  5
22E
330
2
100
AcDbEntity
  8
0
  6
Continuous
100
AcDbPolyline
 90
        3
 70
     0
 43
0.0
 10
39.23378672544385
 20
17.99731211291326
 10
39.21059305780762
 20
17.84246256888467
 10
39.21059305780762
 20
17.81746256888469
  0
LWPOLYLINE
  5
22F
330
2
100
AcDbEntity
  8
0
  6
Continuous
100
AcDbPolyline
 90
        2
 70
     0
 43
0.0
 10
39.29515390478639
 20
17.99731211291326
 10
39.29515390478639
 20
17.81746256888469
  0
LWPOLYLINE
  5
230
330
2
100
AcDbEntity
  8
0
  6
Continuous
100
AcDbPolyline
 90
        2
 70
     0
 43
0.0
 10
39.29015390478639
 20
17.99731211291326
 10
39.29015390478639
 20
17.81746256888469
  0
LWPOLYLINE
  5
231
330
2
100
AcDbEntity
  8
0
  6
Continuous
100
AcDbPolyline
 90
        3
 70
     0
 43
0.0
 10
39.28598723811968
 20
17.81746256888469
 10
39.28598723811968
 20
17.84246256888467
 10
39.28124494393029
 20
17.99731211291326
  0
LWPOLYLINE
  5
232
330
2
100
AcDbEntity
  8
0
  6
Continuous
100
AcDbPolyline
 90
        3
 70
     0
 43
0.0
 10
39.28265390478634
 20
17.81746256888469
 10
39.28265390478634
 20
17.84246256888467
 10
39.27323184476052
 20
17.99731211291326
  0
LWPOLYLINE
  5
233
330
2
100
AcDbEntity
  8
0
  6
Continuous
100
AcDbPolyline
 90
        3
 70
     0
 43
0.0
 10
39.27932057145302
 20
17.81746256888469
 10
39.27932057145302
 20
17.84246256888467
 10
39.26526379000904
 20
17.99731211291326
  0
LWPOLYLINE
  5
234
330
2
100
AcDbEntity
  8
0
  6
Continuous
100
AcDbPolyline
 90
        3
 70
     0
 43
0.0
 10
39.27598723811968
 20
17.81746256888469
 10
39.27598723811968
 20
17.84246256888467
 10
39.25734013243789
 20
17.99731211291326
  0
LWPOLYLINE
  5
235
330
2
100
AcDbEntity
  8
0
  6
Continuous
100
AcDbPolyline
 90
        3
 70
     0
 43
0.0
 10
39.27265390478635
 20
17.81746256888469
 10
39.27265390478635
 20
17.84246256888467
 10
39.24946023715012
 20
17.99731211291326
  0
LWPOLYLINE
  5
236
330
2
100
AcDbEntity
  8
0
  6
Continuous
100
AcDbPolyline
 90
        3
 70
     0
 43
0.0
 10
39.30406286564244
 20
17.99731211291326
 10
39.299320571453
 20
17.84246256888467
 10
39.299320571453
 20
17.81746256888469
  0
LWPOLYLINE
  5
237
330
2
100
AcDbEntity
  8
0
  6
Continuous
100
AcDbPolyline
 90
        3
 70
     0
 43
0.0
 10
39.31207596481221
 20
17.99731211291326
 10
39.30265390478638
 20
17.84246256888467
 10
39.30265390478638
 20
17.81746256888469
  0
LWPOLYLINE
  5
238
330
2
100
AcDbEntity
  8
0
  6
Continuous
100
AcDbPolyline
 90
        3
 70
     0
 43
0.0
 10
39.32004401956362
 20
17.99731211291326
 10
39.30598723811971
 20
17.84246256888467
 10
39.30598723811971
 20
17.81746256888469
  0
LWPOLYLINE
  5
239
330
2
100
AcDbEntity
  8
0
  6
Continuous
100
AcDbPolyline
 90
        3
 70
     0
 43
0.0
 10
39.32796767713478
 20
17.99731211291326
 10
39.30932057145304
 20
17.84246256888467
 10
39.30932057145304
 20
17.81746256888469
  0
LWPOLYLINE
  5
23A
330
2
100
AcDbEntity
  8
0
  6
Continuous
100
AcDbPolyline
 90
        3
 70
     0
 43
0.0
 10
39.33584757242261
 20
17.99731211291326
 10
39.31265390478638
 20
17.84246256888467
 10
39.31265390478638
 20
17.81746256888469
  0
LWPOLYLINE
  5
23B
330
2
100
AcDbEntity
  8
0
  6
Continuous
100
AcDbPolyline
 90
        2
 70
     0
 43
0.0
 10
39.39721475176515
 20
17.99731211291326
 10
39.39721475176515
 20
17.81746256888469
  0
LWPOLYLINE
  5
23C
330
2
100
AcDbEntity
  8
0
  6
Continuous
100
AcDbPolyline
 90
        2
 70
     0
 43
0.0
 10
39.39221475176515
 20
17.99731211291326
 10
39.39221475176515
 20
17.81746256888469
  0
LWPOLYLINE
  5
23D
330
2
100
AcDbEntity
  8
0
  6
Continuous
100
AcDbPolyline
 90
        3
 70
     0
 43
0.0
 10
39.38804808509843
 20
17.81746256888469
 10
39.38804808509843
 20
17.84246256888467
 10
39.38330579090905
 20
17.99731211291326
  0
LWPOLYLINE
  5
23E
330
2
100
AcDbEntity
  8
0
  6
Continuous
100
AcDbPolyline
 90
        3
 70
     0
 43
0.0
 10
39.3847147517651
 20
17.81746256888469
 10
39.3847147517651
 20
17.84246256888467
 10
39.37529269173928
 20
17.99731211291326
  0
LWPOLYLINE
  5
23F
330
2
100
AcDbEntity
  8
0
  6
Continuous
100
AcDbPolyline
 90
        3
 70
     0
 43
0.0
 10
39.38138141843177
 20
17.81746256888469
 10
39.38138141843177
 20
17.84246256888467
 10
39.3673246369878
 20
17.99731211291326
  0
LWPOLYLINE
  5
240
330
2
100
AcDbEntity
  8
0
  6
Continuous
100
AcDbPolyline
 90
        3
 70
     0
 43
0.0
 10
39.37804808509844
 20
17.81746256888469
 10
39.37804808509844
 20
17.84246256888467
 10
39.35940097941665
 20
17.99731211291326
  0
LWPOLYLINE
  5
241
330
2
100
AcDbEntity
  8
0
  6
Continuous
100
AcDbPolyline
 90
        3
 70
     0
 43
0.0
 10
39.37471475176511
 20
17.81746256888469
 10
39.37471475176511
 20
17.84246256888467
 10
39.35152108412888
 20
17.99731211291326
  0
LWPOLYLINE
  5
242
330
2
100
AcDbEntity
  8
0
  6
Continuous
100
AcDbPolyline
 90
        3
 70
     0
 43
0.0
 10
39.40612371262119
 20
17.99731211291326
 10
39.40138141843176
 20
17.84246256888467
 10
39.40138141843176
 20
17.81746256888469
  0
LWPOLYLINE
  5
243
330
2
100
AcDbEntity
  8
0
  6
Continuous
100
AcDbPolyline
 90
        3
 70
     0
 43
0.0
 10
39.41413681179097
 20
17.99731211291326
 10
39.40471475176514
 20
17.84246256888467
 10
39.40471475176514
 20
17.81746256888469
  0
LWPOLYLINE
  5
244
330
2
100
AcDbEntity
  8
0
  6
Continuous
100
AcDbPolyline
 90
        3
 70
     0
 43
0.0
 10
39.42210486654238
 20
17.99731211291326
 10
39.40804808509847
 20
17.84246256888467
 10
39.40804808509847
 20
17.81746256888469
  0
LWPOLYLINE
  5
245
330
2
100
AcDbEntity
  8
0
  6
Continuous
100
AcDbPolyline
 90
        3
 70
     0
 43
0.0
 10
39.43002852411354
 20
17.99731211291326
 10
39.4113814184318
 20
17.84246256888467
 10
39.4113814184318
 20
17.81746256888469
  0
LWPOLYLINE
  5
246
330
2
100
AcDbEntity
  8
0
  6
Continuous
100
AcDbPolyline
 90
        3
 70
     0
 43
0.0
 10
39.43790841940137
 20
17.99731211291326
 10
39.41471475176513
 20
17.84246256888467
 10
39.41471475176513
 20
17.81746256888469
  0
LWPOLYLINE
  5
247
330
2
100
AcDbEntity
  8
0
  6
Continuous
100
AcDbPolyline
 90
        2
 70
     0
 43
0.0
 10
39.49927559874391
 20
17.99731211291326
 10
39.49927559874391
 20
17.81746256888469
  0
LWPOLYLINE
  5
248
330
2
100
AcDbEntity
  8
0
  6
Continuous
100
AcDbPolyline
 90
        2
 70
     0
 43
0.0
 10
39.49427559874391
 20
17.99731211291326
 10
39.49427559874391
 20
17.81746256888469
  0
LWPOLYLINE
  5
249
330
2
100
AcDbEntity
  8
0
  6
Continuous
100
AcDbPolyline
 90
        3
 70
     0
 43
0.0
 10
39.49010893207719
 20
17.81746256888469
 10
39.49010893207719
 20
17.84246256888467
 10
39.48536663788781
 20
17.99731211291326
  0
LWPOLYLINE
  5
24A
330
2
100
AcDbEntity
  8
0
  6
Continuous
100
AcDbPolyline
 90
        3
 70
     0
 43
0.0
 10
39.48677559874386
 20
17.81746256888469
 10
39.48677559874386
 20
17.84246256888467
 10
39.47735353871804
 20
17.99731211291326
  0
LWPOLYLINE
  5
24B
330
2
100
AcDbEntity
  8
0
  6
Continuous
100
AcDbPolyline
 90
        3
 70
     0
 43
0.0
 10
39.48344226541053
 20
17.81746256888469
 10
39.48344226541053
 20
17.84246256888467
 10
39.46938548396656
 20
17.99731211291326
  0
LWPOLYLINE
  5
24C
330
2
100
AcDbEntity
  8
0
  6
Continuous
100
AcDbPolyline
 90
        3
 70
     0
 43
0.0
 10
39.4801089320772
 20
17.81746256888469
 10
39.4801089320772
 20
17.84246256888467
 10
39.46146182639541
 20
17.99731211291326
  0
LWPOLYLINE
  5
24D
330
2
100
AcDbEntity
  8
0
  6
Continuous
100
AcDbPolyline
 90
        3
 70
     0
 43
0.0
 10
39.47677559874387
 20
17.81746256888469
 10
39.47677559874387
 20
17.84246256888467
 10
39.45358193110763
 20
17.99731211291326
  0
LWPOLYLINE
  5
24E
330
2
100
AcDbEntity
  8
0
  6
Continuous
100
AcDbPolyline
 90
        3
 70
     0
 43
0.0
 10
39.50818455959995
 20
17.99731211291326
 10
39.50344226541051
 20
17.84246256888467
 10
39.50344226541051
 20
17.81746256888469
  0
LWPOLYLINE
  5
24F
330
2
100
AcDbEntity
  8
0
  6
Continuous
100
AcDbPolyline
 90
        3
 70
     0
 43
0.0
 10
39.51619765876973
 20
17.99731211291326
 10
39.5067755987439
 20
17.84246256888467
 10
39.5067755987439
 20
17.81746256888469
  0
LWPOLYLINE
  5
250
330
2
100
AcDbEntity
  8
0
  6
Continuous
100
AcDbPolyline
 90
        3
 70
     0
 43
0.0
 10
39.52416571352114
 20
17.99731211291326
 10
39.51010893207723
 20
17.84246256888467
 10
39.51010893207723
 20
17.81746256888469
  0
LWPOLYLINE
  5
251
330
2
100
AcDbEntity
  8
0
  6
Continuous
100
AcDbPolyline
 90
        3
 70
     0
 43
0.0
 10
39.5320893710923
 20
17.99731211291326
 10
39.51344226541056
 20
17.84246256888467
 10
39.51344226541056
 20
17.81746256888469
  0
LWPOLYLINE
  5
252
330
2
100
AcDbEntity
  8
0
  6
Continuous
100
AcDbPolyline
 90
        3
 70
     0
 43
0.0
 10
39.53996926638012
 20
17.99731211291326
 10
39.51677559874389
 20
17.84246256888467
 10
39.51677559874389
 20
17.81746256888469
  0
LWPOLYLINE
  5
253
330
2
100
AcDbEntity
  8
0
  6
Continuous
100
AcDbPolyline
 90
        2
 70
     0
 43
0.0
 10
39.60133644572266
 20
17.99731211291326
 10
39.60133644572266
 20
17.81746256888469
  0
LWPOLYLINE
  5
254
330
2
100
AcDbEntity
  8
0
  6
Continuous
100
AcDbPolyline
 90
        2
 70
     0
 43
0.0
 10
39.59633644572267
 20
17.99731211291326
 10
39.59633644572267
 20
17.81746256888469
  0
LWPOLYLINE
  5
255
330
2
100
AcDbEntity
  8
0
  6
Continuous
100
AcDbPolyline
 90
        3
 70
     0
 43
0.0
 10
39.59216977905595
 20
17.81746256888469
 10
39.59216977905595
 20
17.84246256888467
 10
39.58742748486656
 20
17.99731211291326
  0
LWPOLYLINE
  5
256
330
2
100
AcDbEntity
  8
0
  6
Continuous
100
AcDbPolyline
 90
        3
 70
     0
 43
0.0
 10
39.58883644572262
 20
17.81746256888469
 10
39.58883644572262
 20
17.84246256888467
 10
39.5794143856968
 20
17.99731211291326
  0
LWPOLYLINE
  5
257
330
2
100
AcDbEntity
  8
0
  6
Continuous
100
AcDbPolyline
 90
        3
 70
     0
 43
0.0
 10
39.58550311238929
 20
17.81746256888469
 10
39.58550311238929
 20
17.84246256888467
 10
39.57144633094532
 20
17.99731211291326
  0
LWPOLYLINE
  5
258
330
2
100
AcDbEntity
  8
0
  6
Continuous
100
AcDbPolyline
 90
        3
 70
     0
 43
0.0
 10
39.58216977905596
 20
17.81746256888469
 10
39.58216977905596
 20
17.84246256888467
 10
39.56352267337417
 20
17.99731211291326
  0
LWPOLYLINE
  5
259
330
2
100
AcDbEntity
  8
0
  6
Continuous
100
AcDbPolyline
 90
        3
 70
     0
 43
0.0
 10
39.57883644572263
 20
17.81746256888469
 10
39.57883644572263
 20
17.84246256888467
 10
39.55564277808639
 20
17.99731211291326
  0
LWPOLYLINE
  5
25A
330
2
100
AcDbEntity
  8
0
  6
Continuous
100
AcDbPolyline
 90
        3
 70
     0
 43
0.0
 10
39.61024540657871
 20
17.99731211291326
 10
39.60550311238927
 20
17.84246256888467
 10
39.60550311238927
 20
17.81746256888469
  0
LWPOLYLINE
  5
25B
330
2
100
AcDbEntity
  8
0
  6
Continuous
100
AcDbPolyline
 90
        3
 70
     0
 43
0.0
 10
39.61825850574849
 20
17.99731211291326
 10
39.60883644572266
 20
17.84246256888467
 10
39.60883644572266
 20
17.81746256888469
  0
LWPOLYLINE
  5
25C
330
2
100
AcDbEntity
  8
0
  6
Continuous
100
AcDbPolyline
 90
        3
 70
     0
 43
0.0
 10
39.6262265604999
 20
17.99731211291326
 10
39.61216977905599
 20
17.84246256888467
 10
39.61216977905599
 20
17.81746256888469
  0
LWPOLYLINE
  5
25D
330
2
100
AcDbEntity
  8
0
  6
Continuous
100
AcDbPolyline
 90
        3
 70
     0
 43
0.0
 10
39.63415021807106
 20
17.99731211291326
 10
39.61550311238932
 20
17.84246256888467
 10
39.61550311238932
 20
17.81746256888469
  0
LWPOLYLINE
  5
25E
330
2
100
AcDbEntity
  8
0
  6
Continuous
100
AcDbPolyline
 90
        3
 70
     0
 43
0.0
 10
39.64203011335889
 20
17.99731211291326
 10
39.61883644572265
 20
17.84246256888467
 10
39.61883644572265
 20
17.81746256888469
  0
LWPOLYLINE
  5
25F
330
2
100
AcDbEntity
  8
0
  6
Continuous
100
AcDbPolyline
 90
        2
 70
     0
 43
0.0
 10
39.70339729270143
 20
17.99731211291326
 10
39.70339729270143
 20
17.81746256888469
  0
LWPOLYLINE
  5
260
330
2
100
AcDbEntity
  8
0
  6
Continuous
100
AcDbPolyline
 90
        2
 70
     0
 43
0.0
 10
39.69839729270143
 20
17.99731211291326
 10
39.69839729270143
 20
17.81746256888469
  0
LWPOLYLINE
  5
261
330
2
100
AcDbEntity
  8
0
  6
Continuous
100
AcDbPolyline
 90
        3
 70
     0
 43
0.0
 10
39.69423062603471
 20
17.81746256888469
 10
39.69423062603471
 20
17.84246256888467
 10
39.68948833184533
 20
17.99731211291326
  0
LWPOLYLINE
  5
262
330
2
100
AcDbEntity
  8
0
  6
Continuous
100
AcDbPolyline
 90
        3
 70
     0
 43
0.0
 10
39.69089729270138
 20
17.81746256888469
 10
39.69089729270138
 20
17.84246256888467
 10
39.68147523267555
 20
17.99731211291326
  0
LWPOLYLINE
  5
263
330
2
100
AcDbEntity
  8
0
  6
Continuous
100
AcDbPolyline
 90
        3
 70
     0
 43
0.0
 10
39.68756395936805
 20
17.81746256888469
 10
39.68756395936805
 20
17.84246256888467
 10
39.67350717792408
 20
17.99731211291326
  0
LWPOLYLINE
  5
264
330
2
100
AcDbEntity
  8
0
  6
Continuous
100
AcDbPolyline
 90
        3
 70
     0
 43
0.0
 10
39.68423062603472
 20
17.81746256888469
 10
39.68423062603472
 20
17.84246256888467
 10
39.66558352035292
 20
17.99731211291326
  0
LWPOLYLINE
  5
265
330
2
100
AcDbEntity
  8
0
  6
Continuous
100
AcDbPolyline
 90
        3
 70
     0
 43
0.0
 10
39.68089729270139
 20
17.81746256888469
 10
39.68089729270139
 20
17.84246256888467
 10
39.65770362506516
 20
17.99731211291326
  0
LWPOLYLINE
  5
266
330
2
100
AcDbEntity
  8
0
  6
Continuous
100
AcDbPolyline
 90
        3
 70
     0
 43
0.0
 10
39.71230625355747
 20
17.99731211291326
 10
39.70756395936803
 20
17.84246256888467
 10
39.70756395936803
 20
17.81746256888469
  0
LWPOLYLINE
  5
267
330
2
100
AcDbEntity
  8
0
  6
Continuous
100
AcDbPolyline
 90
        3
 70
     0
 43
0.0
 10
39.72031935272724
 20
17.99731211291326
 10
39.71089729270142
 20
17.84246256888467
 10
39.71089729270142
 20
17.81746256888469
  0
LWPOLYLINE
  5
268
330
2
100
AcDbEntity
  8
0
  6
Continuous
100
AcDbPolyline
 90
        3
 70
     0
 43
0.0
 10
39.72828740747866
 20
17.99731211291326
 10
39.71423062603475
 20
17.84246256888467
 10
39.71423062603475
 20
17.81746256888469
  0
LWPOLYLINE
  5
269
330
2
100
AcDbEntity
  8
0
  6
Continuous
100
AcDbPolyline
 90
        3
 70
     0
 43
0.0
 10
39.73621106504982
 20
17.99731211291326
 10
39.71756395936808
 20
17.84246256888467
 10
39.71756395936808
 20
17.81746256888469
  0
LWPOLYLINE
  5
26A
330
2
100
AcDbEntity
  8
0
  6
Continuous
100
AcDbPolyline
 90
        3
 70
     0
 43
0.0
 10
39.74409096033765
 20
17.99731211291326
 10
39.72089729270141
 20
17.84246256888467
 10
39.72089729270141
 20
17.81746256888469
  0
LWPOLYLINE
  5
26B
330
2
100
AcDbEntity
  8
0
  6
Continuous
100
AcDbPolyline
 90
        2
 70
     0
 43
0.0
 10
39.80545813968019
 20
17.99731211291326
 10
39.80545813968019
 20
17.81746256888469
  0
LWPOLYLINE
  5
26C
330
2
100
AcDbEntity
  8
0
  6
Continuous
100
AcDbPolyline
 90
        2
 70
     0
 43
0.0
 10
39.80045813968019
 20
17.99731211291326
 10
39.80045813968019
 20
17.81746256888469
  0
LWPOLYLINE
  5
26D
330
2
100
AcDbEntity
  8
0
  6
Continuous
100
AcDbPolyline
 90
        3
 70
     0
 43
0.0
 10
39.79629147301347
 20
17.81746256888469
 10
39.79629147301347
 20
17.84246256888467
 10
39.79154917882409
 20
17.99731211291326
  0
LWPOLYLINE
  5
26E
330
2
100
AcDbEntity
  8
0
  6
Continuous
100
AcDbPolyline
 90
        3
 70
     0
 43
0.0
 10
39.79295813968014
 20
17.81746256888469
 10
39.79295813968014
 20
17.84246256888467
 10
39.78353607965431
 20
17.99731211291326
  0
LWPOLYLINE
  5
26F
330
2
100
AcDbEntity
  8
0
  6
Continuous
100
AcDbPolyline
 90
        3
 70
     0
 43
0.0
 10
39.78962480634681
 20
17.81746256888469
 10
39.78962480634681
 20
17.84246256888467
 10
39.77556802490284
 20
17.99731211291326
  0
LWPOLYLINE
  5
270
330
2
100
AcDbEntity
  8
0
  6
Continuous
100
AcDbPolyline
 90
        3
 70
     0
 43
0.0
 10
39.78629147301348
 20
17.81746256888469
 10
39.78629147301348
 20
17.84246256888467
 10
39.76764436733168
 20
17.99731211291326
  0
LWPOLYLINE
  5
271
330
2
100
AcDbEntity
  8
0
  6
Continuous
100
AcDbPolyline
 90
        3
 70
     0
 43
0.0
 10
39.78295813968015
 20
17.81746256888469
 10
39.78295813968015
 20
17.84246256888467
 10
39.75976447204391
 20
17.99731211291326
  0
LWPOLYLINE
  5
272
330
2
100
AcDbEntity
  8
0
  6
Continuous
100
AcDbPolyline
 90
        3
 70
     0
 43
0.0
 10
39.81436710053623
 20
17.99731211291326
 10
39.80962480634679
 20
17.84246256888467
 10
39.80962480634679
 20
17.81746256888469
  0
LWPOLYLINE
  5
273
330
2
100
AcDbEntity
  8
0
  6
Continuous
100
AcDbPolyline
 90
        3
 70
     0
 43
0.0
 10
39.822380199706
 20
17.99731211291326
 10
39.81295813968018
 20
17.84246256888467
 10
39.81295813968018
 20
17.81746256888469
  0
LWPOLYLINE
  5
274
330
2
100
AcDbEntity
  8
0
  6
Continuous
100
AcDbPolyline
 90
        3
 70
     0
 43
0.0
 10
39.83034825445742
 20
17.99731211291326
 10
39.81629147301351
 20
17.84246256888467
 10
39.81629147301351
 20
17.81746256888469
  0
LWPOLYLINE
  5
275
330
2
100
AcDbEntity
  8
0
  6
Continuous
100
AcDbPolyline
 90
        3
 70
     0
 43
0.0
 10
39.83827191202858
 20
17.99731211291326
 10
39.81962480634684
 20
17.84246256888467
 10
39.81962480634684
 20
17.81746256888469
  0
LWPOLYLINE
  5
276
330
2
100
AcDbEntity
  8
0
  6
Continuous
100
AcDbPolyline
 90
        3
 70
     0
 43
0.0
 10
39.84615180731641
 20
17.99731211291326
 10
39.82295813968017
 20
17.84246256888467
 10
39.82295813968017
 20
17.81746256888469
  0
LWPOLYLINE
  5
277
330
2
100
AcDbEntity
  8
0
  6
Continuous
100
AcDbPolyline
 90
        2
 70
     0
 43
0.0
 10
39.90751898665894
 20
17.99731211291326
 10
39.90751898665894
 20
17.81746256888469
  0
LWPOLYLINE
  5
278
330
2
100
AcDbEntity
  8
0
  6
Continuous
100
AcDbPolyline
 90
        2
 70
     0
 43
0.0
 10
39.90251898665895
 20
17.99731211291326
 10
39.90251898665895
 20
17.81746256888469
  0
LWPOLYLINE
  5
279
330
2
100
AcDbEntity
  8
0
  6
Continuous
100
AcDbPolyline
 90
        3
 70
     0
 43
0.0
 10
39.89835231999223
 20
17.81746256888469
 10
39.89835231999223
 20
17.84246256888467
 10
39.89361002580285
 20
17.99731211291326
  0
LWPOLYLINE
  5
27A
330
2
100
AcDbEntity
  8
0
  6
Continuous
100
AcDbPolyline
 90
        3
 70
     0
 43
0.0
 10
39.8950189866589
 20
17.81746256888469
 10
39.8950189866589
 20
17.84246256888467
 10
39.88559692663307
 20
17.99731211291326
  0
LWPOLYLINE
  5
27B
330
2
100
AcDbEntity
  8
0
  6
Continuous
100
AcDbPolyline
 90
        3
 70
     0
 43
0.0
 10
39.89168565332557
 20
17.81746256888469
 10
39.89168565332557
 20
17.84246256888467
 10
39.8776288718816
 20
17.99731211291326
  0
LWPOLYLINE
  5
27C
330
2
100
AcDbEntity
  8
0
  6
Continuous
100
AcDbPolyline
 90
        3
 70
     0
 43
0.0
 10
39.88835231999224
 20
17.81746256888469
 10
39.88835231999224
 20
17.84246256888467
 10
39.86970521431045
 20
17.99731211291326
  0
LWPOLYLINE
  5
27D
330
2
100
AcDbEntity
  8
0
  6
Continuous
100
AcDbPolyline
 90
        3
 70
     0
 43
0.0
 10
39.88501898665891
 20
17.81746256888469
 10
39.88501898665891
 20
17.84246256888467
 10
39.86182531902267
 20
17.99731211291326
  0
LWPOLYLINE
  5
27E
330
2
100
AcDbEntity
  8
0
  6
Continuous
100
AcDbPolyline
 90
        3
 70
     0
 43
0.0
 10
39.91642794751499
 20
17.99731211291326
 10
39.91168565332555
 20
17.84246256888467
 10
39.91168565332555
 20
17.81746256888469
  0
LWPOLYLINE
  5
27F
330
2
100
AcDbEntity
  8
0
  6
Continuous
100
AcDbPolyline
 90
        3
 70
     0
 43
0.0
 10
39.92444104668476
 20
17.99731211291326
 10
39.91501898665894
 20
17.84246256888467
 10
39.91501898665894
 20
17.81746256888469
  0
LWPOLYLINE
  5
280
330
2
100
AcDbEntity
  8
0
  6
Continuous
100
AcDbPolyline
 90
        3
 70
     0
 43
0.0
 10
39.93240910143618
 20
17.99731211291326
 10
39.91835231999227
 20
17.84246256888467
 10
39.91835231999227
 20
17.81746256888469
  0
LWPOLYLINE
  5
281
330
2
100
AcDbEntity
  8
0
  6
Continuous
100
AcDbPolyline
 90
        3
 70
     0
 43
0.0
 10
39.94033275900733
 20
17.99731211291326
 10
39.9216856533256
 20
17.84246256888467
 10
39.9216856533256
 20
17.81746256888469
  0
LWPOLYLINE
  5
282
330
2
100
AcDbEntity
  8
0
  6
Continuous
100
AcDbPolyline
 90
        3
 70
     0
 43
0.0
 10
39.94821265429516
 20
17.99731211291326
 10
39.92501898665893
 20
17.84246256888467
 10
39.92501898665893
 20
17.81746256888469
  0
LWPOLYLINE
  5
283
330
2
100
AcDbEntity
  8
0
  6
Continuous
100
AcDbPolyline
 90
        2
 70
     0
 43
0.0
 10
40.0095798336377
 20
17.99731211291326
 10
40.0095798336377
 20
17.81746256888469
  0
LWPOLYLINE
  5
284
330
2
100
AcDbEntity
  8
0
  6
Continuous
100
AcDbPolyline
 90
        2
 70
     0
 43
0.0
 10
40.0045798336377
 20
17.99731211291326
 10
40.0045798336377
 20
17.81746256888469
  0
LWPOLYLINE
  5
285
330
2
100
AcDbEntity
  8
0
  6
Continuous
100
AcDbPolyline
 90
        3
 70
     0
 43
0.0
 10
40.00041316697099
 20
17.81746256888469
 10
40.00041316697099
 20
17.84246256888467
 10
39.9956708727816
 20
17.99731211291326
  0
LWPOLYLINE
  5
286
330
2
100
AcDbEntity
  8
0
  6
Continuous
100
AcDbPolyline
 90
        3
 70
     0
 43
0.0
 10
39.99707983363766
 20
17.81746256888469
 10
39.99707983363766
 20
17.84246256888467
 10
39.98765777361183
 20
17.99731211291326
  0
LWPOLYLINE
  5
287
330
2
100
AcDbEntity
  8
0
  6
Continuous
100
AcDbPolyline
 90
        3
 70
     0
 43
0.0
 10
39.99374650030432
 20
17.81746256888469
 10
39.99374650030432
 20
17.84246256888467
 10
39.97968971886036
 20
17.99731211291326
  0
LWPOLYLINE
  5
288
330
2
100
AcDbEntity
  8
0
  6
Continuous
100
AcDbPolyline
 90
        3
 70
     0
 43
0.0
 10
39.990413166971
 20
17.81746256888469
 10
39.990413166971
 20
17.84246256888467
 10
39.9717660612892
 20
17.99731211291326
  0
LWPOLYLINE
  5
289
330
2
100
AcDbEntity
  8
0
  6
Continuous
100
AcDbPolyline
 90
        3
 70
     0
 43
0.0
 10
39.98707983363767
 20
17.81746256888469
 10
39.98707983363767
 20
17.84246256888467
 10
39.96388616600143
 20
17.99731211291326
  0
LWPOLYLINE
  5
28A
330
2
100
AcDbEntity
  8
0
  6
Continuous
100
AcDbPolyline
 90
        3
 70
     0
 43
0.0
 10
40.01848879449375
 20
17.99731211291326
 10
40.0137465003043
 20
17.84246256888467
 10
40.0137465003043
 20
17.81746256888469
  0
LWPOLYLINE
  5
28B
330
2
100
AcDbEntity
  8
0
  6
Continuous
100
AcDbPolyline
 90
        3
 70
     0
 43
0.0
 10
40.02650189366351
 20
17.99731211291326
 10
40.01707983363769
 20
17.84246256888467
 10
40.01707983363769
 20
17.81746256888469
  0
LWPOLYLINE
  5
28C
330
2
100
AcDbEntity
  8
0
  6
Continuous
100
AcDbPolyline
 90
        3
 70
     0
 43
0.0
 10
40.03446994841493
 20
17.99731211291326
 10
40.02041316697102
 20
17.84246256888467
 10
40.02041316697102
 20
17.81746256888469
  0
LWPOLYLINE
  5
28D
330
2
100
AcDbEntity
  8
0
  6
Continuous
100
AcDbPolyline
 90
        3
 70
     0
 43
0.0
 10
40.04239360598609
 20
17.99731211291326
 10
40.02374650030435
 20
17.84246256888467
 10
40.02374650030435
 20
17.81746256888469
  0
LWPOLYLINE
  5
28E
330
2
100
AcDbEntity
  8
0
  6
Continuous
100
AcDbPolyline
 90
        3
 70
     0
 43
0.0
 10
40.05027350127392
 20
17.99731211291326
 10
40.02707983363769
 20
17.84246256888467
 10
40.02707983363769
 20
17.81746256888469
  0
LWPOLYLINE
  5
28F
330
2
100
AcDbEntity
  8
0
  6
Continuous
100
AcDbPolyline
 90
      111
 70
     0
 43
0.0
 10
37.79722509733983
 20
17.99731211291326
 10
37.83380204708374
 20
17.84246256888467
 10
37.83380204708374
 20
17.81746256888469
 10
37.88713538041708
 20
17.81746256888469
 10
37.88713538041708
 20
17.84246256888467
 10
37.91483247057312
 20
17.99731211291326
 10
37.94252956072916
 20
17.84246256888467
 10
37.94252956072916
 20
17.81746256888469
 10
37.98919622739584
 20
17.81746256888469
 10
37.98919622739584
 20
17.84246256888467
 10
38.01689331755188
 20
17.99731211291326
 10
38.04459040770792
 20
17.84246256888467
 10
38.04459040770792
 20
17.81746256888469
 10
38.09125707437459
 20
17.81746256888469
 10
38.09125707437459
 20
17.84246256888467
 10
38.11895416453064
 20
17.99731211291326
 10
38.14665125468668
 20
17.84246256888467
 10
38.14665125468668
 20
17.81746256888469
 10
38.19331792135336
 20
17.81746256888469
 10
38.19331792135336
 20
17.84246256888467
 10
38.22101501150939
 20
17.99731211291326
 10
38.24871210166543
 20
17.84246256888467
 10
38.24871210166543
 20
17.81746256888469
 10
38.29537876833212
 20
17.81746256888469
 10
38.29537876833212
 20
17.84246256888467
 10
38.32307585848815
 20
17.99731211291326
 10
38.35077294864419
 20
17.84246256888467
 10
38.35077294864419
 20
17.81746256888469
 10
38.39743961531087
 20
17.81746256888469
 10
38.39743961531087
 20
17.84246256888467
 10
38.42513670546691
 20
17.99731211291326
 10
38.45283379562295
 20
17.84246256888467
 10
38.45283379562295
 20
17.81746256888469
 10
38.49950046228963
 20
17.81746256888469
 10
38.49950046228963
 20
17.84246256888467
 10
38.52719755244567
 20
17.99731211291326
 10
38.55489464260171
 20
17.84246256888467
 10
38.55489464260171
 20
17.81746256888469
 10
38.60156130926839
 20
17.81746256888469
 10
38.60156130926839
 20
17.84246256888467
 10
38.62925839942443
 20
17.99731211291326
 10
38.65695548958047
 20
17.84246256888467
 10
38.65695548958047
 20
17.81746256888469
 10
38.70362215624715
 20
17.81746256888469
 10
38.70362215624715
 20
17.84246256888467
 10
38.73131924640319
 20
17.99731211291326
 10
38.75901633655923
 20
17.84246256888467
 10
38.75901633655923
 20
17.81746256888469
 10
38.80568300322591
 20
17.81746256888469
 10
38.80568300322591
 20
17.84246256888467
 10
38.83338009338195
 20
17.99731211291326
 10
38.86107718353799
 20
17.84246256888467
 10
38.86107718353799
 20
17.81746256888469
 10
38.90774385020467
 20
17.81746256888469
 10
38.90774385020467
 20
17.84246256888467
 10
38.93544094036071
 20
17.99731211291326
 10
38.96313803051675
 20
17.84246256888467
 10
38.96313803051675
 20
17.81746256888469
 10
39.00980469718343
 20
17.81746256888469
 10
39.00980469718343
 20
17.84246256888467
 10
39.03750178733947
 20
17.99731211291326
 10
39.06519887749551
 20
17.84246256888467
 10
39.06519887749551
 20
17.81746256888469
 10
39.11186554416218
 20
17.81746256888469
 10
39.11186554416218
 20
17.84246256888467
 10
39.13956263431823
 20
17.99731211291326
 10
39.16725972447427
 20
17.84246256888467
 10
39.16725972447427
 20
17.81746256888469
 10
39.21392639114094
 20
17.81746256888469
 10
39.21392639114094
 20
17.84246256888467
 10
39.24162348129698
 20
17.99731211291326
 10
39.26932057145302
 20
17.84246256888467
 10
39.26932057145302
 20
17.81746256888469
 10
39.31598723811971
 20
17.81746256888469
 10
39.31598723811971
 20
17.84246256888467
 10
39.34368432827574
 20
17.99731211291326
 10
39.37138141843178
 20
17.84246256888467
 10
39.37138141843178
 20
17.81746256888469
 10
39.41804808509846
 20
17.81746256888469
 10
39.41804808509846
 20
17.84246256888467
 10
39.4457451752545
 20
17.99731211291326
 10
39.47344226541054
 20
17.84246256888467
 10
39.47344226541054
 20
17.81746256888469
 10
39.52010893207722
 20
17.81746256888469
 10
39.52010893207722
 20
17.84246256888467
 10
39.54780602223326
 20
17.99731211291326
 10
39.5755031123893
 20
17.84246256888467
 10
39.5755031123893
 20
17.81746256888469
 10
39.62216977905598
 20
17.81746256888469
 10
39.62216977905598
 20
17.84246256888467
 10
39.64986686921202
 20
17.99731211291326
 10
39.67756395936806
 20
17.84246256888467
 10
39.67756395936806
 20
17.81746256888469
 10
39.72423062603474
 20
17.81746256888469
 10
39.72423062603474
 20
17.84246256888467
 10
39.75192771619078
 20
17.99731211291326
 10
39.77962480634682
 20
17.84246256888467
 10
39.77962480634682
 20
17.81746256888469
 10
39.8262914730135
 20
17.81746256888469
 10
39.8262914730135
 20
17.84246256888467
 10
39.85398856316954
 20
17.99731211291326
 10
39.88168565332557
 20
17.84246256888467
 10
39.88168565332557
 20
17.81746256888469
 10
39.92835231999226
 20
17.81746256888469
 10
39.92835231999226
 20
17.84246256888467
 10
39.9560494101483
 20
17.99731211291326
 10
39.98374650030434
 20
17.84246256888467
 10
39.98374650030434
 20
17.81746256888469
 10
40.03041316697101
 20
17.81746256888469
 10
40.03041316697101
 20
17.84246256888467
 10
40.05811025712705
 20
17.99731211291326
  0
LWPOLYLINE
  5
290
330
2
100
AcDbEntity
  8
0
  6
Continuous
100
AcDbPolyline
 90
        2
 70
     0
 43
0.0
 10
40.12397232810786
 20
17.99731211291326
 10
40.12397232810786
 20
17.81746256888469
  0
LWPOLYLINE
  5
291
330
2
100
AcDbEntity
  8
0
  6
Continuous
100
AcDbPolyline
 90
        2
 70
     0
 43
0.0
 10
40.11897232810787
 20
17.99731211291326
 10
40.11897232810787
 20
17.81746256888469
  0
LWPOLYLINE
  5
292
330
2
100
AcDbEntity
  8
0
  6
Continuous
100
AcDbPolyline
 90
        3
 70
     0
 43
0.0
 10
40.11480566144115
 20
17.81746256888469
 10
40.11480566144115
 20
17.84246256888467
 10
40.11006336725176
 20
17.99731211291326
  0
LWPOLYLINE
  5
293
330
2
100
AcDbEntity
  8
0
  6
Continuous
100
AcDbPolyline
 90
        3
 70
     0
 43
0.0
 10
40.11147232810782
 20
17.81746256888469
 10
40.11147232810782
 20
17.84246256888467
 10
40.102050268082
 20
17.99731211291326
  0
LWPOLYLINE
  5
294
330
2
100
AcDbEntity
  8
0
  6
Continuous
100
AcDbPolyline
 90
        3
 70
     0
 43
0.0
 10
40.10813899477449
 20
17.81746256888469
 10
40.10813899477449
 20
17.84246256888467
 10
40.09408221333052
 20
17.99731211291326
  0
LWPOLYLINE
  5
295
330
2
100
AcDbEntity
  8
0
  6
Continuous
100
AcDbPolyline
 90
        3
 70
     0
 43
0.0
 10
40.10480566144116
 20
17.81746256888469
 10
40.10480566144116
 20
17.84246256888467
 10
40.08615855575937
 20
17.99731211291326
  0
LWPOLYLINE
  5
296
330
2
100
AcDbEntity
  8
0
  6
Continuous
100
AcDbPolyline
 90
        3
 70
     0
 43
0.0
 10
40.10147232810783
 20
17.81746256888469
 10
40.10147232810783
 20
17.84246256888467
 10
40.0782786604716
 20
17.99731211291326
  0
LWPOLYLINE
  5
297
330
2
100
AcDbEntity
  8
0
  6
Continuous
100
AcDbPolyline
 90
        3
 70
     0
 43
0.0
 10
40.13288128896391
 20
17.99731211291326
 10
40.12813899477447
 20
17.84246256888467
 10
40.12813899477447
 20
17.81746256888469
  0
LWPOLYLINE
  5
298
330
2
100
AcDbEntity
  8
0
  6
Continuous
100
AcDbPolyline
 90
        3
 70
     0
 43
0.0
 10
40.14089438813368
 20
17.99731211291326
 10
40.13147232810786
 20
17.84246256888467
 10
40.13147232810786
 20
17.81746256888469
  0
LWPOLYLINE
  5
299
330
2
100
AcDbEntity
  8
0
  6
Continuous
100
AcDbPolyline
 90
        3
 70
     0
 43
0.0
 10
40.1488624428851
 20
17.99731211291326
 10
40.13480566144119
 20
17.84246256888467
 10
40.13480566144119
 20
17.81746256888469
  0
LWPOLYLINE
  5
29A
330
2
100
AcDbEntity
  8
0
  6
Continuous
100
AcDbPolyline
 90
        3
 70
     0
 43
0.0
 10
40.15678610045625
 20
17.99731211291326
 10
40.13813899477452
 20
17.84246256888467
 10
40.13813899477452
 20
17.81746256888469
  0
LWPOLYLINE
  5
29B
330
2
100
AcDbEntity
  8
0
  6
Continuous
100
AcDbPolyline
 90
        3
 70
     0
 43
0.0
 10
40.16466599574409
 20
17.99731211291326
 10
40.14147232810785
 20
17.84246256888467
 10
40.14147232810785
 20
17.81746256888469
  0
LWPOLYLINE
  5
29C
330
2
100
AcDbEntity
  8
0
  6
Continuous
100
AcDbPolyline
 90
        3
 70
     0
 43
0.0
 10
40.17250275159722
 20
17.99731211291326
 10
40.14480566144118
 20
17.84246256888467
 10
40.14480566144118
 20
17.81746256888469
  0
LWPOLYLINE
  5
29D
330
2
100
AcDbEntity
  8
0
  6
Continuous
100
AcDbPolyline
 90
        3
 70
     0
 43
0.0
 10
40.1802969791006
 20
17.99731211291326
 10
40.14813899477451
 20
17.84246256888467
 10
40.14813899477451
 20
17.81746256888469
  0
LWPOLYLINE
  5
29E
330
2
100
AcDbEntity
  8
0
  6
Continuous
100
AcDbPolyline
 90
        5
 70
     0
 43
0.0
 10
40.0981389947745
 20
17.84246256888467
 10
40.0981389947745
 20
17.81746256888469
 10
40.15147232810784
 20
17.81746256888469
 10
40.15147232810784
 20
17.84246256888467
 10
40.21725044700514
 20
17.99731211291326
  0
LWPOLYLINE
  5
29F
330
2
100
AcDbEntity
  8
0
  6
Continuous
100
AcDbPolyline
 90
        3
 70
     0
 43
0.0
 10
40.20079347108498
 20
17.99731211291326
 10
40.15147232810784
 20
17.84246256888467
 10
40.18804927785175
 20
17.99731211291326
  0
LWPOLYLINE
  5
2A0
330
2
100
AcDbEntity
  8
0
  6
Continuous
100
AcDbPolyline
 90
        2
 70
     0
 43
0.0
 10
40.20830580045492
 20
17.99731211291326
 10
40.15240281358404
 20
17.84582053295007
  0
LWPOLYLINE
  5
2A1
330
2
100
AcDbEntity
  8
0
  6
Continuous
100
AcDbPolyline
 90
        3
 70
     0
 43
0.0
 10
40.07044190461846
 20
17.99731211291326
 10
40.09813899477444
 20
17.84246256888467
 10
40.06156204503054
 20
17.99731211291326
  0
DIMENSION
  5
2A2
102
{ACAD_XDICTIONARY
360
2A3
102
}
102
{ACAD_REACTORS
330
2A4
102
}
330
2
100
AcDbEntity
  8
0
100
AcDbDimension
  2
*D3
 10
37.75523684452827
 20
33.64586501364389
 30
0.0
 11
40.00548684452829
 21
33.64586501364389
 31
0.0
 71
     5
 42
4.500500000000045
  3
Knife
100
AcDbAlignedDimension
 13
42.25573684452831
 23
32.4889796032128
 33
0.0
 14
37.75523684452827
 24
33.25497960321282
 34
0.0
100
AcDbRotatedDimension
1001
ACAD
1000
DSTYLE
1002
{
1070
    40
1040
1.0
1002
}
  0
DIMENSION
  5
2B4
102
{ACAD_XDICTIONARY
360
2B5
102
}
102
{ACAD_REACTORS
330
2B6
102
}
330
2
100
AcDbEntity
  8
0
100
AcDbDimension
  2
*D4
 10
40.93573085421965
 20
32.4889796032128
 30
0.0
 11
41.62225630736794
 21
32.99251381326519
 31
0.0
 70
   128
 71
     5
 42
0.6880055325053398
  3
Knife
100
AcDbAlignedDimension
 13
41.16223684452831
 23
31.80097407070745
 33
0.0
 14
41.16223684452831
 24
32.4889796032128
 34
0.0
 50
90.0
100
AcDbRotatedDimension
1001
ACAD
1000
DSTYLE
1002
{
1070
    40
1040
1.0
1002
}
  0
DIMENSION
  5
2C5
102
{ACAD_XDICTIONARY
360
2C6
102
}
102
{ACAD_REACTORS
330
2C7
102
}
330
2
100
AcDbEntity
  8
0
100
AcDbDimension
  2
*D5
 10
38.98976475527149
 20
31.300971739055
 30
0.0
 11
38.98976475527149
 21
31.8949756711339
 31
0.0
 71
     5
 42
1.188007864157796
  3
Knife
100
AcDbAlignedDimension
 13
38.84867957159628
 23
32.4889796032128
 33
0.0
 14
38.84867645483382
 24
31.300971739055
 34
0.0
 50
90.0
100
AcDbRotatedDimension
1001
ACAD
1000
DSTYLE
1002
{
1070
    40
1040
1.0
1002
}
  0
DIMENSION
  5
2D6
102
{ACAD_XDICTIONARY
360
2D7
102
}
102
{ACAD_REACTORS
330
2D8
102
}
330
2
100
AcDbEntity
  8
0
100
AcDbDimension
  2
*D6
 10
43.4811309216688
 20
27.08397407070744
 30
0.0
 11
43.4811309216688
 21
29.37997407070746
 31
0.0
 71
     5
 42
4.592000000000016
  3
Knife
100
AcDbAlignedDimension
 13
42.19373684452834
 23
31.67597407070746
 33
0.0
 14
41.97569789741004
 24
27.08397407070744
 34
0.0
 50
90.0
100
AcDbRotatedDimension
1001
ACAD
1000
DSTYLE
1002
{
1070
    40
1040
1.0
1002
}
  0
DIMENSION
  5
2E7
102
{ACAD_XDICTIONARY
360
2E8
102
}
102
{ACAD_REACTORS
330
2E9
102
}
330
2
100
AcDbEntity
  8
0
100
AcDbDimension
  2
*D7
 10
43.4811309216688
 20
18.33310194887606
 30
0.0
 11
43.4811309216688
 21
22.02060194887607
 31
0.0
 71
     5
 42
7.375
  3
Knife
100
AcDbAlignedDimension
 13
41.97569789741004
 23
25.70810194887606
 33
0.0
 14
42.25576901527273
 24
18.33310194887606
 34
0.0
 50
90.0
100
AcDbRotatedDimension
1001
ACAD
1000
DSTYLE
1002
{
1070
    40
1040
1.0
1002
}
  0
DIMENSION
  5
2F8
102
{ACAD_XDICTIONARY
360
2F9
102
}
102
{ACAD_REACTORS
330
2FA
102
}
330
2
100
AcDbEntity
  8
0
100
AcDbDimension
  2
*D8
 10
43.4811309216688
 20
15.95810194888257
 30
0.0
 11
43.4811309216688
 21
17.14560194887932
 31
0.0
 71
     5
 42
2.374999999993493
  3
Knife
100
AcDbAlignedDimension
 13
42.25573684452831
 23
18.33310194887606
 33
0.0
 14
42.50573684452837
 24
15.95810194888257
 34
0.0
 50
90.0
100
AcDbRotatedDimension
1001
ACAD
1000
DSTYLE
1002
{
1070
    40
1040
1.0
1002
}
  0
DIMENSION
  5
309
330
2
100
AcDbEntity
  8
0
100
AcDbDimension
  2
*D9
 10
46.29826526955008
 20
32.4889796032128
 30
0.0
 11
46.29826526955008
 21
24.22354077604769
 31
0.0
  1
BOX
 71
     5
 42
16.53087765433022
  3
Knife
100
AcDbAlignedDimension
 13
42.50573684452837
 23
15.95810194888257
 33
0.0
 14
42.25573684452831
 24
32.4889796032128
 34
0.0
 50
90.0
100
AcDbRotatedDimension
1001
ACAD
1000
DSTYLE
1002
{
1070
    40
1040
1.0
1002
}
  0
DIMENSION
  5
317
330
2
100
AcDbEntity
  8
0
100
AcDbDimension
  2
*D10
 10
46.29826526955008
 20
33.2389796032128
 30
0.0
 11
46.98479072269837
 21
33.80536949271578
 31
0.0
 70
   128
 71
     5
 42
0.75
  3
Knife
100
AcDbAlignedDimension
 13
42.25573684452831
 23
32.4889796032128
 33
0.0
 14
42.25573684452831
 24
33.2389796032128
 34
0.0
 50
90.0
100
AcDbRotatedDimension
1001
ACAD
1000
DSTYLE
1002
{
1070
    40
1040
1.0
1002
}
  0
DIMENSION
  5
326
330
2
100
AcDbEntity
  8
0
100
AcDbDimension
  2
*D11
 10
47.54106656154504
 20
15.95810194888257
 30
0.0
 11
47.54106656154504
 21
24.25839813851126
 31
0.0
 70
   128
  1
ROUGH\POPENING
 71
     5
 42
17.28087765433022
  3
Knife
100
AcDbAlignedDimension
 13
42.25573684452831
 23
33.2389796032128
 33
0.0
 14
42.50573684452837
 24
15.95810194888257
 34
0.0
 50
90.0
100
AcDbRotatedDimension
1001
ACAD
1000
DSTYLE
1002
{
1070
    40
1040
1.0
1002
}
  0
DIMENSION
  5
334
330
2
100
AcDbEntity
  8
0
100
AcDbDimension
  2
*D12
 10
43.4811309216688
 20
25.70810194887606
 30
0.0
 11
43.4811309216688
 21
26.39603800979176
 31
0.0
  1
DAYLIGHT OPENING
 71
     5
 42
1.375872121831378
  3
Knife
100
AcDbAlignedDimension
 13
42.76341440953942
 23
27.08397407070744
 33
0.0
 14
42.76341440953942
 24
25.70810194887606
 34
0.0
 50
90.0
100
AcDbRotatedDimension
1001
ACAD
1000
DSTYLE
1002
{
1070
    40
1040
1.0
1002
}
  0
DIMENSION
  5
342
102
{ACAD_XDICTIONARY
360
343
102
}
102
{ACAD_REACTORS
330
344
102
}
330
2
100
AcDbEntity
  8
0
100
AcDbDimension
  2
*D13
 10
42.25573684452831
 20
29.39740001707898
 30
0.0
 11
41.38073684452831
 21
29.39740001707898
 31
0.0
 71
     5
 42
1.75
  3
Knife
100
AcDbAlignedDimension
 13
40.50573684452831
 23
29.66097407070747
 33
0.0
 14
42.25573684452831
 24
29.66097407070747
 34
0.0
100
AcDbRotatedDimension
1001
ACAD
1000
DSTYLE
1002
{
1070
    40
1040
1.0
1002
}
  0
DIMENSION
  5
353
330
2
100
AcDbEntity
  8
0
100
AcDbDimension
  2
*D14
 10
44.98105001019383
 20
32.4889796032128
 30
0.0
 11
44.98105001019382
 21
30.6497683450482
 31
0.0
 70
   128
 71
     5
 42
5.405005532505352
  3
Knife
100
AcDbAlignedDimension
 13
41.97569789741004
 23
27.08397407070744
 33
0.0
 14
42.25573684452831
 24
32.4889796032128
 34
0.0
 50
90.0
100
AcDbRotatedDimension
1001
ACAD
1000
DSTYLE
1002
{
1070
    40
1040
1.0
1002
}
  0
DIMENSION
  5
361
330
2
100
AcDbEntity
  8
0
100
AcDbDimension
  2
*D15
 10
44.98105001019381
 20
15.95810194888257
 30
0.0
 11
44.98105001019381
 21
20.83310194887932
 31
0.0
 71
     5
 42
9.749999999993493
  3
Knife
100
AcDbAlignedDimension
 13
41.97569789741004
 23
25.70810194887606
 33
0.0
 14
42.50573684452837
 24
15.95810194888257
 34
0.0
 50
90.0
100
AcDbRotatedDimension
1001
ACAD
1000
DSTYLE
1002
{
1070
    40
1040
1.0
1002
}
  0
ENDSEC
  0
SECTION
  2
OBJECTS
  0
DICTIONARY
  5
B
330
0
100
AcDbDictionary
281
     1
  3
ACAD_COLOR
350
50
  3
ACAD_GROUP
350
3D
  3
ACAD_LAYOUT
350
18
  3
ACAD_MATERIAL
350
D
  3
ACAD_MLEADERSTYLE
350
53
  3
ACAD_MLINESTYLE
350
3E
  3
ACAD_PLOTSETTINGS
350
3F
  3
ACAD_PLOTSTYLENAME
350
A
  3
ACAD_SCALELIST
350
51
  3
ACAD_TABLESTYLE
350
52
  3
ACAD_VISUALSTYLE
350
31
  3
ACDB_RECOMPOSE_DATA
350
37C
  3
AcDbVariableDictionary
350
372
  0
DICTIONARY
  5
33
330
2E
100
AcDbDictionary
280
     1
281
     1
  0
DICTIONARY
  5
23
330
22
100
AcDbDictionary
280
     1
281
     1
  3
ACAD_LAYERSTATES
360
24
  0
DICTIONARY
  5
7
330
6
100
AcDbDictionary
280
     1
281
     1
  3
ADSK_XREC_LAYER_RECONCILED
360
8
  0
DICTIONARY
  5
7F
330
7E
100
AcDbDictionary
280
     1
281
     1
  0
DICTIONARY
  5
3
330
2
100
AcDbDictionary
280
     1
281
     1
  3
ACAD_SORTENTS
360
370
  0
DICTIONARY
  5
2A3
330
2A2
100
AcDbDictionary
280
     1
281
     1
  3
ACAD_DIMASSOC
360
2A4
  0
DICTIONARY
  5
2B5
330
2B4
100
AcDbDictionary
280
     1
281
     1
  3
ACAD_DIMASSOC
360
2B6
  0
DICTIONARY
  5
2C6
330
2C5
100
AcDbDictionary
280
     1
281
     1
  3
ACAD_DIMASSOC
360
2C7
  0
DICTIONARY
  5
2D7
330
2D6
100
AcDbDictionary
280
     1
281
     1
  3
ACAD_DIMASSOC
360
2D8
  0
DICTIONARY
  5
2E8
330
2E7
100
AcDbDictionary
280
     1
281
     1
  3
ACAD_DIMASSOC
360
2E9
  0
DICTIONARY
  5
2F9
330
2F8
100
AcDbDictionary
280
     1
281
     1
  3
ACAD_DIMASSOC
360
2FA
  0
DICTIONARY
  5
343
330
342
100
AcDbDictionary
280
     1
281
     1
  3
ACAD_DIMASSOC
360
344
  0
DICTIONARY
  5
50
102
{ACAD_REACTORS
330
B
102
}
330
B
100
AcDbDictionary
281
     1
  0
DICTIONARY
  5
3D
102
{ACAD_REACTORS
330
B
102
}
330
B
100
AcDbDictionary
281
     1
  0
DICTIONARY
  5
18
102
{ACAD_REACTORS
330
B
102
}
330
B
100
AcDbDictionary
281
     1
  3
Layout1
350
1F
  3
Model
350
17
  0
DICTIONARY
  5
D
102
{ACAD_REACTORS
330
B
102
}
330
B
100
AcDbDictionary
281
     1
  3
ByBlock
350
48
  3
ByLayer
350
40
  3
Global
350
C
  0
DICTIONARY
  5
53
102
{ACAD_REACTORS
330
B
102
}
330
B
100
AcDbDictionary
281
     1
  0
DICTIONARY
  5
3E
102
{ACAD_REACTORS
330
B
102
}
330
B
100
AcDbDictionary
281
     1
  3
Standard
350
54
  0
DICTIONARY
  5
3F
102
{ACAD_REACTORS
330
B
102
}
330
B
100
AcDbDictionary
281
     1
  0
ACDBDICTIONARYWDFLT
  5
A
102
{ACAD_REACTORS
330
B
102
}
330
B
100
AcDbDictionary
281
     1
  3
Normal
350
9
100
AcDbDictionaryWithDefault
340
9
  0
DICTIONARY
  5
51
102
{ACAD_REACTORS
330
B
102
}
330
B
100
AcDbDictionary
281
     1
  3
A0
350
59
  3
A1
350
5A
  3
A2
350
5B
  3
A3
350
5C
  3
A4
350
5D
  3
A5
350
5E
  3
A6
350
5F
  3
A7
350
60
  3
A8
350
61
  3
A9
350
62
  3
B0
350
63
  3
B1
350
64
  3
B2
350
65
  3
B3
350
66
  3
B4
350
67
  3
B5
350
68
  3
B6
350
69
  0
DICTIONARY
  5
52
102
{ACAD_REACTORS
330
B
102
}
330
B
100
AcDbDictionary
281
     1
  3
Standard
350
55
  0
DICTIONARY
  5
31
102
{ACAD_REACTORS
330
B
102
}
330
B
100
AcDbDictionary
281
     1
  3
2dWireframe
350
30
  3
Realistic
350
57
  3
Wireframe
350
58
  0
XRECORD
  5
37C
102
{ACAD_REACTORS
330
B
102
}
330
B
100
AcDbXrecord
280
     1
 90
        1
330
55
  0
DICTIONARY
  5
372
102
{ACAD_REACTORS
330
B
102
}
330
B
100
AcDbDictionary
281
     1
  3
CANNOSCALE
350
375
  3
CMLEADERSTYLE
350
374
  3
CTABLESTYLE
350
373
  3
DIMASSOC
350
37A
  3
HIDETEXT
350
378
  3
INDEXCTL
350
377
  3
SORTENTS
350
376
  3
XCLIPFRAME
350
379
  0
DICTIONARY
  5
24
102
{ACAD_REACTORS
330
23
102
}
330
23
100
AcDbDictionary
281
     1
  0
XRECORD
  5
8
102
{ACAD_REACTORS
330
7
102
}
330
7
100
AcDbXrecord
280
     1
290
     1
  0
SORTENTSTABLE
  5
370
102
{ACAD_REACTORS
330
3
102
}
330
3
100
AcDbSortentsTable
330
2
  0
DIMASSOC
  5
2A4
102
{ACAD_REACTORS
330
2A3
102
}
330
2A3
100
AcDbDimAssoc
330
2A2
 90
        3
 70
     0
 71
     0
  1
AcDbOsnapPointRef
 72
     1
331
6B
 73
     2
 91
       23
 40
1.0
 10
0.0
 20
0.0
 30
2.000000000000000E+50
 75
     0
  1
AcDbOsnapPointRef
 72
     1
331
73
 73
     2
 91
        4
 40
1.0
 10
0.0
 20
0.0
 30
2.000000000000000E+50
 75
     0
  0
DIMASSOC
  5
2B6
102
{ACAD_REACTORS
330
2B5
102
}
330
2B5
100
AcDbDimAssoc
330
2B4
 90
        3
 70
     0
 71
     0
  1
AcDbOsnapPointRef
 72
     2
331
6B
 73
     2
 91
        1
 40
0.5
 10
0.0
 20
0.0
 30
0.0
 75
     0
  1
AcDbOsnapPointRef
 72
     8
331
6B
 73
     2
 91
       21
 40
0.7704153630961878
 10
0.0
 20
0.0
 30
0.0
 75
     1
  1
AcDbOsnapPointRef
 72
     2
331
6B
 73
     2
 91
        1
 40
0.5
 10
0.0
 20
0.0
 30
0.0
 75
     0
  0
DIMASSOC
  5
2C7
102
{ACAD_REACTORS
330
2C6
102
}
330
2C6
100
AcDbDimAssoc
330
2C5
 90
        3
 70
     0
 71
     0
  1
AcDbOsnapPointRef
 72
     1
331
6B
 73
     2
 91
       16
 40
6.283185307179586
 10
0.0
 20
0.0
 30
2.000000000000000E+50
 75
     0
  1
AcDbOsnapPointRef
 72
     8
331
6B
 73
     2
 91
        8
 40
0.5274795959702466
 10
0.0
 20
0.0
 30
0.0
 75
     1
  1
AcDbOsnapPointRef
 72
     1
331
6B
 73
     2
 91
       16
 40
6.283185307179586
 10
0.0
 20
0.0
 30
2.000000000000000E+50
 75
     0
  0
DIMASSOC
  5
2D8
102
{ACAD_REACTORS
330
2D7
102
}
330
2D7
100
AcDbDimAssoc
330
2D6
 90
        3
 70
     0
 71
     0
  1
AcDbOsnapPointRef
 72
     6
331
6A
 73
     2
 91
       10
 40
0.9999999999999912
 10
0.0
 20
0.0
 30
0.0
332
6A
 74
     2
 92
       11
 75
     0
  1
AcDbOsnapPointRef
 72
     1
331
6A
 73
     2
 91
       16
 40
1.0
 10
0.0
 20
0.0
 30
2.000000000000000E+50
 75
     0
  0
DIMASSOC
  5
2E9
102
{ACAD_REACTORS
330
2E8
102
}
330
2E8
100
AcDbDimAssoc
330
2E7
 90
        3
 70
     0
 71
     0
  1
AcDbOsnapPointRef
 72
     1
331
71
 73
     2
 91
       16
 40
1.0
 10
0.0
 20
0.0
 30
2.000000000000000E+50
 75
     0
  1
AcDbOsnapPointRef
 72
    13
331
72
 73
     2
 91
        1
 40
0.0
 10
0.0
 20
0.0
 30
2.000000000000000E+50
 75
     0
  0
DIMASSOC
  5
2FA
102
{ACAD_REACTORS
330
2F9
102
}
330
2F9
100
AcDbDimAssoc
330
2F8
 90
        3
 70
     0
 71
     0
  1
AcDbOsnapPointRef
 72
     1
331
72
 73
     2
 91
       25
 40
1.0
 10
0.0
 20
0.0
 30
2.000000000000000E+50
 75
     0
  1
AcDbOsnapPointRef
 72
     1
331
6D
 73
     2
 91
        4
 40
1.0
 10
0.0
 20
0.0
 30
2.000000000000000E+50
 75
     0
  0
DIMASSOC
  5
344
102
{ACAD_REACTORS
330
343
102
}
330
343
100
AcDbDimAssoc
330
342
 90
        3
 70
     0
 71
     0
  1
AcDbOsnapPointRef
 72
     2
331
6A
 73
     2
 91
        8
 40
0.5
 10
0.0
 20
0.0
 30
0.0
 75
     0
  1
AcDbOsnapPointRef
 72
     8
331
6A
 73
     2
 91
       12
 40
0.4631012931988857
 10
0.0
 20
0.0
 30
0.0
 75
     1
  1
AcDbOsnapPointRef
 72
     2
331
6A
 73
     2
 91
        8
 40
0.5
 10
0.0
 20
0.0
 30
0.0
 75
     0
  0
LAYOUT
  5
1F
102
{ACAD_XDICTIONARY
360
20
102
}
102
{ACAD_REACTORS
330
18
102
}
330
18
100
AcDbPlotSettings
  1

  2
Default Windows System Printer.pc3
  4
Letter
  6

 40
4.857749938964843
 41
4.857737064361572
 42
4.85772705078125
 43
4.011077880859375
 44
279.3999938964844
 45
215.8999938964844
 46
-0.730858697408237
 47
-3.856245104248928
 48
0.0
 49
0.0
140
0.0
141
0.0
142
1.0
143
1.0
 70
   692
 72
     0
 73
     1
 74
     1
  7
monochrome.ctb
 75
    16
147
1.0
148
0.0083604749971762
149
0.0163435974585369
100
AcDbLayout
  1
Layout1
 70
     1
 71
     1
 10
-0.0064249311656545
 20
-0.1631194818509899
 11
8.493574828538456
 21
10.83688027785312
 12
0.0
 22
0.0
 32
0.0
 14
-0.0001993256062995
 24
-0.0006438736622698
 34
-0.0000000000112498
 15
8.45427583816383
 25
10.67440472088713
 35
0.0000000000002956
146
0.0
 13
0.0
 23
0.0
 33
0.0
 16
1.0
 26
0.0
 36
0.0
 17
0.0
 27
1.0
 37
0.0
 76
     0
330
1C
1001
ACAD_PSEXT
1000
Default Windows System Printer.pc3
1000
HP LaserJet Professional M1212nf MFP
1000
USB001
1000

1070
     0
  0
LAYOUT
  5
17
102
{ACAD_XDICTIONARY
360
19
102
}
102
{ACAD_REACTORS
330
18
102
}
330
18
100
AcDbPlotSettings
  1

  2
hp LaserJet 1000
  4
Letter
  6

 40
5.111750125885009
 41
5.11176061630249
 42
5.111740112304687
 43
5.11175537109375
 44
215.8999938964844
 45
279.3999938964844
 46
-1737.727141600119
 47
-1443.590822120185
 48
0.0
 49
0.0
140
0.0
141
0.0
142
1.0
143
1.0
 70
 11956
 72
     0
 73
     1
 74
     1
  7
monochrome.ctb
 75
    16
147
1.0
148
-1178909.293504616
149
-716480.0773740626
100
AcDbLayout
  1
Model
 70
     1
 71
     0
 10
0.0
 20
0.0
 11
12.0
 21
9.0
 12
0.0
 22
0.0
 32
0.0
 14
0.0
 24
0.0
 34
0.0
 15
0.0
 25
0.0
 35
0.0
146
0.0
 13
0.0
 23
0.0
 33
0.0
 16
1.0
 26
0.0
 36
0.0
 17
0.0
 27
1.0
 37
0.0
 76
     0
330
2
1001
ACAD_PSEXT
1000
hp LaserJet 1000
1000
hp LaserJet 1000
1000
USB001
1000

1070
     0
  0
MATERIAL
  5
48
102
{ACAD_XDICTIONARY
360
49
102
}
102
{ACAD_REACTORS
330
D
102
}
330
D
100
AcDbMaterial
  1
ByBlock
 72
     0
 43
0.0208333333333333
 43
0.0
 43
0.0
 43
0.0
 43
0.0
 43
0.0208333333333333
 43
0.0
 43
0.0
 43
0.0
 43
0.0
 43
1.0
 43
0.0
 43
0.0
 43
0.0
 43
0.0
 43
1.0
 77
     0
 47
0.0208333333333333
 47
0.0
 47
0.0
 47
0.0
 47
0.0
 47
0.0208333333333333
 47
0.0
 47
0.0
 47
0.0
 47
0.0
 47
1.0
 47
0.0
 47
0.0
 47
0.0
 47
0.0
 47
1.0
171
     0
 49
0.0208333333333333
 49
0.0
 49
0.0
 49
0.0
 49
0.0
 49
0.0208333333333333
 49
0.0
 49
0.0
 49
0.0
 49
0.0
 49
1.0
 49
0.0
 49
0.0
 49
0.0
 49
0.0
 49
1.0
175
     0
142
0.0208333333333333
142
0.0
142
0.0
142
0.0
142
0.0
142
0.0208333333333333
142
0.0
142
0.0
142
0.0
142
0.0
142
1.0
142
0.0
142
0.0
142
0.0
142
0.0
142
1.0
179
     0
144
0.0208333333333333
144
0.0
144
0.0
144
0.0
144
0.0
144
0.0208333333333333
144
0.0
144
0.0
144
0.0
144
0.0
144
1.0
144
0.0
144
0.0
144
0.0
144
0.0
144
1.0
147
0.0208333333333333
147
0.0
147
0.0
147
0.0
147
0.0
147
0.0208333333333333
147
0.0
147
0.0
147
0.0
147
0.0
147
1.0
147
0.0
147
0.0
147
0.0
147
0.0
147
1.0
  0
MATERIAL
  5
40
102
{ACAD_XDICTIONARY
360
41
102
}
102
{ACAD_REACTORS
330
D
102
}
330
D
100
AcDbMaterial
  1
ByLayer
 72
     0
 43
0.0208333333333333
 43
0.0
 43
0.0
 43
0.0
 43
0.0
 43
0.0208333333333333
 43
0.0
 43
0.0
 43
0.0
 43
0.0
 43
1.0
 43
0.0
 43
0.0
 43
0.0
 43
0.0
 43
1.0
 77
     0
 47
0.0208333333333333
 47
0.0
 47
0.0
 47
0.0
 47
0.0
 47
0.0208333333333333
 47
0.0
 47
0.0
 47
0.0
 47
0.0
 47
1.0
 47
0.0
 47
0.0
 47
0.0
 47
0.0
 47
1.0
171
     0
 49
0.0208333333333333
 49
0.0
 49
0.0
 49
0.0
 49
0.0
 49
0.0208333333333333
 49
0.0
 49
0.0
 49
0.0
 49
0.0
 49
1.0
 49
0.0
 49
0.0
 49
0.0
 49
0.0
 49
1.0
175
     0
142
0.0208333333333333
142
0.0
142
0.0
142
0.0
142
0.0
142
0.0208333333333333
142
0.0
142
0.0
142
0.0
142
0.0
142
1.0
142
0.0
142
0.0
142
0.0
142
0.0
142
1.0
179
     0
144
0.0208333333333333
144
0.0
144
0.0
144
0.0
144
0.0
144
0.0208333333333333
144
0.0
144
0.0
144
0.0
144
0.0
144
1.0
144
0.0
144
0.0
144
0.0
144
0.0
144
1.0
147
0.0208333333333333
147
0.0
147
0.0
147
0.0
147
0.0
147
0.0208333333333333
147
0.0
147
0.0
147
0.0
147
0.0
147
1.0
147
0.0
147
0.0
147
0.0
147
0.0
147
1.0
  0
MATERIAL
  5
C
102
{ACAD_XDICTIONARY
360
E
102
}
102
{ACAD_REACTORS
330
D
102
}
330
D
100
AcDbMaterial
  1
Global
 72
     0
 43
0.0208333333333333
 43
0.0
 43
0.0
 43
0.0
 43
0.0
 43
0.0208333333333333
 43
0.0
 43
0.0
 43
0.0
 43
0.0
 43
1.0
 43
0.0
 43
0.0
 43
0.0
 43
0.0
 43
1.0
 77
     0
 47
0.0208333333333333
 47
0.0
 47
0.0
 47
0.0
 47
0.0
 47
0.0208333333333333
 47
0.0
 47
0.0
 47
0.0
 47
0.0
 47
1.0
 47
0.0
 47
0.0
 47
0.0
 47
0.0
 47
1.0
171
     0
 49
0.0208333333333333
 49
0.0
 49
0.0
 49
0.0
 49
0.0
 49
0.0208333333333333
 49
0.0
 49
0.0
 49
0.0
 49
0.0
 49
1.0
 49
0.0
 49
0.0
 49
0.0
 49
0.0
 49
1.0
175
     0
142
0.0208333333333333
142
0.0
142
0.0
142
0.0
142
0.0
142
0.0208333333333333
142
0.0
142
0.0
142
0.0
142
0.0
142
1.0
142
0.0
142
0.0
142
0.0
142
0.0
142
1.0
179
     0
144
0.0208333333333333
144
0.0
144
0.0
144
0.0
144
0.0
144
0.0208333333333333
144
0.0
144
0.0
144
0.0
144
0.0
144
1.0
144
0.0
144
0.0
144
0.0
144
0.0
144
1.0
147
0.0208333333333333
147
0.0
147
0.0
147
0.0
147
0.0
147
0.0208333333333333
147
0.0
147
0.0
147
0.0
147
0.0
147
1.0
147
0.0
147
0.0
147
0.0
147
0.0
147
1.0
  0
MLINESTYLE
  5
54
102
{ACAD_REACTORS
330
3E
102
}
330
3E
100
AcDbMlineStyle
  2
STANDARD
 70
     0
  3

 62
   256
 51
90.0
 52
90.0
 71
     2
 49
0.5
 62
   256
  6
BYLAYER
 49
-0.5
 62
   256
  6
BYLAYER
  0
ACDBPLACEHOLDER
  5
9
102
{ACAD_REACTORS
330
A
102
}
330
A
  0
SCALE
  5
59
102
{ACAD_REACTORS
330
51
102
}
330
51
100
AcDbScale
 70
     0
300
1:1
140
1.0
141
1.0
290
     1
  0
SCALE
  5
5A
102
{ACAD_REACTORS
330
51
102
}
330
51
100
AcDbScale
 70
     0
300
1/128" = 1'-0"
140
0.0078125
141
12.0
290
     0
  0
SCALE
  5
5B
102
{ACAD_REACTORS
330
51
102
}
330
51
100
AcDbScale
 70
     0
300
1/64" = 1'-0"
140
0.015625
141
12.0
290
     0
  0
SCALE
  5
5C
102
{ACAD_REACTORS
330
51
102
}
330
51
100
AcDbScale
 70
     0
300
1/32" = 1'-0"
140
0.03125
141
12.0
290
     0
  0
SCALE
  5
5D
102
{ACAD_REACTORS
330
51
102
}
330
51
100
AcDbScale
 70
     0
300
1/16" = 1'-0"
140
0.0625
141
12.0
290
     0
  0
SCALE
  5
5E
102
{ACAD_REACTORS
330
51
102
}
330
51
100
AcDbScale
 70
     0
300
3/32" = 1'-0"
140
0.09375
141
12.0
290
     0
  0
SCALE
  5
5F
102
{ACAD_REACTORS
330
51
102
}
330
51
100
AcDbScale
 70
     0
300
1/8" = 1'-0"
140
0.125
141
12.0
290
     0
  0
SCALE
  5
60
102
{ACAD_REACTORS
330
51
102
}
330
51
100
AcDbScale
 70
     0
300
3/16" = 1'-0"
140
0.1875
141
12.0
290
     0
  0
SCALE
  5
61
102
{ACAD_REACTORS
330
51
102
}
330
51
100
AcDbScale
 70
     0
300
1/4" = 1'-0"
140
0.25
141
12.0
290
     0
  0
SCALE
  5
62
102
{ACAD_REACTORS
330
51
102
}
330
51
100
AcDbScale
 70
     0
300
3/8" = 1'-0"
140
0.375
141
12.0
290
     0
  0
SCALE
  5
63
102
{ACAD_REACTORS
330
51
102
}
330
51
100
AcDbScale
 70
     0
300
1/2" = 1'-0"
140
0.5
141
12.0
290
     0
  0
SCALE
  5
64
102
{ACAD_REACTORS
330
51
102
}
330
51
100
AcDbScale
 70
     0
300
3/4" = 1'-0"
140
0.75
141
12.0
290
     0
  0
SCALE
  5
65
102
{ACAD_REACTORS
330
51
102
}
330
51
100
AcDbScale
 70
     0
300
1" = 1'-0"
140
1.0
141
12.0
290
     0
  0
SCALE
  5
66
102
{ACAD_REACTORS
330
51
102
}
330
51
100
AcDbScale
 70
     0
300
1-1/2" = 1'-0"
140
1.5
141
12.0
290
     0
  0
SCALE
  5
67
102
{ACAD_REACTORS
330
51
102
}
330
51
100
AcDbScale
 70
     0
300
3" = 1'-0"
140
3.0
141
12.0
290
     0
  0
SCALE
  5
68
102
{ACAD_REACTORS
330
51
102
}
330
51
100
AcDbScale
 70
     0
300
6" = 1'-0"
140
6.0
141
12.0
290
     0
  0
SCALE
  5
69
102
{ACAD_REACTORS
330
51
102
}
330
51
100
AcDbScale
 70
     0
300
1'-0" = 1'-0"
140
12.0
141
12.0
290
     0
  0
TABLESTYLE
  5
55
102
{ACAD_XDICTIONARY
360
56
102
}
102
{ACAD_REACTORS
330
52
102
}
330
52
100
AcDbTableStyle
  3
Standard
 70
     0
 71
     0
 40
0.06
 41
0.06
280
     0
281
     0
  7
Standard
140
0.18
170
     2
 62
     0
 63
     7
283
     0
274
    -2
284
     1
 64
     0
275
    -2
285
     1
 65
     0
276
    -2
286
     1
 66
     0
277
    -2
287
     1
 67
     0
278
    -2
288
     1
 68
     0
279
    -2
289
     1
 69
     0
  7
Standard
140
0.25
170
     5
 62
     0
 63
     7
283
     0
274
    -2
284
     1
 64
     0
275
    -2
285
     1
 65
     0
276
    -2
286
     1
 66
     0
277
    -2
287
     1
 67
     0
278
    -2
288
     1
 68
     0
279
    -2
289
     1
 69
     0
  7
Standard
140
0.18
170
     5
 62
     0
 63
     7
283
     0
274
    -2
284
     1
 64
     0
275
    -2
285
     1
 65
     0
276
    -2
286
     1
 66
     0
277
    -2
287
     1
 67
     0
278
    -2
288
     1
 68
     0
279
    -2
289
     1
 69
     0
  0
VISUALSTYLE
  5
30
102
{ACAD_XDICTIONARY
360
380
102
}
102
{ACAD_REACTORS
330
31
102
}
330
31
100
AcDbVisualStyle
  2
2dWireframe
 70
     4
 71
     0
 72
     2
 73
     0
 90
        0
 40
-0.6
 41
-30.0
 62
     5
 63
     7
 74
     1
 91
        4
 64
     7
 65
   257
 75
     1
175
     1
 42
1.0
 92
        0
 66
   257
 43
1.0
 76
     1
 77
     6
 78
     2
 67
     7
 79
     5
170
     0
171
     0
290
     0
174
     0
 93
        1
 44
0.0
173
     0
291
     0
 45
0.0
1001
ACAD
1000
AcDbSavedByObjectVersion
1070
     0
  0
VISUALSTYLE
  5
57
102
{ACAD_XDICTIONARY
360
385
102
}
102
{ACAD_REACTORS
330
31
102
}
330
31
100
AcDbVisualStyle
  2
Realistic
 70
     8
 71
     2
 72
     2
 73
     0
 90
        2
 40
-0.6
 41
30.0
 62
     5
 63
     7
 74
     0
 91
        0
 64
     7
 65
   257
 75
     1
175
     1
 42
1.0
 92
        8
 66
   257
 43
1.0
 76
     1
 77
     6
 78
     2
 67
     7
 79
     3
170
     0
171
     0
290
     0
174
     0
 93
       13
 44
0.0
173
     0
291
     0
 45
0.0
1001
ACAD
1000
AcDbSavedByObjectVersion
1070
     0
  0
VISUALSTYLE
  5
58
102
{ACAD_XDICTIONARY
360
387
102
}
102
{ACAD_REACTORS
330
31
102
}
330
31
100
AcDbVisualStyle
  2
Wireframe
 70
     5
 71
     0
 72
     2
 73
     0
 90
        0
 40
-0.6
 41
-30.0
 62
     5
 63
     7
 74
     1
 91
        4
 64
     7
 65
   257
 75
     1
175
     1
 42
1.0
 92
        0
 66
   257
 43
1.0
 76
     1
 77
     6
 78
     2
 67
     7
 79
     3
170
     0
171
     0
290
     0
174
     0
 93
        1
 44
0.0
173
     0
291
     0
 45
0.0
1001
ACAD
1000
AcDbSavedByObjectVersion
1070
     0
  0
DICTIONARYVAR
  5
375
102
{ACAD_REACTORS
330
372
102
}
330
372
100
DictionaryVariables
280
     0
  1
1:1
  0
DICTIONARYVAR
  5
374
102
{ACAD_REACTORS
330
372
102
}
330
372
100
DictionaryVariables
280
     0
  1
STANDARD
  0
DICTIONARYVAR
  5
373
102
{ACAD_REACTORS
330
372
102
}
330
372
100
DictionaryVariables
280
     0
  1
STANDARD
  0
DICTIONARYVAR
  5
37A
102
{ACAD_REACTORS
330
372
102
}
330
372
100
DictionaryVariables
280
     0
  1
2
  0
DICTIONARYVAR
  5
378
102
{ACAD_REACTORS
330
372
102
}
330
372
100
DictionaryVariables
280
     0
  1
1
  0
DICTIONARYVAR
  5
377
102
{ACAD_REACTORS
330
372
102
}
330
372
100
DictionaryVariables
280
     0
  1
0
  0
DICTIONARYVAR
  5
376
102
{ACAD_REACTORS
330
372
102
}
330
372
100
DictionaryVariables
280
     0
  1
127
  0
DICTIONARYVAR
  5
379
102
{ACAD_REACTORS
330
372
102
}
330
372
100
DictionaryVariables
280
     0
  1
0
  0
DICTIONARY
  5
20
330
1F
100
AcDbDictionary
280
     1
281
     1
  3
ACAD_XREC_ROUNDTRIP
360
37F
  3
ADSK_XREC_LAYOUTTHUMBNAIL
360
21
  0
DICTIONARY
  5
19
330
17
100
AcDbDictionary
280
     1
281
     1
  3
ACAD_XREC_ROUNDTRIP
360
37E
  3
ADSK_XREC_LAYOUTTHUMBNAIL
360
1A
  0
DICTIONARY
  5
49
330
48
100
AcDbDictionary
280
     1
281
     1
  3
ACAD_XREC_ROUNDTRIP
360
383
  3
BUMPTILE
360
4A
  3
DIFFUSETILE
360
4B
  3
OPACITYTILE
360
4C
  3
REFLECTIONTILE
360
4D
  3
REFRACTIONTILE
360
4E
  3
SPECULARTILE
360
4F
  0
DICTIONARY
  5
41
330
40
100
AcDbDictionary
280
     1
281
     1
  3
ACAD_XREC_ROUNDTRIP
360
382
  3
BUMPTILE
360
42
  3
DIFFUSETILE
360
43
  3
OPACITYTILE
360
44
  3
REFLECTIONTILE
360
45
  3
REFRACTIONTILE
360
46
  3
SPECULARTILE
360
47
  0
DICTIONARY
  5
E
330
C
100
AcDbDictionary
280
     1
281
     1
  3
ACAD_XREC_ROUNDTRIP
360
37D
  3
BUMPTILE
360
F
  3
DIFFUSETILE
360
10
  3
OPACITYTILE
360
11
  3
REFLECTIONTILE
360
12
  3
REFRACTIONTILE
360
13
  3
SPECULARTILE
360
14
  0
DICTIONARY
  5
56
330
55
100
AcDbDictionary
280
     1
281
     1
  3
ACAD_ROUNDTRIP_2008_TABLESTYLE_CELLSTYLEMAP
360
37B
  3
ACAD_XREC_ROUNDTRIP
360
384
  0
DICTIONARY
  5
380
330
30
100
AcDbDictionary
280
     1
281
     1
  3
ACAD_XREC_ROUNDTRIP
360
381
  0
DICTIONARY
  5
385
330
57
100
AcDbDictionary
280
     1
281
     1
  3
ACAD_XREC_ROUNDTRIP
360
386
  0
DICTIONARY
  5
387
330
58
100
AcDbDictionary
280
     1
281
     1
  3
ACAD_XREC_ROUNDTRIP
360
388
  0
XRECORD
  5
37F
102
{ACAD_REACTORS
330
20
102
}
330
20
100
AcDbXrecord
280
     1
102
SHADEPLOT
 70
     1
102
SHADEPLOTRESLEVEL
 70
     4
102
SHADEPLOTCUSTOMDPI
 70
   300
  0
XRECORD
  5
21
102
{ACAD_REACTORS
330
20
102
}
330
20
100
AcDbXrecord
280
     1
310
280000006B0000008C0000000100080000000000103B000000000000000000000001000000000000FFFFFF0000000000C8C8C8000000000000000000000000000000000000000000000000000000000000000000330000006600000099000000CC000000FF00000000330000333300006633000099330000CC330000FF3300
310
0000660000336600006666000099660000CC660000FF66000000990000339900006699000099990000CC990000FF99000000CC000033CC000066CC000099CC0000CCCC0000FFCC000000FF000033FF000066FF000099FF0000CCFF0000FFFF000000003300330033006600330099003300CC003300FF003300003333003333
310
33006633330099333300CC333300FF33330000663300336633006666330099663300CC663300FF66330000993300339933006699330099993300CC993300FF99330000CC330033CC330066CC330099CC3300CCCC3300FFCC330000FF330033FF330066FF330099FF3300CCFF3300FFFF330000006600330066006600660099
310
006600CC006600FF00660000336600333366006633660099336600CC336600FF33660000666600336666006666660099666600CC666600FF66660000996600339966006699660099996600CC996600FF99660000CC660033CC660066CC660099CC6600CCCC6600FFCC660000FF660033FF660066FF660099FF6600CCFF6600
310
FFFF660000009900330099006600990099009900CC009900FF00990000339900333399006633990099339900CC339900FF33990000669900336699006666990099669900CC669900FF66990000999900339999006699990099999900CC999900FF99990000CC990033CC990066CC990099CC9900CCCC9900FFCC990000FF99
310
0033FF990066FF990099FF9900CCFF9900FFFF99000000CC003300CC006600CC009900CC00CC00CC00FF00CC000033CC003333CC006633CC009933CC00CC33CC00FF33CC000066CC003366CC006666CC009966CC00CC66CC00FF66CC000099CC003399CC006699CC009999CC00CC99CC00FF99CC0000CCCC0033CCCC0066CC
310
CC0099CCCC00CCCCCC00FFCCCC0000FFCC0033FFCC0066FFCC0099FFCC00CCFFCC00FFFFCC000000FF003300FF006600FF009900FF00CC00FF00FF00FF000033FF003333FF006633FF009933FF00CC33FF00FF33FF000066FF003366FF006666FF009966FF00CC66FF00FF66FF000099FF003399FF006699FF009999FF00CC
310
99FF00FF99FF0000CCFF0033CCFF0066CCFF0099CCFF00CCCCFF00FFCCFF0000FFFF0033FFFF0066FFFF0099FFFF00CCFFFF00FFFFFF00000000000D0D0D001A1A1A00282828003535350043434300505050005D5D5D006B6B6B00787878008686860093939300A1A1A100AEAEAE00BBBBBB00C9C9C900D6D6D600E4E4E400
310
F1F1F100FFFFFF0000000000000000000000000000000000000000000000000000000000000000000000000000000000E2E2E2E2E2E2E2E2E2E2E2E2E2E2E2E2E2E2E2E2E2E2E2E2E2E2E2E2E2E2E2E2E2E2E2E2E2E2E2E2E2E2E2E2E2E2E2E2E2E2E2E2E2E2E2E2E2E2E2E2E2E2E2E2E2E2E2E2E2E2E2E2E2E2E2E2E2E2E2
310
E2E2E2E2E2E2E2E2E2E2E2E2E2E2E2E2E2E2E2E2E2E2E2E2E2E2E2E240E200000000000000000000000000000000000000000000000000000000000000000000000000000000000000000000000000000000000000000000000000000000000000000000000000000000000000000000000000000000000000000000000000
310
000000000000000000B8E20000000000000000000000000000000000000000000000000000000000000000000000000000000000000000000000000000000000000000000000000000000000000000000000000000000000000000000000000000000000000000000000000000000000000000000030E2E2E2E2E2E2E2E2E2
310
E2E2000000000000000000E2E2E2E2E2E2E2E2E2E2E2E2E2E2E2E200000000000000000000E2E2E2E2E2E2E2E2E2E2E2E2E2E2E2E200000000000000000000E2E2E2E2E2E2E2E2E2E2E2E2E2E2E2E2000000000000000000E2E2E2E2E2E2E2E2E2007EE200E200000000000000000000000000000000000000000000000000
310
0000000000000000000000000000000000000000000000000000000000000000000000000000000000000000000000000000000000000000000000000000000000000000000000000000000000E20000E200E20000000000000000000000000000000000000000000000000000000000000000000000000000000000000000
310
0000000000E2E2E20000000000000000000000000000000000000000000000000000000000000000000000000000000000000000000000000000E20001E200E200000000000000000000000000000000000000000000000000000000000000000000000000000000000000000000000000E2E2E20000000000000000000000
310
000000000000000000000000000000000000000000000000000000000000000000000000000000E20019E200E200000000000000000000000000000000000000000000000000000000000000000000000000000000000000000000000000000000000000000000000000000000000000000000000000000000000000000000
310
0000000000000000000000000000000000000000E20001E200E2000000000000000000000000000000000000000000000000000000000000000000000000000000000000000000000000E2E2E2E2E2000000000000000000000000000000000000000000000000000000000000000000000000000000000000000000000000
310
00E20000E200E2000000000000000000000000000000000000000000000000000000000000000000000000000000000000000000000000E2E2E2E2E200000000000000000000000000000000000000000000000000000000000000000000000000000000000000000000000000E20000E200E2000000000000000000000000
310
000000000000000000000000000000000000000000000000000000000000000000000000000000000000000000000000000000000000000000000000000000000000000000000000000000000000000000000000000000000000E20001E200E200000000000000000000000000000000000000000000000000000000000000
310
0000000000000000000000000000000000000000000000000000000000000000000000000000000000000000000000000000000000000000000000000000000000000000000000E20000E200000000000000000000000000000000000000000000000000000000000000000000000000000000000000000000000000000000
310
00000000000000000000000000000000000000000000000000000000000000000000000000000000000000000000000000000000000000E20000000000000000000000000000000000000000000000000000000000000000000000000000000000000000000000000000000000000000000000000000000000000000000000
310
000000000000000000000000000000000000000000000000000000000000000000000000E2000000000000000000000000000000000000000000000000000000000000000000000000000000000000000000000000000000000000000000000000000000000000000000000000000000000000000000000000000000000000
310
0000000000000000000000000000000000E20000000000000000000000000000000000000000000000000000000000000000000000000000000000000000000000000000000000000000000000000000000000000000000000000000000000000000000000000000000000000000000000000000000000000000000000E200
310
00000000000000000000000000000000000000000000000000000000000000000000000000000000000000000000000000000000000000000000000000000000000000000000000000000000000000000000000000000000000000000000000000000000000000000000E20000000000000000000000000000000000000000
310
000000000000000000000000000000000000000000000000000000000000000000000000000000000000000000000000000000000000000000000000000000000000000000000000000000000000000000000000000002E2000000000000000000000000000000000000000000000000000000000000000000000000000000
310
0000000000000000000000000000000000000000000000000000000000000000000000000000000000000000000000000000000000000000000000000000000000000002E200000000000000000000000000000000000000000000000000000000000000000000000000000000000000000000000000000000000000000000
310
000000000000000000000000000000000000000000000000000000000000000000000000000000000000000000000000FFE20000000000000000000000000000000000000000000000000000000000000000000000000000000000000000000000000000000000000000000000000000000000000000000000000000000000
310
000000000000000000000000000000000000000000000000000000000000E2000000000000000000000000000000000000000000000000000000000000000000000000000000000000000000000000000000000000000000000000000000000000000000000000000000000000000000000000000000000000000000000000
310
0000000000000000000099E200E2000000000000000000000000000000000000000000000000000000000000000000000000000000000000000000000000000000000000000000000000000000000000000000000000000000000000000000000000000000000000000000000000000000000000E20066E200E20000000000
310
00000000000000000000000000000000000000000000000000000000000000000000000000000000000000000000000000000000000000000000000000000000000000000000000000000000000000000000000000000000000000000000000000E20066E200E2000000000000000000000000000000000000000000000000
310
000000000000000000000000000000000000000000000000000000000000000000000000000000000000000000000000000000000000000000000000000000000000000000000000000000000000E20066E200E200000000000000000000000000000000000000000000000000000000000000000000000000000000000000
310
0000000000000000000000000000000000000000000000000000000000000000000000000000000000000000000000000000000000000000000000E20000E200E20000000000000000000000000000000000000000000000000000000000000000000000000000000000000000000000000000000000000000000000000000
310
00000000000000000000000000000000000000000000000000000000000000000000000000000000E20099E200E2000000000000000000000000000000000000000000000000000000000000000000000000000000000000000000000000000000000000000000000000000000000000000000000000000000000000000000
310
000000000000000000000000000000000000000000E20000E200E200000000000000000000000000000000000000000000000000000000000000000000000000000000000000000000000000000000000000000000000000000000000000000000000000000000000000000000000000000000000000000000000000000000
310
0000E200FFE200E2000000000000000000000000000000000000000000000000000000000000000000000000000000000000000000000000000000000000000000000000000000000000000000000000000000000000000000000000000000000000000000000000000000000000E20000E200E20000000000000000000000
310
00000000000000000000000000000000000000000000000000000000000000000000000000000000000000000000000000000000000000000000000000000000000000000000000000000000000000000000000000000000000000E20000E200E2000000000000000000000000000000000000000000000000000000000000
310
000000000000000000000000000000000000000000000000000000000000000000000000000000000000000000000000000000000000000000000000000000000000000000000000E20000E200E200000000000000000000000000000000000000000000000000000000000000000000000000000000000000000000000000
310
0000000000000000000000000000000000000000000000000000000000000000000000000000000000000000000000000000000000E20000E200E20000000000000000000000000000000000000000000000000000000000000000000000000000000000000000000000000000000000000000000000000000000000000000
310
00000000000000000000000000000000000000000000000000000000000000000000E2000FE200E2000000000000000000000000000000000000000000000000000000000000000000000000000000000000000000000000000000000000000000000000000000000000000000000000000000000000000000000000000000
310
000000000000000000000000000000E20000E200E2000000000000000000000000000000000000000000000000000000000000000000000000000000000000000000000000000000000000000000000000000000000000000000000000000000000000000000000000000000000000000000000000000000000000E20000E2
310
00E2000000000000000000000000000000000000000000000000000000000000000000000000000000000000000000000000000000000000000000000000000000000000000000000000000000000000000000000000000000000000000000000000000000000000E20000E200E20000000000000000000000000000000000
310
00000000000000000000000000000000000000000000000000000000000000000000000000000000000000000000000000000000000000000000000000000000000000000000000000000000000000000000000000E20000E200E2000000000000000000000000000000000000000000000000000000000000000000000000
310
000000000000000000000000000000000000000000000000000000000000000000000000000000000000000000000000000000000000000000000000000000000000E2000FE2000000000000000000000000000000000000000000000000000000000000000000000000000000000000000000000000000000000000000000
310
0000000000000000000000000000000000000000000000000000000000000000000000000000000000000000000000000000E200000000000000000000000000000000000000000000000000000000000000000000000000000000000000000000000000000000000000000000000000000000000000000000000000000000
310
000000000000000000000000000000000000000000000000000000000000F5E20000000000000000000000000000000000000000000000000000000000000000000000000000000000000000000000000000000000000000000000000000000000000000000000000000000000000000000000000000000000000000000000
310
000000000000000000000000E20000000000000000000000000000000000000000000000000000000000000000000000000000000000000000000000000000000000000000000000000000000000000000000000000000000000000000000000000000000000000000000000000000000000000000000000E2000000000000
310
0000000000000000000000000000000000000000000000000000000000000000000000000000000000000000000000000000000000000000000000000000000000000000000000000000000000000000000000000000000000000000000000000000000000E200000000000000000000000000000000000000000000000000
310
00000000000000000000000000000000000000000000000000000000000000000000000000000000000000000000000000000000000000000000000000000000000000000000000000000000000000000000E20000000000000000000000000000000000000000000000000000000000000000000000000000000000000000
310
00000000000000000000000000000000000000000000000000000000000000000000000000000000000000000000000000000000000000000000000000000FE2000000000000000000000000000000000000000000000000000000000000000000E2E2E2E2E2E2E2E2E2E2E2E2E2E2E2E2E2E2E2E2E2E2E2E2E2E2E2E2E2E2
310
E2E2E2E2E2E2E2E2E20000000000000000000000000000000000000000000000000000000000000000000000E2000000000000000000000000000000000000000000000000000000000000000000E2E2E2E200000000000000000000000000000000E2000000E200000000E200000000E2000000E200000000000000000000
310
00000000000000000000000000000000000000000000000000E200E200000000000000000000000000000000000000000000000000000000000000E2E2000000000000000000000000000000000000E2000000E200000000E200000000E2000000E20000000000000000000000000000000000000000000000000000000000
310
000000E20000E200E200000000000000000000000000000000000000000000000000000000000000E2E2E2E2E2E2E2E20000000000000000000000E2E200E2E2E200000000E200000000E2000000E20000000000000000000000000000000000000000000000000000000000000000E20000E200E200000000000000000000
310
000000000000000000000000000000000000000000E2E2E2E2E2E2E2E2E2E2E2E2E2E2E2E2E2E2E2E2E200E2E2E200000000E200000000E2000000E20000000000000000000000000000000000000000000000000000000000000000E200F5E200E20000000000000000000000000000000000000000000000000000000000
310
000000E2E2E2E200000000E2E2E2E2E2E2E2E2E2E200E200E2E2E200000000E200000000E2000000E20000000000000000000000000000000000000000000000000000000000000000E20000E200E20000000000000000000000000000000000000000000000000000000000000000E2E2E2E2E2E2E2E2E2E2E2E2E2E2E200
310
E2E2E2E2000000E200000000E200000000E2000000E20000000000000000000000000000000000000000000000000000000000000000E20000E200E20000000000000000000000000000000000000000000000000000000000000000E2E2E2E2E2E2E2E2E2E2E2E2E2E2E2E2E2E2E2E2000000E200000000E200000000E200
310
0000E20000000000000000000000000000000000000000000000000000000000000000E20000E200E20000000000000000000000000000000000000000000000000000000000000000E2E2E2E2000000E2E200E2E2E2E2E2E2E2E2E2E2E2E2E2E200000000E200000000E2000000E200000000000000000000000000000000
310
00000000000000000000000000000000E20000E200E20000000000000000000000000000000000000000000000000000000000000000E200E2E2000000E2E200E200E2000000000000E2000000E200000000E200000000E2000000E20000000000000000000000000000000000000000000000000000000000000000E200F5
310
E200E20000000000000000000000000000000000000000000000000000000000000000E200E2E2000000E2E200E200E2000000000000E2000000E200000000E200000000E2000000E20000000000000000000000000000000000000000000000000000000000000000E20000E200E200000000000000000000000000000000
310
00000000000000000000000000000000E2E2E2E2000000E2E200E2E2E2000000000000E2000000E200000000E200000000E2000000E20000000000000000000000000000000000000000000000000000000000000000E200F5E200E20000000000000000000000000000000000000000000000000000000000000000E2E200
310
E2000000E2E200E2E2E2000000000000E2000000E200000000E200000000E2000000E20000000000000000000000000000000000000000000000000000000000000000E20000E200E20000000000000000000000000000000000000000000000000000000000000000E20000E2000000E2E200E2E2E2000000000000E20000
310
00E200000000E200000000E2000000E20000000000000000000000000000000000000000000000000000000000000000E20000E200E20000000000000000000000000000000000000000000000000000000000000000E20000E2000000E2E200E2E2E2000000000000E2000000E200000000E200000000E2000000E2000000
310
0000000000000000000000000000000000000000000000000000000000E20000E200E20000000000000000000000000000000000000000000000000000000000000000E20000E2000000E2E200E2E2E2000000000000E2000000E200000000E200000000E2000000E200000000000000000000000000000000000000000000
310
00000000000000000000E20000E200E20000000000000000000000000000000000000000000000000000000000000000E20000E2000000E2E200E2E2E2000000000000E2000000E20000E2E2E2E2000000E2000000E20000000000000000000000000000000000000000000000000000000000000000E200F5E200E2000000
310
0000000000000000000000000000000000000000000000000000000000E20000E2000000E2E200E2E2E2000000000000E2000000E2000000E2E2E2000000E2000000E20000000000000000000000000000000000000000000000000000000000000000E20000E200E200000000000000000000000000000000000000000000
310
00000000000000000000E20000E2000000E2E200E2E2E2000000000000E2000000E2000000E2E2E2000000E2000000E20000000000000000000000000000000000000000000000000000000000000000E20000E200000000000000000000000000000000000000000000000000000000000000000000E20000E2000000E2E2
310
00E2E2E2000000000000E2000000E200000000E200000000E2000000E20000000000000000000000000000000000000000000000000000000000000000000000E200000000000000000000000000000000000000000000000000000000000000000000E20000E2000000E2E200E2E2E2000000000000E200E2E2E2E2000000
310
E200000000E2000000E20000000000000000000000000000000000000000000000000000000000000000000000E200000000000000000000000000000000000000000000000000000000000000000000E20000E2000000E2E200E2E2E2000000000000E200E2E2E2E2000000E200000000E2000000E2000000000000000000
310
00000000000000000000000000000000000000000000000000F5E200000000000000000000000000000000000000000000000000000000000000000000E20000E2000000E2E200E2E2E2000000000000E200E2E2E200000000E200000000E2000000E200000000000000000000000000000000000000000000000000000000
310
00000000000000E200000000000000000000000000000000000000000000000000000000000000000000E20000E2000000E2E200E2E2E2000000000000E2000000E200000000E200000000E2000000E20000000000000000000000000000000000000000000000000000000000000000000000E20000000000000000000000
310
0000000000000000000000000000000000000000000000E20000E2000000E2E200E2E2E2000000000000E2000000E200000000E200000000E2000000E20000000000000000000000000000000000000000000000000000000000000000000000E2000000000000000000000000000000000000000000000000000000000000
310
00000000E20000E2000000E2E200E2E2E2000000000000E2000000E200000000E200000000E2000000E20000000000000000000000000000000000000000000000000000000000000000000000E200000000000000000000000000000000000000000000000000000000000000000000E20000E2000000E2E200E2E2E20000
310
00000000E2000000E200000000E200000000E2000000E200000000000000000000000000000000000000000000000000000000000000000000F5E200000000000000000000000000000000000000000000000000000000000000000000E20000E2000000E2E200E2E2E2000000000000E2000000E200000000E200000000E2
310
00E2E2E2E200000000000000000000000000000000000000000000000000000000000000000000E200000000000000000000000000000000000000000000000000000000000000000000E20000E2000000E2E200E2E2E2000000000000E2000000E200000000E2000000E2E200E2E2E2E20000000000000000000000000000
310
00000000000000000000000000000000000000F5E200E20000000000000000000000000000000000000000000000000000000000000000E20000E2000000E2E200E2E2E2000000000000E2000000E200000000E2000000E2E20000E2E20000000000000000000000000000000000000000000000000000000000000000E200
310
00E200E20000000000000000000000000000000000000000000000000000000000000000E20000E2000000E2E200E2E2E2000000000000E2000000E200000000E200000000E20000E2E20000000000000000000000000000000000000000000000000000000000000000E20000E200E2000000000000000000000000000000
310
0000000000000000000000000000000000E20000E2000000E2E200E2E2E2000000000000E2000000E200000000E200000000E2000000E20000000000000000000000000000000000000000000000000000000000000000E2007FE200E20000000000000000000000000000000000000000000000000000000000000000E200
310
00E2000000E2E200E2E2E2E2E2E2E2E200E2000000E200000000E200000000E2000000E20000000000000000000000000000000000000000000000000000000000000000E20000E200E20000000000000000000000000000000000000000000000000000000000000000E20000E2000000E2E200E2E200E2E2E2E2E200E200
310
0000E200000000E200000000E2000000E20000000000000000000000000000000000000000000000000000000000000000E200F5E200E20000000000000000000000000000000000000000000000000000000000000000E20000E2000000E2E200E2E200E2E2E2E2E2E2E2E2E2E2E2E2E2E2E2E200000000E2000000E20000
310
000000000000000000000000000000000000000000000000000000000000E20000E200E20000000000000000000000000000000000000000000000000000000000000000E20000E2000000E2E200E2E20000E2E200E20000000000E200000000E200000000E2000000E2000000000000000000000000000000000000000000
310
0000000000000000000000E20000E200E20000000000000000000000000000000000000000000000000000000000000000E20000E2000000E2E200E2E20000E2E200E200E2E2E2E2E2E2E2E2000000000000E2000000E20000000000000000000000000000000000000000000000000000000000000000E20000E200E20000
310
000000000000000000000000000000000000000000000000000000000000E2E2E2E2E2E2E2E2E2E2E2E2E2E2E2E2E2E200E2E2E2E2E2E2E2E2000000000000E2000000E20000000000000000000000000000000000000000000000000000000000000000E20036E200E2000000000000000000000000000000000000000000
310
0000000000000000000000E20000E2000000E2E200E2E20000E2E200E20000000000E2000000000000000000E2000000E20000000000000000000000000000000000000000000000000000000000000000E200F5E200E20000000000000000000000000000000000000000000000000000000000000000E20000E2000000E2
310
E200E2E20000E2E2E2E2E2E2E2E2E2E2E2E2E2E2E200000000E2000000E20000000000000000000000000000000000000000000000000000000000000000E20000E200E20000000000000000000000000000000000000000000000000000000000000000E20000E2000000E2E200E2E200E2E2E2E2E2E2E2000000E2000000
310
00E200000000E2000000E20000000000000000000000000000000000000000000000000000000000000000E200F5E200E20000000000000000000000000000000000000000000000000000000000000000E20000E2000000E2E200E2E2E2E2E2E2E2E200E2000000E200000000E200000000E2000000E20000000000000000
310
000000000000000000000000000000000000000000000000E20000E200E20000000000000000000000000000000000000000000000000000000000000000E20000E2000000E2E200E2E2E2000000E2E200E2000000E200000000E200000000E2000000E2000000000000000000000000000000000000000000000000000000
310
0000000000E20000E200E20000000000000000000000000000000000000000000000000000000000000000E20000E2000000E2E200E2E2E2000000000000E2000000E200000000E200000000E2000000E20000000000000000000000000000000000000000000000000000000000000000E200F5E200E20000000000000000
310
000000000000000000000000000000000000000000000000E20000E2000000E2E200E2E2E2000000000000E2000000E200000000E200000000E2000000E20000000000000000000000000000000000000000000000000000000000000000E20000E200E2000000000000000000000000000000000000000000000000000000
310
0000000000E20000E2000000E2E200E2E2E2000000000000E2000000E200000000E200000000E2000000E20000000000000000000000000000000000000000000000000000000000000000E200F5E200000000000000000000000000000000000000000000000000000000000000000000E20000E2000000E2E200E2E2E200
310
E2E2E20000E200E2E2E2E2000000E200000000E2000000E20000000000000000000000000000000000000000000000000000000000000000000000E200000000000000000000000000000000000000000000000000000000000000000000E20000E2000000E2E200E2E2E2E2E2E2E2E2E2E200E2E2E2E2000000E200000000
310
E2000000E20000000000000000000000000000000000000000000000000000000000000000000000E200000000000000000000000000000000000000000000000000000000000000000000E20000E2000000E2E200E2E2E2E2E2E2E20000E200E2E2E2E2000000E200000000E2000000E20000000000000000000000000000
310
000000000000000000000000000000000000000000E200000000000000000000000000000000000000000000000000000000000000000000E2E2E2E2000000E2E200E2E2E2000000000000E2000000E200000000E200000000E2000000E2000000000000000000000000000000000000000000000000000000000000000000
310
0000E200000000000000000000000000000000000000000000000000000000000000000000E2E2E2E2000000E2E200E2E2E2000000000000E2000000E20000E2E2E2E2000000E2000000E20000000000000000000000000000000000000000000000000000000000000000000000E200000000000000000000000000000000
310
000000000000000000000000000000000000E200E2E2000000E2E200E2E2E2000000000000E2000000E20000E2E2E2E2000000E2000000E20000000000000000000000000000000000000000000000000000000000000000000000E200000000000000000000000000000000000000000000000000000000000000000000E2
310
E2E2E2000000E2E200E2E2E2000000000000E2000000E20000E2E2E2E2000000E2000000E20000000000000000000000000000000000000000000000000000000000000000000000E200000000000000000000000000000000000000000000000000000000000000000000E2E2E2E2000000E2E200E2E2E2000000000000E2
310
000000E20000E2E2E2E2000000E2000000E20000000000000000000000000000000000000000000000000000000000000000000000E2000000000000000000000000000000000000000000000000000000000000000000E2E2E2E2E2E2E2E2E2E2E2E2E2E2000000000000E2000000E200000000E200000000E2000000E200
310
00000000000000000000000000000000000000000000000000000000000000000000E200E200000000000000000000000000000000000000000000000000000000000000E2E2E2E2E20000E2E2E2E2E2E2E2E2E2E2E2E2E2E2E2E2E2E200000000E200000000E2000000E20000000000000000000000000000000000000000
310
000000000000000000000000E200F5E200E200000000000000000000000000000000000000000000000000000000000000E2E2E2E2E2E2E2E2E2E2E2E2E2E2E2E2E2E2E2E2E2000000E200000000E200000000E2000000E20000000000000000000000000000000000000000000000000000000000000000E20000E200E200
310
000000000000000000000000000000000000000000000000000000000000E2E2E2E2E2E2E2E2E2E20000000000E200000000E20000000000000000E200000000E2000000E20000000000000000000000000000000000000000000000000000000000000000E200F5E200E20000000000000000000000000000000000000000
310
0000000000000000000000E2000000E2E2E2E2E2E2E2E2E2E2E2E2E2E2E2E2E2E2E2E2E2E2E2E2E2E2E2E2E2E2E2000000E20000000000000000000000000000000000000000000000000000000000000000E20000E200E200000000000000000000000000000000000000000000000000000000000000E2E2E2E2E2E20000
310
E2000000000000E2E2E2E200E20000000000000000E2000000E2E2000000E20000000000000000000000000000000000000000000000000000000000000000E20000E200E200000000000000000000000000000000000000000000000000000000000000E2E2E2E2E200000000000000000000E2E2E2E200E2000000000000
310
00000000000000E2000000E20000000000000000000000000000000000000000000000000000000000000000E200F5E200E200000000000000000000000000000000000000000000000000000000000000E2000000E20000000000E2E2E2000000E2E2E200E2E2E2E2E2E2E2E2E2E2E2E2E2E2E2E2E2E2E200000000000000
310
00000000000000000000000000000000000000000000000000E20000E200E200000000000000000000000000000000000000000000000000000000000000E20000E2E2E2E2E2E2E2E2E2E2E2E2E2E2E2E2E2E200000000000000000000000000E2E2E2E2000000000000000000000000000000000000000000000000000000
310
000000000000E20000E200E200000000000000000000000000000000000000000000000000000000000000E2E2E2E2E20000000000E2E2E200000000000000E200000000000000000000000000E2E2E200000000000000000000000000000000000000000000000000000000000000000000E20000E200E200000000000000
310
0000000000000000000000000000000000000000000000000000000000000000000000000000000000000000000000000000000000000000000000E2E200000000000000000000000000000000000000000000000000000000000000000000E20000E200E20000000000000000000000000000000000000000000000000000
310
00000000000000000000000000000000000000000000000000000000000000000000000000000000000000000000000000000000000000000000000000000000000000000000000000000000E20000E200E2000000000000000000000000000000000000000000000000000000000000000000000000000000000000000000
310
000000000000000000000000000000000000000000000000000000000000000000000000000000000000000000000000000000000000000000E20000E200E200000000000000000000000000000000000000000000000000000000000000000000000000000000000000000000000000000000000000000000000000000000
310
0000000000000000000000000000000000000000000000000000000000000000000000000000E20000E200E20000000000000000000000000000000000000000000000000000000000000000000000000000000000000000000000000000000000000000000000000000000000000000000000000000000000000000000000
310
00000000000000000000000000000000000000E20000E200E2000000000000000000000000000000000000000000000000000000000000000000000000000000000000000000000000000000000000000000000000000000000000000000000000000000000000000000000000000000000000000000000000000000000000
310
E20000E200E2000000000000000000000000000000000000000000000000000000000000000000000000000000000000000000000000000000000000000000000000000000000000000000000000000000000000000000000000000000000000000000000000000000000000E20000E200E200000000E2E2E2E2E2E2E2E2E2
310
E2E2E2E2E2E2E2E2E2E2E2E2E2E2E2E2E2E2E2E2E2E2E2E2E2E2E2E2E2E2E2E2E2E2E2E2E2E2E2E2E2E2E2E2E2E2E2E2E2E2E20000000000000000000000000000000000000000000000000000000000000000000000000000E20000E2000000000000E2E2E2E2E2E2E2E2E2E2E2E2E2E2E2E2E2E2E2E2E2E2E2E2E2E2E2E2
310
E2E2E2E2E2E2E2E2E2E2E2E2E2E2E2E2E2E2E2E2E2E2E2E2E2E2E2E2E2E2E2E20000000000000000000000000000000000000000000000000000000000000000000000000000000000E2000000000000E2E2E2E2E2E2E2E2E2E2E2E2E2E2E2E2E2E2E2E2E2E2E2E2E2E2E2E2E2E2E2E2E2E2E2E2E2E2E2E2E2E2E2E2E2E2E2
310
E2E2E2E2E2E2E2E2E2E2E2E2E20000000000000000000000000000000000000000000000000000000000000000000000000000000000E2000000000000E2E2E2E2E2E2E2E2E2E2E2E2E2E2E2E2E2E2E2E2E2E2E2E2E2E2E2E2E2E2E2E2E2E2E2E2E2E2E2E2E2E2E2E2E2E2E2E2E2E2E2E2E2E2E2E2E2E2E2E2000000000000
310
00000000000000000000000000000000000000000000000000000000000000000000F5E20000000000E2E2E2E2E2E2E2E2E2E2E2E2E2E2E2E2E2E2E2E2E2E2E2E2E2E2E2E2E2E2E2E2E2E2E2E2E2E2E2E2E2E2E2E2E2E2E2E2E2E2E2E2E2E2E2E2E2E2E2E2E2E2E2E2E2E2E2E2E2E2E2E2E2E2E2E2E2E2E2E2E2E2E2E2E2E2
310
E2E2E2E2E2E2E2E2E2E2E2E2E2000000E2000000000000E2E2E2E2E2E2E2E2E2E2E2E2E2E2E2E2E2E2E2E2E2E2E2E2E2E2E2E2E2E2E2E2000000000000000000000000000000000000000000000000000000000000000000000000000000000000000000000000000000000000000000000000000000000000000000E20000
310
00000000E2E2E2E2E2E2E2E2E2E2E2E2E2E2E2E2E2E2E2E2E2E2E2E2E2E2E2E2E2E2E2E20000000000000000000000000000000000000000000000000000000000000000000000000000000000000000000000000000000000000000000000000000000000000000F5E2000000000000E2E2E2E2E2E2E2E2E2E2E2E2E2E2E2
310
E2E2E2E2E2E2E2E2E2E2E2E2E2E2E2E2E2000000000000000000000000000000000000000000000000000000000000000000000000E2E2E2E2E2E2E2E2E2E2E2E2E2E2E2E2E2E2E2E2E2E2E2E2E2E2E2E2E200000000E2000000000000E2E2E2E2E2E2E2E2E2E2E2E2E2E2E2E2E2E2E2E2E2E2E2E2E2E2E2E2E2E2E2E20000
310
00000000000000000000000000000000000000000000000000000000000000000000E2000000000000000000000000000000000000000000000000000000E2000000F5E20000000000000000000000000000000000000000000000000000000000000000000000000000000000000000000000000000000000000000000000
310
000000000000000000000000000000E20000E5E5E5E5E500E5E5E5E5E5E5E5E5E5E000E50025E525E5E500E200000000E20000000000000000000000000000000000000000000000000000000000000000000000000000000000000000000000000000000000000000000000000000000000000000000000000000E200E500
310
0000000000000000000000000000000000000000000000E5E200000000E200E2000000000000000000000000000000000000000000000000000000000000000000000000000000000000000000000000000000000000000000000000000000000000000000000000E2E5E50000000000E50000000000000000000000000000
310
0000E50000E200E20000E200E2000000000000000000000000000000000000000000000000000000000000000000000000000000000000000000000000000000000000000000000000000000000000000000000000E2E5E50000000000E500000000000000000000000000000000E50000E200E20000E200E2000000000000
310
000000000000000000000000000000000000000000000000000000000000000000000000000000000000000000000000000000000000000000000000000000000000E2E5E50000E500000000000000000000E50000000000000000E00000E200E200F5E200E200000000000000000000000000000000000000000000000000
310
0000000000000000000000000000000000000000000000000000000000000000000000000000000000000000000000E2000000000000E0000000040000E500000004002000E500000000E4E200E20000E200E20000000000000000000000000000000000000000000000000000000000000000000000000000000000000000
310
00000000000000000000000000000000000000000000000000000000E20000000000000000C0C00000000000000000C0C000000000000000E200E20000E200E2000000000000000000000000000000000000000000000000000000000000000000000000000000000000000000000000000000000000000000000000000000
310
000000000000000000E2000000000000000000000000000000000000000000000000000000E200E20000E200E2000000000000000000000000000000000000000000000000000000000000000000000000000000000000000000000000000000000000000000000000000000000000000000000000E2000000000000000000
310
000000000000000000000000000000000000E200E20000E200E2000000000000000000000000000000000000000000000000000000000000000000000000000000000000000000000000000000000000000000000000000000000000000000000000E2E2E2E2E2E2E2E2E2E2E2E2E2E2E2E2E2E2E2E2E2E2E2E2E2E2E2E2E2
310
00E200F5E200E2E2E2E2E2E2E2E2E2000000000000000000E2E2E2E2E2E2E2E2E2E2E2E2E2E2E2E200000000000000000000E2E2E2E2E2E2E2E2E2E2E2E2E2E2E2E200000000000000000000E2E2E2E2E2E2E2E2E2E2E2E2E2E2E2E2000000000000000000E2E2E2E2E2E2E2E2E2E200E20000000000000000000000000000
310
00000000000000000000000000000000000000000000000000000000000000000000000000000000000000000000000000000000000000000000000000000000000000000000000000000000000000000000000000000000000000E2F5E2000000000000000000000000000000000000000000000000000000000000000000
310
0000000000000000000000000000000000000000000000000000000000000000000000000000000000000000000000000000000000000000000000000000000000000000000000000000E2E2E2E2E2E2E2E2E2E2E2E2E2E2E2E2E2E2E2E2E2E2E2E2E2E2E2E2E2E2E2E2E2E2E2E2E2E2E2E2E2E2E2E2E2E2E2E2E2E2E2E2E2
310
E2E2E2E2E2E2E2E2E2E2E2E2E2E2E2E2E2E2E2E2E2E2E2E2E2E2E2E2E2E2E2E2E2E2E2E2E2E2E2E2E2E2E2E2E2E2E2E2E2E2E2E2E2E200
  0
XRECORD
  5
37E
102
{ACAD_REACTORS
330
19
102
}
330
19
100
AcDbXrecord
280
     1
102
SHADEPLOT
 70
     0
102
SHADEPLOTRESLEVEL
 70
     2
102
SHADEPLOTCUSTOMDPI
 70
   300
  0
XRECORD
  5
1A
102
{ACAD_REACTORS
330
19
102
}
330
19
100
AcDbXrecord
280
     1
310
280000000001000076000000010008000000000000760000000000000000000000010000000000000000000000000000C8C8C8000000000000000000000000000000000000000000000000000000000000000000330000006600000099000000CC000000FF00000000330000333300006633000099330000CC330000FF3300
310
0000660000336600006666000099660000CC660000FF66000000990000339900006699000099990000CC990000FF99000000CC000033CC000066CC000099CC0000CCCC0000FFCC000000FF000033FF000066FF000099FF0000CCFF0000FFFF000000003300330033006600330099003300CC003300FF003300003333003333
310
33006633330099333300CC333300FF33330000663300336633006666330099663300CC663300FF66330000993300339933006699330099993300CC993300FF99330000CC330033CC330066CC330099CC3300CCCC3300FFCC330000FF330033FF330066FF330099FF3300CCFF3300FFFF330000006600330066006600660099
310
006600CC006600FF00660000336600333366006633660099336600CC336600FF33660000666600336666006666660099666600CC666600FF66660000996600339966006699660099996600CC996600FF99660000CC660033CC660066CC660099CC6600CCCC6600FFCC660000FF660033FF660066FF660099FF6600CCFF6600
310
FFFF660000009900330099006600990099009900CC009900FF00990000339900333399006633990099339900CC339900FF33990000669900336699006666990099669900CC669900FF66990000999900339999006699990099999900CC999900FF99990000CC990033CC990066CC990099CC9900CCCC9900FFCC990000FF99
310
0033FF990066FF990099FF9900CCFF9900FFFF99000000CC003300CC006600CC009900CC00CC00CC00FF00CC000033CC003333CC006633CC009933CC00CC33CC00FF33CC000066CC003366CC006666CC009966CC00CC66CC00FF66CC000099CC003399CC006699CC009999CC00CC99CC00FF99CC0000CCCC0033CCCC0066CC
310
CC0099CCCC00CCCCCC00FFCCCC0000FFCC0033FFCC0066FFCC0099FFCC00CCFFCC00FFFFCC000000FF003300FF006600FF009900FF00CC00FF00FF00FF000033FF003333FF006633FF009933FF00CC33FF00FF33FF000066FF003366FF006666FF009966FF00CC66FF00FF66FF000099FF003399FF006699FF009999FF00CC
310
99FF00FF99FF0000CCFF0033CCFF0066CCFF0099CCFF00CCCCFF00FFCCFF0000FFFF0033FFFF0066FFFF0099FFFF00CCFFFF00FFFFFF00000000000D0D0D001A1A1A00282828003535350043434300505050005D5D5D006B6B6B00787878008686860093939300A1A1A100AEAEAE00BBBBBB00C9C9C900D6D6D600E4E4E400
310
F1F1F100FFFFFF000000000000000000000000000000000000000000000000000000000000000000000000000000000000000000000000000000000000000000000000000000000000000000000000000000000000000000000000000000000000000000000000000000000000000000000000000000000000000000000000
310
00000000000000000000000000000000000000000000000000000000000000000000000000000000000000000000000000000000000000000000000000000000000000000000000000000000000000000000000000000000000000000000000000000000000000000000000000000000000000000000000000000000000000
310
00000000000000000000000000000000000000000000000000000000000000000000000000000000000000000000000000000000000000000000000000000000000000000000000000000000000000000000000000000000000000000000000000000000000000000000000000000000000000000000000000000000000000
310
00000000000000000000000000000000000000000000000000000000000000000000000000000000000000000000000000000000000000000000000000000000000000000000000000000000000000000000000000000000000000000000000000000000000000000000000000000000000000000000000000000000000000
310
00000000000000000000000000000000000000000000000000000000000000000000000000000000000000000000000000000000000000000000000000000000000000000000000000000000000000000000000000000000000000000000000000000000000000000000000000000000000000000000000000000000000000
310
00000000000000000000000000000000000000000000000000000000000000000000000000000000000000000000000000000000000000000000000000000000000000000000000000000000000000000000000000000000000000000000000000000000000000000000000000000000000000000000000000000000000000
310
00000000000000000000000000000000000000000000000000000000000000000000000000000000000000000000000000000000000000000000000000000000000000000000000000000000000000000000000000000000000000000000000000000000000000000000000000000000000000000000000000000000000000
310
00000000000000000000000000000000000000000000000000000000000000000000000000000000000000000000000000000000000000000000000000000000000000000000000000000000000000000000000000000000000000000000000000000000000000000000000000000000000000000000000000000000000000
310
00000000000000000000000000000000000000000000000000000000000000000000000000000000000000000000000000000000000000000000000000000000000000000000000000000000000000000000000000000000000000000000000000000000000000000000000000000000000000000000000000000000000000
310
00000000000000000000000000000000000000000000000000000000000000000000000000000000000000000000000000000000000000000000000000000000000000000000000000000000000000000000000000000000000000000000000000000000000000000000000000000000000000000000000000000000000000
310
00000000000000000000000000000000000000000000000000000000000000000000000000000000000000000000000000000000000000000000000000000000000000000000000000000000000000000000000000000000000000000000000000000000000000000000000000000000000000000000000000000000000000
310
00000000000000000000000000000000000000000000000000000000000000000000000000000000000000000000000000000000000000000000000000000000000000000000000000000000000000000000000000000000000000000000000000000000000000000000000000000000000000000000000000000000000000
310
00000000000000000000000000000000000000000000000000000000000000000000000000000000000000000000000000000000000000000000000000000000000000000000000000000000000000000000000000000000000000000000000000000000000000000000000000000000000000000000000000000000000000
310
00000000000000000000000000000000000000000000000000000000000000000000000000000000000000000000000000000000000000000000000000000000000000000000000000000000000000000000000000000000000000000000000000000000000000000000000000000000000000000000000000000000000000
310
00000000000000000000000000000000000000000000000000000000000000000000000000000000000000000000000000000000000000000000000000000000000000000000000000000000000000000000000000000000000000000000000000000000000000000000000000000000000000000000000000000000000000
310
00000000000000000000000000000000000000000000000000000000000000000000000000000000000000000000000000000000000000000000000000000000000000000000000000000000000000000000000000000000000000000000000000000000000000000000000000000000000000000000000000000000000000
310
00000000000000000000000000000000000000000000000000000000000000000000000000000000000000000000000000000000000000000000000000000000000000000000000000000000000000000000000000000000000000000000000000000000000000000000000000000000000000000000000000000000000000
310
00000000000000000000000000000000000000000000000000000000000000000000000000000000000000000000000000000000000000000000000000000000000000000000000000000000000000000000000000000000000000000000000000000000000000000000000000000000000000000000000000000000000000
310
00000000000000000000000000000000000000000000000000000000000000000000000000000000000000000000000000000000000000000000000000000000000000000000000000000000000000000000000000000000000000000000000000000000000000000000000000000000000000000000000000000000000000
310
00000000000000000000000000000000000000000000000000000000000000000000000000000000000000000000000000000000000000000000000000000000000000000000000000000000000000000000000000000000000000000000000000000000000000000000000000000000000000000000000000000000000000
310
00000000000000000000000000000000000000000000000000000000000000000000000000000000000000000000000000000000000000000000000000000000000000000000000000000000000000000000000000000000000000000000000000000000000000000000000000000000000000000000000000000000000000
310
00000000000000000000000000000000000000000000000000000000000000000000000000000000000000000000000000000000000000000000000000000000000000000000000000000000000000000000000000000000000000000000000000000000000000000000000000000000000000000000000000000000000000
310
00000000000000000000000000000000000000000000000000000000000000000000000000000000000000000000000000000000000000000000000000000000000000000000000000000000000000000000000000000000000000000000000000000000000000000000000000000000000000000000000000000000000000
310
00000000000000000000000000000000000000000000000000000000000000000000000000000000000000000000000000000000000000000000000000000000000000000000000000000000000000000000000000000000000000000000000000000000000000000000000000000000000000000000000000000000000000
310
00000000000000000000000000000000000000000000000000000000000000000000000000000000000000000000000000000000000000000000000000000000000000000000000000000000000000000000000000000000000000000000000000000000000000000000000000000000000000000000000000000000000000
310
00000000000000000000000000000000000000000000000000000000000000000000000000000000000000000000000000000000000000000000000000000000000000000000000000000000000000000000000000000000000000000000000000000000000000000000000000000000000000000000000000000000000000
310
00000000000000000000000000000000000000000000000000000000000000000000000000000000000000000000000000000000000000000000000000000000000000000000000000000000000000000000000000000000000000000000000000000000000000000000000000000000000000000000000000000000000000
310
00000000000000000000000000000000000000000000000000000000000000000000000000000000000000000000000000000000000000000000000000000000000000000000000000000000000000000000000000000000000000000000000000000000000000000000000000000000000000000000000000000000000000
310
00000000000000000000000000000000000000000000000000000000000000000000000000000000000000000000000000000000000000000000000000000000000000000000000000000000000000000000000000000000000000000000000000000000000000000000000000000000000000000000000000000000000000
310
00000000000000000000000000000000000000000000000000000000000000000000000000000000000000000000000000000000000000000000000000000000000000000000000000000000000000000000000000000000000000000000000000000000000000000000000000000000000000000000000000000000000000
310
00000000000000000000000000000000000000000000000000000000000000000000000000000000000000000000000000000000000000000000000000000000000000000000000000000000000000000000000000000000000000000000000000000000000000000000000000000000000000000000000000000000000000
310
00000000000000000000000000000000000000000000000000000000000000000000000000000000000000000000000000000000000000000000000000000000000000000000000000000000000000000000000000000000000000000000000000000000000000000000000000000000000000000000000000000000000000
310
00000000000000000000000000000000000000000000000000000000000000000000000000000000000000000000000000000000000000000000000000000000000000000000000000000000000000000000000000000000000000000000000000000000000000000000000000000000000000000000000000000000000000
310
00000000000000000000000000000000000000000000000000000000000000000000000000000000000000000000000000000000000000000000000000000000000000000000000000000000000000000000000000000000000000000000000000000000000000000000000000000000000000000000000000000000000000
310
00000000000000000000000000000000000000000000000000000000000000000000000000000000000000000000000000000000000000000000000000000000000000000000000000000000000000000000000000000000000000000000000000000000000000000000000000000000000000000000000000000000000000
310
00000000000000000000000000000000000000000000000000000000000000000000000000000000000000000000000000000000000000000000000000000000000000000000000000000000000000000000000000000000000000000000000000000000000000000000000000000000000000000000000000000000000000
310
00000000000000000000000000000000000000000000000000000000000000000000000000000000000000000000000000000000000000000000000000000000000000000000000000000000000000000000000000000000000000000000000000000000000000000000000000000000000000000000000000000000000000
310
00000000000000000000000000000000000000000000000000000000000000000000000000000000000000000000000000000000000000000000000000000000000000000000000000000000000000000000000000000000000000000000000000000000000000000000000000000000000000000000000000000000000000
310
00000000000000000000000000000000000000000000000000000000000000000000000000000000000000000000000000000000000000000000000000000000000000000000000000000000000000000000000000000000000000000000000000000000000000000000000000000000000000000000000000000000000000
310
00000000000000000000000000000000000000000000000000000000000000000000000000000000000000000000000000000000000000F50000000000000000F500000000000000F500000000000000F500000000000000000000000000000000000000000000000000000000000000000000000000000000000000000000
310
00000000000000000000000000000000000000000000000000000000000000000000000000000000000000000000000000000000000000000000000000000000000000000000000000000000000000000000000000000000000000000000000000000000000000000000000000000000000000000000000000000000000000
310
000000000000000000000000000000F5F5F5F5F5F5F5F5F5F5F5F5F5F5F5F5F5F5F5F5F5F5F5F5F5F5F5F5F5F5F5F5F5F5F5F5F5F5F5F5F5F5F5F5F5F5F5F5F5F5F5F5F5F5F5F5F5F5F5F5F5F5F5F5F5F5F5000000000000000000000000000000000000000000000000000000000000000000000000000000000000000000
310
00000000000000000000000000000000000000000000000000000000000000000000000000000000000000000000000000000000000000000000000000000000000000000000000000000000000000000000000000000000000000000000000000000000000000000000000000000000000000000000000000000000000000
310
0000000000000000000000000000000000F5F5F500F5F500000000000000000000000000000000000000000000000000000000F500F50000000000F50000000000000000F500000000000000F5000000000000F500000000000000000000000000000000000000000000000000000000000000000000000000000000000000
310
00000000000000000000000000000000000000000000000000000000000000000000000000000000000000000000000000000000000000000000000000000000000000000000000000000000000000000000000000000000000000000000000000000000000000000000000000000000000000000000000000000000000000
310
00000000000000000000000000000000000000F5F5F500000000000000000000000000000000000000000000000000000000000000F500F50000000000F50000000000000000F500000000000000F5000000000000F50000000000000000000000000000000000000000000000000000000000000000000000000000000000
310
00000000000000000000000000000000000000000000000000000000000000000000000000000000000000000000000000000000000000000000000000000000000000000000000000000000000000000000000000000000000000000000000000000000000000000000000000000000000000000000000000000000000000
310
000000000000000000000000000000000000000000F500F500000000000000000000000000000000000000000000000000000000000000F500F50000000000F50000000000000000F500000000000000F5000000000000F5000000000000000000000000000000000000000000000000000000000000000000000000000000
310
00000000000000000000000000000000000000000000000000000000000000000000000000000000000000000000000000000000000000000000000000000000000000000000000000000000000000000000000000000000000000000000000000000000000000000000000000000000000000000000000000000000000000
310
0000000000000000000000000000000000000000000000F5F5F500000000000000000000000000000000000000000000000000000000000000F500F50000F5F5F5F5F500000000000000F500000000000000F5000000000000F500000000000000000000000000000000000000000000000000000000000000000000000000
310
00000000000000000000000000000000000000000000000000000000000000000000000000000000000000000000000000000000000000000000000000000000000000000000000000000000000000000000000000000000000000000000000000000000000000000000000000000000000000000000000000000000000000
310
00000000000000000000000000000000000000000000000000F5F5F5F5F5F5F5F5F5F50000000000000000000000000000000000000000000000F5F500F50000F5F5F5F5F500000000000000F500000000000000F5000000000000F50000000000000000000000000000000000000000000000000000000000000000000000
310
00000000000000000000000000000000000000000000000000000000000000000000000000000000000000000000000000000000000000000000000000000000000000000000000000000000000000000000000000000000000000000000000000000000000000000000000000000000000000000000000000000000000000
310
000000000000000000000000000000000000000000000000000000F5F5F5F5F5F5F5F5F5F5F5F5F5F5F5F5F5F5F5F5F5F5F5F5F5F5F5F5F5F5F5F5F5F5F500F50000F5F5F5F5F500000000000000F500000000000000F5000000000000F5000000000000000000000000000000000000000000000000000000000000000000
310
00000000000000000000000000000000000000000000000000000000000000000000000000000000000000000000000000000000000000000000000000000000000000000000000000000000000000000000000000000000000000000000000000000000000000000000000000000000000000000000000000000000000000
310
000000000000000000000000000000000000000000000000000000000000F5F5F5F5F5F5F5F5F5F5F5F5F5F5F5F5F5F5F5F5F5F5F5F5F5F500F5F500F50000F500F50000F5F5F5F5F500000000000000F500000000000000F5000000000000F500000000000000000000000000000000000000000000000000000000000000
310
00000000000000000000000000000000000000000000000000000000000000000000000000000000000000000000000000000000000000000000000000000000000000000000000000000000000000000000000000000000000000000000000000000000000000000000000000000000000000000000000000000000000000
310
000000000000000000000000000000000000000000000000000000000000000000F5F5F5F500F5000000000000000000F5F5F5F5F5F5F5F5F5F5F5F5F5F5F50000F5F5000000F5F5F5F5F500000000000000F500000000000000F5000000000000F50000000000000000000000000000000000000000000000000000000000
310
00000000000000000000000000000000000000000000000000000000000000000000000000000000000000000000000000000000000000000000000000000000000000000000000000000000000000000000000000000000000000000000000000000000000000000000000000000000000000000000000000000000000000
310
0000000000000000000000000000000000000000000000000000000000000000000000F5F5F5F500F500000000000000000000000000000000F50000000000F5F50000F500000000F5F5F5F5F500000000000000F500000000000000F5000000000000F5000000000000000000000000000000000000000000000000000000
310
00000000000000000000000000000000000000000000000000000000000000000000000000000000000000000000000000000000000000000000000000000000000000000000000000000000000000000000000000000000000000000000000000000000000000000000000000000000000000000000000000000000000000
310
00000000000000000000000000000000000000000000000000000000000000000000000000F5F5F5F500F500000000000000000000000000000000F5F500000000F5F50000F500000000000000F50000000000000000F500000000000000F5000000000000F500000000000000000000000000000000000000000000000000
310
00000000000000000000000000000000000000000000000000000000000000000000000000000000000000000000000000000000000000000000000000000000000000000000000000000000000000000000000000000000000000000000000000000000000000000000000000000000000000000000000000000000000000
310
000000000000000000000000000000000000000000000000000000000000000000000000000000F5F5F5F500F5F5F5F5F5F5F5F5F5F5F5F5F5F5F5F5F5F5F5F5F5F5F5F5F5F5F5F500000000000000F50000000000000000F500000000000000F5000000000000F50000000000000000000000000000000000000000000000
310
00000000000000000000000000000000000000000000000000000000000000000000000000000000000000000000000000000000000000000000000000000000000000000000000000000000000000000000000000000000000000000000000000000000000000000000000000000000000000000000000000000000000000
310
0000000000000000000000000000000000000000000000000000000000000000000000000000000000F5F5F5F500F5F5F5F5F5F5F5F5F5F5F5F5F5F5F5F5F5F50000F50000F50000F50000000000000000F50000000000000000F500000000000000F5000000000000F5000000000000000000000000000000000000000000
310
00000000000000000000000000000000000000000000000000000000000000000000000000000000000000000000000000000000000000000000000000000000000000000000000000000000000000000000000000000000000000000000000000000000000000000000000000000000000000000000000000000000000000
310
00000000000000000000000000000000000000000000000000000000000000000000000000000000000000F5F5F5F500F500000000000000F5F5000000F5F500F5F5F5F5F5F5F5F5F5F5F5F5F5000000000000F50000000000000000F500000000000000F5000000000000F500000000000000000000000000000000000000
310
00000000000000000000000000000000000000000000000000000000000000000000000000000000000000000000000000000000000000000000000000000000000000000000000000000000000000000000000000000000000000000000000000000000000000000000000000000000000000000000000000000000000000
310
000000000000000000000000000000000000000000000000000000000000000000000000000000000000000000F5F5F5F500F500000000000000F5F5000000F500F5F5F5F5F5F5F5F5F5F5F5F5F5F5F5F5F5F5F5F5F50000000000000000F500000000000000F5000000000000F50000000000000000000000000000000000
310
00000000000000000000000000000000000000000000000000000000000000000000000000000000000000000000000000000000000000000000000000000000000000000000000000000000000000000000000000000000000000000000000000000000000000000000000000000000000000000000000000000000000000
310
0000000000000000000000000000000000000000000000000000000000000000000000000000000000000000000000F50000F500F500000000000000F5F5000000F5000000F5000000000000000000F5F50000000000F5F50000000000000000F500000000000000F5000000000000F5000000000000000000000000000000
310
00000000000000000000000000000000000000000000000000000000000000000000000000000000000000000000000000000000000000000000000000000000000000000000000000000000000000000000000000000000000000000000000000000000000000000000000000000000000000000000000000000000000000
310
00000000000000000000000000000000000000000000000000000000000000000000000000000000000000000000000000F50000F500F500000000000000F5F5000000F5000000F5000000000000000000F5F5000000000000F50000000000000000F500000000000000F5000000000000F500000000000000000000000000
310
00000000000000000000000000000000000000000000000000000000000000000000000000000000000000000000000000000000000000000000000000000000000000000000000000000000000000000000000000000000000000000000000000000000000000000000000000000000000000000000000000000000000000
310
000000000000000000000000000000000000000000000000000000000000000000000000000000000000000000000000000000F50000F500F500000000000000F5F5000000F5000000F5000000000000000000F500000000000000F50000000000000000F500000000000000F5000000000000F50000000000000000000000
310
00000000000000000000000000000000000000000000000000000000000000000000000000000000000000000000000000000000000000000000000000000000000000000000000000000000000000000000000000000000000000000000000000000000000000000000000000000000000000000000000000000000000000
310
0000000000000000000000000000000000000000000000000000000000000000000000000000000000000000000000000000000000F50000F500F500000000000000F5F5000000F5000000F5000000000000000000F500000000000000F50000000000000000F500000000000000F5000000000000F5000000000000000000
310
00000000000000000000000000000000000000000000000000000000000000000000000000000000000000000000000000000000000000000000000000000000000000000000000000000000000000000000000000000000000000000000000000000000000000000000000000000000000000000000000000000000000000
310
00000000000000000000000000000000000000000000000000000000000000000000000000000000000000000000000000000000000000F5F5F5F500F500000000000000F5F5000000F5F5F5F5F5000000000000000000F500000000000000F50000000000000000F500000000000000F5000000000000F500000000000000
310
00000000000000000000000000000000000000000000000000000000000000000000000000000000000000000000000000000000000000000000000000000000000000000000000000000000000000000000000000000000000000000000000000000000000000000000000000000000000000000000000000000000000000
310
000000000000000000000000000000000000000000000000000000000000000000000000000000000000000000000000000000000000000000F5F5F50000F500000000000000F5F5000000F5F50000F5000000000000000000F500000000000000F50000000000000000F500000000000000F5000000000000F50000000000
310
00000000000000000000000000000000000000000000000000000000000000000000000000000000000000000000000000000000000000000000000000000000000000000000000000000000000000000000000000000000000000000000000000000000000000000000000000000000000000000000000000000000000000
310
0000000000000000000000000000000000000000000000000000000000000000000000000000000000000000000000000000000000000000000000F5F5000000F500000000000000F5F5000000F5F50000F5000000000000000000F500000000000000F50000000000000000F500000000000000F5000000000000F5000000
310
00000000000000000000000000000000000000000000000000000000000000000000000000000000000000000000000000000000000000000000000000000000000000000000000000000000000000000000000000000000000000000000000000000000000000000000000000000000000000000000000000000000000000
310
00000000000000000000000000000000000000000000000000000000000000000000000000000000000000000000000000000000000000000000000000F5F5000000F500000000000000F5F5000000F5F50000F5000000000000000000F500000000000000F50000000000000000F500000000000000F5000000000000F500
310
00000000000000000000000000000000000000000000000000000000000000000000000000000000000000000000000000000000000000000000000000000000000000000000000000000000000000000000000000000000000000000000000000000000000000000000000000000000000000000000000000000000000000
310
000000000000000000000000000000000000000000000000000000000000000000000000000000000000000000000000000000000000000000000000000000F5F5000000F500000000000000F5F5000000F5F50000F5000000000000000000F500000000000000F50000000000000000F500000000000000F5000000000000
310
F5000000000000000000000000000000000000000000000000000000000000000000000000000000000000000000000000000000000000000000000000000000000000000000000000000000000000000000000000000000000000000000000000000000000000000000000000000000000000000000000000000000000000
310
0000000000000000000000000000000000000000000000000000000000000000000000000000000000000000000000000000000000000000000000000000000000F5F5000000F500000000000000F5F5000000F5F50000F5000000000000000000F500000000000000F50000000000000000F500000000000000F500000000
310
0000F500000000000000000000000000000000000000000000000000000000000000000000000000000000000000000000000000000000000000000000000000000000000000000000000000000000000000000000000000000000000000000000000000000000000000000000000000000000000000000000000000000000
310
00000000000000000000000000000000000000000000000000000000000000000000000000000000000000000000000000000000000000000000000000000000000000F5F5000000F500000000000000F5F5000000F5F50000F5000000000000000000F500000000000000F50000000000000000F500000000000000F50000
310
00000000F50000000000000000000000000000000000000000000000000000000000000000000000000000000000000000000000000000000000000000000000000000000000000000000000000000000000000000000000000000000000000000000000000000000000000000000000000000000000000000000000000000
310
000000000000000000000000000000000000000000000000000000000000000000000000000000000000000000000000000000000000000000000000000000000000000000F5F5000000F500000000000000F5F5000000F5F50000F5000000000000000000F500000000000000F50000000000F5F5F5F5F5F50000000000F5
310
000000000000F5000000000000000000000000000000000000000000000000000000000000000000000000000000000000000000000000000000000000000000000000000000000000000000000000000000000000000000000000000000000000000000000000000000000000000000000000000000000000000000000000
310
0000000000000000000000000000000000000000000000000000000000000000000000000000000000000000000000000000000000000000000000000000000000000000000000F5F5000000F500000000000000F5F5000000F5F50000F5000000000000000000F500000000000000F50000000000F5F5F5F5F5F500000000
310
00F5000000000000F500000000000000000000000000000000000000000000000000000000000000000000000000000000000000000000000000000000000000000000000000000000000000000000000000000000000000000000000000000000000000000000000000000000000000000000000000000000000000000000
310
00000000000000000000000000000000000000000000000000000000000000000000000000000000000000000000000000000000000000000000000000000000000000000000000000F5F5000000F500000000000000F5F5000000F5F50000F5000000000000000000F500000000000000F50000000000F5F5F5F5F5F50000
310
000000F5000000000000F50000000000000000000000000000000000000000000000000000000000000000000000000000000000000000000000000000000000000000000000000000000000000000000000000000000000000000000000000000000000000000000000000000000000000000000000000000000000000000
310
000000000000000000000000000000000000000000000000000000000000000000000000000000000000000000000000000000000000000000000000000000000000000000000000000000F5F5000000F500000000000000F5F5000000F5F50000F5000000000000000000F500000000000000F50000000000F5F5F5F5F5F5
310
0000000000F5000000000000F5000000000000000000000000000000000000000000000000000000000000000000000000000000000000000000000000000000000000000000000000000000000000000000000000000000000000000000000000000000000000000000000000000000000000000000000000000000000000
310
0000000000000000000000000000000000000000000000000000000000000000000000000000000000000000000000000000000000000000000000000000000000000000000000000000000000F5F5000000F500000000000000F5F5000000F5F50000F5000000000000000000F500000000000000F50000000000F5F5F5F5
310
F5000000000000F5000000000000F500000000000000000000000000000000000000000000000000000000000000000000000000000000000000000000000000000000000000000000000000000000000000000000000000000000000000000000000000000000000000000000000000000000000000000000000000000000
310
00000000000000000000000000000000000000000000000000000000000000000000000000000000000000000000000000000000000000000000000000000000000000000000000000000000000000F5F5000000F500000000000000F5F5000000F5F50000F5000000000000000000F500000000000000F50000000000F5F5
310
F5F5F5000000000000F5000000000000F50000000000000000000000000000000000000000000000000000000000000000000000000000000000000000000000000000000000000000000000000000000000000000000000000000000000000000000000000000000000000000000000000000000000000000000000000000
310
000000000000000000000000000000000000000000000000000000000000000000000000000000000000000000000000000000000000000000000000000000000000000000000000000000000000000000F5F5000000F500000000000000F5F5000000F5F50000F5000000000000000000F500000000000000F50000000000
310
000000F500000000000000F5000000000000F5000000000000000000000000000000000000000000000000000000000000000000000000000000000000000000000000000000000000000000000000000000000000000000000000000000000000000000000000000000000000000000000000000000000000000000000000
310
0000000000000000000000000000000000000000000000000000000000000000000000000000000000000000000000000000000000000000000000000000000000000000000000000000000000000000000000F5F5000000F500000000000000F5F5000000F5F50000F5000000000000000000F500000000000000F5000000
310
0000000000F500000000000000F5000000000000F500000000000000000000000000000000000000000000000000000000000000000000000000000000000000000000000000000000000000000000000000000000000000000000000000000000000000000000000000000000000000000000000000000000000000000000
310
00000000000000000000000000000000000000000000000000000000000000000000000000000000000000000000000000000000000000000000000000000000000000000000000000000000000000000000000000F5F5000000F500000000000000F5F5000000F5F50000F5000000000000000000F5000000F5F5F5F5F5F5
310
00000000000000F500000000000000F5000000000000F50000000000000000000000000000000000000000000000000000000000000000000000000000000000000000000000000000000000000000000000000000000000000000000000000000000000000000000000000000000000000000000000000000000000000000
310
000000000000000000000000000000000000000000000000000000000000000000000000000000000000000000000000000000000000000000000000000000000000000000000000000000000000000000000000000000F5F5000000F500000000000000F5F5000000F5F50000F5000000000000000000F5000000F5F5F5F5
310
F5F500000000000000F500000000000000F5000000000000F5000000000000000000000000000000000000000000000000000000000000000000000000000000000000000000000000000000000000000000000000000000000000000000000000000000000000000000000000000000000000000000000000000000000000
310
0000000000000000000000000000000000000000000000000000000000000000000000000000000000000000000000000000000000000000000000000000000000000000000000000000000000000000000000000000000000F5F5000000F500000000000000F5F5000000F5F50000F5000000000000000000F500000000F5
310
F5F5F5F5F5000000000000F500000000000000F5000000000000F500000000000000000000000000000000000000000000000000000000000000000000000000000000000000000000000000000000000000000000000000000000000000000000000000000000000000000000000000000000000000000000000000000000
310
00000000000000000000000000000000000000000000000000000000000000000000000000000000000000000000000000000000000000000000000000000000000000000000000000000000000000000000000000000000000000F5F5000000F500000000000000F5F5000000F5F50000F5000000000000000000F5000000
310
00F5F5F5F5F500000000000000F500000000000000F5000000000000F50000000000000000000000000000000000000000000000000000000000000000000000000000000000000000000000000000000000000000000000000000000000000000000000000000000000000000000000000000000000000000000000000000
310
000000000000000000000000000000000000000000000000000000000000000000000000000000000000000000000000000000000000000000000000000000000000000000000000000000000000000000000000000000000000000000F5F5000000F500000000000000F5F5000000F5F50000F5000000000000000000F500
310
000000F5F5F5F5F500000000000000F500000000000000F5000000000000F5000000000000000000000000000000000000000000000000000000000000000000000000000000000000000000000000000000000000000000000000000000000000000000000000000000000000000000000000000000000000000000000000
310
0000000000000000000000000000000000000000000000000000000000000000000000000000000000000000000000000000000000000000000000000000000000000000000000000000000000000000000000000000000000000000000000F5F5000000F500000000000000F5F5000000F5F50000F5000000000000000000
310
F500000000000000F50000000000000000F500000000000000F5000000000000F500000000000000000000000000000000000000000000000000000000000000000000000000000000000000000000000000000000000000000000000000000000000000000000000000000000000000000000000000000000000000000000
310
00000000000000000000000000000000000000000000000000000000000000000000000000000000000000000000000000000000000000000000000000000000000000000000000000000000000000000000000000000000000000000000000000F5F5000000F500000000000000F5F5000000F5F50000F500000000000000
310
0000F500000000000000F50000000000000000F500000000000000F5000000000000F50000000000000000000000000000000000000000000000000000000000000000000000000000000000000000000000000000000000000000000000000000000000000000000000000000000000000000000000000000000000000000
310
000000000000000000000000000000000000000000000000000000000000000000000000000000000000000000000000000000000000000000000000000000000000000000000000000000000000000000000000000000000000000000000000000000F5F5000000F500000000000000F5F5000000F5F50000F50000000000
310
00000000F500000000000000F50000000000000000F500000000000000F5000000000000F5000000000000000000000000000000000000000000000000000000000000000000000000000000000000000000000000000000000000000000000000000000000000000000000000000000000000000000000000000000000000
310
0000000000000000000000000000000000000000000000000000000000000000000000000000000000000000000000000000000000000000000000000000000000000000000000000000000000000000000000000000000000000000000000000000000000F5F5000000F500000000000000F5F5000000F5F50000F5000000
310
000000000000F500000000000000F50000000000000000F500000000000000F5000000000000F500000000000000000000000000000000000000000000000000000000000000000000000000000000000000000000000000000000000000000000000000000000000000000000000000000000000000000000000000000000
310
00000000000000000000000000000000000000000000000000000000000000000000000000000000000000000000000000000000000000000000000000000000000000000000000000000000000000000000000000000000000000000000000000000000000000F5F5000000F500000000000000F5F5000000F5F50000F500
310
0000000000000000F500000000000000F50000000000000000F500000000000000F5000000000000F50000000000000000000000000000000000000000000000000000000000000000000000000000000000000000000000000000000000000000000000000000000000000000000000000000000000000000000000000000
310
000000000000000000000000000000000000000000000000000000000000000000000000000000000000000000000000000000000000000000000000000000000000000000000000000000000000000000000000000000000000000000000000000000000000000000F5F5000000F500000000000000F5F5000000F5F50000
310
F5000000000000000000F500000000000000F50000000000000000F500000000000000F5000000000000F5000000000000000000000000000000000000000000000000000000000000000000000000000000000000000000000000000000000000000000000000000000000000000000000000000000000000000000000000
310
0000000000000000000000000000000000000000000000000000000000000000000000000000000000000000000000000000000000000000000000000000000000000000000000000000000000000000000000000000000000000000000000000000000000000000000000F5F5000000F500000000000000F5F5000000F5F5
310
0000F5000000000000000000F500000000000000F50000000000000000F500000000000000F5000000000000F500000000000000000000000000000000000000000000000000000000000000000000000000000000000000000000000000000000000000000000000000000000000000000000000000000000000000000000
310
00000000000000000000000000000000000000000000000000000000000000000000000000000000000000000000000000000000000000000000000000000000000000000000000000000000000000000000000000000000000000000000000000000000000000000000000000F5F5000000F500000000000000F5F5000000
310
F5F50000F5000000000000000000F500000000000000F50000000000000000F500000000000000F5000000000000F50000000000000000000000000000000000000000000000000000000000000000000000000000000000000000000000000000000000000000000000000000000000000000000000000000000000000000
310
000000000000000000000000000000000000000000000000000000000000000000000000000000000000000000000000000000000000000000000000000000000000000000000000000000000000000000000000000000000000000000000000000000000000000000000000000000F5F5000000F500000000000000F5F500
310
0000F5F50000F5000000000000000000F500000000000000F50000000000000000F500000000000000F5000000F5F5F5F5F5F500000000000000000000000000000000000000000000000000000000000000000000000000000000000000000000000000000000000000000000000000000000000000000000000000000000
310
0000000000000000000000000000000000000000000000000000000000000000000000000000000000000000000000000000000000000000000000000000000000000000000000000000000000000000000000000000000000000000000000000000000000000000000000000000000000F5F5000000F500000000000000F5
310
F5000000F5F50000F5000000000000000000F500000000000000F50000000000000000F50000000000F5F5F5000000F5F5F5F5F5F50000000000000000000000000000000000000000000000000000000000000000000000000000000000000000000000000000000000000000000000000000000000000000000000000000
310
00000000000000000000000000000000000000000000000000000000000000000000000000000000000000000000000000000000000000000000000000000000000000000000000000000000000000000000000000000000000000000000000000000000000000000000000000000000000000F5F5000000F5000000000000
310
00F5F5000000F5F50000F5000000000000000000F500000000000000F50000000000000000F50000000000F5F5F5000000F5F5F5F5F5F5000000000000000000000000000000000000000000000000000000000000000000000000000000000000000000000000000000000000000000000000000000000000000000000000
310
000000000000000000000000000000000000000000000000000000000000000000000000000000000000000000000000000000000000000000000000000000000000000000000000000000000000000000000000000000000000000000000000000000000000000000000000000000000000000000F5F5000000F500000000
310
000000F5F5000000F5F50000F5000000000000000000F500000000000000F50000000000000000F50000000000F5F5F500000000F5F5F5F50000000000000000000000000000000000000000000000000000000000000000000000000000000000000000000000000000000000000000000000000000000000000000000000
310
0000000000000000000000000000000000000000000000000000000000000000000000000000000000000000000000000000000000000000000000000000000000000000000000000000000000000000000000000000000000000000000000000000000000000000000000000000000000000000000000F5F5000000F50000
310
0000000000F5F5000000F5F50000F5000000000000000000F500000000000000F50000000000000000F500000000000000F500000000F5F5F5F5000000000000000000000000000000000000000000000000000000000000000000000000000000000000000000000000000000000000000000000000000000000000000000
310
00000000000000000000000000000000000000000000000000000000000000000000000000000000000000000000000000000000000000000000000000000000000000000000000000000000000000000000000000000000000000000000000000000000000000000000000000000000000000000000000000F5F5000000F5
310
00000000000000F5F5000000F5F50000F5000000000000000000F500000000000000F50000000000000000F500000000000000F500000000F5F5F5F500000000000000000000000000000000000000000000000000000000000000000000000000000000000000000000000000000000000000000000000000000000000000
310
000000000000000000000000000000000000000000000000000000000000000000000000000000000000000000000000000000000000000000000000000000000000000000000000000000000000000000000000000000000000000000000000000000000000000000000000000000000000000000000000000000F5F50000
310
00F500000000000000F5F5000000F5F50000F5000000000000000000F500000000000000F50000000000000000F500000000000000F5000000000000F5000000000000000000000000000000000000000000000000000000000000000000000000000000000000000000000000000000000000000000000000000000000000
310
0000000000000000000000000000000000000000000000000000000000000000000000000000000000000000000000000000000000000000000000000000000000000000000000000000000000000000000000000000000000000000000000000000000000000000000000000000000000000000000000000000000000F5F5
310
000000F500000000000000F5F5000000F5F50000F50000000000F5F50000F500000000000000F50000000000000000F500000000000000F5000000000000F500000000000000000000000000000000000000000000000000000000000000000000000000000000000000000000000000000000000000000000000000000000
310
00000000000000000000000000000000000000000000000000000000000000000000000000000000000000000000000000000000000000000000000000000000000000000000000000000000000000000000000000000000000000000000000000000000000000000000000000000000000000000000000000000000000000
310
F5F5000000F500000000000000F5F5000000F5F50000F5F5F5F5F5F5F5F5F500F500000000000000F50000000000000000F500000000000000F5000000000000F50000000000000000000000000000000000000000000000000000000000000000000000000000000000000000000000000000000000000000000000000000
310
00000000000000000000000000000000000000000000000000000000000000000000000000000000000000000000000000000000000000000000000000000000000000000000000000000000000000000000000000000000000000000000000000000000000000000000000000000000000000000000000000000000000000
310
0000F5F5000000F500000000000000F5F5000000F5F50000F500F5F5F5F5F5F5F500F500000000000000F50000000000000000F500000000000000F5000000000000F5000000000000000000000000000000000000000000000000000000000000000000000000000000000000000000000000000000000000000000000000
310
00000000000000000000000000000000000000000000000000000000000000000000000000000000000000000000000000000000000000000000000000000000000000000000000000000000000000000000000000000000000000000000000000000000000000000000000000000000000000000000000000000000000000
310
00000000F5F5000000F500000000000000F5F5000000F5F50000F5F5F5F5F5F5F5F5F500F500000000000000F50000000000000000F500000000000000F5000000000000F500000000000000000000000000000000000000000000000000000000000000000000000000000000000000000000000000000000000000000000
310
00000000000000000000000000000000000000000000000000000000000000000000000000000000000000000000000000000000000000000000000000000000000000000000000000000000000000000000000000000000000000000000000000000000000000000000000000000000000000000000000000000000000000
310
000000000000F5F5000000F500000000000000F5F5000000F5F500000000F5F5F5F5F5F5F5F50000000000000000F50000000000000000F500000000000000F5000000000000F50000000000000000000000000000000000000000000000000000000000000000000000000000000000000000000000000000000000000000
310
00000000000000000000000000000000000000000000000000000000000000000000000000000000000000000000000000000000000000000000000000000000000000000000000000000000000000000000000000000000000000000000000000000000000000000000000000000000000000000000000000000000000000
310
0000000000000000F5F5000000F500000000000000F5F5000000F5F500000000F5F5000000F5F5F5F5F5F5F5F5F5F5F5F5F5F5F5F5F5F5F5F5F500000000000000F5000000000000F5000000000000000000000000000000000000000000000000000000000000000000000000000000000000000000000000000000000000
310
00000000000000000000000000000000000000000000000000000000000000000000000000000000000000000000000000000000000000000000000000000000000000000000000000000000000000000000000000000000000000000000000000000000000000000000000000000000000000000000000000000000000000
310
00000000000000000000F5F5000000F500000000000000F5F5000000F5F500000000F5F5000000F5F5000000000000000000F500000000000000000000000000000000F5000000000000F500000000000000000000000000000000000000000000000000000000000000000000000000000000000000000000000000000000
310
00000000000000000000000000000000000000000000000000000000000000000000000000000000000000000000000000000000000000000000000000000000000000000000000000000000000000000000000000000000000000000000000000000000000000000000000000000000000000000000000000000000000000
310
000000000000000000000000F5F5000000F500000000000000F5F5000000F5F500000000F5F5000000F5F50000F5F5F5F5F5F5F5F5F5F5F5F5F50000000000000000000000F5000000000000F50000000000000000000000000000000000000000000000000000000000000000000000000000000000000000000000000000
310
00000000000000000000000000000000000000000000000000000000000000000000000000000000000000000000000000000000000000000000000000000000000000000000000000000000000000000000000000000000000000000000000000000000000000000000000000000000000000000000000000000000000000
310
0000000000000000000000000000F5F5F5F5F5F5F5F5F5F5F5F5F5F5F5F5F5F5F5F5F5F5F5F5F5F5F5F5F5F5F50000F5F5F5F5F5F5F5F5F5F5F5F5F50000000000000000000000F5000000000000F5000000000000000000000000000000000000000000000000000000000000000000000000000000000000000000000000
310
00000000000000000000000000000000000000000000000000000000000000000000000000000000000000000000000000000000000000000000000000000000000000000000000000000000000000000000000000000000000000000000000000000000000000000000000000000000000000000000000000000000000000
310
00000000000000000000000000000000F5F5F5F5F5F5F5F5F5F5F5F5F5F5F5F5F5F5F5F5F5F5F5F5F5F5F5F5F5F5F50000F5F5F5F5F5F5F5F5F5F5F5F5F5F500000000000000000000F5000000000000F500000000000000000000000000000000000000000000000000000000000000000000000000000000000000000000
310
00000000000000000000000000000000000000000000000000000000000000000000000000000000000000000000000000000000000000000000000000000000000000000000000000000000000000000000000000000000000000000000000000000000000000000000000000000000000000000000000000000000000000
310
000000000000000000000000000000000000F5F5000000F500000000000000F5F5000000F5F500000000F5F5000000F5F5000000000000000000F500000000000000000000000000000000F5000000000000F50000000000000000000000000000000000000000000000000000000000000000000000000000000000000000
310
00000000000000000000000000000000000000000000000000000000000000000000000000000000000000000000000000000000000000000000000000000000000000000000000000000000000000000000000000000000000000000000000000000000000000000000000000000000000000000000000000000000000000
310
0000000000000000000000000000000000000000F5F5000000F500000000000000F5F5000000F5F500000000F5F5000000F5F5000000000000000000F500000000000000000000000000000000F5000000000000F5000000000000000000000000000000000000000000000000000000000000000000000000000000000000
310
00000000000000000000000000000000000000000000000000000000000000000000000000000000000000000000000000000000000000000000000000000000000000000000000000000000000000000000000000000000000000000000000000000000000000000000000000000000000000000000000000000000000000
310
00000000000000000000000000000000000000000000F5F5000000F500000000000000F5F5000000F5F500000000F5F5000000F5F5000000000000000000F50000000000000000F500000000000000F5000000000000F500000000000000000000000000000000000000000000000000000000000000000000000000000000
310
00000000000000000000000000000000000000000000000000000000000000000000000000000000000000000000000000000000000000000000000000000000000000000000000000000000000000000000000000000000000000000000000000000000000000000000000000000000000000000000000000000000000000
310
000000000000000000000000000000000000000000000000F5F5000000F500000000000000F5F5000000F5F500000000F5F5F5F5F5F5F5F5F5F5F5F5F5F5F5F5F5F5F5F5F5F5F5F5F5F500000000000000F5000000000000F50000000000000000000000000000000000000000000000000000000000000000000000000000
310
00000000000000000000000000000000000000000000000000000000000000000000000000000000000000000000000000000000000000000000000000000000000000000000000000000000000000000000000000000000000000000000000000000000000000000000000000000000000000000000000000000000000000
310
0000000000000000000000000000000000000000000000000000F5F5000000F500000000000000F5F5000000F5F50000F5F5F5F5F500F5F5F5F5F500000000000000F50000000000000000F500000000000000F5000000000000F5000000000000000000000000000000000000000000000000000000000000000000000000
310
00000000000000000000000000000000000000000000000000000000000000000000000000000000000000000000000000000000000000000000000000000000000000000000000000000000000000000000000000000000000000000000000000000000000000000000000000000000000000000000000000000000000000
310
00000000000000000000000000000000000000000000000000000000F5F5000000F500000000000000F5F5000000F5F50000F500F5F5F5F5F5F5F500F500000000000000F50000000000000000F500000000000000F5000000000000F500000000000000000000000000000000000000000000000000000000000000000000
310
00000000000000000000000000000000000000000000000000000000000000000000000000000000000000000000000000000000000000000000000000000000000000000000000000000000000000000000000000000000000000000000000000000000000000000000000000000000000000000000000000000000000000
310
000000000000000000000000000000000000000000000000000000000000F5F5000000F500000000000000F5F5000000F5F50000F5F5F5F5F5F5F5F5F500F500000000000000F50000000000000000F500000000000000F5000000000000F50000000000000000000000000000000000000000000000000000000000000000
310
00000000000000000000000000000000000000000000000000000000000000000000000000000000000000000000000000000000000000000000000000000000000000000000000000000000000000000000000000000000000000000000000000000000000000000000000000000000000000000000000000000000000000
310
0000000000000000000000000000000000000000000000000000000000000000F5F5000000F500000000000000F5F5000000F5F50000F50000000000F5F50000F500000000000000F50000000000000000F500000000000000F5000000000000F5000000000000000000000000000000000000000000000000000000000000
310
00000000000000000000000000000000000000000000000000000000000000000000000000000000000000000000000000000000000000000000000000000000000000000000000000000000000000000000000000000000000000000000000000000000000000000000000000000000000000000000000000000000000000
310
00000000000000000000000000000000000000000000000000000000000000000000F5F5000000F500000000000000F5F5000000F5F50000F5000000000000000000F500000000000000F50000000000000000F500000000000000F5000000000000F500000000000000000000000000000000000000000000000000000000
310
00000000000000000000000000000000000000000000000000000000000000000000000000000000000000000000000000000000000000000000000000000000000000000000000000000000000000000000000000000000000000000000000000000000000000000000000000000000000000000000000000000000000000
310
000000000000000000000000000000000000000000000000000000000000000000000000F5F5000000F500000000000000F5F5000000F5F50000F5000000000000000000F500000000000000F50000000000000000F500000000000000F5000000000000F50000000000000000000000000000000000000000000000000000
310
00000000000000000000000000000000000000000000000000000000000000000000000000000000000000000000000000000000000000000000000000000000000000000000000000000000000000000000000000000000000000000000000000000000000000000000000000000000000000000000000000000000000000
310
0000000000000000000000000000000000000000000000000000000000000000000000000000F5F5000000F500000000000000F5F5000000F5F50000F5000000000000000000F500000000000000F50000000000000000F500000000000000F5000000000000F5000000000000000000000000000000000000000000000000
310
00000000000000000000000000000000000000000000000000000000000000000000000000000000000000000000000000000000000000000000000000000000000000000000000000000000000000000000000000000000000000000000000000000000000000000000000000000000000000000000000000000000000000
310
00000000000000000000000000000000000000000000000000000000000000000000000000000000F5F5000000F500000000000000F5F5000000F5F50000F5000000000000000000F500000000000000F50000000000000000F500000000000000F5000000000000F500000000000000000000000000000000000000000000
310
00000000000000000000000000000000000000000000000000000000000000000000000000000000000000000000000000000000000000000000000000000000000000000000000000000000000000000000000000000000000000000000000000000000000000000000000000000000000000000000000000000000000000
310
000000000000000000000000000000000000000000000000000000000000000000000000000000000000F5F5000000F500000000000000F5F5000000F5F50000F5000000000000000000F500000000000000F50000000000000000F500000000000000F5000000000000F50000000000000000000000000000000000000000
310
00000000000000000000000000000000000000000000000000000000000000000000000000000000000000000000000000000000000000000000000000000000000000000000000000000000000000000000000000000000000000000000000000000000000000000000000000000000000000000000000000000000000000
310
0000000000000000000000000000000000000000000000000000000000000000000000000000000000000000F5F5000000F500000000000000F5F5000000F5F50000F5000000000000000000F500000000000000F50000000000000000F500000000000000F5000000000000F5000000000000000000000000000000000000
310
00000000000000000000000000000000000000000000000000000000000000000000000000000000000000000000000000000000000000000000000000000000000000000000000000000000000000000000000000000000000000000000000000000000000000000000000000000000000000000000000000000000000000
310
00000000000000000000000000000000000000000000000000000000000000000000000000000000000000000000F5F5000000F500000000000000F5F5000000F5F50000F500F5F5F5F5F5000000F5000000F5F5F5F5F5F500000000000000F500000000000000F5000000000000F500000000000000000000000000000000
310
00000000000000000000000000000000000000000000000000000000000000000000000000000000000000000000000000000000000000000000000000000000000000000000000000000000000000000000000000000000000000000000000000000000000000000000000000000000000000000000000000000000000000
310
000000000000000000000000000000000000000000000000000000000000000000000000000000000000000000000000F5F5000000F500000000000000F5F5000000F5F50000F500F5F5F5F5F5000000F5000000F5F5F5F5F5F500000000000000F500000000000000F5000000000000F50000000000000000000000000000
310
00000000000000000000000000000000000000000000000000000000000000000000000000000000000000000000000000000000000000000000000000000000000000000000000000000000000000000000000000000000000000000000000000000000000000000000000000000000000000000000000000000000000000
310
0000000000000000000000000000000000000000000000000000000000000000000000000000000000000000000000000000F5F5000000F500000000000000F5F5000000F5F500F5F500F5F5F5F5F5F50000F5000000F5F5F5F5F5F5F5000000F5F5F5F5F5F50000000000F5000000000000F5000000000000000000000000
310
00000000000000000000000000000000000000000000000000000000000000000000000000000000000000000000000000000000000000000000000000000000000000000000000000000000000000000000000000000000000000000000000000000000000000000000000000000000000000000000000000000000000000
310
00000000000000000000000000000000000000000000000000000000000000000000000000000000000000000000000000000000F5F5000000F500000000000000F5F5000000F5F50000F5F5F5F5F5F5F500F5F5F5F50000F5F5F5F5F5F5F5000000F5F5F5F5F5F50000000000F5000000000000F500000000000000000000
310
00000000000000000000000000000000000000000000000000000000000000000000000000000000000000000000000000000000000000000000000000000000000000000000000000000000000000000000000000000000000000000000000000000000000000000000000000000000000000000000000000000000000000
310
000000000000000000000000000000000000000000000000000000000000000000000000000000000000000000000000000000000000F5F5000000F500000000000000F5F5000000F5F50000F500F5F5F5F5F5F50000F5000000F5F5F5F5F5F5F5000000F5F5F5F5F5F50000000000F5000000000000F50000000000000000
310
00000000000000000000000000000000000000000000000000000000000000000000000000000000000000000000000000000000000000000000000000000000000000000000000000000000000000000000000000000000000000000000000000000000000000000000000000000000000000000000000000000000000000
310
0000000000000000000000000000000000000000000000000000000000000000000000000000000000000000000000000000000000000000F5F5F50000F500000000000000F5F5000000F5F50000F500F5F5F5F5F5F50000F5000000F5F5F5F5F5F5F50000F5F5F5F5F5F5F50000000000F5000000000000F5000000000000
310
00000000000000000000000000000000000000000000000000000000000000000000000000000000000000000000000000000000000000000000000000000000000000000000000000000000000000000000000000000000000000000000000000000000000000000000000000000000000000000000000000000000000000
310
00000000000000000000000000000000000000000000000000000000000000000000000000000000000000000000000000000000000000000000F5F5F5F500F500000000000000F5F5000000F5F50000F5000000000000000000F500000000000000F500000000F5F5F5F5F5F5F50000000000F5000000000000F500000000
310
00000000000000000000000000000000000000000000000000000000000000000000000000000000000000000000000000000000000000000000000000000000000000000000000000000000000000000000000000000000000000000000000000000000000000000000000000000000000000000000000000000000000000
310
000000000000000000000000000000000000000000000000000000000000000000000000000000000000000000000000000000000000000000000000F5F5F5F500F500000000000000F5F5000000F5F50000F5000000000000000000F500000000000000F500000000F5F5F5F5F5F5F50000000000F5000000000000F50000
310
00000000000000000000000000000000000000000000000000000000000000000000000000000000000000000000000000000000000000000000000000000000000000000000000000000000000000000000000000000000000000000000000000000000000000000000000000000000000000000000000000000000000000
310
0000000000000000000000000000000000000000000000000000000000000000000000000000000000000000000000000000000000000000000000000000F50000F500F500000000000000F5F5000000F5F50000F5000000000000000000F500000000000000F50000000000000000F500000000000000F5000000000000F5
310
00000000000000000000000000000000000000000000000000000000000000000000000000000000000000000000000000000000000000000000000000000000000000000000000000000000000000000000000000000000000000000000000000000000000000000000000000000000000000000000000000000000000000
310
00000000000000000000000000000000000000000000000000000000000000000000000000000000000000000000000000000000000000000000000000000000F50000F500F500000000000000F5F5000000F5F50000F5000000000000000000F500000000000000F50000000000000000F500000000000000F50000000000
310
00F50000000000000000000000000000000000000000000000000000000000000000000000000000000000000000000000000000000000000000000000000000000000000000000000000000000000000000000000000000000000000000000000000000000000000000000000000000000000000000000000000000000000
310
000000000000000000000000000000000000000000000000000000000000000000000000000000000000000000000000000000000000000000000000000000000000F50000F500F500000000000000F5F5000000F5F50000F5000000000000000000F500000000000000F50000000000000000F500000000000000F5000000
310
000000F5000000000000000000000000000000000000000000000000000000000000000000000000000000000000000000000000000000000000000000000000000000000000000000000000000000000000000000000000000000000000000000000000000000000000000000000000000000000000000000000000000000
310
0000000000000000000000000000000000000000000000000000000000000000000000000000000000000000000000000000000000000000000000000000000000000000F5F5F5F500F500000000000000F5F5000000F5F50000F5000000000000000000F500000000000000F50000000000000000F500000000000000F500
310
0000000000F500000000000000000000000000000000000000000000000000000000000000000000000000000000000000000000000000000000000000000000000000000000000000000000000000000000000000000000000000000000000000000000000000000000000000000000000000000000000000000000000000
310
00000000000000000000000000000000000000000000000000000000000000000000000000000000000000000000000000000000000000000000000000000000000000000000F5F5F5F500F500000000000000F5F5000000F5F50000F5000000000000000000F500000000000000F50000000000000000F500000000000000
310
F5000000000000F50000000000000000000000000000000000000000000000000000000000000000000000000000000000000000000000000000000000000000000000000000000000000000000000000000000000000000000000000000000000000000000000000000000000000000000000000000000000000000000000
310
000000000000000000000000000000000000000000000000000000000000000000000000000000000000000000000000000000000000000000000000000000000000000000000000F5F5F5F500F5F5F5F5F5F5F5F5F5F5F5F5F5F5F5F5F5F5000000000000000000F500000000000000F50000000000000000F50000000000
310
0000F5000000000000F5000000000000000000000000000000000000000000000000000000000000000000000000000000000000000000000000000000000000000000000000000000000000000000000000000000000000000000000000000000000000000000000000000000000000000000000000000000000000000000
310
00000000000000000000000000000000000000000000000000000000000000000000000000000000000000000000000000000000000000000000000000000000000000000000000000F5F5F5F5F5F5F5F5F5F5F5F5F5F5F5F5F5F5F5F5F5F5F5F5000000000000000000F500000000000000F50000000000000000F5000000
310
00000000F5000000000000F500000000000000000000000000000000000000000000000000000000000000000000000000000000000000000000000000000000000000000000000000000000000000000000000000000000000000000000000000000000000000000000000000000000000000000000000000000000000000
310
000000000000000000000000000000000000000000000000000000000000000000000000000000000000000000000000000000000000000000000000000000000000000000000000000000F5F5F5F5F5F5F500000000F5F5F5F5F500000000F5F5F5F5000000000000000000F500000000000000F50000000000000000F500
310
000000000000F5000000000000F50000000000000000000000000000000000000000000000000000000000000000000000000000000000000000000000000000000000000000000000000000000000000000000000000000000000000000000000000000000000000000000000000000000000000000000000000000000000
310
0000000000000000000000000000000000000000000000000000000000000000000000000000000000000000000000000000000000000000000000000000000000000000000000000000000000F5F5F5F5F5F5F500000000F5F5F5F5F500F5F5F5F5F5F5F5F5F5F5F5F5F5F5F5F5F5F5F5F5F5F5F5F5F50000000000000000
310
F500000000000000F5000000000000F5000000000000000000000000000000000000000000000000000000000000000000000000000000000000000000000000000000000000000000000000000000000000000000000000000000000000000000000000000000000000000000000000000000000000000000000000000000
310
00000000000000000000000000000000000000000000000000000000000000000000000000000000000000000000000000000000000000000000000000000000000000000000000000000000000000F5F5F5F5F5F5F500F50000F5F5F5F5F500F5F5F5F5F5F5F5F5F5F5F5F5F5F5F5F5F5000000000000F500000000000000
310
0000F500000000000000F5000000000000F500000000000000000000000000000000000000000000000000000000000000000000000000000000000000000000000000000000000000000000000000000000000000000000000000000000000000000000000000000000000000000000000000000000000000000000000000
310
000000000000000000000000000000000000000000000000000000000000000000000000000000000000000000000000000000000000000000000000000000000000000000000000000000000000000000F5F5F5F5F5F5F5F5F500F5F5F5F5F5F5000000000000000000F500000000000000F5000000000000000000000000
310
00000000F500000000000000F5000000000000F50000000000000000000000000000000000000000000000000000000000000000000000000000000000000000000000000000000000000000000000000000000000000000000000000000000000000000000000000000000000000000000000000000000000000000000000
310
0000000000000000000000000000000000000000000000000000000000000000000000000000000000000000000000000000000000000000000000000000000000000000000000000000000000000000000000F50000000000F5F5F500F5F5F5F5F5F5000000000000000000F500000000000000F500000000000000000000
310
000000000000F500000000000000F5000000000000F5000000000000000000000000000000000000000000000000000000000000000000000000000000000000000000000000000000000000000000000000000000000000000000000000000000000000000000000000000000000000000000000000000000000000000000
310
000000000000000000000000000000000000000000000000000000000000
  0
XRECORD
  5
383
102
{ACAD_REACTORS
330
49
102
}
330
49
100
AcDbXrecord
280
     1
102
MATERIAL
148
0.0
149
0.0
149
0.0
 93
        0
 94
      127
282
     0
 72
     0
 77
     0
171
     0
175
     0
179
     0
273
     0
  0
XRECORD
  5
4A
102
{ACAD_REACTORS
330
49
102
}
330
49
100
AcDbXrecord
280
     1
270
     1
271
     1
  0
XRECORD
  5
4B
102
{ACAD_REACTORS
330
49
102
}
330
49
100
AcDbXrecord
280
     1
270
     1
271
     1
  0
XRECORD
  5
4C
102
{ACAD_REACTORS
330
49
102
}
330
49
100
AcDbXrecord
280
     1
270
     1
271
     1
  0
XRECORD
  5
4D
102
{ACAD_REACTORS
330
49
102
}
330
49
100
AcDbXrecord
280
     1
270
     1
271
     1
  0
XRECORD
  5
4E
102
{ACAD_REACTORS
330
49
102
}
330
49
100
AcDbXrecord
280
     1
270
     1
271
     1
  0
XRECORD
  5
4F
102
{ACAD_REACTORS
330
49
102
}
330
49
100
AcDbXrecord
280
     1
270
     1
271
     1
  0
XRECORD
  5
382
102
{ACAD_REACTORS
330
41
102
}
330
41
100
AcDbXrecord
280
     1
102
MATERIAL
148
0.0
149
0.0
149
0.0
 93
        0
 94
      127
282
     0
 72
     0
 77
     0
171
     0
175
     0
179
     0
273
     0
  0
XRECORD
  5
42
102
{ACAD_REACTORS
330
41
102
}
330
41
100
AcDbXrecord
280
     1
270
     1
271
     1
  0
XRECORD
  5
43
102
{ACAD_REACTORS
330
41
102
}
330
41
100
AcDbXrecord
280
     1
270
     1
271
     1
  0
XRECORD
  5
44
102
{ACAD_REACTORS
330
41
102
}
330
41
100
AcDbXrecord
280
     1
270
     1
271
     1
  0
XRECORD
  5
45
102
{ACAD_REACTORS
330
41
102
}
330
41
100
AcDbXrecord
280
     1
270
     1
271
     1
  0
XRECORD
  5
46
102
{ACAD_REACTORS
330
41
102
}
330
41
100
AcDbXrecord
280
     1
270
     1
271
     1
  0
XRECORD
  5
47
102
{ACAD_REACTORS
330
41
102
}
330
41
100
AcDbXrecord
280
     1
270
     1
271
     1
  0
XRECORD
  5
37D
102
{ACAD_REACTORS
330
E
102
}
330
E
100
AcDbXrecord
280
     1
102
MATERIAL
148
0.0
149
0.0
149
0.0
 93
        0
 94
      127
282
     0
 72
     0
 77
     0
171
     0
175
     0
179
     0
273
     0
  0
XRECORD
  5
F
102
{ACAD_REACTORS
330
E
102
}
330
E
100
AcDbXrecord
280
     1
270
     1
271
     1
  0
XRECORD
  5
10
102
{ACAD_REACTORS
330
E
102
}
330
E
100
AcDbXrecord
280
     1
270
     1
271
     1
  0
XRECORD
  5
11
102
{ACAD_REACTORS
330
E
102
}
330
E
100
AcDbXrecord
280
     1
270
     1
271
     1
  0
XRECORD
  5
12
102
{ACAD_REACTORS
330
E
102
}
330
E
100
AcDbXrecord
280
     1
270
     1
271
     1
  0
XRECORD
  5
13
102
{ACAD_REACTORS
330
E
102
}
330
E
100
AcDbXrecord
280
     1
270
     1
271
     1
  0
XRECORD
  5
14
102
{ACAD_REACTORS
330
E
102
}
330
E
100
AcDbXrecord
280
     1
270
     1
271
     1
  0
CELLSTYLEMAP
  5
37B
102
{ACAD_REACTORS
330
56
102
}
330
56
100
AcDbCellStyleMap
 90
        3
300
CELLSTYLE
  1
TABLEFORMAT_BEGIN
 90
        5
170
     1
 91
        0
 92
    32768
 62
   257
 93
        1
300
CONTENTFORMAT
  1
CONTENTFORMAT_BEGIN
 90
        0
 91
        0
 92
        4
 93
        0
300

 40
0.0
140
1.0
 94
        5
 62
     0
340
26
144
0.25
309
CONTENTFORMAT_END
171
     1
301
MARGIN
  1
CELLMARGIN_BEGIN
 40
0.06
 40
0.06
 40
0.06
 40
0.06
 40
0.18
 40
0.18
309
CELLMARGIN_END
 94
        6
 95
        1
302
GRIDFORMAT
  1
GRIDFORMAT_BEGIN
 90
        0
 91
        1
 62
     0
 92
       -2
340
0
 93
        0
 40
0.045
309
GRIDFORMAT_END
 95
        2
302
GRIDFORMAT
  1
GRIDFORMAT_BEGIN
 90
        0
 91
        1
 62
     0
 92
       -2
340
0
 93
        0
 40
0.045
309
GRIDFORMAT_END
 95
        4
302
GRIDFORMAT
  1
GRIDFORMAT_BEGIN
 90
        0
 91
        1
 62
     0
 92
       -2
340
0
 93
        0
 40
0.045
309
GRIDFORMAT_END
 95
        8
302
GRIDFORMAT
  1
GRIDFORMAT_BEGIN
 90
        0
 91
        1
 62
     0
 92
       -2
340
0
 93
        0
 40
0.045
309
GRIDFORMAT_END
 95
       16
302
GRIDFORMAT
  1
GRIDFORMAT_BEGIN
 90
        0
 91
        1
 62
     0
 92
       -2
340
0
 93
        0
 40
0.045
309
GRIDFORMAT_END
 95
       32
302
GRIDFORMAT
  1
GRIDFORMAT_BEGIN
 90
        0
 91
        1
 62
     0
 92
       -2
340
0
 93
        0
 40
0.045
309
GRIDFORMAT_END
309
TABLEFORMAT_END
  1
CELLSTYLE_BEGIN
 90
        1
 91
        1
300
_TITLE
309
CELLSTYLE_END
300
CELLSTYLE
  1
TABLEFORMAT_BEGIN
 90
        5
170
     1
 91
        0
 92
        0
 62
   257
 93
        1
300
CONTENTFORMAT
  1
CONTENTFORMAT_BEGIN
 90
        0
 91
        0
 92
        4
 93
        0
300

 40
0.0
140
1.0
 94
        5
 62
     0
340
26
144
0.18
309
CONTENTFORMAT_END
171
     1
301
MARGIN
  1
CELLMARGIN_BEGIN
 40
0.06
 40
0.06
 40
0.06
 40
0.06
 40
0.18
 40
0.18
309
CELLMARGIN_END
 94
        6
 95
        1
302
GRIDFORMAT
  1
GRIDFORMAT_BEGIN
 90
        0
 91
        1
 62
     0
 92
       -2
340
0
 93
        0
 40
0.045
309
GRIDFORMAT_END
 95
        2
302
GRIDFORMAT
  1
GRIDFORMAT_BEGIN
 90
        0
 91
        1
 62
     0
 92
       -2
340
0
 93
        0
 40
0.045
309
GRIDFORMAT_END
 95
        4
302
GRIDFORMAT
  1
GRIDFORMAT_BEGIN
 90
        0
 91
        1
 62
     0
 92
       -2
340
0
 93
        0
 40
0.045
309
GRIDFORMAT_END
 95
        8
302
GRIDFORMAT
  1
GRIDFORMAT_BEGIN
 90
        0
 91
        1
 62
     0
 92
       -2
340
0
 93
        0
 40
0.045
309
GRIDFORMAT_END
 95
       16
302
GRIDFORMAT
  1
GRIDFORMAT_BEGIN
 90
        0
 91
        1
 62
     0
 92
       -2
340
0
 93
        0
 40
0.045
309
GRIDFORMAT_END
 95
       32
302
GRIDFORMAT
  1
GRIDFORMAT_BEGIN
 90
        0
 91
        1
 62
     0
 92
       -2
340
0
 93
        0
 40
0.045
309
GRIDFORMAT_END
309
TABLEFORMAT_END
  1
CELLSTYLE_BEGIN
 90
        2
 91
        1
300
_HEADER
309
CELLSTYLE_END
300
CELLSTYLE
  1
TABLEFORMAT_BEGIN
 90
        5
170
     1
 91
        0
 92
        0
 62
   257
 93
        1
300
CONTENTFORMAT
  1
CONTENTFORMAT_BEGIN
 90
        0
 91
        0
 92
        4
 93
        0
300

 40
0.0
140
1.0
 94
        2
 62
     0
340
26
144
0.18
309
CONTENTFORMAT_END
171
     1
301
MARGIN
  1
CELLMARGIN_BEGIN
 40
0.06
 40
0.06
 40
0.06
 40
0.06
 40
0.18
 40
0.18
309
CELLMARGIN_END
 94
        6
 95
        1
302
GRIDFORMAT
  1
GRIDFORMAT_BEGIN
 90
        0
 91
        1
 62
     0
 92
       -2
340
0
 93
        0
 40
0.045
309
GRIDFORMAT_END
 95
        2
302
GRIDFORMAT
  1
GRIDFORMAT_BEGIN
 90
        0
 91
        1
 62
     0
 92
       -2
340
0
 93
        0
 40
0.045
309
GRIDFORMAT_END
 95
        4
302
GRIDFORMAT
  1
GRIDFORMAT_BEGIN
 90
        0
 91
        1
 62
     0
 92
       -2
340
0
 93
        0
 40
0.045
309
GRIDFORMAT_END
 95
        8
302
GRIDFORMAT
  1
GRIDFORMAT_BEGIN
 90
        0
 91
        1
 62
     0
 92
       -2
340
0
 93
        0
 40
0.045
309
GRIDFORMAT_END
 95
       16
302
GRIDFORMAT
  1
GRIDFORMAT_BEGIN
 90
        0
 91
        1
 62
     0
 92
       -2
340
0
 93
        0
 40
0.045
309
GRIDFORMAT_END
 95
       32
302
GRIDFORMAT
  1
GRIDFORMAT_BEGIN
 90
        0
 91
        1
 62
     0
 92
       -2
340
0
 93
        0
 40
0.045
309
GRIDFORMAT_END
309
TABLEFORMAT_END
  1
CELLSTYLE_BEGIN
 90
        3
 91
        2
300
_DATA
309
CELLSTYLE_END
  0
XRECORD
  5
384
102
{ACAD_REACTORS
330
56
102
}
330
56
100
AcDbXrecord
280
     1
102
ACAD_ROUNDTRIP_PRE2007_TABLESTYLE
 90
        4
 91
        0
  1

 92
        4
 93
        0
  2

 94
        4
 95
        0
  3

  0
XRECORD
  5
381
102
{ACAD_REACTORS
330
380
102
}
330
380
100
AcDbXrecord
280
     1
102
RTVSPropertyOp0
 70
     1
102
RTVSPropertyOp1
 70
     1
102
RTVSPropertyOp2
 70
     1
102
RTVSPropertyOp3
 70
     1
102
RTVSPropertyOp4
 70
     1
102
RTVSPropertyOp5
 70
     1
102
RTVSPropertyOp6
 70
     1
102
RTVSPropertyOp7
 70
     1
102
RTVSPropertyOp8
 70
     1
102
RTVSPropertyOp9
 70
     1
102
RTVSPropertyOp10
 70
     1
102
RTVSPropertyOp11
 70
     1
102
RTVSPropertyOp12
 70
     1
102
RTVSPropertyOp13
 70
     1
102
RTVSPropertyOp14
 70
     1
102
RTVSPropertyOp15
 70
     1
102
RTVSPropertyOp16
 70
     1
102
RTVSPropertyOp17
 70
     1
102
RTVSPropertyOp18
 70
     1
102
RTVSPropertyOp19
 70
     1
102
RTVSPropertyOp20
 70
     1
102
RTVSPropertyOp21
 70
     1
102
RTVSPropertyOp22
 70
     1
102
RTVSPropertyOp23
 70
     1
102
RTVSPropertyOp24
 70
     1
102
RTVSPropertyOp25
 70
     1
102
RTVSPropertyOp26
 70
     1
102
RTVSPropertyOp27
 70
     1
102
RTVSPropertyOp28
 70
     1
102
RTVSPropertyOp29
 70
     1
102
RTVSPropertyOp30
 70
     1
102
RTVSPropertyOp31
 70
     1
102
RTVSPropertyOp32
 70
     1
  0
XRECORD
  5
386
102
{ACAD_REACTORS
330
385
102
}
330
385
100
AcDbXrecord
280
     1
102
RTVSPropertyOp0
 70
     1
102
RTVSPropertyOp1
 70
     1
102
RTVSPropertyOp2
 70
     1
102
RTVSPropertyOp3
 70
     1
102
RTVSPropertyOp4
 70
     1
102
RTVSPropertyOp5
 70
     1
102
RTVSPropertyOp6
 70
     1
102
RTVSPropertyOp7
 70
     1
102
RTVSPropertyOp8
 70
     1
102
RTVSPropertyOp9
 70
     1
102
RTVSPropertyOp10
 70
     1
102
RTVSPropertyOp11
 70
     1
102
RTVSPropertyOp12
 70
     1
102
RTVSPropertyOp13
 70
     1
102
RTVSPropertyOp14
 70
     1
102
RTVSPropertyOp15
 70
     1
102
RTVSPropertyOp16
 70
     1
102
RTVSPropertyOp17
 70
     1
102
RTVSPropertyOp18
 70
     1
102
RTVSPropertyOp19
 70
     1
102
RTVSPropertyOp20
 70
     1
102
RTVSPropertyOp21
 70
     1
102
RTVSPropertyOp22
 70
     1
102
RTVSPropertyOp23
 70
     1
102
RTVSPropertyOp24
 70
     1
102
RTVSPropertyOp25
 70
     1
102
RTVSPropertyOp26
 70
     1
102
RTVSPropertyOp27
 70
     1
102
RTVSPropertyOp28
 70
     1
102
RTVSPropertyOp29
 70
     1
102
RTVSPropertyOp30
 70
     1
102
RTVSPropertyOp31
 70
     1
102
RTVSPropertyOp32
 70
     1
  0
XRECORD
  5
388
102
{ACAD_REACTORS
330
387
102
}
330
387
100
AcDbXrecord
280
     1
102
RTVSPropertyOp0
 70
     1
102
RTVSPropertyOp1
 70
     1
102
RTVSPropertyOp2
 70
     1
102
RTVSPropertyOp3
 70
     1
102
RTVSPropertyOp4
 70
     1
102
RTVSPropertyOp5
 70
     1
102
RTVSPropertyOp6
 70
     1
102
RTVSPropertyOp7
 70
     1
102
RTVSPropertyOp8
 70
     1
102
RTVSPropertyOp9
 70
     1
102
RTVSPropertyOp10
 70
     1
102
RTVSPropertyOp11
 70
     1
102
RTVSPropertyOp12
 70
     1
102
RTVSPropertyOp13
 70
     1
102
RTVSPropertyOp14
 70
     1
102
RTVSPropertyOp15
 70
     1
102
RTVSPropertyOp16
 70
     1
102
RTVSPropertyOp17
 70
     1
102
RTVSPropertyOp18
 70
     1
102
RTVSPropertyOp19
 70
     1
102
RTVSPropertyOp20
 70
     1
102
RTVSPropertyOp21
 70
     1
102
RTVSPropertyOp22
 70
     1
102
RTVSPropertyOp23
 70
     1
102
RTVSPropertyOp24
 70
     1
102
RTVSPropertyOp25
 70
     1
102
RTVSPropertyOp26
 70
     1
102
RTVSPropertyOp27
 70
     1
102
RTVSPropertyOp28
 70
     1
102
RTVSPropertyOp29
 70
     1
102
RTVSPropertyOp30
 70
     1
102
RTVSPropertyOp31
 70
     1
102
RTVSPropertyOp32
 70
     1
  0
ENDSEC
  0
EOF
