  0
SECTION
  2
HEADER
  9
$ACADVER
  1
AC1015
  9
$ACADMAINTVER
 70
    18
  9
$DWGCODEPAGE
  3
ANSI_1252
  9
$INSBASE
 10
35.51169735566113
 20
60.52541446104932
 30
0.0
  9
$EXTMIN
 10
24.64336631124485
 20
48.07226406400657
 30
0.0
  9
$EXTMAX
 10
43.28993601512865
 20
70.5743546726511
 30
0.0
  9
$LIMMIN
 10
0.0
 20
0.0
  9
$LIMMAX
 10
10000.0
 20
10000.0
  9
$ORTHOMODE
 70
     0
  9
$REGENMODE
 70
     1
  9
$FILLMODE
 70
     1
  9
$QTEXTMODE
 70
     0
  9
$MIRRTEXT
 70
     0
  9
$LTSCALE
 40
0.5
  9
$ATTMODE
 70
     1
  9
$TEXTSIZE
 40
0.25
  9
$TRACEWID
 40
0.05
  9
$TEXTSTYLE
  7
Standard
  9
$CLAYER
  8
0
  9
$CELTYPE
  6
ByLayer
  9
$CECOLOR
 62
   256
  9
$CELTSCALE
 40
1.0
  9
$DISPSILH
 70
     0
  9
$DIMSCALE
 40
0.0
  9
$DIMASZ
 40
0.156
  9
$DIMEXO
 40
0.04
  9
$DIMDLI
 40
0.38
  9
$DIMRND
 40
0.0
  9
$DIMDLE
 40
0.0
  9
$DIMEXE
 40
0.03
  9
$DIMTP
 40
0.0
  9
$DIMTM
 40
0.0
  9
$DIMTXT
 40
0.3125
  9
$DIMCEN
 40
0.0
  9
$DIMTSZ
 40
0.0
  9
$DIMTOL
 70
     0
  9
$DIMLIM
 70
     0
  9
$DIMTIH
 70
     1
  9
$DIMTOH
 70
     1
  9
$DIMSE1
 70
     0
  9
$DIMSE2
 70
     0
  9
$DIMTAD
 70
     0
  9
$DIMZIN
 70
     0
  9
$DIMBLK
  1
ArchTick
  9
$DIMASO
 70
     1
  9
$DIMSHO
 70
     1
  9
$DIMPOST
  1
\X
  9
$DIMAPOST
  1
mm
  9
$DIMALT
 70
     1
  9
$DIMALTD
 70
     0
  9
$DIMALTF
 40
25.4
  9
$DIMLFAC
 40
1.0
  9
$DIMTOFL
 70
     0
  9
$DIMTVP
 40
0.0
  9
$DIMTIX
 70
     0
  9
$DIMSOXD
 70
     0
  9
$DIMSAH
 70
     0
  9
$DIMBLK1
  1

  9
$DIMBLK2
  1

  9
$DIMSTYLE
  2
Knife
  9
$DIMCLRD
 70
     0
  9
$DIMCLRE
 70
     0
  9
$DIMCLRT
 70
     0
  9
$DIMTFAC
 40
1.0
  9
$DIMGAP
 40
0.04
  9
$DIMJUST
 70
     0
  9
$DIMSD1
 70
     0
  9
$DIMSD2
 70
     0
  9
$DIMTOLJ
 70
     1
  9
$DIMTZIN
 70
     0
  9
$DIMALTZ
 70
     0
  9
$DIMALTTZ
 70
     0
  9
$DIMUPT
 70
     0
  9
$DIMDEC
 70
     5
  9
$DIMTDEC
 70
     5
  9
$DIMALTU
 70
     2
  9
$DIMALTTD
 70
     0
  9
$DIMTXSTY
  7
Standard
  9
$DIMAUNIT
 70
     0
  9
$DIMADEC
 70
     1
  9
$DIMALTRND
 40
0.0
  9
$DIMAZIN
 70
     0
  9
$DIMDSEP
 70
    46
  9
$DIMATFIT
 70
     3
  9
$DIMFRAC
 70
     2
  9
$DIMLDRBLK
  1

  9
$DIMLUNIT
 70
     4
  9
$DIMLWD
 70
    -2
  9
$DIMLWE
 70
    -2
  9
$DIMTMOVE
 70
     0
  9
$LUNITS
 70
     2
  9
$LUPREC
 70
     4
  9
$SKETCHINC
 40
0.1
  9
$FILLETRAD
 40
0.0
  9
$AUNITS
 70
     0
  9
$AUPREC
 70
     0
  9
$MENU
  1
.
  9
$ELEVATION
 40
0.0
  9
$PELEVATION
 40
0.0
  9
$THICKNESS
 40
0.0
  9
$LIMCHECK
 70
     0
  9
$CHAMFERA
 40
0.0
  9
$CHAMFERB
 40
0.0
  9
$CHAMFERC
 40
0.0
  9
$CHAMFERD
 40
0.0
  9
$SKPOLY
 70
     0
  9
$TDCREATE
 40
2454538.540644179
  9
$TDUCREATE
 40
2454538.665644178
  9
$TDUPDATE
 40
2456098.434519676
  9
$TDUUPDATE
 40
2456098.559519676
  9
$TDINDWG
 40
0.2620138426
  9
$TDUSRTIMER
 40
0.2620138426
  9
$USRTIMER
 70
     1
  9
$ANGBASE
 50
0.0
  9
$ANGDIR
 70
     0
  9
$PDMODE
 70
     3
  9
$PDSIZE
 40
0.0
  9
$PLINEWID
 40
0.0
  9
$SPLFRAME
 70
     0
  9
$SPLINETYPE
 70
     6
  9
$SPLINESEGS
 70
    12
  9
$HANDSEED
  5
35B
  9
$SURFTAB1
 70
     6
  9
$SURFTAB2
 70
     6
  9
$SURFTYPE
 70
     6
  9
$SURFU
 70
     6
  9
$SURFV
 70
     6
  9
$UCSBASE
  2

  9
$UCSNAME
  2

  9
$UCSORG
 10
0.0
 20
0.0
 30
0.0
  9
$UCSXDIR
 10
1.0
 20
0.0
 30
0.0
  9
$UCSYDIR
 10
0.0
 20
1.0
 30
0.0
  9
$UCSORTHOREF
  2

  9
$UCSORTHOVIEW
 70
     0
  9
$UCSORGTOP
 10
0.0
 20
0.0
 30
0.0
  9
$UCSORGBOTTOM
 10
0.0
 20
0.0
 30
0.0
  9
$UCSORGLEFT
 10
0.0
 20
0.0
 30
0.0
  9
$UCSORGRIGHT
 10
0.0
 20
0.0
 30
0.0
  9
$UCSORGFRONT
 10
0.0
 20
0.0
 30
0.0
  9
$UCSORGBACK
 10
0.0
 20
0.0
 30
0.0
  9
$PUCSBASE
  2

  9
$PUCSNAME
  2

  9
$PUCSORG
 10
0.0
 20
0.0
 30
0.0
  9
$PUCSXDIR
 10
1.0
 20
0.0
 30
0.0
  9
$PUCSYDIR
 10
0.0
 20
1.0
 30
0.0
  9
$PUCSORTHOREF
  2

  9
$PUCSORTHOVIEW
 70
     0
  9
$PUCSORGTOP
 10
0.0
 20
0.0
 30
0.0
  9
$PUCSORGBOTTOM
 10
0.0
 20
0.0
 30
0.0
  9
$PUCSORGLEFT
 10
0.0
 20
0.0
 30
0.0
  9
$PUCSORGRIGHT
 10
0.0
 20
0.0
 30
0.0
  9
$PUCSORGFRONT
 10
0.0
 20
0.0
 30
0.0
  9
$PUCSORGBACK
 10
0.0
 20
0.0
 30
0.0
  9
$USERI1
 70
     0
  9
$USERI2
 70
     0
  9
$USERI3
 70
     0
  9
$USERI4
 70
     0
  9
$USERI5
 70
     0
  9
$USERR1
 40
0.0
  9
$USERR2
 40
0.0
  9
$USERR3
 40
0.0
  9
$USERR4
 40
0.0
  9
$USERR5
 40
0.0
  9
$WORLDVIEW
 70
     1
  9
$SHADEDGE
 70
     3
  9
$SHADEDIF
 70
    70
  9
$TILEMODE
 70
     1
  9
$MAXACTVP
 70
    64
  9
$PINSBASE
 10
0.0
 20
0.0
 30
0.0
  9
$PLIMCHECK
 70
     0
  9
$PEXTMIN
 10
0.0000000075458644
 20
0.0000000082145277
 30
0.0
  9
$PEXTMAX
 10
8.454000007545857
 20
10.67400000821453
 30
0.0
  9
$PLIMMIN
 10
-0.0064249311656545
 20
-0.1631194818509899
  9
$PLIMMAX
 10
8.493574828538456
 20
10.83688027785312
  9
$UNITMODE
 70
     0
  9
$VISRETAIN
 70
     1
  9
$PLINEGEN
 70
     0
  9
$PSLTSCALE
 70
     1
  9
$TREEDEPTH
 70
  3020
  9
$CMLSTYLE
  2
Standard
  9
$CMLJUST
 70
     0
  9
$CMLSCALE
 40
1.0
  9
$PROXYGRAPHICS
 70
     1
  9
$MEASUREMENT
 70
     0
  9
$CELWEIGHT
370
    -1
  9
$ENDCAPS
280
     0
  9
$JOINSTYLE
280
     0
  9
$LWDISPLAY
290
     0
  9
$INSUNITS
 70
     1
  9
$HYPERLINKBASE
  1

  9
$STYLESHEET
  1

  9
$XEDIT
290
     1
  9
$CEPSNTYPE
380
     0
  9
$PSTYLEMODE
290
     1
  9
$FINGERPRINTGUID
  2
{583AF5BD-9752-4B60-BFE9-6E7BD303019A}
  9
$VERSIONGUID
  2
{FC96894A-A6CF-4D24-9BB5-8E541371A94B}
  9
$EXTNAMES
290
     1
  9
$PSVPSCALE
 40
0.0
  9
$OLESTARTUP
290
     0
  0
ENDSEC
  0
SECTION
  2
CLASSES
  0
CLASS
  1
ACDBDICTIONARYWDFLT
  2
AcDbDictionaryWithDefault
  3
ObjectDBX Classes
 90
        0
280
     0
281
     0
  0
CLASS
  1
ACDBPLACEHOLDER
  2
AcDbPlaceHolder
  3
ObjectDBX Classes
 90
        0
280
     0
281
     0
  0
CLASS
  1
LAYOUT
  2
AcDbLayout
  3
ObjectDBX Classes
 90
        0
280
     0
281
     0
  0
CLASS
  1
DICTIONARYVAR
  2
AcDbDictionaryVar
  3
ObjectDBX Classes
 90
        0
280
     0
281
     0
  0
CLASS
  1
TABLESTYLE
  2
AcDbTableStyle
  3
ObjectDBX Classes
 90
     4095
280
     0
281
     0
  0
CLASS
  1
SORTENTSTABLE
  2
AcDbSortentsTable
  3
ObjectDBX Classes
 90
        0
280
     0
281
     0
  0
CLASS
  1
DIMASSOC
  2
AcDbDimAssoc
  3
"AcDbDimAssoc|Product Desc:     AcDim ARX App For Dimension|Company:          Autodesk, Inc.|WEB Address:      www.autodesk.com"
 90
        0
280
     0
281
     0
  0
CLASS
  1
MATERIAL
  2
AcDbMaterial
  3
ObjectDBX Classes
 90
     1153
280
     0
281
     0
  0
CLASS
  1
VISUALSTYLE
  2
AcDbVisualStyle
  3
ObjectDBX Classes
 90
     4095
280
     0
281
     0
  0
CLASS
  1
SCALE
  2
AcDbScale
  3
ObjectDBX Classes
 90
     1153
280
     0
281
     0
  0
CLASS
  1
MLEADERSTYLE
  2
AcDbMLeaderStyle
  3
ACDB_MLEADERSTYLE_CLASS
 90
    36863
280
     0
281
     0
  0
CLASS
  1
CELLSTYLEMAP
  2
AcDbCellStyleMap
  3
ObjectDBX Classes
 90
     1152
280
     0
281
     0
  0
ENDSEC
  0
SECTION
  2
TABLES
  0
TABLE
  2
VPORT
  5
2E
102
{ACAD_XDICTIONARY
360
33
102
}
330
0
100
AcDbSymbolTable
 70
     1
  0
VPORT
  5
2F
330
2E
100
AcDbSymbolTableRecord
100
AcDbViewportTableRecord
  2
*Active
 70
     0
 10
0.0
 20
0.0
 11
1.0
 21
1.0
 12
37.83092516453575
 22
58.87270403898806
 13
0.0
 23
0.0
 14
0.5
 24
0.5
 15
0.5
 25
0.5
 16
0.0
 26
0.0
 36
1.0
 17
0.0
 27
0.0
 37
0.0
 40
24.53915703388175
 41
2.183284457478005
 42
50.0
 43
0.0
 44
0.0
 50
0.0
 51
0.0
 71
     0
 72
  5000
 73
     1
 74
     3
 75
     0
 76
     0
 77
     0
 78
     0
281
     0
 65
     1
110
0.0
120
0.0
130
0.0
111
1.0
121
0.0
131
0.0
112
0.0
122
1.0
132
0.0
 79
     0
146
0.0
1001
ACAD_NAV_VCDISPLAY
1070
     3
  0
ENDTAB
  0
TABLE
  2
LTYPE
  5
29
330
0
100
AcDbSymbolTable
 70
     4
  0
LTYPE
  5
2A
330
29
100
AcDbSymbolTableRecord
100
AcDbLinetypeTableRecord
  2
ByBlock
 70
     0
  3

 72
    65
 73
     0
 40
0.0
  0
LTYPE
  5
2B
330
29
100
AcDbSymbolTableRecord
100
AcDbLinetypeTableRecord
  2
ByLayer
 70
     0
  3

 72
    65
 73
     0
 40
0.0
  0
LTYPE
  5
15
330
29
100
AcDbSymbolTableRecord
100
AcDbLinetypeTableRecord
  2
Continuous
 70
     0
  3
Solid line
 72
    65
 73
     0
 40
0.0
  0
LTYPE
  5
127
330
29
100
AcDbSymbolTableRecord
100
AcDbLinetypeTableRecord
  2
CENTER
 70
     0
  3
____ _ ____ _ ____ _ ____ _ ____ _ ____ 
 72
    65
 73
     4
 40
2.0
 49
1.25
 74
     0
 49
-0.25
 74
     0
 49
0.25
 74
     0
 49
-0.25
 74
     0
  0
LTYPE
  5
98
330
29
100
AcDbSymbolTableRecord
100
AcDbLinetypeTableRecord
  2
HIDDEN2
 70
     0
  3
Hidden (.5x) _ _ _ _ _ _ _ _ _ _ _ _ _ _ _ _ _
 72
    65
 73
     2
 40
0.1875
 49
0.125
 74
     0
 49
-0.0625
 74
     0
  0
LTYPE
  5
9D
330
29
100
AcDbSymbolTableRecord
100
AcDbLinetypeTableRecord
  2
HIDDEN
 70
     0
  3
Hidden __ __ __ __ __ __ __ __ __ __ __ __ __ __
 72
    65
 73
     2
 40
0.375
 49
0.25
 74
     0
 49
-0.125
 74
     0
  0
ENDTAB
  0
TABLE
  2
LAYER
  5
22
102
{ACAD_XDICTIONARY
360
23
102
}
330
0
100
AcDbSymbolTable
 70
     3
  0
LAYER
  5
6
102
{ACAD_XDICTIONARY
360
7
102
}
330
22
100
AcDbSymbolTableRecord
100
AcDbLayerTableRecord
  2
0
 70
     0
 62
     7
  6
Continuous
370
    18
390
9
  0
LAYER
  5
23E
330
22
100
AcDbSymbolTableRecord
100
AcDbLayerTableRecord
  2
Defpoints
 70
     0
 62
     7
  6
Continuous
290
     0
370
    18
390
9
  0
LAYER
  5
DF
102
{ACAD_XDICTIONARY
360
E0
102
}
330
22
100
AcDbSymbolTableRecord
100
AcDbLayerTableRecord
  2
Screw
 70
     0
 62
     7
  6
Continuous
370
    18
390
9
  0
ENDTAB
  0
TABLE
  2
STYLE
  5
25
330
0
100
AcDbSymbolTable
 70
     1
  0
STYLE
  5
26
330
25
100
AcDbSymbolTableRecord
100
AcDbTextStyleTableRecord
  2
Standard
 70
     0
 40
0.0
 41
0.55
 50
5.0
 71
     0
 42
0.25
  3
lc______.ttf
  4

1001
ACAD
1000
Letter Gothic
1071
       50
  0
ENDTAB
  0
TABLE
  2
VIEW
  5
2C
330
0
100
AcDbSymbolTable
 70
     0
  0
ENDTAB
  0
TABLE
  2
UCS
  5
2D
330
0
100
AcDbSymbolTable
 70
     0
  0
ENDTAB
  0
TABLE
  2
APPID
  5
34
330
0
100
AcDbSymbolTable
 70
     5
  0
APPID
  5
27
330
34
100
AcDbSymbolTableRecord
100
AcDbRegAppTableRecord
  2
ACAD
 70
     0
  0
APPID
  5
1B
330
34
100
AcDbSymbolTableRecord
100
AcDbRegAppTableRecord
  2
ACAD_PSEXT
 70
     0
  0
APPID
  5
32
330
34
100
AcDbSymbolTableRecord
100
AcDbRegAppTableRecord
  2
ACAD_NAV_VCDISPLAY
 70
     0
  0
APPID
  5
74
330
34
100
AcDbSymbolTableRecord
100
AcDbRegAppTableRecord
  2
GradientColor1ACI
 70
     0
  0
APPID
  5
75
330
34
100
AcDbSymbolTableRecord
100
AcDbRegAppTableRecord
  2
GradientColor2ACI
 70
     0
  0
ENDTAB
  0
TABLE
  2
DIMSTYLE
  5
35
330
0
100
AcDbSymbolTable
 70
     2
100
AcDbDimStyleTable
 71
     2
340
36
340
3B
  0
DIMSTYLE
105
3B
330
35
100
AcDbSymbolTableRecord
100
AcDbDimStyleTableRecord
  2
Standard
 70
     0
  3
"
 40
0.0
 41
0.095
 42
0.04
 44
0.04
140
0.125
141
0.0
147
0.04
179
     1
271
     6
272
     6
276
     2
277
     5
340
26
  0
DIMSTYLE
105
36
102
{ACAD_REACTORS
330
232
330
242
330
251
330
260
330
26F
330
27E
330
28D
330
29C
330
2AA
330
2B8
330
2C7
330
2D5
330
2E4
330
2F3
330
302
330
313
330
324
330
332
102
}
330
35
100
AcDbSymbolTableRecord
100
AcDbDimStyleTableRecord
  2
Knife
 70
     0
  3
\X
  4
mm
 40
0.0
 41
0.156
 42
0.04
 44
0.03
140
0.3125
141
0.0
147
0.04
170
     1
171
     0
179
     1
271
     5
272
     5
274
     0
276
     2
277
     4
340
26
342
37
  0
ENDTAB
  0
TABLE
  2
BLOCK_RECORD
  5
1
330
0
100
AcDbSymbolTable
 70
    22
  0
BLOCK_RECORD
  5
2
102
{ACAD_XDICTIONARY
360
3
102
}
330
1
100
AcDbSymbolTableRecord
100
AcDbBlockTableRecord
  2
*Model_Space
340
17
  0
BLOCK_RECORD
  5
1C
330
1
100
AcDbSymbolTableRecord
100
AcDbBlockTableRecord
  2
*Paper_Space
340
1F
  0
BLOCK_RECORD
  5
37
330
1
100
AcDbSymbolTableRecord
100
AcDbBlockTableRecord
  2
_ArchTick
340
0
102
{BLKREFS
331
239
331
23A
331
24A
331
24B
331
258
331
259
331
267
331
268
331
276
331
277
331
285
331
286
331
294
331
295
331
2A3
331
2A4
331
2B1
331
2B2
331
2C0
331
2C1
331
2CE
331
2CF
331
2DC
331
2DD
331
2EB
331
2EC
331
2FA
331
2FB
331
309
331
30A
331
31C
331
31D
331
32B
331
32C
331
339
331
33A
102
}
  0
BLOCK_RECORD
  5
DC
330
1
100
AcDbSymbolTableRecord
100
AcDbBlockTableRecord
  2
8 x .75 FH
340
0
310
2800000020000000200000000100080000000000000400000000000000000000000000000000000000000000000080000080000000808000800000008000800080800000C0C0C000C0DCC000F0CAA6000020400000206000002080000020A0000020C0000020E00000400000004020000040400000406000004080000040A0
310
000040C0000040E00000600000006020000060400000606000006080000060A0000060C0000060E00000800000008020000080400000806000008080000080A0000080C0000080E00000A0000000A0200000A0400000A0600000A0800000A0A00000A0C00000A0E00000C0000000C0200000C0400000C0600000C0800000C0
310
A00000C0C00000C0E00000E0000000E0200000E0400000E0600000E0800000E0A00000E0C00000E0E00040000000400020004000400040006000400080004000A0004000C0004000E00040200000402020004020400040206000402080004020A0004020C0004020E000404000004040200040404000404060004040800040
310
40A0004040C0004040E00040600000406020004060400040606000406080004060A0004060C0004060E00040800000408020004080400040806000408080004080A0004080C0004080E00040A0000040A0200040A0400040A0600040A0800040A0A00040A0C00040A0E00040C0000040C0200040C0400040C0600040C08000
310
40C0A00040C0C00040C0E00040E0000040E0200040E0400040E0600040E0800040E0A00040E0C00040E0E00080000000800020008000400080006000800080008000A0008000C0008000E00080200000802020008020400080206000802080008020A0008020C0008020E00080400000804020008040400080406000804080
310
008040A0008040C0008040E00080600000806020008060400080606000806080008060A0008060C0008060E00080800000808020008080400080806000808080008080A0008080C0008080E00080A0000080A0200080A0400080A0600080A0800080A0A00080A0C00080A0E00080C0000080C0200080C0400080C0600080C0
310
800080C0A00080C0C00080C0E00080E0000080E0200080E0400080E0600080E0800080E0A00080E0C00080E0E000C0000000C0002000C0004000C0006000C0008000C000A000C000C000C000E000C0200000C0202000C0204000C0206000C0208000C020A000C020C000C020E000C0400000C0402000C0404000C0406000C0
310
408000C040A000C040C000C040E000C0600000C0602000C0604000C0606000C0608000C060A000C060C000C060E000C0800000C0802000C0804000C0806000C0808000C080A000C080C000C080E000C0A00000C0A02000C0A04000C0A06000C0A08000C0A0A000C0A0C000C0A0E000C0C00000C0C02000C0C04000C0C06000
310
C0C08000C0C0A000F0FBFF00A4A0A000808080000000FF0000FF000000FFFF00FF000000FF00FF00FFFF0000FFFFFF0007070707070707070707070707070707070707070707070707070707070707070707070707070707070707070707070700070707070707070707070707070707070707070707070707070707070707
310
07000707070707070707070707070707070707070707070707070707070707070700070707070707070707070707070707070707070707070707070707070707070007070707070707070707070707070707070707070707070707070707070000000707070707070707070707070707070707070707070707070707070707
310
07000000070707070707070707070707070707070707070707070707070707000007000007070707070707070707070707070707070707070707070707070707000000000007070707070707070707070707070707070707070707070707070700070000000707070707070707070707070707070707070707070707070707
310
00000000000707070707070707070707070707070707070707070707070707070700070000000707070707070707070707070707070707070707070707070707000000000007070707070707070707070707070707070707070707070707070707000700000007070707070707070707070707070707070707070707070707
310
07000000000007070707070707070707070707070707070707070707070707070707000700000007070707070707070707070707070707070707070707070707070000000000070707070707070707070707070707070707070707070707070707070007000000070707070707070707070707070707070707070707070707
310
07070000000000070707070707070707070707070707070707070707070707070707070007000000070707070707070707070707070707070707070707070707070707000700000707070707070707070707070707070707070707070707070707070000000000070707070707070707070707070707070707070707070707
310
07070707000700000007070707070707070707070707070707070707070707070707070700000000070707070707070707070707070707070707070707070707070707000707000700070707070707070707070707070707070707070707070707070007070700070700070707070707070707070707070707070707070707
310
07070007070707000707070007070707070707070707070707070707070707070700000000000000000000000007070707070707070707070707070707070707070000000000000000000000000707070707070707070707070707070707070707070707070707000707070707070707070707070707070707070707070707
310
0707070707070707000707070707070707070707070707070707070707070707070707070707070707070707070707070707070707070707
102
{BLKREFS
331
DB
102
}
  0
BLOCK_RECORD
  5
12A
330
1
100
AcDbSymbolTableRecord
100
AcDbBlockTableRecord
  2
8 X .625 PH
340
0
310
2800000020000000200000000100080000000000000400000000000000000000000000000000000000000000000080000080000000808000800000008000800080800000C0C0C000C0DCC000F0CAA6000020400000206000002080000020A0000020C0000020E00000400000004020000040400000406000004080000040A0
310
000040C0000040E00000600000006020000060400000606000006080000060A0000060C0000060E00000800000008020000080400000806000008080000080A0000080C0000080E00000A0000000A0200000A0400000A0600000A0800000A0A00000A0C00000A0E00000C0000000C0200000C0400000C0600000C0800000C0
310
A00000C0C00000C0E00000E0000000E0200000E0400000E0600000E0800000E0A00000E0C00000E0E00040000000400020004000400040006000400080004000A0004000C0004000E00040200000402020004020400040206000402080004020A0004020C0004020E000404000004040200040404000404060004040800040
310
40A0004040C0004040E00040600000406020004060400040606000406080004060A0004060C0004060E00040800000408020004080400040806000408080004080A0004080C0004080E00040A0000040A0200040A0400040A0600040A0800040A0A00040A0C00040A0E00040C0000040C0200040C0400040C0600040C08000
310
40C0A00040C0C00040C0E00040E0000040E0200040E0400040E0600040E0800040E0A00040E0C00040E0E00080000000800020008000400080006000800080008000A0008000C0008000E00080200000802020008020400080206000802080008020A0008020C0008020E00080400000804020008040400080406000804080
310
008040A0008040C0008040E00080600000806020008060400080606000806080008060A0008060C0008060E00080800000808020008080400080806000808080008080A0008080C0008080E00080A0000080A0200080A0400080A0600080A0800080A0A00080A0C00080A0E00080C0000080C0200080C0400080C0600080C0
310
800080C0A00080C0C00080C0E00080E0000080E0200080E0400080E0600080E0800080E0A00080E0C00080E0E000C0000000C0002000C0004000C0006000C0008000C000A000C000C000C000E000C0200000C0202000C0204000C0206000C0208000C020A000C020C000C020E000C0400000C0402000C0404000C0406000C0
310
408000C040A000C040C000C040E000C0600000C0602000C0604000C0606000C0608000C060A000C060C000C060E000C0800000C0802000C0804000C0806000C0808000C080A000C080C000C080E000C0A00000C0A02000C0A04000C0A06000C0A08000C0A0A000C0A0C000C0A0E000C0C00000C0C02000C0C04000C0C06000
310
C0C08000C0C0A000F0FBFF00A4A0A000808080000000FF0000FF000000FFFF00FF000000FF00FF00FFFF0000FFFFFF0007070707070707070707070707070707070707070707070707070707070707070707070707070707070707070707070700070707070707070707070707070707070707070707070707070707070707
310
07000707070707070707070707070707070707070707070707070707070707070700070707070707070707070707070707070707070707070707070707070707070007070707070707070707070707070707070707070707070707070707070000000707070707070707070707070707070707070707070707070707070707
310
00000000070707070707070707070707070707070707070707070707070707070007000007070707070707070707070707070707070707070707070707070700000000000007070707070707070707070707070707070707070707070707070007070000000707070707070707070707070707070707070707070707070707
310
00000000070007070707070707070707070707070707070707070707070707070007070000000707070707070707070707070707070707070707070707070707000000000700070707070707070707070707070707070707070707070707070700070700000007070707070707070707070707070707070707070707070707
310
07000000000700070707070707070707070707070707070707070707070707070700070700000007070707070707070707070707070707070707070707070707070007070007000707070707070707070707070707070707070707070707070707000000000700070707070707070707070707070707070707070707070707
310
07070007070000000707070707070707070707070707070707070707070707070707000000000700070707070707070707070707070707070707070707070707070700070700000007070707070707070707070707070707070707070707070707070000000007000707070707070707070707070707070707070707070707
310
07070700070700000007070707070707070707070707070707070707070707070707070000000007000707070707070707070707070707070707070707070707070000000000000000000007070707070707070707070707070707070707070700070707070700070707070007070707070707070707070707070707070707
310
07000000000000000000000000070707070707070707070707070707070707070707000007070700070700000707070707070707070707070707070707070707070707070000000000000707070707070707070707070707070707070707070707070707070707000707070707070707070707070707070707070707070707
310
0707070707070707000707070707070707070707070707070707070707070707070707070707070707070707070707070707070707070707
102
{BLKREFS
331
129
102
}
  0
BLOCK_RECORD
  5
1BB
330
1
100
AcDbSymbolTableRecord
100
AcDbBlockTableRecord
  2
8 X 1.5 FH
340
0
310
2800000020000000200000000100080000000000000400000000000000000000000000000000000000000000000080000080000000808000800000008000800080800000C0C0C000C0DCC000F0CAA6000020400000206000002080000020A0000020C0000020E00000400000004020000040400000406000004080000040A0
310
000040C0000040E00000600000006020000060400000606000006080000060A0000060C0000060E00000800000008020000080400000806000008080000080A0000080C0000080E00000A0000000A0200000A0400000A0600000A0800000A0A00000A0C00000A0E00000C0000000C0200000C0400000C0600000C0800000C0
310
A00000C0C00000C0E00000E0000000E0200000E0400000E0600000E0800000E0A00000E0C00000E0E00040000000400020004000400040006000400080004000A0004000C0004000E00040200000402020004020400040206000402080004020A0004020C0004020E000404000004040200040404000404060004040800040
310
40A0004040C0004040E00040600000406020004060400040606000406080004060A0004060C0004060E00040800000408020004080400040806000408080004080A0004080C0004080E00040A0000040A0200040A0400040A0600040A0800040A0A00040A0C00040A0E00040C0000040C0200040C0400040C0600040C08000
310
40C0A00040C0C00040C0E00040E0000040E0200040E0400040E0600040E0800040E0A00040E0C00040E0E00080000000800020008000400080006000800080008000A0008000C0008000E00080200000802020008020400080206000802080008020A0008020C0008020E00080400000804020008040400080406000804080
310
008040A0008040C0008040E00080600000806020008060400080606000806080008060A0008060C0008060E00080800000808020008080400080806000808080008080A0008080C0008080E00080A0000080A0200080A0400080A0600080A0800080A0A00080A0C00080A0E00080C0000080C0200080C0400080C0600080C0
310
800080C0A00080C0C00080C0E00080E0000080E0200080E0400080E0600080E0800080E0A00080E0C00080E0E000C0000000C0002000C0004000C0006000C0008000C000A000C000C000C000E000C0200000C0202000C0204000C0206000C0208000C020A000C020C000C020E000C0400000C0402000C0404000C0406000C0
310
408000C040A000C040C000C040E000C0600000C0602000C0604000C0606000C0608000C060A000C060C000C060E000C0800000C0802000C0804000C0806000C0808000C080A000C080C000C080E000C0A00000C0A02000C0A04000C0A06000C0A08000C0A0A000C0A0C000C0A0E000C0C00000C0C02000C0C04000C0C06000
310
C0C08000C0C0A000F0FBFF00A4A0A000808080000000FF0000FF000000FFFF00FF000000FF00FF00FFFF0000FFFFFF0007070707070707070707070707070707070707070707070707070707070707070707070707070707070707070707070700070707070707070707070707070707070707070707070707070707070707
310
07000707070707070707070707070707070707070707070707070707070707070000070707070707070707070707070707070707070707070707070707070707000007070707070707070707070707070707070707070707070707070707070000000007070707070707070707070707070707070707070707070707070707
310
00000000070707070707070707070707070707070707070707070707070707070000000007070707070707070707070707070707070707070707070707070707000000000707070707070707070707070707070707070707070707070707070700000000070707070707070707070707070707070707070707070707070707
310
07000000000707070707070707070707070707070707070707070707070707070700070000070707070707070707070707070707070707070707070707070707070000000007070707070707070707070707070707070707070707070707070707000000000707070707070707070707070707070707070707070707070707
310
07070000000007070707070707070707070707070707070707070707070707070707000000000707070707070707070707070707070707070707070707070707070700000000070707070707070707070707070707070707070707070707070707070000000007070707070707070707070707070707070707070707070707
310
07070700070000070707070707070707070707070707070707070707070707070707070007000007070707070707070707070707070707070707070707070707070707000700000707070707070707070707070707070707070707070707070707070700070000070707070707070707070707070707070707070707070707
310
07070707000700000707070707070707070707070707070707070707070707070707070700070000070707070707070707070707070707070707070707070707070707070007000007070707070707070707070707070707070707070707070707070707000700000707070707070707070707070707070707070707070707
310
07070707070000000007070707070707070707070707070707070707070707070707070707000700070007070707070707070707070707070707070707070707070707070000000000000707070707070707070707070707070707070707070707070707000000000000070707070707070707070707070707070707070707
310
0707070707070707000707070707070707070707070707070707070707070707070707070707070707070707070707070707070707070707
102
{BLKREFS
331
1BA
102
}
  0
BLOCK_RECORD
  5
233
330
1
100
AcDbSymbolTableRecord
100
AcDbBlockTableRecord
  2
*D4
340
0
  0
BLOCK_RECORD
  5
243
330
1
100
AcDbSymbolTableRecord
100
AcDbBlockTableRecord
  2
*D5
340
0
  0
BLOCK_RECORD
  5
252
330
1
100
AcDbSymbolTableRecord
100
AcDbBlockTableRecord
  2
*D6
340
0
  0
BLOCK_RECORD
  5
261
330
1
100
AcDbSymbolTableRecord
100
AcDbBlockTableRecord
  2
*D7
340
0
  0
BLOCK_RECORD
  5
270
330
1
100
AcDbSymbolTableRecord
100
AcDbBlockTableRecord
  2
*D8
340
0
  0
BLOCK_RECORD
  5
27F
330
1
100
AcDbSymbolTableRecord
100
AcDbBlockTableRecord
  2
*D9
340
0
  0
BLOCK_RECORD
  5
28E
330
1
100
AcDbSymbolTableRecord
100
AcDbBlockTableRecord
  2
*D10
340
0
  0
BLOCK_RECORD
  5
2AB
330
1
100
AcDbSymbolTableRecord
100
AcDbBlockTableRecord
  2
*D11
340
0
  0
BLOCK_RECORD
  5
2B9
330
1
100
AcDbSymbolTableRecord
100
AcDbBlockTableRecord
  2
*D12
340
0
  0
BLOCK_RECORD
  5
2C8
330
1
100
AcDbSymbolTableRecord
100
AcDbBlockTableRecord
  2
*D13
340
0
  0
BLOCK_RECORD
  5
29D
330
1
100
AcDbSymbolTableRecord
100
AcDbBlockTableRecord
  2
*D14
340
0
  0
BLOCK_RECORD
  5
2D6
330
1
100
AcDbSymbolTableRecord
100
AcDbBlockTableRecord
  2
*D15
340
0
  0
BLOCK_RECORD
  5
2E5
330
1
100
AcDbSymbolTableRecord
100
AcDbBlockTableRecord
  2
*D16
340
0
  0
BLOCK_RECORD
  5
2F4
330
1
100
AcDbSymbolTableRecord
100
AcDbBlockTableRecord
  2
*D17
340
0
  0
BLOCK_RECORD
  5
303
330
1
100
AcDbSymbolTableRecord
100
AcDbBlockTableRecord
  2
*D18
340
0
  0
BLOCK_RECORD
  5
316
330
1
100
AcDbSymbolTableRecord
100
AcDbBlockTableRecord
  2
*D19
340
0
  0
BLOCK_RECORD
  5
325
330
1
100
AcDbSymbolTableRecord
100
AcDbBlockTableRecord
  2
*D20
340
0
  0
BLOCK_RECORD
  5
333
330
1
100
AcDbSymbolTableRecord
100
AcDbBlockTableRecord
  2
*D21
340
0
  0
ENDTAB
  0
ENDSEC
  0
SECTION
  2
BLOCKS
  0
BLOCK
  5
5
330
2
100
AcDbEntity
  8
0
100
AcDbBlockBegin
  2
*Model_Space
 70
     0
 10
0.0
 20
0.0
 30
0.0
  3
*Model_Space
  1

  0
ENDBLK
  5
16
330
2
100
AcDbEntity
  8
0
100
AcDbBlockEnd
  0
BLOCK
  5
1D
330
1C
100
AcDbEntity
 67
     1
  8
0
100
AcDbBlockBegin
  2
*Paper_Space
 70
     0
 10
0.0
 20
0.0
 30
0.0
  3
*Paper_Space
  1

  0
ENDBLK
  5
1E
330
1C
100
AcDbEntity
 67
     1
  8
0
100
AcDbBlockEnd
  0
BLOCK
  5
38
330
37
100
AcDbEntity
  8
0
100
AcDbBlockBegin
  2
_ArchTick
 70
     0
 10
0.0
 20
0.0
 30
0.0
  3
_ArchTick
  1

  0
LWPOLYLINE
  5
39
330
37
100
AcDbEntity
  8
0
  6
ByBlock
 62
     0
100
AcDbPolyline
 90
        2
 70
     0
 43
0.15
 10
-0.5
 20
-0.5
 10
0.5
 20
0.5
  0
ENDBLK
  5
3A
330
37
100
AcDbEntity
  8
0
100
AcDbBlockEnd
  0
BLOCK
  5
DD
330
DC
100
AcDbEntity
  8
0
 62
     7
370
     9
100
AcDbBlockBegin
  2
8 x .75 FH
 70
     0
 10
0.0
 20
0.0
 30
0.0
  3
8 x .75 FH
  1

  0
LINE
  5
DE
330
DC
100
AcDbEntity
  8
Screw
 62
     7
370
     9
100
AcDbLine
 10
0.0550146141445112
 20
-0.6503624430697528
 30
0.0
 11
-0.040994238129656
 21
-0.6842106249981726
 31
0.0
  0
LINE
  5
E1
330
DC
100
AcDbEntity
  8
Screw
 62
     7
370
     9
100
AcDbLine
 10
0.082499999998845
 20
-0.5862344890166469
 30
0.0
 11
-0.0718750000007731
 21
-0.6184212499980504
 31
0.0
  0
LINE
  5
E2
330
DC
100
AcDbEntity
  8
Screw
 62
     7
370
     9
100
AcDbLine
 10
0.0439236020391718
 20
-0.6439590442452073
 30
0.0
 11
0.0490410471671794
 21
-0.6316044388123601
 31
0.0
  0
LINE
  5
E3
330
DC
100
AcDbEntity
  8
Screw
 62
     7
370
     9
100
AcDbLine
 10
0.029903226022725
 20
-0.6778072261735133
 30
0.0
 11
0.0229311243443817
 21
-0.6946393686034753
 31
0.0
  0
LINE
  5
E4
330
DC
100
AcDbEntity
  8
Screw
 62
     7
370
     9
100
AcDbLine
 10
0.0578546239828484
 20
-0.6103265821309379
 30
0.0
 11
0.0490410471671794
 21
-0.6316044388123601
 31
0.0
  0
LINE
  5
E5
330
DC
100
AcDbEntity
  8
Screw
 62
     7
370
     9
100
AcDbLine
 10
-0.0000000000006821
 20
-0.749999999998181
 30
0.0
 11
-0.0229311243459733
 21
-0.6946393686034753
 31
0.0
  0
LINE
  5
E6
330
DC
100
AcDbEntity
  8
Screw
 62
     7
370
     9
100
AcDbLine
 10
-0.0718750000007731
 20
-0.6184212499980504
 30
0.0
 11
-0.0600000000014234
 21
-0.6115652155518774
 31
0.0
  0
LINE
  5
E7
330
DC
100
AcDbEntity
  8
Screw
 62
     7
370
     9
100
AcDbLine
 10
-0.0718750000007731
 20
-0.6184212499981641
 30
0.0
 11
-0.0490410471686573
 21
-0.6316044388123601
 31
0.0
  0
LINE
  5
E8
330
DC
100
AcDbEntity
  8
Screw
 62
     7
370
     9
100
AcDbLine
 10
-0.040994238129656
 20
-0.6842106249981726
 30
0.0
 11
-0.0299032260242029
 21
-0.6778072261735133
 31
0.0
  0
LINE
  5
E9
330
DC
100
AcDbEntity
  8
Screw
 62
     7
370
     9
100
AcDbLine
 10
-0.040994238129656
 20
-0.6842106249981726
 30
0.0
 11
-0.0229311243459733
 21
-0.6946393686034753
 31
0.0
  0
LINE
  5
EA
330
DC
100
AcDbEntity
  8
Screw
 62
     7
370
     9
100
AcDbLine
 10
-0.0299032260242029
 20
-0.6778072261735133
 30
0.0
 11
-0.0490410471686573
 21
-0.6316044388123601
 31
0.0
  0
LINE
  5
EB
330
DC
100
AcDbEntity
  8
Screw
 62
     7
370
     9
100
AcDbLine
 10
0.029903226022725
 20
-0.6778072261735133
 30
0.0
 11
0.0369515003608285
 21
-0.6607911866751693
 31
0.0
  0
LINE
  5
EC
330
DC
100
AcDbEntity
  8
Screw
 62
     7
370
     9
100
AcDbLine
 10
0.0578546239828484
 20
-0.6103265821309379
 30
0.0
 11
0.0632241464040817
 21
-0.5973634082783974
 31
0.0
  0
LINE
  5
ED
330
DC
100
AcDbEntity
  8
Screw
 62
     7
370
     9
100
AcDbLine
 10
0.0550146141445112
 20
-0.6503624430697528
 30
0.0
 11
0.0369515003608285
 21
-0.6607911866751693
 31
0.0
  0
LINE
  5
EE
330
DC
100
AcDbEntity
  8
Screw
 62
     7
370
     9
100
AcDbLine
 10
0.0550146141445112
 20
-0.6503624430697528
 30
0.0
 11
0.0439236020391718
 21
-0.6439590442452073
 31
0.0
  0
LINE
  5
EF
330
DC
100
AcDbEntity
  8
Screw
 62
     7
370
     9
100
AcDbLine
 10
0.0824999999986176
 20
-0.5862344890166469
 30
0.0
 11
0.063224146403968
 21
-0.5973634082782838
 31
0.0
  0
LINE
  5
F0
330
DC
100
AcDbEntity
  8
Screw
 62
     7
370
     9
100
AcDbLine
 10
0.0824999999986176
 20
-0.5862344890166469
 30
0.0
 11
0.0684796239821708
 21
-0.5781398211494207
 31
0.0
  0
LINE
  5
F1
330
DC
100
AcDbEntity
  8
Screw
 62
     7
370
     9
100
AcDbLine
 10
-0.0000000000006821
 20
-0.749999999998181
 30
0.0
 11
0.0229311243443817
 21
-0.6946393686034753
 31
0.0
  0
LINE
  5
F2
330
DC
100
AcDbEntity
  8
Screw
 62
     7
370
     9
100
AcDbLine
 10
0.0599999999988086
 20
-0.4018567450733599
 30
0.0
 11
0.0599999999988086
 21
-0.4416653579600052
 31
0.0
  0
LINE
  5
F3
330
DC
100
AcDbEntity
  8
Screw
 62
     7
370
     9
100
AcDbLine
 10
0.0824999999987313
 20
-0.3888663640167351
 30
0.0
 11
0.0599999999988086
 21
-0.4018567450733599
 31
0.0
  0
LINE
  5
F4
330
DC
100
AcDbEntity
  8
Screw
 62
     7
370
     9
100
AcDbLine
 10
0.0599999999988086
 20
-0.4676461200734821
 30
0.0
 11
0.0599999999988086
 21
-0.5074547329599
 31
0.0
  0
LINE
  5
F5
330
DC
100
AcDbEntity
  8
Screw
 62
     7
370
     9
100
AcDbLine
 10
0.0824999999987313
 20
-0.5204451140167521
 30
0.0
 11
0.0599999999988086
 21
-0.5334354950734906
 31
0.0
  0
LINE
  5
F6
330
DC
100
AcDbEntity
  8
Screw
 62
     7
370
     9
100
AcDbLine
 10
0.0824999999987313
 20
-0.5204451140167521
 30
0.0
 11
0.0599999999986949
 21
-0.5074547329599
 31
0.0
  0
LINE
  5
F7
330
DC
100
AcDbEntity
  8
Screw
 62
     7
370
     9
100
AcDbLine
 10
0.0824999999987313
 20
-0.45465573901663
 30
0.0
 11
0.0599999999988086
 21
-0.4676461200734821
 31
0.0
  0
LINE
  5
F8
330
DC
100
AcDbEntity
  8
Screw
 62
     7
370
     9
100
AcDbLine
 10
0.0824999999987313
 20
-0.45465573901663
 30
0.0
 11
0.0599999999988086
 21
-0.4416653579600052
 31
0.0
  0
LINE
  5
F9
330
DC
100
AcDbEntity
  8
Screw
 62
     7
370
     9
100
AcDbLine
 10
0.0824999999987313
 20
-0.3888663640167351
 30
0.0
 11
-0.0825000000013461
 21
-0.4176219848775418
 31
0.0
  0
LINE
  5
FA
330
DC
100
AcDbEntity
  8
Screw
 62
     7
370
     9
100
AcDbLine
 10
0.0824999999987313
 20
-0.5204451140167521
 30
0.0
 11
-0.0825000000013461
 21
-0.5492007348775588
 31
0.0
  0
LINE
  5
FB
330
DC
100
AcDbEntity
  8
Screw
 62
     7
370
     9
100
AcDbLine
 10
0.0824999999987313
 20
-0.45465573901663
 30
0.0
 11
-0.0825000000013461
 21
-0.4834113598775503
 31
0.0
  0
LINE
  5
FC
330
DC
100
AcDbEntity
  8
Screw
 62
     7
370
     9
100
AcDbLine
 10
0.0824999999987313
 20
-0.3888663640167351
 30
0.0
 11
0.0599999999988086
 21
-0.3758759829599967
 31
0.0
  0
LINE
  5
FD
330
DC
100
AcDbEntity
  8
Screw
 62
     7
370
     9
100
AcDbLine
 10
0.0824999999987313
 20
-0.5862344890167606
 30
0.0
 11
0.0599999999986949
 21
-0.5732441079599085
 31
0.0
  0
LINE
  5
FE
330
DC
100
AcDbEntity
  8
Screw
 62
     7
370
     9
100
AcDbLine
 10
0.0599999999988086
 20
-0.5334354950734906
 30
0.0
 11
0.0599999999988086
 21
-0.5732441079599085
 31
0.0
  0
LINE
  5
FF
330
DC
100
AcDbEntity
  8
Screw
 62
     7
370
     9
100
AcDbLine
 10
-0.0825000000012324
 20
-0.4834113598774366
 30
0.0
 11
-0.0600000000013097
 21
-0.4704209788208118
 31
0.0
  0
LINE
  5
100
330
DC
100
AcDbEntity
  8
Screw
 62
     7
370
     9
100
AcDbLine
 10
-0.0825000000012324
 20
-0.483411359877664
 30
0.0
 11
-0.0600000000013097
 21
-0.4964017409342887
 31
0.0
  0
LINE
  5
101
330
DC
100
AcDbEntity
  8
Screw
 62
     7
370
     9
100
AcDbLine
 10
-0.0825000000012324
 20
-0.5492007348775588
 30
0.0
 11
-0.0600000000013097
 21
-0.5362103538207066
 31
0.0
  0
LINE
  5
102
330
DC
100
AcDbEntity
  8
Screw
 62
     7
370
     9
100
AcDbLine
 10
-0.0825000000012324
 20
-0.5492007348775588
 30
0.0
 11
-0.0600000000013097
 21
-0.5621911159342972
 31
0.0
  0
LINE
  5
103
330
DC
100
AcDbEntity
  8
Screw
 62
     7
370
     9
100
AcDbLine
 10
-0.0825000000012324
 20
-0.4176219848775418
 30
0.0
 11
-0.0600000000013097
 21
-0.4306123659343939
 31
0.0
  0
LINE
  5
104
330
DC
100
AcDbEntity
  8
Screw
 62
     7
370
     9
100
AcDbLine
 10
-0.0825000000012324
 20
-0.4176219848775418
 30
0.0
 11
-0.0600000000013097
 21
-0.4046316038208034
 31
0.0
  0
LINE
  5
105
330
DC
100
AcDbEntity
  8
Screw
 62
     7
370
     9
100
AcDbLine
 10
-0.0600000000013097
 20
-0.5621911159342972
 30
0.0
 11
-0.0600000000013097
 21
-0.6115652155519911
 31
0.0
  0
LINE
  5
106
330
DC
100
AcDbEntity
  8
Screw
 62
     7
370
     9
100
AcDbLine
 10
-0.0600000000013097
 20
-0.496401740934175
 30
0.0
 11
-0.0600000000013097
 21
-0.5362103538205929
 31
0.0
  0
LINE
  5
107
330
DC
100
AcDbEntity
  8
Screw
 62
     7
370
     9
100
AcDbLine
 10
-0.0600000000013097
 20
-0.4306123659340529
 30
0.0
 11
-0.0600000000013097
 21
-0.4704209788206981
 31
0.0
  0
LINE
  5
108
330
DC
100
AcDbEntity
  8
Screw
 62
     7
370
     9
100
AcDbLine
 10
0.0824999999987313
 20
-0.2572876140167182
 30
0.0
 11
0.0599999999988086
 21
-0.2442972329599797
 31
0.0
  0
LINE
  5
109
330
DC
100
AcDbEntity
  8
Screw
 62
     7
370
     9
100
AcDbLine
 10
0.0824999999987313
 20
-0.323076989016613
 30
0.0
 11
-0.0825000000013461
 21
-0.3518326098775333
 31
0.0
  0
LINE
  5
10A
330
DC
100
AcDbEntity
  8
Screw
 62
     7
370
     9
100
AcDbLine
 10
0.0824999999987313
 20
-0.2572876140167182
 30
0.0
 11
-0.0825000000013461
 21
-0.2860432348775248
 31
0.0
  0
LINE
  5
10B
330
DC
100
AcDbEntity
  8
Screw
 62
     7
370
     9
100
AcDbLine
 10
0.0824999999987313
 20
-0.323076989016613
 30
0.0
 11
0.0599999999988086
 21
-0.3100866079599882
 31
0.0
  0
LINE
  5
10C
330
DC
100
AcDbEntity
  8
Screw
 62
     7
370
     9
100
AcDbLine
 10
0.0824999999987313
 20
-0.323076989016613
 30
0.0
 11
0.0599999999988086
 21
-0.3360673700734651
 31
0.0
  0
LINE
  5
10D
330
DC
100
AcDbEntity
  8
Screw
 62
     7
370
     9
100
AcDbLine
 10
0.0599999999988086
 20
-0.3360673700734651
 30
0.0
 11
0.0599999999988086
 21
-0.375875982959883
 31
0.0
  0
LINE
  5
10E
330
DC
100
AcDbEntity
  8
Screw
 62
     7
370
     9
100
AcDbLine
 10
0.0824999999987313
 20
-0.2572876140167182
 30
0.0
 11
0.0599999999988086
 21
-0.2702779950733429
 31
0.0
  0
LINE
  5
10F
330
DC
100
AcDbEntity
  8
Screw
 62
     7
370
     9
100
AcDbLine
 10
0.0599999999988086
 20
-0.2702779950733429
 30
0.0
 11
0.0599999999988086
 21
-0.3100866079599882
 31
0.0
  0
LINE
  5
110
330
DC
100
AcDbEntity
  8
Screw
 62
     7
370
     9
100
AcDbLine
 10
-0.0600000000013097
 20
-0.2990336159340359
 30
0.0
 11
-0.0600000000013097
 21
-0.3388422288206812
 31
0.0
  0
LINE
  5
111
330
DC
100
AcDbEntity
  8
Screw
 62
     7
370
     9
100
AcDbLine
 10
-0.0600000000013097
 20
-0.364822990934158
 30
0.0
 11
-0.0600000000013097
 21
-0.404631603820576
 31
0.0
  0
LINE
  5
112
330
DC
100
AcDbEntity
  8
Screw
 62
     7
370
     9
100
AcDbLine
 10
-0.0825000000012324
 20
-0.2860432348775248
 30
0.0
 11
-0.0600000000013097
 21
-0.2730528538207864
 31
0.0
  0
LINE
  5
113
330
DC
100
AcDbEntity
  8
Screw
 62
     7
370
     9
100
AcDbLine
 10
-0.0825000000012324
 20
-0.2860432348775248
 30
0.0
 11
-0.0600000000013097
 21
-0.2990336159343769
 31
0.0
  0
LINE
  5
114
330
DC
100
AcDbEntity
  8
Screw
 62
     7
370
     9
100
AcDbLine
 10
-0.0825000000012324
 20
-0.351832609877647
 30
0.0
 11
-0.0600000000013097
 21
-0.3648229909342717
 31
0.0
  0
LINE
  5
115
330
DC
100
AcDbEntity
  8
Screw
 62
     7
370
     9
100
AcDbLine
 10
-0.0825000000012324
 20
-0.3518326098774196
 30
0.0
 11
-0.0600000000013097
 21
-0.3388422288207948
 31
0.0
  0
LINE
  5
116
330
DC
100
AcDbEntity
  8
Screw
 62
     7
370
     9
100
AcDbLine
 10
0.0599999999988086
 20
-0.2044886200734481
 30
0.0
 11
0.0599999999988086
 21
-0.244297232959866
 31
0.0
  0
LINE
  5
117
330
DC
100
AcDbEntity
  8
Screw
 62
     7
370
     9
100
AcDbLine
 10
-0.0600000000013097
 20
-0.2332442409341411
 30
0.0
 11
-0.0600000000013097
 21
-0.273052853820559
 31
0.0
  0
LINE
  5
118
330
DC
100
AcDbEntity
  8
Screw
 62
     7
370
     9
100
AcDbLine
 10
-0.0600000000013097
 20
-0.1430000000002565
 30
0.0
 11
-0.0600000000013097
 21
-0.2072634788206642
 31
0.0
  0
LINE
  5
119
330
DC
100
AcDbEntity
  8
Screw
 62
     7
370
     9
100
AcDbLine
 10
-0.0825000000012324
 20
-0.22025385987763
 30
0.0
 11
-0.0600000000013097
 21
-0.2332442409342548
 31
0.0
  0
LINE
  5
11A
330
DC
100
AcDbEntity
  8
Screw
 62
     7
370
     9
100
AcDbLine
 10
-0.0825000000012324
 20
-0.2202538598774026
 30
0.0
 11
-0.0600000000013097
 21
-0.2072634788207779
 31
0.0
  0
LINE
  5
11B
330
DC
100
AcDbEntity
  8
Screw
 62
     7
370
     9
100
AcDbLine
 10
0.0824999999987313
 20
-0.191498239016596
 30
0.0
 11
-0.0825000000013461
 21
-0.2202538598775163
 31
0.0
  0
LINE
  5
11C
330
DC
100
AcDbEntity
  8
Screw
 62
     7
370
     9
100
AcDbLine
 10
0.0824999999987313
 20
-0.191498239016596
 30
0.0
 11
0.0599999999988086
 21
-0.1785078579599713
 31
0.0
  0
LINE
  5
11D
330
DC
100
AcDbEntity
  8
Screw
 62
     7
370
     9
100
AcDbLine
 10
0.0824999999987313
 20
-0.191498239016596
 30
0.0
 11
0.0599999999988086
 21
-0.2044886200734481
 31
0.0
  0
LINE
  5
11E
330
DC
100
AcDbEntity
  8
Screw
 62
     7
370
     9
100
AcDbLine
 10
0.0599999999989223
 20
-0.1430000000002565
 30
0.0
 11
0.0599999999988086
 21
-0.1785078579599713
 31
0.0
  0
LINE
  5
11F
330
DC
100
AcDbEntity
  8
Screw
 62
     7
370
     9
100
AcDbLine
 10
-0.1550000000002001
 20
0.0000000000001137
 30
0.0
 11
-0.1550000000020191
 21
-0.015999999999849
 31
0.0
  0
LINE
  5
120
330
DC
100
AcDbEntity
  8
Screw
 62
     7
370
     9
100
AcDbLine
 10
0.1549999999986085
 20
0.0
 30
0.0
 11
0.1549999999986085
 21
-0.0159999999999627
 31
0.0
  0
LINE
  5
121
330
DC
100
AcDbEntity
  8
Screw
 62
     7
370
     9
100
AcDbLine
 10
0.1549999999987222
 20
-0.0160000000006448
 30
0.0
 11
-0.155000000001337
 21
-0.0159999999999627
 31
0.0
  0
LINE
  5
122
330
DC
100
AcDbEntity
  8
Screw
 62
     7
370
     9
100
AcDbLine
 10
0.1549999999987222
 20
0.0
 30
0.0
 11
-0.155000000001337
 21
0.0
 31
0.0
  0
LINE
  5
123
330
DC
100
AcDbEntity
  8
Screw
 62
     7
370
     9
100
AcDbLine
 10
0.0599999999989223
 20
-0.1430000000000291
 30
0.0
 11
-0.0600000000013097
 21
-0.1430000000000291
 31
0.0
  0
LINE
  5
124
330
DC
100
AcDbEntity
  8
Screw
 62
     7
370
     9
100
AcDbLine
 10
0.1549999999986085
 20
-0.0160000000006448
 30
0.0
 11
0.0599999999988086
 21
-0.1430000000001428
 31
0.0
  0
LINE
  5
125
330
DC
100
AcDbEntity
  8
Screw
 62
     7
370
     9
100
AcDbLine
 10
-0.1550000000020191
 20
-0.0159999999999627
 30
0.0
 11
-0.0600000000013097
 21
-0.1430000000001428
 31
0.0
  0
LINE
  5
126
330
DC
100
AcDbEntity
  8
Screw
  6
CENTER
 62
     7
370
     9
100
AcDbLine
 10
0.0
 20
0.0516137131638743
 30
0.0
 11
0.0
 21
-0.8012116686045374
 31
0.0
  0
ENDBLK
  5
128
330
DC
100
AcDbEntity
  8
0
 62
     7
370
     9
100
AcDbBlockEnd
  0
BLOCK
  5
12B
330
12A
100
AcDbEntity
  8
0
 62
     5
100
AcDbBlockBegin
  2
8 X .625 PH
 70
     0
 10
0.0
 20
0.0
 30
0.0
  3
8 X .625 PH
  1

  0
LINE
  5
12C
330
12A
100
AcDbEntity
  8
Screw
  6
CENTER
 62
     7
370
     9
100
AcDbLine
 10
0.0
 20
0.1516137131640107
 30
0.0
 11
-0.0000000000001137
 21
-0.6762116686043101
 31
0.0
  0
LINE
  5
12D
330
12A
100
AcDbEntity
  8
Screw
 62
     7
370
     9
100
AcDbLine
 10
0.1549999999987222
 20
0.0400000000003047
 30
0.0
 11
0.1549999999986085
 21
0.0100000000001046
 31
0.0
  0
LINE
  5
12E
330
12A
100
AcDbEntity
  8
Screw
 62
     7
370
     9
100
AcDbLine
 10
-0.1550000000386262
 20
0.0400000000013279
 30
0.0
 11
-0.1550000000420368
 21
0.0100000000010141
 31
0.0
  0
LINE
  5
12F
330
12A
100
AcDbEntity
  8
Screw
 62
     7
370
     9
100
AcDbLine
 10
0.0599999999986949
 20
-0.0136992450730986
 30
0.0
 11
0.0599999999986949
 21
-0.0535078579597439
 31
0.0
  0
LINE
  5
130
330
12A
100
AcDbEntity
  8
Screw
 62
     7
370
     9
100
AcDbLine
 10
0.0824999999986176
 20
-0.0007088640164739
 30
0.0
 11
0.0599999999986949
 21
-0.0136992450730986
 31
0.0
  0
LINE
  5
131
330
12A
100
AcDbEntity
  8
Screw
 62
     7
370
     9
100
AcDbLine
 10
0.0824999999986176
 20
-0.0664982390163687
 30
0.0
 11
0.0599999999986949
 21
-0.0794886200732208
 31
0.0
  0
LINE
  5
132
330
12A
100
AcDbEntity
  8
Screw
 62
     7
370
     9
100
AcDbLine
 10
0.0824999999986176
 20
-0.0664982390163687
 30
0.0
 11
0.0599999999986949
 21
-0.0535078579597439
 31
0.0
  0
LINE
  5
133
330
12A
100
AcDbEntity
  8
Screw
 62
     7
370
     9
100
AcDbLine
 10
0.0824999999986176
 20
-0.0007088640164739
 30
0.0
 11
-0.0825000000014598
 21
-0.0294644848772805
 31
0.0
  0
LINE
  5
134
330
12A
100
AcDbEntity
  8
Screw
 62
     7
370
     9
100
AcDbLine
 10
0.0824999999986176
 20
-0.0664982390163687
 30
0.0
 11
-0.0825000000014598
 21
-0.095253859877289
 31
0.0
  0
LINE
  5
135
330
12A
100
AcDbEntity
  8
Screw
 62
     7
370
     9
100
AcDbLine
 10
0.0824999999986176
 20
-0.0007088640164739
 30
0.0
 11
0.0812722115064162
 21
0.0000000000001137
 31
0.0
  0
LINE
  5
136
330
12A
100
AcDbEntity
  8
Screw
 62
     7
370
     9
100
AcDbLine
 10
-0.0825000000013461
 20
-0.0952538598771753
 30
0.0
 11
-0.0600000000014234
 21
-0.0822634788205505
 31
0.0
  0
LINE
  5
137
330
12A
100
AcDbEntity
  8
Screw
 62
     7
370
     9
100
AcDbLine
 10
-0.0825000000013461
 20
-0.0952538598774027
 30
0.0
 11
-0.0600000000014234
 21
-0.1082442409340274
 31
0.0
  0
LINE
  5
138
330
12A
100
AcDbEntity
  8
Screw
 62
     7
370
     9
100
AcDbLine
 10
-0.0825000000013461
 20
-0.0294644848772805
 30
0.0
 11
-0.0600000000014234
 21
-0.0424548659341326
 31
0.0
  0
LINE
  5
139
330
12A
100
AcDbEntity
  8
Screw
 62
     7
370
     9
100
AcDbLine
 10
-0.0825000000013461
 20
-0.0294644848772805
 30
0.0
 11
-0.0600000000014234
 21
-0.0164741038205421
 31
0.0
  0
LINE
  5
13A
330
12A
100
AcDbEntity
  8
Screw
 62
     7
370
     9
100
AcDbLine
 10
-0.0600000000014234
 20
-0.0424548659337916
 30
0.0
 11
-0.0600000000014234
 21
-0.0822634788204369
 31
0.0
  0
LINE
  5
13B
330
12A
100
AcDbEntity
  8
Screw
 62
     7
370
     9
100
AcDbLine
 10
-0.0600000000015371
 20
0.0
 30
0.0
 11
-0.0600000000014234
 21
-0.0164741038203147
 31
0.0
  0
LINE
  5
13C
330
12A
100
AcDbEntity
  8
Screw
 62
     7
370
     9
100
AcDbLine
 10
-0.0600000000014234
 20
-0.1082442409339137
 30
0.0
 11
-0.0600000000014234
 21
-0.1480528538203316
 31
0.0
  0
LINE
  5
13D
330
12A
100
AcDbEntity
  8
Screw
 62
     7
370
     9
100
AcDbLine
 10
0.0599999999986949
 20
-0.0794886200732208
 30
0.0
 11
0.0599999999986949
 21
-0.1192972329596387
 31
0.0
  0
LINE
  5
13E
330
12A
100
AcDbEntity
  8
Screw
 62
     7
370
     9
100
AcDbLine
 10
-0.0825000000013461
 20
-0.2268326098771922
 30
0.0
 11
-0.0600000000014234
 21
-0.2138422288205675
 31
0.0
  0
LINE
  5
13F
330
12A
100
AcDbEntity
  8
Screw
 62
     7
370
     9
100
AcDbLine
 10
-0.0825000000013461
 20
-0.2268326098774196
 30
0.0
 11
-0.0600000000014234
 21
-0.2398229909340443
 31
0.0
  0
LINE
  5
140
330
12A
100
AcDbEntity
  8
Screw
 62
     7
370
     9
100
AcDbLine
 10
-0.0825000000013461
 20
-0.1610432348772974
 30
0.0
 11
-0.0600000000014234
 21
-0.1740336159341496
 31
0.0
  0
LINE
  5
141
330
12A
100
AcDbEntity
  8
Screw
 62
     7
370
     9
100
AcDbLine
 10
-0.0825000000013461
 20
-0.1610432348772974
 30
0.0
 11
-0.0600000000014234
 21
-0.148052853820559
 31
0.0
  0
LINE
  5
142
330
12A
100
AcDbEntity
  8
Screw
 62
     7
370
     9
100
AcDbLine
 10
-0.0600000000014234
 20
-0.2398229909339307
 30
0.0
 11
-0.0600000000014234
 21
-0.2796316038203486
 31
0.0
  0
LINE
  5
143
330
12A
100
AcDbEntity
  8
Screw
 62
     7
370
     9
100
AcDbLine
 10
-0.0600000000014234
 20
-0.1740336159338085
 30
0.0
 11
-0.0600000000014234
 21
-0.2138422288204538
 31
0.0
  0
LINE
  5
144
330
12A
100
AcDbEntity
  8
Screw
 62
     7
370
     9
100
AcDbLine
 10
0.0599999999986949
 20
-0.1452779950731156
 30
0.0
 11
0.0599999999986949
 21
-0.1850866079597608
 31
0.0
  0
LINE
  5
145
330
12A
100
AcDbEntity
  8
Screw
 62
     7
370
     9
100
AcDbLine
 10
0.0824999999986176
 20
-0.1322876140164908
 30
0.0
 11
0.0599999999986949
 21
-0.1452779950731156
 31
0.0
  0
LINE
  5
146
330
12A
100
AcDbEntity
  8
Screw
 62
     7
370
     9
100
AcDbLine
 10
0.0599999999986949
 20
-0.2110673700732377
 30
0.0
 11
0.0599999999986949
 21
-0.2508759829596556
 31
0.0
  0
LINE
  5
147
330
12A
100
AcDbEntity
  8
Screw
 62
     7
370
     9
100
AcDbLine
 10
0.0824999999986176
 20
-0.1980769890163856
 30
0.0
 11
0.0599999999986949
 21
-0.2110673700732377
 31
0.0
  0
LINE
  5
148
330
12A
100
AcDbEntity
  8
Screw
 62
     7
370
     9
100
AcDbLine
 10
0.0824999999986176
 20
-0.1980769890163856
 30
0.0
 11
0.0599999999986949
 21
-0.1850866079597608
 31
0.0
  0
LINE
  5
149
330
12A
100
AcDbEntity
  8
Screw
 62
     7
370
     9
100
AcDbLine
 10
0.0824999999986176
 20
-0.1322876140164908
 30
0.0
 11
-0.0825000000014598
 21
-0.1610432348772974
 31
0.0
  0
LINE
  5
14A
330
12A
100
AcDbEntity
  8
Screw
 62
     7
370
     9
100
AcDbLine
 10
0.0824999999986176
 20
-0.1980769890163856
 30
0.0
 11
-0.0825000000014598
 21
-0.2268326098773059
 31
0.0
  0
LINE
  5
14B
330
12A
100
AcDbEntity
  8
Screw
 62
     7
370
     9
100
AcDbLine
 10
0.0824999999986176
 20
-0.1322876140164908
 30
0.0
 11
0.0599999999986949
 21
-0.1192972329597524
 31
0.0
  0
LINE
  5
14C
330
12A
100
AcDbEntity
  8
Screw
 62
     7
370
     9
100
AcDbLine
 10
-0.0600000000014234
 20
-0.3056123659338255
 30
0.0
 11
-0.0600000000014234
 21
-0.3454209788204707
 31
0.0
  0
LINE
  5
14D
330
12A
100
AcDbEntity
  8
Screw
 62
     7
370
     9
100
AcDbLine
 10
-0.0600000000014234
 20
-0.3714017409339476
 30
0.0
 11
-0.0600000000014234
 21
-0.4112103538203656
 31
0.0
  0
LINE
  5
14E
330
12A
100
AcDbEntity
  8
Screw
 62
     7
370
     9
100
AcDbLine
 10
-0.0600000000014234
 20
-0.4371911159340698
 30
0.0
 11
-0.0600000000014234
 21
-0.4865652155517637
 31
0.0
  0
LINE
  5
14F
330
12A
100
AcDbEntity
  8
Screw
 62
     7
370
     9
100
AcDbLine
 10
-0.0825000000013461
 20
-0.2926219848773144
 30
0.0
 11
-0.0600000000014234
 21
-0.2796316038205759
 31
0.0
  0
LINE
  5
150
330
12A
100
AcDbEntity
  8
Screw
 62
     7
370
     9
100
AcDbLine
 10
-0.0825000000013461
 20
-0.2926219848773144
 30
0.0
 11
-0.0600000000014234
 21
-0.3056123659341665
 31
0.0
  0
LINE
  5
151
330
12A
100
AcDbEntity
  8
Screw
 62
     7
370
     9
100
AcDbLine
 10
-0.0825000000013461
 20
-0.4242007348773314
 30
0.0
 11
-0.0600000000014234
 21
-0.4371911159340698
 31
0.0
  0
LINE
  5
152
330
12A
100
AcDbEntity
  8
Screw
 62
     7
370
     9
100
AcDbLine
 10
-0.0825000000013461
 20
-0.4242007348773314
 30
0.0
 11
-0.0600000000014234
 21
-0.4112103538204793
 31
0.0
  0
LINE
  5
153
330
12A
100
AcDbEntity
  8
Screw
 62
     7
370
     9
100
AcDbLine
 10
-0.0825000000013461
 20
-0.3584113598774365
 30
0.0
 11
-0.0600000000014234
 21
-0.3714017409340613
 31
0.0
  0
LINE
  5
154
330
12A
100
AcDbEntity
  8
Screw
 62
     7
370
     9
100
AcDbLine
 10
-0.0825000000013461
 20
-0.3584113598772092
 30
0.0
 11
-0.0600000000014234
 21
-0.3454209788205844
 31
0.0
  0
LINE
  5
155
330
12A
100
AcDbEntity
  8
Screw
 62
     7
370
     9
100
AcDbLine
 10
0.0599999999986949
 20
-0.4084354950732632
 30
0.0
 11
0.0599999999986949
 21
-0.4482441079596811
 31
0.0
  0
LINE
  5
156
330
12A
100
AcDbEntity
  8
Screw
 62
     7
370
     9
100
AcDbLine
 10
0.0824999999986176
 20
-0.4612344890165332
 30
0.0
 11
0.0599999999985812
 21
-0.4482441079596811
 31
0.0
  0
LINE
  5
157
330
12A
100
AcDbEntity
  8
Screw
 62
     7
370
     9
100
AcDbLine
 10
0.0824999999986176
 20
-0.2638663640165078
 30
0.0
 11
0.0599999999986949
 21
-0.2508759829597693
 31
0.0
  0
LINE
  5
158
330
12A
100
AcDbEntity
  8
Screw
 62
     7
370
     9
100
AcDbLine
 10
0.0824999999986176
 20
-0.3296557390164025
 30
0.0
 11
-0.0825000000014598
 21
-0.3584113598773229
 31
0.0
  0
LINE
  5
159
330
12A
100
AcDbEntity
  8
Screw
 62
     7
370
     9
100
AcDbLine
 10
0.0824999999986176
 20
-0.3954451140165247
 30
0.0
 11
-0.0825000000014598
 21
-0.4242007348773314
 31
0.0
  0
LINE
  5
15A
330
12A
100
AcDbEntity
  8
Screw
 62
     7
370
     9
100
AcDbLine
 10
0.0824999999986176
 20
-0.2638663640165078
 30
0.0
 11
-0.0825000000014598
 21
-0.2926219848773144
 31
0.0
  0
LINE
  5
15B
330
12A
100
AcDbEntity
  8
Screw
 62
     7
370
     9
100
AcDbLine
 10
0.0824999999986176
 20
-0.3296557390164025
 30
0.0
 11
0.0599999999986949
 21
-0.3166653579597778
 31
0.0
  0
LINE
  5
15C
330
12A
100
AcDbEntity
  8
Screw
 62
     7
370
     9
100
AcDbLine
 10
0.0824999999986176
 20
-0.3296557390164025
 30
0.0
 11
0.0599999999986949
 21
-0.3426461200732547
 31
0.0
  0
LINE
  5
15D
330
12A
100
AcDbEntity
  8
Screw
 62
     7
370
     9
100
AcDbLine
 10
0.0824999999986176
 20
-0.3954451140165247
 30
0.0
 11
0.0599999999985812
 21
-0.3824547329596726
 31
0.0
  0
LINE
  5
15E
330
12A
100
AcDbEntity
  8
Screw
 62
     7
370
     9
100
AcDbLine
 10
0.0824999999986176
 20
-0.3954451140165247
 30
0.0
 11
0.0599999999986949
 21
-0.4084354950732632
 31
0.0
  0
LINE
  5
15F
330
12A
100
AcDbEntity
  8
Screw
 62
     7
370
     9
100
AcDbLine
 10
0.0599999999986949
 20
-0.3426461200732547
 30
0.0
 11
0.0599999999986949
 21
-0.3824547329596726
 31
0.0
  0
LINE
  5
160
330
12A
100
AcDbEntity
  8
Screw
 62
     7
370
     9
100
AcDbLine
 10
0.0824999999986176
 20
-0.2638663640165078
 30
0.0
 11
0.0599999999986949
 21
-0.2768567450731325
 31
0.0
  0
LINE
  5
161
330
12A
100
AcDbEntity
  8
Screw
 62
     7
370
     9
100
AcDbLine
 10
0.0599999999986949
 20
-0.2768567450731325
 30
0.0
 11
0.0599999999986949
 21
-0.3166653579597778
 31
0.0
  0
LINE
  5
162
330
12A
100
AcDbEntity
  8
Screw
 62
     7
370
     9
100
AcDbLine
 10
-0.0000000000007958
 20
-0.6249999999979537
 30
0.0
 11
0.022931124344268
 21
-0.569639368603248
 31
0.0
  0
LINE
  5
163
330
12A
100
AcDbEntity
  8
Screw
 62
     7
370
     9
100
AcDbLine
 10
0.0824999999985039
 20
-0.4612344890164195
 30
0.0
 11
0.0684796239820571
 21
-0.4531398211491933
 31
0.0
  0
LINE
  5
164
330
12A
100
AcDbEntity
  8
Screw
 62
     7
370
     9
100
AcDbLine
 10
0.0824999999985039
 20
-0.4612344890164195
 30
0.0
 11
0.0632241464038543
 21
-0.4723634082780564
 31
0.0
  0
LINE
  5
165
330
12A
100
AcDbEntity
  8
Screw
 62
     7
370
     9
100
AcDbLine
 10
0.0550146141443975
 20
-0.5253624430695254
 30
0.0
 11
0.0439236020390581
 21
-0.5189590442449799
 31
0.0
  0
LINE
  5
166
330
12A
100
AcDbEntity
  8
Screw
 62
     7
370
     9
100
AcDbLine
 10
0.0550146141443975
 20
-0.5253624430695254
 30
0.0
 11
0.0369515003607148
 21
-0.5357911866749419
 31
0.0
  0
LINE
  5
167
330
12A
100
AcDbEntity
  8
Screw
 62
     7
370
     9
100
AcDbLine
 10
0.0578546239827347
 20
-0.4853265821307105
 30
0.0
 11
0.063224146403968
 21
-0.4723634082781701
 31
0.0
  0
LINE
  5
168
330
12A
100
AcDbEntity
  8
Screw
 62
     7
370
     9
100
AcDbLine
 10
0.0299032260226113
 20
-0.552807226173286
 30
0.0
 11
0.0369515003607148
 21
-0.5357911866749419
 31
0.0
  0
LINE
  5
169
330
12A
100
AcDbEntity
  8
Screw
 62
     7
370
     9
100
AcDbLine
 10
-0.0299032260243166
 20
-0.552807226173286
 30
0.0
 11
-0.049041047168771
 21
-0.5066044388121327
 31
0.0
  0
LINE
  5
16A
330
12A
100
AcDbEntity
  8
Screw
 62
     7
370
     9
100
AcDbLine
 10
-0.0409942381297697
 20
-0.5592106249979452
 30
0.0
 11
-0.022931124346087
 21
-0.569639368603248
 31
0.0
  0
LINE
  5
16B
330
12A
100
AcDbEntity
  8
Screw
 62
     7
370
     9
100
AcDbLine
 10
-0.0409942381297697
 20
-0.5592106249979452
 30
0.0
 11
-0.0299032260243166
 21
-0.552807226173286
 31
0.0
  0
LINE
  5
16C
330
12A
100
AcDbEntity
  8
Screw
 62
     7
370
     9
100
AcDbLine
 10
-0.0718750000008868
 20
-0.4934212499979367
 30
0.0
 11
-0.049041047168771
 21
-0.5066044388121327
 31
0.0
  0
LINE
  5
16D
330
12A
100
AcDbEntity
  8
Screw
 62
     7
370
     9
100
AcDbLine
 10
-0.0718750000008868
 20
-0.493421249997823
 30
0.0
 11
-0.0600000000015371
 21
-0.48656521555165
 31
0.0
  0
LINE
  5
16E
330
12A
100
AcDbEntity
  8
Screw
 62
     7
370
     9
100
AcDbLine
 10
-0.0000000000007958
 20
-0.6249999999979537
 30
0.0
 11
-0.022931124346087
 21
-0.569639368603248
 31
0.0
  0
LINE
  5
16F
330
12A
100
AcDbEntity
  8
Screw
 62
     7
370
     9
100
AcDbLine
 10
0.0578546239827347
 20
-0.4853265821307105
 30
0.0
 11
0.0490410471670657
 21
-0.5066044388121327
 31
0.0
  0
LINE
  5
170
330
12A
100
AcDbEntity
  8
Screw
 62
     7
370
     9
100
AcDbLine
 10
0.0299032260226113
 20
-0.552807226173286
 30
0.0
 11
0.022931124344268
 21
-0.569639368603248
 31
0.0
  0
LINE
  5
171
330
12A
100
AcDbEntity
  8
Screw
 62
     7
370
     9
100
AcDbLine
 10
0.0439236020390581
 20
-0.5189590442449799
 30
0.0
 11
0.0490410471670657
 21
-0.5066044388121327
 31
0.0
  0
LINE
  5
172
330
12A
100
AcDbEntity
  8
Screw
 62
     7
370
     9
100
AcDbLine
 10
0.0824999999987313
 20
-0.4612344890164195
 30
0.0
 11
-0.0718750000008868
 21
-0.493421249997823
 31
0.0
  0
LINE
  5
173
330
12A
100
AcDbEntity
  8
Screw
 62
     7
370
     9
100
AcDbLine
 10
0.0550146141443975
 20
-0.5253624430695254
 30
0.0
 11
-0.0409942381297697
 21
-0.5592106249979452
 31
0.0
  0
LINE
  5
174
330
12A
100
AcDbEntity
  8
Screw
 62
     7
370
     9
100
AcDbLine
 10
-0.1450000000420459
 20
-0.0000000000001137
 30
0.0
 11
0.1449999999986176
 21
0.0000000000001137
 31
0.0
  0
LINE
  5
175
330
12A
100
AcDbEntity
  8
Screw
 62
     7
370
     9
100
AcDbLine
 10
-0.1450000000385216
 20
0.0500000000004093
 30
0.0
 11
0.1449999999986176
 21
0.050000000000523
 31
0.0
  0
ARC
  5
176
330
12A
100
AcDbEntity
  8
Screw
 62
     7
370
     9
100
AcDbCircle
 10
0.1449999999986176
 20
0.0100000000001046
 30
0.0
 40
0.01
100
AcDbArc
 50
270.0
 51
0.0
  0
ARC
  5
177
330
12A
100
AcDbEntity
  8
Screw
 62
     7
370
     9
100
AcDbCircle
 10
-0.1450000000420459
 20
0.0099999999998772
 30
0.0
 40
0.01
100
AcDbArc
 50
179.9999999934667
 51
270.0
  0
LINE
  5
178
330
12A
100
AcDbEntity
  8
Screw
 62
     7
370
     9
100
AcDbLine
 10
-0.0570000000392383
 20
0.1000000000004775
 30
0.0
 11
0.0569999999995616
 21
0.1000000000003638
 31
0.0
  0
ARC
  5
179
330
12A
100
AcDbEntity
  8
Screw
 62
     7
370
     9
100
AcDbCircle
 10
0.1449999999986176
 20
0.0400000000003047
 30
0.0
 40
0.01
100
AcDbArc
 50
0.0
 51
90.0
  0
ARC
  5
17A
330
12A
100
AcDbEntity
  8
Screw
 62
     7
370
     9
100
AcDbCircle
 10
-0.1450000000385216
 20
0.040000000000191
 30
0.0
 40
0.01
100
AcDbArc
 50
90.0
 51
179.9999999934862
  0
ARC
  5
17B
330
12A
100
AcDbEntity
  8
Screw
 62
     7
370
     9
100
AcDbCircle
 10
-0.0000000000198952
 20
-0.1142505253642412
 30
0.0
 40
0.2217031520327291
100
AcDbArc
 50
46.77058113432305
 51
75.10191228261263
  0
ARC
  5
17C
330
12A
100
AcDbEntity
  8
Screw
 62
     7
370
     9
100
AcDbCircle
 10
-0.0000000000198952
 20
-0.1142505253642412
 30
0.0
 40
0.2217031520327291
100
AcDbArc
 50
104.8980877173874
 51
133.2294188657414
  0
ENDBLK
  5
17D
330
12A
100
AcDbEntity
  8
0
 62
     5
100
AcDbBlockEnd
  0
BLOCK
  5
1BC
330
1BB
100
AcDbEntity
  8
0
 62
     5
100
AcDbBlockBegin
  2
8 X 1.5 FH
 70
     0
 10
0.0
 20
0.0
 30
0.0
  3
8 X 1.5 FH
  1

  0
LINE
  5
1BD
330
1BB
100
AcDbEntity
  8
Screw
 62
     7
370
     9
100
AcDbLine
 10
-0.0600000000013097
 20
-0.1430000000001428
 30
0.0
 11
-0.0600000000013097
 21
-0.6283166038209629
 31
0.0
  0
LINE
  5
1BE
330
1BB
100
AcDbEntity
  8
Screw
 62
     7
370
     9
100
AcDbLine
 10
-0.0825000000012324
 20
-0.6413069848773603
 30
0.0
 11
-0.0600000000013097
 21
-0.6283166038207355
 31
0.0
  0
LINE
  5
1BF
330
1BB
100
AcDbEntity
  8
Screw
 62
     7
370
     9
100
AcDbLine
 10
-0.0825000000012324
 20
-0.6413069848775877
 30
0.0
 11
-0.0600000000013097
 21
-0.6542973659342124
 31
0.0
  0
LINE
  5
1C0
330
1BB
100
AcDbEntity
  8
Screw
 62
     7
370
     9
100
AcDbLine
 10
-0.0600000000013097
 20
-0.6542973659340987
 30
0.0
 11
-0.0600000000013097
 21
-0.6941059788205167
 31
0.0
  0
LINE
  5
1C1
330
1BB
100
AcDbEntity
  8
Screw
 62
     7
370
     9
100
AcDbLine
 10
0.0599999999989223
 20
-0.1430000000001428
 30
0.0
 11
0.0599999999985812
 21
-0.5995609829597015
 31
0.0
  0
LINE
  5
1C2
330
1BB
100
AcDbEntity
  8
Screw
 62
     7
370
     9
100
AcDbLine
 10
0.0599999999988086
 20
-0.6255417450734058
 30
0.0
 11
0.0599999999988086
 21
-0.6653503579598237
 31
0.0
  0
LINE
  5
1C3
330
1BB
100
AcDbEntity
  8
Screw
 62
     7
370
     9
100
AcDbLine
 10
0.0824999999987313
 20
-0.6125513640165537
 30
0.0
 11
0.0599999999988086
 21
-0.6255417450734058
 31
0.0
  0
LINE
  5
1C4
330
1BB
100
AcDbEntity
  8
Screw
 62
     7
370
     9
100
AcDbLine
 10
0.0824999999987313
 20
-0.6125513640165537
 30
0.0
 11
0.0599999999988086
 21
-0.5995609829599289
 31
0.0
  0
LINE
  5
1C5
330
1BB
100
AcDbEntity
  8
Screw
 62
     7
370
     9
100
AcDbLine
 10
0.0824999999987313
 20
-0.6125513640165537
 30
0.0
 11
-0.0825000000013461
 21
-0.641306984877474
 31
0.0
  0
LINE
  5
1C6
330
1BB
100
AcDbEntity
  8
Screw
 62
     7
370
     9
100
AcDbLine
 10
0.0550146141445112
 20
-1.400362443069752
 30
0.0
 11
-0.040994238129656
 21
-1.434210624998172
 31
0.0
  0
LINE
  5
1C7
330
1BB
100
AcDbEntity
  8
Screw
 62
     7
370
     9
100
AcDbLine
 10
0.082499999998845
 20
-1.336234489016646
 30
0.0
 11
-0.0718750000007731
 21
-1.36842124999805
 31
0.0
  0
LINE
  5
1C8
330
1BB
100
AcDbEntity
  8
Screw
 62
     7
370
     9
100
AcDbLine
 10
0.0439236020391718
 20
-1.393959044245207
 30
0.0
 11
0.0490410471671794
 21
-1.38160443881236
 31
0.0
  0
LINE
  5
1C9
330
1BB
100
AcDbEntity
  8
Screw
 62
     7
370
     9
100
AcDbLine
 10
0.029903226022725
 20
-1.427807226173513
 30
0.0
 11
0.0229311243443817
 21
-1.444639368603475
 31
0.0
  0
LINE
  5
1CA
330
1BB
100
AcDbEntity
  8
Screw
 62
     7
370
     9
100
AcDbLine
 10
0.0578546239828484
 20
-1.360326582130937
 30
0.0
 11
0.0490410471671794
 21
-1.38160443881236
 31
0.0
  0
LINE
  5
1CB
330
1BB
100
AcDbEntity
  8
Screw
 62
     7
370
     9
100
AcDbLine
 10
-0.0000000000006821
 20
-1.499999999998181
 30
0.0
 11
-0.0229311243459733
 21
-1.444639368603475
 31
0.0
  0
LINE
  5
1CC
330
1BB
100
AcDbEntity
  8
Screw
 62
     7
370
     9
100
AcDbLine
 10
-0.0718750000007731
 20
-1.36842124999805
 30
0.0
 11
-0.0600000000014234
 21
-1.361565215551877
 31
0.0
  0
LINE
  5
1CD
330
1BB
100
AcDbEntity
  8
Screw
 62
     7
370
     9
100
AcDbLine
 10
-0.0718750000007731
 20
-1.368421249998164
 30
0.0
 11
-0.0490410471686573
 21
-1.38160443881236
 31
0.0
  0
LINE
  5
1CE
330
1BB
100
AcDbEntity
  8
Screw
 62
     7
370
     9
100
AcDbLine
 10
-0.040994238129656
 20
-1.434210624998172
 30
0.0
 11
-0.0299032260242029
 21
-1.427807226173513
 31
0.0
  0
LINE
  5
1CF
330
1BB
100
AcDbEntity
  8
Screw
 62
     7
370
     9
100
AcDbLine
 10
-0.040994238129656
 20
-1.434210624998172
 30
0.0
 11
-0.0229311243459733
 21
-1.444639368603475
 31
0.0
  0
LINE
  5
1D0
330
1BB
100
AcDbEntity
  8
Screw
 62
     7
370
     9
100
AcDbLine
 10
-0.0299032260242029
 20
-1.427807226173513
 30
0.0
 11
-0.0490410471686573
 21
-1.38160443881236
 31
0.0
  0
LINE
  5
1D1
330
1BB
100
AcDbEntity
  8
Screw
 62
     7
370
     9
100
AcDbLine
 10
0.029903226022725
 20
-1.427807226173513
 30
0.0
 11
0.0369515003608285
 21
-1.410791186675169
 31
0.0
  0
LINE
  5
1D2
330
1BB
100
AcDbEntity
  8
Screw
 62
     7
370
     9
100
AcDbLine
 10
0.0578546239828484
 20
-1.360326582130937
 30
0.0
 11
0.0632241464040817
 21
-1.347363408278397
 31
0.0
  0
LINE
  5
1D3
330
1BB
100
AcDbEntity
  8
Screw
 62
     7
370
     9
100
AcDbLine
 10
0.0550146141445112
 20
-1.400362443069752
 30
0.0
 11
0.0369515003608285
 21
-1.410791186675169
 31
0.0
  0
LINE
  5
1D4
330
1BB
100
AcDbEntity
  8
Screw
 62
     7
370
     9
100
AcDbLine
 10
0.0550146141445112
 20
-1.400362443069752
 30
0.0
 11
0.0439236020391718
 21
-1.393959044245207
 31
0.0
  0
LINE
  5
1D5
330
1BB
100
AcDbEntity
  8
Screw
 62
     7
370
     9
100
AcDbLine
 10
0.0824999999986176
 20
-1.336234489016646
 30
0.0
 11
0.063224146403968
 21
-1.347363408278283
 31
0.0
  0
LINE
  5
1D6
330
1BB
100
AcDbEntity
  8
Screw
 62
     7
370
     9
100
AcDbLine
 10
0.0824999999986176
 20
-1.336234489016646
 30
0.0
 11
0.0684796239821708
 21
-1.32813982114942
 31
0.0
  0
LINE
  5
1D7
330
1BB
100
AcDbEntity
  8
Screw
 62
     7
370
     9
100
AcDbLine
 10
-0.0000000000006821
 20
-1.499999999998181
 30
0.0
 11
0.0229311243443817
 21
-1.444639368603475
 31
0.0
  0
LINE
  5
1D8
330
1BB
100
AcDbEntity
  8
Screw
 62
     7
370
     9
100
AcDbLine
 10
0.0599999999988086
 20
-1.151856745073359
 30
0.0
 11
0.0599999999988086
 21
-1.191665357960005
 31
0.0
  0
LINE
  5
1D9
330
1BB
100
AcDbEntity
  8
Screw
 62
     7
370
     9
100
AcDbLine
 10
0.0824999999987313
 20
-1.138866364016735
 30
0.0
 11
0.0599999999988086
 21
-1.151856745073359
 31
0.0
  0
LINE
  5
1DA
330
1BB
100
AcDbEntity
  8
Screw
 62
     7
370
     9
100
AcDbLine
 10
0.0599999999988086
 20
-1.217646120073482
 30
0.0
 11
0.0599999999988086
 21
-1.257454732959899
 31
0.0
  0
LINE
  5
1DB
330
1BB
100
AcDbEntity
  8
Screw
 62
     7
370
     9
100
AcDbLine
 10
0.0824999999987313
 20
-1.270445114016752
 30
0.0
 11
0.0599999999988086
 21
-1.28343549507349
 31
0.0
  0
LINE
  5
1DC
330
1BB
100
AcDbEntity
  8
Screw
 62
     7
370
     9
100
AcDbLine
 10
0.0824999999987313
 20
-1.270445114016752
 30
0.0
 11
0.0599999999986949
 21
-1.257454732959899
 31
0.0
  0
LINE
  5
1DD
330
1BB
100
AcDbEntity
  8
Screw
 62
     7
370
     9
100
AcDbLine
 10
0.0824999999987313
 20
-1.204655739016629
 30
0.0
 11
0.0599999999988086
 21
-1.217646120073482
 31
0.0
  0
LINE
  5
1DE
330
1BB
100
AcDbEntity
  8
Screw
 62
     7
370
     9
100
AcDbLine
 10
0.0824999999987313
 20
-1.204655739016629
 30
0.0
 11
0.0599999999988086
 21
-1.191665357960005
 31
0.0
  0
LINE
  5
1DF
330
1BB
100
AcDbEntity
  8
Screw
 62
     7
370
     9
100
AcDbLine
 10
0.0824999999987313
 20
-1.138866364016735
 30
0.0
 11
-0.0825000000013461
 21
-1.167621984877541
 31
0.0
  0
LINE
  5
1E0
330
1BB
100
AcDbEntity
  8
Screw
 62
     7
370
     9
100
AcDbLine
 10
0.0824999999987313
 20
-1.270445114016752
 30
0.0
 11
-0.0825000000013461
 21
-1.299200734877558
 31
0.0
  0
LINE
  5
1E1
330
1BB
100
AcDbEntity
  8
Screw
 62
     7
370
     9
100
AcDbLine
 10
0.0824999999987313
 20
-1.204655739016629
 30
0.0
 11
-0.0825000000013461
 21
-1.23341135987755
 31
0.0
  0
LINE
  5
1E2
330
1BB
100
AcDbEntity
  8
Screw
 62
     7
370
     9
100
AcDbLine
 10
0.0824999999987313
 20
-1.138866364016735
 30
0.0
 11
0.0599999999988086
 21
-1.125875982959996
 31
0.0
  0
LINE
  5
1E3
330
1BB
100
AcDbEntity
  8
Screw
 62
     7
370
     9
100
AcDbLine
 10
0.0824999999987313
 20
-1.33623448901676
 30
0.0
 11
0.0599999999986949
 21
-1.323244107959908
 31
0.0
  0
LINE
  5
1E4
330
1BB
100
AcDbEntity
  8
Screw
 62
     7
370
     9
100
AcDbLine
 10
0.0599999999988086
 20
-1.28343549507349
 30
0.0
 11
0.0599999999988086
 21
-1.323244107959908
 31
0.0
  0
LINE
  5
1E5
330
1BB
100
AcDbEntity
  8
Screw
 62
     7
370
     9
100
AcDbLine
 10
-0.0825000000012324
 20
-1.233411359877436
 30
0.0
 11
-0.0600000000013097
 21
-1.220420978820811
 31
0.0
  0
LINE
  5
1E6
330
1BB
100
AcDbEntity
  8
Screw
 62
     7
370
     9
100
AcDbLine
 10
-0.0825000000012324
 20
-1.233411359877663
 30
0.0
 11
-0.0600000000013097
 21
-1.246401740934288
 31
0.0
  0
LINE
  5
1E7
330
1BB
100
AcDbEntity
  8
Screw
 62
     7
370
     9
100
AcDbLine
 10
-0.0825000000012324
 20
-1.299200734877558
 30
0.0
 11
-0.0600000000013097
 21
-1.286210353820706
 31
0.0
  0
LINE
  5
1E8
330
1BB
100
AcDbEntity
  8
Screw
 62
     7
370
     9
100
AcDbLine
 10
-0.0825000000012324
 20
-1.299200734877558
 30
0.0
 11
-0.0600000000013097
 21
-1.312191115934297
 31
0.0
  0
LINE
  5
1E9
330
1BB
100
AcDbEntity
  8
Screw
 62
     7
370
     9
100
AcDbLine
 10
-0.0825000000012324
 20
-1.167621984877541
 30
0.0
 11
-0.0600000000013097
 21
-1.180612365934393
 31
0.0
  0
LINE
  5
1EA
330
1BB
100
AcDbEntity
  8
Screw
 62
     7
370
     9
100
AcDbLine
 10
-0.0825000000012324
 20
-1.167621984877541
 30
0.0
 11
-0.0600000000013097
 21
-1.154631603820803
 31
0.0
  0
LINE
  5
1EB
330
1BB
100
AcDbEntity
  8
Screw
 62
     7
370
     9
100
AcDbLine
 10
-0.0600000000013097
 20
-1.312191115934297
 30
0.0
 11
-0.0600000000013097
 21
-1.361565215551991
 31
0.0
  0
LINE
  5
1EC
330
1BB
100
AcDbEntity
  8
Screw
 62
     7
370
     9
100
AcDbLine
 10
-0.0600000000013097
 20
-1.246401740934174
 30
0.0
 11
-0.0600000000013097
 21
-1.286210353820592
 31
0.0
  0
LINE
  5
1ED
330
1BB
100
AcDbEntity
  8
Screw
 62
     7
370
     9
100
AcDbLine
 10
-0.0600000000013097
 20
-1.180612365934052
 30
0.0
 11
-0.0600000000013097
 21
-1.220420978820698
 31
0.0
  0
LINE
  5
1EE
330
1BB
100
AcDbEntity
  8
Screw
 62
     7
370
     9
100
AcDbLine
 10
0.0824999999987313
 20
-1.007287614016718
 30
0.0
 11
0.0599999999988086
 21
-0.9942972329599797
 31
0.0
  0
LINE
  5
1EF
330
1BB
100
AcDbEntity
  8
Screw
 62
     7
370
     9
100
AcDbLine
 10
0.0824999999987313
 20
-1.073076989016612
 30
0.0
 11
-0.0825000000013461
 21
-1.101832609877533
 31
0.0
  0
LINE
  5
1F0
330
1BB
100
AcDbEntity
  8
Screw
 62
     7
370
     9
100
AcDbLine
 10
0.0824999999987313
 20
-1.007287614016718
 30
0.0
 11
-0.0825000000013461
 21
-1.036043234877524
 31
0.0
  0
LINE
  5
1F1
330
1BB
100
AcDbEntity
  8
Screw
 62
     7
370
     9
100
AcDbLine
 10
0.0824999999987313
 20
-1.073076989016612
 30
0.0
 11
0.0599999999988086
 21
-1.060086607959988
 31
0.0
  0
LINE
  5
1F2
330
1BB
100
AcDbEntity
  8
Screw
 62
     7
370
     9
100
AcDbLine
 10
0.0824999999987313
 20
-1.073076989016612
 30
0.0
 11
0.0599999999988086
 21
-1.086067370073465
 31
0.0
  0
LINE
  5
1F3
330
1BB
100
AcDbEntity
  8
Screw
 62
     7
370
     9
100
AcDbLine
 10
0.0599999999988086
 20
-1.086067370073465
 30
0.0
 11
0.0599999999988086
 21
-1.125875982959883
 31
0.0
  0
LINE
  5
1F4
330
1BB
100
AcDbEntity
  8
Screw
 62
     7
370
     9
100
AcDbLine
 10
0.0824999999987313
 20
-1.007287614016718
 30
0.0
 11
0.0599999999988086
 21
-1.020277995073342
 31
0.0
  0
LINE
  5
1F5
330
1BB
100
AcDbEntity
  8
Screw
 62
     7
370
     9
100
AcDbLine
 10
0.0599999999988086
 20
-1.020277995073342
 30
0.0
 11
0.0599999999988086
 21
-1.060086607959988
 31
0.0
  0
LINE
  5
1F6
330
1BB
100
AcDbEntity
  8
Screw
 62
     7
370
     9
100
AcDbLine
 10
-0.0600000000013097
 20
-1.049033615934035
 30
0.0
 11
-0.0600000000013097
 21
-1.088842228820681
 31
0.0
  0
LINE
  5
1F7
330
1BB
100
AcDbEntity
  8
Screw
 62
     7
370
     9
100
AcDbLine
 10
-0.0600000000013097
 20
-1.114822990934158
 30
0.0
 11
-0.0600000000013097
 21
-1.154631603820575
 31
0.0
  0
LINE
  5
1F8
330
1BB
100
AcDbEntity
  8
Screw
 62
     7
370
     9
100
AcDbLine
 10
-0.0825000000012324
 20
-1.036043234877524
 30
0.0
 11
-0.0600000000013097
 21
-1.023052853820786
 31
0.0
  0
LINE
  5
1F9
330
1BB
100
AcDbEntity
  8
Screw
 62
     7
370
     9
100
AcDbLine
 10
-0.0825000000012324
 20
-1.036043234877524
 30
0.0
 11
-0.0600000000013097
 21
-1.049033615934376
 31
0.0
  0
LINE
  5
1FA
330
1BB
100
AcDbEntity
  8
Screw
 62
     7
370
     9
100
AcDbLine
 10
-0.0825000000012324
 20
-1.101832609877646
 30
0.0
 11
-0.0600000000013097
 21
-1.114822990934271
 31
0.0
  0
LINE
  5
1FB
330
1BB
100
AcDbEntity
  8
Screw
 62
     7
370
     9
100
AcDbLine
 10
-0.0825000000012324
 20
-1.101832609877419
 30
0.0
 11
-0.0600000000013097
 21
-1.088842228820794
 31
0.0
  0
LINE
  5
1FC
330
1BB
100
AcDbEntity
  8
Screw
 62
     7
370
     9
100
AcDbLine
 10
0.0599999999988086
 20
-0.9544886200734481
 30
0.0
 11
0.0599999999988086
 21
-0.994297232959866
 31
0.0
  0
LINE
  5
1FD
330
1BB
100
AcDbEntity
  8
Screw
 62
     7
370
     9
100
AcDbLine
 10
-0.0600000000013097
 20
-0.983244240934141
 30
0.0
 11
-0.0600000000013097
 21
-1.023052853820558
 31
0.0
  0
LINE
  5
1FE
330
1BB
100
AcDbEntity
  8
Screw
 62
     7
370
     9
100
AcDbLine
 10
-0.0825000000012324
 20
-0.8386751098773856
 30
0.0
 11
-0.0600000000013097
 21
-0.8256847288207609
 31
0.0
  0
LINE
  5
1FF
330
1BB
100
AcDbEntity
  8
Screw
 62
     7
370
     9
100
AcDbLine
 10
-0.0825000000012324
 20
-0.838675109877613
 30
0.0
 11
-0.0600000000013097
 21
-0.8516654909342378
 31
0.0
  0
LINE
  5
200
330
1BB
100
AcDbEntity
  8
Screw
 62
     7
370
     9
100
AcDbLine
 10
-0.0825000000012324
 20
-0.7728857348774909
 30
0.0
 11
-0.0600000000013097
 21
-0.7858761159343431
 31
0.0
  0
LINE
  5
201
330
1BB
100
AcDbEntity
  8
Screw
 62
     7
370
     9
100
AcDbLine
 10
-0.0825000000012324
 20
-0.7728857348774909
 30
0.0
 11
-0.0600000000013097
 21
-0.7598953538207525
 31
0.0
  0
LINE
  5
202
330
1BB
100
AcDbEntity
  8
Screw
 62
     7
370
     9
100
AcDbLine
 10
-0.0600000000013097
 20
-0.8516654909341241
 30
0.0
 11
-0.0600000000013097
 21
-0.891474103820542
 31
0.0
  0
LINE
  5
203
330
1BB
100
AcDbEntity
  8
Screw
 62
     7
370
     9
100
AcDbLine
 10
-0.0600000000013097
 20
-0.785876115934002
 30
0.0
 11
-0.0600000000013097
 21
-0.8256847288206472
 31
0.0
  0
LINE
  5
204
330
1BB
100
AcDbEntity
  8
Screw
 62
     7
370
     9
100
AcDbLine
 10
0.0599999999988086
 20
-0.7571204950733091
 30
0.0
 11
0.0599999999988086
 21
-0.7969291079599543
 31
0.0
  0
LINE
  5
205
330
1BB
100
AcDbEntity
  8
Screw
 62
     7
370
     9
100
AcDbLine
 10
0.0824999999987313
 20
-0.7441301140166843
 30
0.0
 11
0.0599999999988086
 21
-0.7571204950733091
 31
0.0
  0
LINE
  5
206
330
1BB
100
AcDbEntity
  8
Screw
 62
     7
370
     9
100
AcDbLine
 10
0.0599999999988086
 20
-0.8229098700734311
 30
0.0
 11
0.0599999999988086
 21
-0.862718482959849
 31
0.0
  0
LINE
  5
207
330
1BB
100
AcDbEntity
  8
Screw
 62
     7
370
     9
100
AcDbLine
 10
0.0824999999987313
 20
-0.809919489016579
 30
0.0
 11
0.0599999999988086
 21
-0.8229098700734311
 31
0.0
  0
LINE
  5
208
330
1BB
100
AcDbEntity
  8
Screw
 62
     7
370
     9
100
AcDbLine
 10
0.0824999999987313
 20
-0.809919489016579
 30
0.0
 11
0.0599999999988086
 21
-0.7969291079599543
 31
0.0
  0
LINE
  5
209
330
1BB
100
AcDbEntity
  8
Screw
 62
     7
370
     9
100
AcDbLine
 10
0.0824999999987313
 20
-0.7441301140166843
 30
0.0
 11
-0.0825000000013461
 21
-0.7728857348774909
 31
0.0
  0
LINE
  5
20A
330
1BB
100
AcDbEntity
  8
Screw
 62
     7
370
     9
100
AcDbLine
 10
0.0824999999987313
 20
-0.809919489016579
 30
0.0
 11
-0.0825000000013461
 21
-0.8386751098774993
 31
0.0
  0
LINE
  5
20B
330
1BB
100
AcDbEntity
  8
Screw
 62
     7
370
     9
100
AcDbLine
 10
0.0824999999987313
 20
-0.7441301140166843
 30
0.0
 11
0.0599999999988086
 21
-0.7311397329599459
 31
0.0
  0
LINE
  5
20C
330
1BB
100
AcDbEntity
  8
Screw
 62
     7
370
     9
100
AcDbLine
 10
-0.0600000000013097
 20
-0.9174548659340189
 30
0.0
 11
-0.0600000000013097
 21
-0.9572634788206642
 31
0.0
  0
LINE
  5
20D
330
1BB
100
AcDbEntity
  8
Screw
 62
     7
370
     9
100
AcDbLine
 10
-0.0825000000012324
 20
-0.9044644848775078
 30
0.0
 11
-0.0600000000013097
 21
-0.8914741038207694
 31
0.0
  0
LINE
  5
20E
330
1BB
100
AcDbEntity
  8
Screw
 62
     7
370
     9
100
AcDbLine
 10
-0.0825000000012324
 20
-0.9044644848775078
 30
0.0
 11
-0.0600000000013097
 21
-0.9174548659343599
 31
0.0
  0
LINE
  5
20F
330
1BB
100
AcDbEntity
  8
Screw
 62
     7
370
     9
100
AcDbLine
 10
-0.0825000000012324
 20
-0.97025385987763
 30
0.0
 11
-0.0600000000013097
 21
-0.9832442409342547
 31
0.0
  0
LINE
  5
210
330
1BB
100
AcDbEntity
  8
Screw
 62
     7
370
     9
100
AcDbLine
 10
-0.0825000000012324
 20
-0.9702538598774026
 30
0.0
 11
-0.0600000000013097
 21
-0.9572634788207778
 31
0.0
  0
LINE
  5
211
330
1BB
100
AcDbEntity
  8
Screw
 62
     7
370
     9
100
AcDbLine
 10
0.0824999999987313
 20
-0.8757088640167012
 30
0.0
 11
0.0599999999988086
 21
-0.8627184829599627
 31
0.0
  0
LINE
  5
212
330
1BB
100
AcDbEntity
  8
Screw
 62
     7
370
     9
100
AcDbLine
 10
0.0824999999987313
 20
-0.941498239016596
 30
0.0
 11
-0.0825000000013461
 21
-0.9702538598775163
 31
0.0
  0
LINE
  5
213
330
1BB
100
AcDbEntity
  8
Screw
 62
     7
370
     9
100
AcDbLine
 10
0.0824999999987313
 20
-0.8757088640167012
 30
0.0
 11
-0.0825000000013461
 21
-0.9044644848775078
 31
0.0
  0
LINE
  5
214
330
1BB
100
AcDbEntity
  8
Screw
 62
     7
370
     9
100
AcDbLine
 10
0.0824999999987313
 20
-0.941498239016596
 30
0.0
 11
0.0599999999988086
 21
-0.9285078579599712
 31
0.0
  0
LINE
  5
215
330
1BB
100
AcDbEntity
  8
Screw
 62
     7
370
     9
100
AcDbLine
 10
0.0824999999987313
 20
-0.941498239016596
 30
0.0
 11
0.0599999999988086
 21
-0.9544886200734481
 31
0.0
  0
LINE
  5
216
330
1BB
100
AcDbEntity
  8
Screw
 62
     7
370
     9
100
AcDbLine
 10
0.0824999999987313
 20
-0.8757088640167012
 30
0.0
 11
0.0599999999988086
 21
-0.8886992450733259
 31
0.0
  0
LINE
  5
217
330
1BB
100
AcDbEntity
  8
Screw
 62
     7
370
     9
100
AcDbLine
 10
0.0599999999988086
 20
-0.8886992450733259
 30
0.0
 11
0.0599999999988086
 21
-0.9285078579599712
 31
0.0
  0
LINE
  5
218
330
1BB
100
AcDbEntity
  8
Screw
 62
     7
370
     9
100
AcDbLine
 10
-0.1550000000002001
 20
0.0000000000001137
 30
0.0
 11
-0.1550000000020191
 21
-0.015999999999849
 31
0.0
  0
LINE
  5
219
330
1BB
100
AcDbEntity
  8
Screw
 62
     7
370
     9
100
AcDbLine
 10
0.1549999999986085
 20
0.0
 30
0.0
 11
0.1549999999986085
 21
-0.0159999999999627
 31
0.0
  0
LINE
  5
21A
330
1BB
100
AcDbEntity
  8
Screw
 62
     7
370
     9
100
AcDbLine
 10
0.1549999999987222
 20
-0.0160000000006448
 30
0.0
 11
-0.155000000001337
 21
-0.0159999999999627
 31
0.0
  0
LINE
  5
21B
330
1BB
100
AcDbEntity
  8
Screw
 62
     7
370
     9
100
AcDbLine
 10
0.1549999999987222
 20
0.0
 30
0.0
 11
-0.155000000001337
 21
0.0
 31
0.0
  0
LINE
  5
21C
330
1BB
100
AcDbEntity
  8
Screw
 62
     7
370
     9
100
AcDbLine
 10
0.0599999999989223
 20
-0.1430000000000291
 30
0.0
 11
-0.0600000000013097
 21
-0.1430000000000291
 31
0.0
  0
LINE
  5
21D
330
1BB
100
AcDbEntity
  8
Screw
 62
     7
370
     9
100
AcDbLine
 10
0.1549999999986085
 20
-0.0160000000006448
 30
0.0
 11
0.0599999999988086
 21
-0.1430000000001428
 31
0.0
  0
LINE
  5
21E
330
1BB
100
AcDbEntity
  8
Screw
 62
     7
370
     9
100
AcDbLine
 10
-0.1550000000020191
 20
-0.0159999999999627
 30
0.0
 11
-0.0600000000013097
 21
-0.1430000000001428
 31
0.0
  0
LINE
  5
21F
330
1BB
100
AcDbEntity
  8
Screw
 62
     7
370
     9
100
AcDbLine
 10
0.0824999999987313
 20
-0.6783407390166758
 30
0.0
 11
0.0599999999988086
 21
-0.6653503579599374
 31
0.0
  0
LINE
  5
220
330
1BB
100
AcDbEntity
  8
Screw
 62
     7
370
     9
100
AcDbLine
 10
0.0824999999987313
 20
-0.6783407390166758
 30
0.0
 11
-0.0825000000013461
 21
-0.7070963598774825
 31
0.0
  0
LINE
  5
221
330
1BB
100
AcDbEntity
  8
Screw
 62
     7
370
     9
100
AcDbLine
 10
0.0824999999987313
 20
-0.6783407390166758
 30
0.0
 11
0.0599999999988086
 21
-0.6913311200733006
 31
0.0
  0
LINE
  5
222
330
1BB
100
AcDbEntity
  8
Screw
 62
     7
370
     9
100
AcDbLine
 10
0.0599999999988086
 20
-0.6913311200733006
 30
0.0
 11
0.0599999999988086
 21
-0.7311397329599459
 31
0.0
  0
LINE
  5
223
330
1BB
100
AcDbEntity
  8
Screw
 62
     7
370
     9
100
AcDbLine
 10
-0.0600000000013097
 20
-0.7200867409339935
 30
0.0
 11
-0.0600000000013097
 21
-0.7598953538206388
 31
0.0
  0
LINE
  5
224
330
1BB
100
AcDbEntity
  8
Screw
 62
     7
370
     9
100
AcDbLine
 10
-0.0825000000012324
 20
-0.7070963598774825
 30
0.0
 11
-0.0600000000013097
 21
-0.694105978820744
 31
0.0
  0
LINE
  5
225
330
1BB
100
AcDbEntity
  8
Screw
 62
     7
370
     9
100
AcDbLine
 10
-0.0825000000012324
 20
-0.7070963598774825
 30
0.0
 11
-0.0600000000013097
 21
-0.7200867409343346
 31
0.0
  0
LINE
  5
226
330
1BB
100
AcDbEntity
  8
Screw
  6
CENTER
 62
     7
370
     9
100
AcDbLine
 10
0.0
 20
0.0516137131638743
 30
0.0
 11
0.0
 21
-1.551211668604537
 31
0.0
  0
ENDBLK
  5
227
330
1BB
100
AcDbEntity
  8
0
 62
     5
100
AcDbBlockEnd
  0
BLOCK
  5
234
330
233
100
AcDbEntity
  8
0
100
AcDbBlockBegin
  2
*D4
 70
     1
 10
0.0
 20
0.0
 30
0.0
  3
*D4
  1

  0
LINE
  5
235
330
233
100
AcDbEntity
  8
0
 62
     0
370
    -2
100
AcDbLine
 10
37.30893314316961
 20
68.72941486767665
 30
0.0
 11
37.30893314316961
 21
69.91111212642258
 31
0.0
  0
LINE
  5
236
330
233
100
AcDbEntity
  8
0
 62
     0
370
    -2
100
AcDbLine
 10
30.30870329011334
 20
69.4954148676767
 30
0.0
 11
30.30870329011334
 21
69.91111212642258
 31
0.0
  0
LINE
  5
237
330
233
100
AcDbEntity
  8
0
 62
     0
370
    -2
100
AcDbLine
 10
37.30893314316961
 20
69.88111212642258
 30
0.0
 11
34.32007752564832
 21
69.88111212642258
 31
0.0
  0
LINE
  5
238
330
233
100
AcDbEntity
  8
0
 62
     0
370
    -2
100
AcDbLine
 10
30.30870329011334
 20
69.88111212642258
 30
0.0
 11
33.29755890763463
 21
69.88111212642258
 31
0.0
  0
INSERT
  5
239
330
233
100
AcDbEntity
  8
0
 62
     0
370
    -2
100
AcDbBlockReference
  2
_ArchTick
 10
37.30893314316961
 20
69.88111212642258
 30
0.0
 41
0.156
 42
0.156
 43
0.156
  0
INSERT
  5
23A
330
233
100
AcDbEntity
  8
0
 62
     0
370
    -2
100
AcDbBlockReference
  2
_ArchTick
 10
30.30870329011334
 20
69.88111212642258
 30
0.0
 41
0.156
 42
0.156
 43
0.156
 50
180.0
  0
MTEXT
  5
23B
330
233
100
AcDbEntity
  8
0
 62
     0
100
AcDbMText
 10
33.80881821664147
 20
70.07736212642258
 30
0.0
 40
0.3125
 41
0.0
 71
     5
 72
     1
  1
\A1;7"
 73
     1
 44
1.0
1001
ACAD
1000
MTEXTBEGIN
1070
    73
1070
     1
1070
    44
1040
1.0
1070
    74
1070
     0
1000
MTEXTEND
  0
MTEXT
  5
23C
330
233
100
AcDbEntity
  8
0
 62
     0
100
AcDbMText
 10
33.80881821664147
 20
69.66121972561558
 30
0.0
 40
0.3125
 41
0.0
 71
     5
 72
     1
  1
\A1;[178mm]
 73
     1
 44
1.0
1001
ACAD
1000
MTEXTBEGIN
1070
    73
1070
     1
1070
    44
1040
1.0
1070
    74
1070
     0
1000
MTEXTEND
  0
POINT
  5
23D
330
233
100
AcDbEntity
  8
Defpoints
 62
     0
100
AcDbPoint
 10
37.30893314316961
 20
68.68941486767664
 30
0.0
  0
POINT
  5
23F
330
233
100
AcDbEntity
  8
Defpoints
 62
     0
100
AcDbPoint
 10
30.30870329011334
 20
69.4554148676767
 30
0.0
  0
POINT
  5
240
330
233
100
AcDbEntity
  8
Defpoints
 62
     0
100
AcDbPoint
 10
30.30870329011334
 20
69.88111212642258
 30
0.0
  0
ENDBLK
  5
241
330
233
100
AcDbEntity
  8
0
100
AcDbBlockEnd
  0
BLOCK
  5
244
330
243
100
AcDbEntity
  8
0
100
AcDbBlockBegin
  2
*D5
 70
     1
 10
0.0
 20
0.0
 30
0.0
  3
*D5
  1

  0
LINE
  5
245
330
243
100
AcDbEntity
  8
0
 62
     0
370
    -2
100
AcDbLine
 10
36.17543314316961
 20
68.00140933517131
 30
0.0
 11
35.95892715286095
 21
68.00140933517131
 31
0.0
  0
LINE
  5
246
330
243
100
AcDbEntity
  8
0
 62
     0
370
    -2
100
AcDbLine
 10
36.17543314316961
 20
68.68941486767664
 30
0.0
 11
35.95892715286095
 21
68.68941486767664
 31
0.0
  0
LINE
  5
247
330
243
100
AcDbEntity
  8
0
 62
     0
370
    -2
100
AcDbLine
 10
35.98892715286095
 20
68.00140933517131
 30
0.0
 11
35.98892715286095
 21
68.68941486767664
 31
0.0
  0
LINE
  5
248
330
243
100
AcDbEntity
  8
0
 62
     0
370
    -2
100
AcDbLine
 10
35.98892715286095
 20
68.68941486767664
 30
0.0
 11
35.98892715286095
 21
69.19294907772902
 31
0.0
  0
LINE
  5
249
330
243
100
AcDbEntity
  8
0
 62
     0
370
    -2
100
AcDbLine
 10
35.98892715286095
 20
69.19294907772902
 30
0.0
 11
36.14492715286095
 21
69.19294907772902
 31
0.0
  0
INSERT
  5
24A
330
243
100
AcDbEntity
  8
0
 62
     0
370
    -2
100
AcDbBlockReference
  2
_ArchTick
 10
35.98892715286095
 20
68.00140933517131
 30
0.0
 41
0.156
 42
0.156
 43
0.156
 50
270.0
  0
INSERT
  5
24B
330
243
100
AcDbEntity
  8
0
 62
     0
370
    -2
100
AcDbBlockReference
  2
_ArchTick
 10
35.98892715286095
 20
68.68941486767664
 30
0.0
 41
0.156
 42
0.156
 43
0.156
 50
90.0
  0
MTEXT
  5
24C
330
243
100
AcDbEntity
  8
0
 62
     0
100
AcDbMText
 10
36.67545260600924
 20
69.19294907772904
 30
0.0
 40
0.3125
 41
0.0
 71
     5
 72
     1
  1
\A1;11/16"\P [17mm]
 73
     1
 44
1.0
1001
ACAD
1000
MTEXTBEGIN
1070
    73
1070
     1
1070
    44
1040
1.0
1070
    74
1070
     0
1000
MTEXTEND
  0
POINT
  5
24D
330
243
100
AcDbEntity
  8
Defpoints
 62
     0
100
AcDbPoint
 10
36.21543314316961
 20
68.00140933517131
 30
0.0
  0
POINT
  5
24E
330
243
100
AcDbEntity
  8
Defpoints
 62
     0
100
AcDbPoint
 10
36.21543314316961
 20
68.68941486767664
 30
0.0
  0
POINT
  5
24F
330
243
100
AcDbEntity
  8
Defpoints
 62
     0
100
AcDbPoint
 10
35.98892715286095
 20
68.68941486767664
 30
0.0
  0
ENDBLK
  5
250
330
243
100
AcDbEntity
  8
0
100
AcDbBlockEnd
  0
BLOCK
  5
253
330
252
100
AcDbEntity
  8
0
100
AcDbBlockBegin
  2
*D6
 70
     1
 10
0.0
 20
0.0
 30
0.0
  3
*D6
  1

  0
LINE
  5
254
330
252
100
AcDbEntity
  8
0
 62
     0
370
    -2
100
AcDbLine
 10
33.94187587023758
 20
68.68941486767664
 30
0.0
 11
34.07296105391279
 21
68.68941486767664
 31
0.0
  0
LINE
  5
255
330
252
100
AcDbEntity
  8
0
 62
     0
370
    -2
100
AcDbLine
 10
33.94187275347512
 20
67.50140700351884
 30
0.0
 11
34.07296105391279
 21
67.50140700351884
 31
0.0
  0
LINE
  5
256
330
252
100
AcDbEntity
  8
0
 62
     0
370
    -2
100
AcDbLine
 10
34.04296105391279
 20
68.68941486767664
 30
0.0
 11
34.04296105391279
 21
68.5176478219461
 31
0.0
  0
LINE
  5
257
330
252
100
AcDbEntity
  8
0
 62
     0
370
    -2
100
AcDbLine
 10
34.04296105391279
 20
67.50140700351884
 30
0.0
 11
34.04296105391279
 21
67.67317404924938
 31
0.0
  0
INSERT
  5
258
330
252
100
AcDbEntity
  8
0
 62
     0
370
    -2
100
AcDbBlockReference
  2
_ArchTick
 10
34.04296105391279
 20
68.68941486767664
 30
0.0
 41
0.156
 42
0.156
 43
0.156
 50
90.0
  0
INSERT
  5
259
330
252
100
AcDbEntity
  8
0
 62
     0
370
    -2
100
AcDbBlockReference
  2
_ArchTick
 10
34.04296105391279
 20
67.50140700351884
 30
0.0
 41
0.156
 42
0.156
 43
0.156
 50
270.0
  0
MTEXT
  5
25A
330
252
100
AcDbEntity
  8
0
 62
     0
100
AcDbMText
 10
34.04296105391278
 20
68.29775542113911
 30
0.0
 40
0.3125
 41
0.0
 71
     5
 72
     1
  1
\A1;1 3/16"
 73
     1
 44
1.0
1001
ACAD
1000
MTEXTBEGIN
1070
    73
1070
     1
1070
    44
1040
1.0
1070
    74
1070
     0
1000
MTEXTEND
  0
MTEXT
  5
25B
330
252
100
AcDbEntity
  8
0
 62
     0
100
AcDbMText
 10
34.04296105391278
 20
67.87551853479076
 30
0.0
 40
0.3125
 41
0.0
 71
     5
 72
     1
  1
\A1;[30mm]
 73
     1
 44
1.0
1001
ACAD
1000
MTEXTBEGIN
1070
    73
1070
     1
1070
    44
1040
1.0
1070
    74
1070
     0
1000
MTEXTEND
  0
POINT
  5
25C
330
252
100
AcDbEntity
  8
Defpoints
 62
     0
100
AcDbPoint
 10
33.90187587023758
 20
68.68941486767664
 30
0.0
  0
POINT
  5
25D
330
252
100
AcDbEntity
  8
Defpoints
 62
     0
100
AcDbPoint
 10
33.90187275347512
 20
67.50140700351884
 30
0.0
  0
POINT
  5
25E
330
252
100
AcDbEntity
  8
Defpoints
 62
     0
100
AcDbPoint
 10
34.04296105391279
 20
67.50140700351884
 30
0.0
  0
ENDBLK
  5
25F
330
252
100
AcDbEntity
  8
0
100
AcDbBlockEnd
  0
BLOCK
  5
262
330
261
100
AcDbEntity
  8
0
100
AcDbBlockBegin
  2
*D7
 70
     1
 10
0.0
 20
0.0
 30
0.0
  3
*D7
  1

  0
LINE
  5
263
330
261
100
AcDbEntity
  8
0
 62
     0
370
    -2
100
AcDbLine
 10
37.28693314316964
 20
67.8764093351713
 30
0.0
 11
38.56432722031011
 21
67.8764093351713
 31
0.0
  0
LINE
  5
264
330
261
100
AcDbEntity
  8
0
 62
     0
370
    -2
100
AcDbLine
 10
37.06889419605134
 20
63.28440933517128
 30
0.0
 11
38.56432722031011
 21
63.28440933517128
 31
0.0
  0
LINE
  5
265
330
261
100
AcDbEntity
  8
0
 62
     0
370
    -2
100
AcDbLine
 10
38.53432722031011
 20
67.8764093351713
 30
0.0
 11
38.53432722031011
 21
66.00264622151965
 31
0.0
  0
LINE
  5
266
330
261
100
AcDbEntity
  8
0
 62
     0
370
    -2
100
AcDbLine
 10
38.53432722031011
 20
63.28440933517128
 30
0.0
 11
38.53432722031011
 21
65.15817244882294
 31
0.0
  0
INSERT
  5
267
330
261
100
AcDbEntity
  8
0
 62
     0
370
    -2
100
AcDbBlockReference
  2
_ArchTick
 10
38.53432722031011
 20
67.8764093351713
 30
0.0
 41
0.156
 42
0.156
 43
0.156
 50
90.0
  0
INSERT
  5
268
330
261
100
AcDbEntity
  8
0
 62
     0
370
    -2
100
AcDbBlockReference
  2
_ArchTick
 10
38.53432722031011
 20
63.28440933517128
 30
0.0
 41
0.156
 42
0.156
 43
0.156
 50
270.0
  0
MTEXT
  5
269
330
261
100
AcDbEntity
  8
0
 62
     0
100
AcDbMText
 10
38.5343272203101
 20
65.78275382071267
 30
0.0
 40
0.3125
 41
0.0
 71
     5
 72
     1
  1
\A1;4 19/32"
 73
     1
 44
1.0
1001
ACAD
1000
MTEXTBEGIN
1070
    73
1070
     1
1070
    44
1040
1.0
1070
    74
1070
     0
1000
MTEXTEND
  0
MTEXT
  5
26A
330
261
100
AcDbEntity
  8
0
 62
     0
100
AcDbMText
 10
38.5343272203101
 20
65.36051693436431
 30
0.0
 40
0.3125
 41
0.0
 71
     5
 72
     1
  1
\A1;[117mm]
 73
     1
 44
1.0
1001
ACAD
1000
MTEXTBEGIN
1070
    73
1070
     1
1070
    44
1040
1.0
1070
    74
1070
     0
1000
MTEXTEND
  0
POINT
  5
26B
330
261
100
AcDbEntity
  8
Defpoints
 62
     0
100
AcDbPoint
 10
37.24693314316964
 20
67.8764093351713
 30
0.0
  0
POINT
  5
26C
330
261
100
AcDbEntity
  8
Defpoints
 62
     0
100
AcDbPoint
 10
37.02889419605134
 20
63.28440933517128
 30
0.0
  0
POINT
  5
26D
330
261
100
AcDbEntity
  8
Defpoints
 62
     0
100
AcDbPoint
 10
38.53432722031011
 20
63.28440933517128
 30
0.0
  0
ENDBLK
  5
26E
330
261
100
AcDbEntity
  8
0
100
AcDbBlockEnd
  0
BLOCK
  5
271
330
270
100
AcDbEntity
  8
0
100
AcDbBlockBegin
  2
*D8
 70
     1
 10
0.0
 20
0.0
 30
0.0
  3
*D8
  1

  0
LINE
  5
272
330
270
100
AcDbEntity
  8
0
 62
     0
370
    -2
100
AcDbLine
 10
35.55893314316961
 20
66.42836002496341
 30
0.0
 11
35.55893314316961
 21
66.17478597133493
 31
0.0
  0
LINE
  5
273
330
270
100
AcDbEntity
  8
0
 62
     0
370
    -2
100
AcDbLine
 10
37.30893314316961
 20
66.42836002496341
 30
0.0
 11
37.30893314316961
 21
66.17478597133493
 31
0.0
  0
LINE
  5
274
330
270
100
AcDbEntity
  8
0
 62
     0
370
    -2
100
AcDbLine
 10
35.55893314316961
 20
66.20478597133493
 30
0.0
 11
35.99099488515165
 21
66.20478597133493
 31
0.0
  0
LINE
  5
275
330
270
100
AcDbEntity
  8
0
 62
     0
370
    -2
100
AcDbLine
 10
37.30893314316961
 20
66.20478597133493
 30
0.0
 11
36.87687140118757
 21
66.20478597133493
 31
0.0
  0
INSERT
  5
276
330
270
100
AcDbEntity
  8
0
 62
     0
370
    -2
100
AcDbBlockReference
  2
_ArchTick
 10
35.55893314316961
 20
66.20478597133493
 30
0.0
 41
0.156
 42
0.156
 43
0.156
 50
180.0
  0
INSERT
  5
277
330
270
100
AcDbEntity
  8
0
 62
     0
370
    -2
100
AcDbBlockReference
  2
_ArchTick
 10
37.30893314316961
 20
66.20478597133493
 30
0.0
 41
0.156
 42
0.156
 43
0.156
  0
MTEXT
  5
278
330
270
100
AcDbEntity
  8
0
 62
     0
100
AcDbMText
 10
36.43393314316961
 20
66.40713045687629
 30
0.0
 40
0.3125
 41
0.0
 71
     5
 72
     1
  1
\A1;1 3/4"
 73
     1
 44
1.0
1001
ACAD
1000
MTEXTBEGIN
1070
    73
1070
     1
1070
    44
1040
1.0
1070
    74
1070
     0
1000
MTEXTEND
  0
MTEXT
  5
279
330
270
100
AcDbEntity
  8
0
 62
     0
100
AcDbMText
 10
36.43393314316961
 20
65.98489357052793
 30
0.0
 40
0.3125
 41
0.0
 71
     5
 72
     1
  1
\A1;[44mm]
 73
     1
 44
1.0
1001
ACAD
1000
MTEXTBEGIN
1070
    73
1070
     1
1070
    44
1040
1.0
1070
    74
1070
     0
1000
MTEXTEND
  0
POINT
  5
27A
330
270
100
AcDbEntity
  8
Defpoints
 62
     0
100
AcDbPoint
 10
35.55893314316961
 20
66.46836002496342
 30
0.0
  0
POINT
  5
27B
330
270
100
AcDbEntity
  8
Defpoints
 62
     0
100
AcDbPoint
 10
37.30893314316961
 20
66.46836002496342
 30
0.0
  0
POINT
  5
27C
330
270
100
AcDbEntity
  8
Defpoints
 62
     0
100
AcDbPoint
 10
37.30893314316961
 20
66.20478597133493
 30
0.0
  0
ENDBLK
  5
27D
330
270
100
AcDbEntity
  8
0
100
AcDbBlockEnd
  0
BLOCK
  5
280
330
27F
100
AcDbEntity
  8
0
100
AcDbBlockBegin
  2
*D9
 70
     1
 10
0.0
 20
0.0
 30
0.0
  3
*D9
  1

  0
LINE
  5
281
330
27F
100
AcDbEntity
  8
0
 62
     0
370
    -2
100
AcDbLine
 10
37.06889419605134
 20
57.90853721333994
 30
0.0
 11
38.56432722031011
 21
57.90853721333994
 31
0.0
  0
LINE
  5
282
330
27F
100
AcDbEntity
  8
0
 62
     0
370
    -2
100
AcDbLine
 10
37.34896531391403
 20
50.53353721333994
 30
0.0
 11
38.56432722031011
 21
50.53353721333994
 31
0.0
  0
LINE
  5
283
330
27F
100
AcDbEntity
  8
0
 62
     0
370
    -2
100
AcDbLine
 10
38.53432722031011
 20
57.90853721333994
 30
0.0
 11
38.53432722031011
 21
54.64327409968829
 31
0.0
  0
LINE
  5
284
330
27F
100
AcDbEntity
  8
0
 62
     0
370
    -2
100
AcDbLine
 10
38.53432722031011
 20
50.53353721333994
 30
0.0
 11
38.53432722031011
 21
53.79880032699158
 31
0.0
  0
INSERT
  5
285
330
27F
100
AcDbEntity
  8
0
 62
     0
370
    -2
100
AcDbBlockReference
  2
_ArchTick
 10
38.53432722031011
 20
57.90853721333994
 30
0.0
 41
0.156
 42
0.156
 43
0.156
 50
90.0
  0
INSERT
  5
286
330
27F
100
AcDbEntity
  8
0
 62
     0
370
    -2
100
AcDbBlockReference
  2
_ArchTick
 10
38.53432722031011
 20
50.53353721333994
 30
0.0
 41
0.156
 42
0.156
 43
0.156
 50
270.0
  0
MTEXT
  5
287
330
27F
100
AcDbEntity
  8
0
 62
     0
100
AcDbMText
 10
38.53432722031009
 20
54.42338169888131
 30
0.0
 40
0.3125
 41
0.0
 71
     5
 72
     1
  1
\A1;7 3/8"
 73
     1
 44
1.0
1001
ACAD
1000
MTEXTBEGIN
1070
    73
1070
     1
1070
    44
1040
1.0
1070
    74
1070
     0
1000
MTEXTEND
  0
MTEXT
  5
288
330
27F
100
AcDbEntity
  8
0
 62
     0
100
AcDbMText
 10
38.53432722031009
 20
54.00114481253296
 30
0.0
 40
0.3125
 41
0.0
 71
     5
 72
     1
  1
\A1;[187mm]
 73
     1
 44
1.0
1001
ACAD
1000
MTEXTBEGIN
1070
    73
1070
     1
1070
    44
1040
1.0
1070
    74
1070
     0
1000
MTEXTEND
  0
POINT
  5
289
330
27F
100
AcDbEntity
  8
Defpoints
 62
     0
100
AcDbPoint
 10
37.02889419605134
 20
57.90853721333994
 30
0.0
  0
POINT
  5
28A
330
27F
100
AcDbEntity
  8
Defpoints
 62
     0
100
AcDbPoint
 10
37.30896531391403
 20
50.53353721333994
 30
0.0
  0
POINT
  5
28B
330
27F
100
AcDbEntity
  8
Defpoints
 62
     0
100
AcDbPoint
 10
38.53432722031011
 20
50.53353721333994
 30
0.0
  0
ENDBLK
  5
28C
330
27F
100
AcDbEntity
  8
0
100
AcDbBlockEnd
  0
BLOCK
  5
28F
330
28E
100
AcDbEntity
  8
0
100
AcDbBlockBegin
  2
*D10
 70
     1
 10
0.0
 20
0.0
 30
0.0
  3
*D10
  1

  0
LINE
  5
290
330
28E
100
AcDbEntity
  8
0
 62
     0
370
    -2
100
AcDbLine
 10
37.34893314316961
 20
50.53353721333994
 30
0.0
 11
38.5643272203101
 21
50.53353721333994
 31
0.0
  0
LINE
  5
291
330
28E
100
AcDbEntity
  8
0
 62
     0
370
    -2
100
AcDbLine
 10
37.59893314316967
 20
48.15853721334645
 30
0.0
 11
38.5643272203101
 21
48.15853721334645
 31
0.0
  0
LINE
  5
292
330
28E
100
AcDbEntity
  8
0
 62
     0
370
    -2
100
AcDbLine
 10
38.5343272203101
 20
50.53353721333994
 30
0.0
 11
38.5343272203101
 21
49.76827409969154
 31
0.0
  0
LINE
  5
293
330
28E
100
AcDbEntity
  8
0
 62
     0
370
    -2
100
AcDbLine
 10
38.5343272203101
 20
48.15853721334645
 30
0.0
 11
38.5343272203101
 21
48.92380032699485
 31
0.0
  0
INSERT
  5
294
330
28E
100
AcDbEntity
  8
0
 62
     0
370
    -2
100
AcDbBlockReference
  2
_ArchTick
 10
38.5343272203101
 20
50.53353721333994
 30
0.0
 41
0.156
 42
0.156
 43
0.156
 50
90.0
  0
INSERT
  5
295
330
28E
100
AcDbEntity
  8
0
 62
     0
370
    -2
100
AcDbBlockReference
  2
_ArchTick
 10
38.5343272203101
 20
48.15853721334645
 30
0.0
 41
0.156
 42
0.156
 43
0.156
 50
270.0
  0
MTEXT
  5
296
330
28E
100
AcDbEntity
  8
0
 62
     0
100
AcDbMText
 10
38.53432722031008
 20
49.54838169888456
 30
0.0
 40
0.3125
 41
0.0
 71
     5
 72
     1
  1
\A1;2 3/8"
 73
     1
 44
1.0
1001
ACAD
1000
MTEXTBEGIN
1070
    73
1070
     1
1070
    44
1040
1.0
1070
    74
1070
     0
1000
MTEXTEND
  0
MTEXT
  5
297
330
28E
100
AcDbEntity
  8
0
 62
     0
100
AcDbMText
 10
38.53432722031008
 20
49.12614481253621
 30
0.0
 40
0.3125
 41
0.0
 71
     5
 72
     1
  1
\A1;[60mm]
 73
     1
 44
1.0
1001
ACAD
1000
MTEXTBEGIN
1070
    73
1070
     1
1070
    44
1040
1.0
1070
    74
1070
     0
1000
MTEXTEND
  0
POINT
  5
298
330
28E
100
AcDbEntity
  8
Defpoints
 62
     0
100
AcDbPoint
 10
37.30893314316961
 20
50.53353721333994
 30
0.0
  0
POINT
  5
299
330
28E
100
AcDbEntity
  8
Defpoints
 62
     0
100
AcDbPoint
 10
37.55893314316967
 20
48.15853721334645
 30
0.0
  0
POINT
  5
29A
330
28E
100
AcDbEntity
  8
Defpoints
 62
     0
100
AcDbPoint
 10
38.5343272203101
 20
48.15853721334645
 30
0.0
  0
ENDBLK
  5
29B
330
28E
100
AcDbEntity
  8
0
100
AcDbBlockEnd
  0
BLOCK
  5
2AC
330
2AB
100
AcDbEntity
  8
0
100
AcDbBlockBegin
  2
*D11
 70
     1
 10
0.0
 20
0.0
 30
0.0
  3
*D11
  1

  0
LINE
  5
2AD
330
2AB
100
AcDbEntity
  8
0
 62
     0
370
    -2
100
AcDbLine
 10
37.34893314316961
 20
68.68941486767664
 30
0.0
 11
41.47763417022107
 21
68.68941486767664
 31
0.0
  0
LINE
  5
2AE
330
2AB
100
AcDbEntity
  8
0
 62
     0
370
    -2
100
AcDbLine
 10
37.59893314316967
 20
48.15853721334645
 30
0.0
 11
41.47763417022107
 21
48.15853721334645
 31
0.0
  0
LINE
  5
2AF
330
2AB
100
AcDbEntity
  8
0
 62
     0
370
    -2
100
AcDbLine
 10
41.44763417022107
 20
68.68941486767664
 30
0.0
 11
41.44763417022107
 21
58.99952267125582
 31
0.0
  0
LINE
  5
2B0
330
2AB
100
AcDbEntity
  8
0
 62
     0
370
    -2
100
AcDbLine
 10
41.44763417022107
 20
48.15853721334645
 30
0.0
 11
41.44763417022107
 21
58.59483370017311
 31
0.0
  0
INSERT
  5
2B1
330
2AB
100
AcDbEntity
  8
0
 62
     0
370
    -2
100
AcDbBlockReference
  2
_ArchTick
 10
41.44763417022107
 20
68.68941486767664
 30
0.0
 41
0.156
 42
0.156
 43
0.156
 50
90.0
  0
INSERT
  5
2B2
330
2AB
100
AcDbEntity
  8
0
 62
     0
370
    -2
100
AcDbBlockReference
  2
_ArchTick
 10
41.44763417022107
 20
48.15853721334645
 30
0.0
 41
0.156
 42
0.156
 43
0.156
 50
270.0
  0
MTEXT
  5
2B3
330
2AB
100
AcDbEntity
  8
0
 62
     0
100
AcDbMText
 10
41.44763417022107
 20
58.79717818571447
 30
0.0
 40
0.3125
 41
0.0
 71
     5
 72
     1
  1
\A1;BOX
 73
     1
 44
1.0
1001
ACAD
1000
MTEXTBEGIN
1070
    73
1070
     1
1070
    44
1040
1.0
1070
    74
1070
     0
1000
MTEXTEND
  0
POINT
  5
2B4
330
2AB
100
AcDbEntity
  8
Defpoints
 62
     0
100
AcDbPoint
 10
37.30893314316961
 20
68.68941486767664
 30
0.0
  0
POINT
  5
2B5
330
2AB
100
AcDbEntity
  8
Defpoints
 62
     0
100
AcDbPoint
 10
37.55893314316967
 20
48.15853721334645
 30
0.0
  0
POINT
  5
2B6
330
2AB
100
AcDbEntity
  8
Defpoints
 62
     0
100
AcDbPoint
 10
41.44763417022107
 20
48.15853721334645
 30
0.0
  0
ENDBLK
  5
2B7
330
2AB
100
AcDbEntity
  8
0
100
AcDbBlockEnd
  0
BLOCK
  5
2BA
330
2B9
100
AcDbEntity
  8
0
100
AcDbBlockBegin
  2
*D12
 70
     1
 10
0.0
 20
0.0
 30
0.0
  3
*D12
  1

  0
LINE
  5
2BB
330
2B9
100
AcDbEntity
  8
0
 62
     0
370
    -2
100
AcDbLine
 10
37.34893314316961
 20
68.68941486767664
 30
0.0
 11
41.47763417022107
 21
68.68941486767664
 31
0.0
  0
LINE
  5
2BC
330
2B9
100
AcDbEntity
  8
0
 62
     0
370
    -2
100
AcDbLine
 10
37.34893314316961
 20
69.43941486767664
 30
0.0
 11
41.47763417022107
 21
69.43941486767664
 31
0.0
  0
LINE
  5
2BD
330
2B9
100
AcDbEntity
  8
0
 62
     0
370
    -2
100
AcDbLine
 10
41.44763417022107
 20
68.68941486767664
 30
0.0
 11
41.44763417022107
 21
69.43941486767664
 31
0.0
  0
LINE
  5
2BE
330
2B9
100
AcDbEntity
  8
0
 62
     0
370
    -2
100
AcDbLine
 10
41.44763417022107
 20
69.43941486767664
 30
0.0
 11
41.44763417022107
 21
70.01404728641481
 31
0.0
  0
LINE
  5
2BF
330
2B9
100
AcDbEntity
  8
0
 62
     0
370
    -2
100
AcDbLine
 10
41.44763417022107
 20
70.01404728641481
 30
0.0
 11
41.60363417022107
 21
70.01404728641481
 31
0.0
  0
INSERT
  5
2C0
330
2B9
100
AcDbEntity
  8
0
 62
     0
370
    -2
100
AcDbBlockReference
  2
_ArchTick
 10
41.44763417022107
 20
68.68941486767664
 30
0.0
 41
0.156
 42
0.156
 43
0.156
 50
270.0
  0
INSERT
  5
2C1
330
2B9
100
AcDbEntity
  8
0
 62
     0
370
    -2
100
AcDbBlockReference
  2
_ArchTick
 10
41.44763417022107
 20
69.43941486767664
 30
0.0
 41
0.156
 42
0.156
 43
0.156
 50
90.0
  0
MTEXT
  5
2C2
330
2B9
100
AcDbEntity
  8
0
 62
     0
100
AcDbMText
 10
42.13415962336937
 20
70.01404728641482
 30
0.0
 40
0.3125
 41
0.0
 71
     5
 72
     1
  1
\A1;3/4"\P [19mm]
 73
     1
 44
1.0
1001
ACAD
1000
MTEXTBEGIN
1070
    73
1070
     1
1070
    44
1040
1.0
1070
    74
1070
     0
1000
MTEXTEND
  0
POINT
  5
2C3
330
2B9
100
AcDbEntity
  8
Defpoints
 62
     0
100
AcDbPoint
 10
37.30893314316961
 20
68.68941486767664
 30
0.0
  0
POINT
  5
2C4
330
2B9
100
AcDbEntity
  8
Defpoints
 62
     0
100
AcDbPoint
 10
37.30893314316961
 20
69.43941486767664
 30
0.0
  0
POINT
  5
2C5
330
2B9
100
AcDbEntity
  8
Defpoints
 62
     0
100
AcDbPoint
 10
41.44763417022107
 20
69.43941486767664
 30
0.0
  0
ENDBLK
  5
2C6
330
2B9
100
AcDbEntity
  8
0
100
AcDbBlockEnd
  0
BLOCK
  5
2C9
330
2C8
100
AcDbEntity
  8
0
100
AcDbBlockBegin
  2
*D13
 70
     1
 10
0.0
 20
0.0
 30
0.0
  3
*D13
  1

  0
LINE
  5
2CA
330
2C8
100
AcDbEntity
  8
0
 62
     0
370
    -2
100
AcDbLine
 10
37.34893314316961
 20
69.43941486767664
 30
0.0
 11
42.79973408838756
 21
69.43941486767664
 31
0.0
  0
LINE
  5
2CB
330
2C8
100
AcDbEntity
  8
0
 62
     0
370
    -2
100
AcDbLine
 10
37.59893314316967
 20
48.15853721334645
 30
0.0
 11
42.79973408838756
 21
48.15853721334645
 31
0.0
  0
LINE
  5
2CC
330
2C8
100
AcDbEntity
  8
0
 62
     0
370
    -2
100
AcDbLine
 10
42.76973408838756
 20
69.43941486767664
 30
0.0
 11
42.76973408838756
 21
59.26478443549026
 31
0.0
  0
LINE
  5
2CD
330
2C8
100
AcDbEntity
  8
0
 62
     0
370
    -2
100
AcDbLine
 10
42.76973408838756
 20
48.15853721334645
 30
0.0
 11
42.76973408838756
 21
58.33316764553285
 31
0.0
  0
INSERT
  5
2CE
330
2C8
100
AcDbEntity
  8
0
 62
     0
370
    -2
100
AcDbBlockReference
  2
_ArchTick
 10
42.76973408838756
 20
69.43941486767664
 30
0.0
 41
0.156
 42
0.156
 43
0.156
 50
90.0
  0
INSERT
  5
2CF
330
2C8
100
AcDbEntity
  8
0
 62
     0
370
    -2
100
AcDbBlockReference
  2
_ArchTick
 10
42.76973408838756
 20
48.15853721334645
 30
0.0
 41
0.156
 42
0.156
 43
0.156
 50
270.0
  0
MTEXT
  5
2D0
330
2C8
100
AcDbEntity
  8
0
 62
     0
100
AcDbMText
 10
42.76973408838755
 20
58.79897604051156
 30
0.0
 40
0.3125
 41
0.0
 71
     5
 72
     1
  1
\A1;ROUGH\POPENING
 73
     1
 44
1.0
1001
ACAD
1000
MTEXTBEGIN
1070
    73
1070
     1
1070
    44
1040
1.0
1070
    74
1070
     0
1000
MTEXTEND
  0
POINT
  5
2D1
330
2C8
100
AcDbEntity
  8
Defpoints
 62
     0
100
AcDbPoint
 10
37.30893314316961
 20
69.43941486767664
 30
0.0
  0
POINT
  5
2D2
330
2C8
100
AcDbEntity
  8
Defpoints
 62
     0
100
AcDbPoint
 10
37.55893314316967
 20
48.15853721334645
 30
0.0
  0
POINT
  5
2D3
330
2C8
100
AcDbEntity
  8
Defpoints
 62
     0
100
AcDbPoint
 10
42.76973408838756
 20
48.15853721334645
 30
0.0
  0
ENDBLK
  5
2D4
330
2C8
100
AcDbEntity
  8
0
100
AcDbBlockEnd
  0
BLOCK
  5
29E
330
29D
100
AcDbEntity
  8
0
100
AcDbBlockBegin
  2
*D14
 70
     1
 10
0.0
 20
0.0
 30
0.0
  3
*D14
  1

  0
LINE
  5
29F
330
29D
100
AcDbEntity
  8
0
 62
     0
370
    -2
100
AcDbLine
 10
37.06889419605134
 20
57.90853721333994
 30
0.0
 11
38.56432722031011
 21
57.90853721333994
 31
0.0
  0
LINE
  5
2A0
330
29D
100
AcDbEntity
  8
0
 62
     0
370
    -2
100
AcDbLine
 10
37.06889419605295
 20
63.28440933517132
 30
0.0
 11
38.56432722031011
 21
63.28440933517132
 31
0.0
  0
LINE
  5
2A1
330
29D
100
AcDbEntity
  8
0
 62
     0
370
    -2
100
AcDbLine
 10
38.53432722031011
 20
57.90853721333994
 30
0.0
 11
38.53432722031011
 21
60.13066487927693
 31
0.0
  0
LINE
  5
2A2
330
29D
100
AcDbEntity
  8
0
 62
     0
370
    -2
100
AcDbLine
 10
38.53432722031011
 20
63.28440933517132
 30
0.0
 11
38.53432722031011
 21
61.06228166923433
 31
0.0
  0
INSERT
  5
2A3
330
29D
100
AcDbEntity
  8
0
 62
     0
370
    -2
100
AcDbBlockReference
  2
_ArchTick
 10
38.53432722031011
 20
57.90853721333994
 30
0.0
 41
0.156
 42
0.156
 43
0.156
 50
270.0
  0
INSERT
  5
2A4
330
29D
100
AcDbEntity
  8
0
 62
     0
370
    -2
100
AcDbBlockReference
  2
_ArchTick
 10
38.53432722031011
 20
63.28440933517132
 30
0.0
 41
0.156
 42
0.156
 43
0.156
 50
90.0
  0
MTEXT
  5
2A5
330
29D
100
AcDbEntity
  8
0
 62
     0
100
AcDbMText
 10
38.5343272203101
 20
60.59647327425564
 30
0.0
 40
0.3125
 41
0.0
 71
     5
 72
     1
  1
\A1;DAYLIGHT\POPENING
 73
     1
 44
1.0
1001
ACAD
1000
MTEXTBEGIN
1070
    73
1070
     1
1070
    44
1040
1.0
1070
    74
1070
     0
1000
MTEXTEND
  0
POINT
  5
2A6
330
29D
100
AcDbEntity
  8
Defpoints
 62
     0
100
AcDbPoint
 10
37.02889419605134
 20
57.90853721333994
 30
0.0
  0
POINT
  5
2A7
330
29D
100
AcDbEntity
  8
Defpoints
 62
     0
100
AcDbPoint
 10
37.02889419605295
 20
63.28440933517132
 30
0.0
  0
POINT
  5
2A8
330
29D
100
AcDbEntity
  8
Defpoints
 62
     0
100
AcDbPoint
 10
38.53432722031011
 20
63.28440933517132
 30
0.0
  0
ENDBLK
  5
2A9
330
29D
100
AcDbEntity
  8
0
100
AcDbBlockEnd
  0
BLOCK
  5
2D7
330
2D6
100
AcDbEntity
  8
0
100
AcDbBlockBegin
  2
*D15
 70
     1
 10
0.0
 20
0.0
 30
0.0
  3
*D15
  1

  0
LINE
  5
2D8
330
2D6
100
AcDbEntity
  8
0
 62
     0
370
    -2
100
AcDbLine
 10
29.37556085427283
 20
63.28316486767505
 30
0.0
 11
26.80432041360095
 21
63.28316486767505
 31
0.0
  0
LINE
  5
2D9
330
2D6
100
AcDbEntity
  8
0
 62
     0
370
    -2
100
AcDbLine
 10
30.76920329011349
 20
67.877414867677
 30
0.0
 11
26.80432041360095
 21
67.877414867677
 31
0.0
  0
LINE
  5
2DA
330
2D6
100
AcDbEntity
  8
0
 62
     0
370
    -2
100
AcDbLine
 10
26.83432041360096
 20
63.28316486767505
 30
0.0
 11
26.83432041360096
 21
65.15805298132767
 31
0.0
  0
LINE
  5
2DB
330
2D6
100
AcDbEntity
  8
0
 62
     0
370
    -2
100
AcDbLine
 10
26.83432041360096
 20
67.877414867677
 30
0.0
 11
26.83432041360096
 21
66.00252675402439
 31
0.0
  0
INSERT
  5
2DC
330
2D6
100
AcDbEntity
  8
0
 62
     0
370
    -2
100
AcDbBlockReference
  2
_ArchTick
 10
26.83432041360096
 20
63.28316486767505
 30
0.0
 41
0.156
 42
0.156
 43
0.156
 50
270.0
  0
INSERT
  5
2DD
330
2D6
100
AcDbEntity
  8
0
 62
     0
370
    -2
100
AcDbBlockReference
  2
_ArchTick
 10
26.83432041360096
 20
67.877414867677
 30
0.0
 41
0.156
 42
0.156
 43
0.156
 50
90.0
  0
MTEXT
  5
2DE
330
2D6
100
AcDbEntity
  8
0
 62
     0
100
AcDbMText
 10
26.83432041360094
 20
65.78263435321739
 30
0.0
 40
0.3125
 41
0.0
 71
     5
 72
     1
  1
\A1;4 19/32"
 73
     1
 44
1.0
1001
ACAD
1000
MTEXTBEGIN
1070
    73
1070
     1
1070
    44
1040
1.0
1070
    74
1070
     0
1000
MTEXTEND
  0
MTEXT
  5
2DF
330
2D6
100
AcDbEntity
  8
0
 62
     0
100
AcDbMText
 10
26.83432041360094
 20
65.36039746686903
 30
0.0
 40
0.3125
 41
0.0
 71
     5
 72
     1
  1
\A1;[117mm]
 73
     1
 44
1.0
1001
ACAD
1000
MTEXTBEGIN
1070
    73
1070
     1
1070
    44
1040
1.0
1070
    74
1070
     0
1000
MTEXTEND
  0
POINT
  5
2E0
330
2D6
100
AcDbEntity
  8
Defpoints
 62
     0
100
AcDbPoint
 10
29.41556085427283
 20
63.28316486767505
 30
0.0
  0
POINT
  5
2E1
330
2D6
100
AcDbEntity
  8
Defpoints
 62
     0
100
AcDbPoint
 10
30.80920329011349
 20
67.877414867677
 30
0.0
  0
POINT
  5
2E2
330
2D6
100
AcDbEntity
  8
Defpoints
 62
     0
100
AcDbPoint
 10
26.83432041360096
 20
67.877414867677
 30
0.0
  0
ENDBLK
  5
2E3
330
2D6
100
AcDbEntity
  8
0
100
AcDbBlockEnd
  0
BLOCK
  5
2E6
330
2E5
100
AcDbEntity
  8
0
100
AcDbBlockBegin
  2
*D16
 70
     1
 10
0.0
 20
0.0
 30
0.0
  3
*D16
  1

  0
LINE
  5
2E7
330
2E5
100
AcDbEntity
  8
0
 62
     0
370
    -2
100
AcDbLine
 10
29.37556085427283
 20
61.65905827102173
 30
0.0
 11
26.80432041360095
 21
61.65905827102173
 31
0.0
  0
LINE
  5
2E8
330
2E5
100
AcDbEntity
  8
0
 62
     0
370
    -2
100
AcDbLine
 10
29.37556085427283
 20
59.53388827748949
 30
0.0
 11
26.80432041360095
 21
59.53388827748949
 31
0.0
  0
LINE
  5
2E9
330
2E5
100
AcDbEntity
  8
0
 62
     0
370
    -2
100
AcDbLine
 10
26.83432041360096
 20
61.65905827102173
 30
0.0
 11
26.83432041360096
 21
61.01871016060396
 31
0.0
  0
LINE
  5
2EA
330
2E5
100
AcDbEntity
  8
0
 62
     0
370
    -2
100
AcDbLine
 10
26.83432041360096
 20
59.53388827748949
 30
0.0
 11
26.83432041360096
 21
60.17423638790726
 31
0.0
  0
INSERT
  5
2EB
330
2E5
100
AcDbEntity
  8
0
 62
     0
370
    -2
100
AcDbBlockReference
  2
_ArchTick
 10
26.83432041360096
 20
61.65905827102173
 30
0.0
 41
0.156
 42
0.156
 43
0.156
 50
90.0
  0
INSERT
  5
2EC
330
2E5
100
AcDbEntity
  8
0
 62
     0
370
    -2
100
AcDbBlockReference
  2
_ArchTick
 10
26.83432041360096
 20
59.53388827748949
 30
0.0
 41
0.156
 42
0.156
 43
0.156
 50
270.0
  0
MTEXT
  5
2ED
330
2E5
100
AcDbEntity
  8
0
 62
     0
100
AcDbMText
 10
26.83432041360094
 20
60.79881775979698
 30
0.0
 40
0.3125
 41
0.0
 71
     5
 72
     1
  1
\A1;2 1/8"
 73
     1
 44
1.0
1001
ACAD
1000
MTEXTBEGIN
1070
    73
1070
     1
1070
    44
1040
1.0
1070
    74
1070
     0
1000
MTEXTEND
  0
MTEXT
  5
2EE
330
2E5
100
AcDbEntity
  8
0
 62
     0
100
AcDbMText
 10
26.83432041360094
 20
60.37658087344863
 30
0.0
 40
0.3125
 41
0.0
 71
     5
 72
     1
  1
\A1;[54mm]
 73
     1
 44
1.0
1001
ACAD
1000
MTEXTBEGIN
1070
    73
1070
     1
1070
    44
1040
1.0
1070
    74
1070
     0
1000
MTEXTEND
  0
POINT
  5
2EF
330
2E5
100
AcDbEntity
  8
Defpoints
 62
     0
100
AcDbPoint
 10
29.41556085427283
 20
61.65905827102173
 30
0.0
  0
POINT
  5
2F0
330
2E5
100
AcDbEntity
  8
Defpoints
 62
     0
100
AcDbPoint
 10
29.41556085427283
 20
59.53388827748949
 30
0.0
  0
POINT
  5
2F1
330
2E5
100
AcDbEntity
  8
Defpoints
 62
     0
100
AcDbPoint
 10
26.83432041360096
 20
59.53388827748949
 30
0.0
  0
ENDBLK
  5
2F2
330
2E5
100
AcDbEntity
  8
0
100
AcDbBlockEnd
  0
BLOCK
  5
2F5
330
2F4
100
AcDbEntity
  8
0
100
AcDbBlockBegin
  2
*D17
 70
     1
 10
0.0
 20
0.0
 30
0.0
  3
*D17
  1

  0
LINE
  5
2F6
330
2F4
100
AcDbEntity
  8
0
 62
     0
370
    -2
100
AcDbLine
 10
29.37556085427283
 20
57.9097816808362
 30
0.0
 11
26.86855218485082
 21
57.9097816808362
 31
0.0
  0
LINE
  5
2F7
330
2F4
100
AcDbEntity
  8
0
 62
     0
370
    -2
100
AcDbLine
 10
30.76920329011349
 20
49.34603721333994
 30
0.0
 11
26.86855218485082
 21
49.34603721333994
 31
0.0
  0
LINE
  5
2F8
330
2F4
100
AcDbEntity
  8
0
 62
     0
370
    -2
100
AcDbLine
 10
26.89855218485082
 20
57.9097816808362
 30
0.0
 11
26.89855218485082
 21
54.05014633343642
 31
0.0
  0
LINE
  5
2F9
330
2F4
100
AcDbEntity
  8
0
 62
     0
370
    -2
100
AcDbLine
 10
26.89855218485082
 20
49.34603721333994
 30
0.0
 11
26.89855218485082
 21
53.20567256073972
 31
0.0
  0
INSERT
  5
2FA
330
2F4
100
AcDbEntity
  8
0
 62
     0
370
    -2
100
AcDbBlockReference
  2
_ArchTick
 10
26.89855218485082
 20
57.9097816808362
 30
0.0
 41
0.156
 42
0.156
 43
0.156
 50
90.0
  0
INSERT
  5
2FB
330
2F4
100
AcDbEntity
  8
0
 62
     0
370
    -2
100
AcDbBlockReference
  2
_ArchTick
 10
26.89855218485082
 20
49.34603721333994
 30
0.0
 41
0.156
 42
0.156
 43
0.156
 50
270.0
  0
MTEXT
  5
2FC
330
2F4
100
AcDbEntity
  8
0
 62
     0
100
AcDbMText
 10
26.89855218485081
 20
53.83025393262943
 30
0.0
 40
0.3125
 41
0.0
 71
     5
 72
     1
  1
\A1;8 9/16"
 73
     1
 44
1.0
1001
ACAD
1000
MTEXTBEGIN
1070
    73
1070
     1
1070
    44
1040
1.0
1070
    74
1070
     0
1000
MTEXTEND
  0
MTEXT
  5
2FD
330
2F4
100
AcDbEntity
  8
0
 62
     0
100
AcDbMText
 10
26.89855218485081
 20
53.40801704628109
 30
0.0
 40
0.3125
 41
0.0
 71
     5
 72
     1
  1
\A1;[218mm]
 73
     1
 44
1.0
1001
ACAD
1000
MTEXTBEGIN
1070
    73
1070
     1
1070
    44
1040
1.0
1070
    74
1070
     0
1000
MTEXTEND
  0
POINT
  5
2FE
330
2F4
100
AcDbEntity
  8
Defpoints
 62
     0
100
AcDbPoint
 10
29.41556085427283
 20
57.9097816808362
 30
0.0
  0
POINT
  5
2FF
330
2F4
100
AcDbEntity
  8
Defpoints
 62
     0
100
AcDbPoint
 10
30.80920329011349
 20
49.34603721333994
 30
0.0
  0
POINT
  5
300
330
2F4
100
AcDbEntity
  8
Defpoints
 62
     0
100
AcDbPoint
 10
26.89855218485082
 20
49.34603721333994
 30
0.0
  0
ENDBLK
  5
301
330
2F4
100
AcDbEntity
  8
0
100
AcDbBlockEnd
  0
BLOCK
  5
304
330
303
100
AcDbEntity
  8
0
100
AcDbBlockBegin
  2
*D18
 70
     1
 10
0.0
 20
0.0
 30
0.0
  3
*D18
  1

  0
LINE
  5
305
330
303
100
AcDbEntity
  8
0
 62
     0
370
    -2
100
AcDbLine
 10
30.76920329011349
 20
49.34603721333994
 30
0.0
 11
26.86855218485082
 21
49.34603721333994
 31
0.0
  0
LINE
  5
306
330
303
100
AcDbEntity
  8
0
 62
     0
370
    -2
100
AcDbLine
 10
31.66918314316845
 20
48.15853721334645
 30
0.0
 11
26.86855218485082
 21
48.15853721334645
 31
0.0
  0
LINE
  5
307
330
303
100
AcDbEntity
  8
0
 62
     0
370
    -2
100
AcDbLine
 10
26.89855218485082
 20
49.34603721333994
 30
0.0
 11
26.89855218485082
 21
49.17452409969154
 31
0.0
  0
LINE
  5
308
330
303
100
AcDbEntity
  8
0
 62
     0
370
    -2
100
AcDbLine
 10
26.89855218485082
 20
48.15853721334645
 30
0.0
 11
26.89855218485082
 21
48.33005032699484
 31
0.0
  0
INSERT
  5
309
330
303
100
AcDbEntity
  8
0
 62
     0
370
    -2
100
AcDbBlockReference
  2
_ArchTick
 10
26.89855218485082
 20
49.34603721333994
 30
0.0
 41
0.156
 42
0.156
 43
0.156
 50
90.0
  0
INSERT
  5
30A
330
303
100
AcDbEntity
  8
0
 62
     0
370
    -2
100
AcDbBlockReference
  2
_ArchTick
 10
26.89855218485082
 20
48.15853721334645
 30
0.0
 41
0.156
 42
0.156
 43
0.156
 50
270.0
  0
MTEXT
  5
30B
330
303
100
AcDbEntity
  8
0
 62
     0
100
AcDbMText
 10
26.89855218485081
 20
48.95463169888456
 30
0.0
 40
0.3125
 41
0.0
 71
     5
 72
     1
  1
\A1;1 3/16"
 73
     1
 44
1.0
1001
ACAD
1000
MTEXTBEGIN
1070
    73
1070
     1
1070
    44
1040
1.0
1070
    74
1070
     0
1000
MTEXTEND
  0
MTEXT
  5
30C
330
303
100
AcDbEntity
  8
0
 62
     0
100
AcDbMText
 10
26.89855218485081
 20
48.53239481253621
 30
0.0
 40
0.3125
 41
0.0
 71
     5
 72
     1
  1
\A1;[30mm]
 73
     1
 44
1.0
1001
ACAD
1000
MTEXTBEGIN
1070
    73
1070
     1
1070
    44
1040
1.0
1070
    74
1070
     0
1000
MTEXTEND
  0
POINT
  5
30D
330
303
100
AcDbEntity
  8
Defpoints
 62
     0
100
AcDbPoint
 10
30.80920329011349
 20
49.34603721333994
 30
0.0
  0
POINT
  5
30E
330
303
100
AcDbEntity
  8
Defpoints
 62
     0
100
AcDbPoint
 10
31.70918314316845
 20
48.15853721334645
 30
0.0
  0
POINT
  5
30F
330
303
100
AcDbEntity
  8
Defpoints
 62
     0
100
AcDbPoint
 10
26.89855218485082
 20
48.15853721334645
 30
0.0
  0
ENDBLK
  5
310
330
303
100
AcDbEntity
  8
0
100
AcDbBlockEnd
  0
BLOCK
  5
317
330
316
100
AcDbEntity
  8
0
100
AcDbBlockBegin
  2
*D19
 70
     1
 10
0.0
 20
0.0
 30
0.0
  3
*D19
  1

  0
LINE
  5
318
330
316
100
AcDbEntity
  8
0
 62
     0
370
    -2
100
AcDbLine
 10
31.99670329011349
 20
66.31500649208809
 30
0.0
 11
31.99670329011349
 21
66.17478597133493
 31
0.0
  0
LINE
  5
319
330
316
100
AcDbEntity
  8
0
 62
     0
370
    -2
100
AcDbLine
 10
30.24670329011349
 20
66.31500649208809
 30
0.0
 11
30.24670329011349
 21
66.17478597133493
 31
0.0
  0
LINE
  5
31A
330
316
100
AcDbEntity
  8
0
 62
     0
370
    -2
100
AcDbLine
 10
31.99670329011349
 20
66.20478597133493
 30
0.0
 11
31.56464154813145
 21
66.20478597133493
 31
0.0
  0
LINE
  5
31B
330
316
100
AcDbEntity
  8
0
 62
     0
370
    -2
100
AcDbLine
 10
30.24670329011349
 20
66.20478597133493
 30
0.0
 11
30.67876503209553
 21
66.20478597133493
 31
0.0
  0
INSERT
  5
31C
330
316
100
AcDbEntity
  8
0
 62
     0
370
    -2
100
AcDbBlockReference
  2
_ArchTick
 10
31.99670329011349
 20
66.20478597133493
 30
0.0
 41
0.156
 42
0.156
 43
0.156
  0
INSERT
  5
31D
330
316
100
AcDbEntity
  8
0
 62
     0
370
    -2
100
AcDbBlockReference
  2
_ArchTick
 10
30.24670329011349
 20
66.20478597133493
 30
0.0
 41
0.156
 42
0.156
 43
0.156
 50
180.0
  0
MTEXT
  5
31E
330
316
100
AcDbEntity
  8
0
 62
     0
100
AcDbMText
 10
31.12170329011349
 20
66.40713045687629
 30
0.0
 40
0.3125
 41
0.0
 71
     5
 72
     1
  1
\A1;1 3/4"
 73
     1
 44
1.0
1001
ACAD
1000
MTEXTBEGIN
1070
    73
1070
     1
1070
    44
1040
1.0
1070
    74
1070
     0
1000
MTEXTEND
  0
MTEXT
  5
31F
330
316
100
AcDbEntity
  8
0
 62
     0
100
AcDbMText
 10
31.12170329011349
 20
65.98489357052793
 30
0.0
 40
0.3125
 41
0.0
 71
     5
 72
     1
  1
\A1;[44mm]
 73
     1
 44
1.0
1001
ACAD
1000
MTEXTBEGIN
1070
    73
1070
     1
1070
    44
1040
1.0
1070
    74
1070
     0
1000
MTEXTEND
  0
POINT
  5
320
330
316
100
AcDbEntity
  8
Defpoints
 62
     0
100
AcDbPoint
 10
31.99670329011349
 20
66.35500649208809
 30
0.0
  0
POINT
  5
321
330
316
100
AcDbEntity
  8
Defpoints
 62
     0
100
AcDbPoint
 10
30.24670329011349
 20
66.35500649208809
 30
0.0
  0
POINT
  5
322
330
316
100
AcDbEntity
  8
Defpoints
 62
     0
100
AcDbPoint
 10
30.24670329011349
 20
66.20478597133493
 30
0.0
  0
ENDBLK
  5
323
330
316
100
AcDbEntity
  8
0
100
AcDbBlockEnd
  0
BLOCK
  5
326
330
325
100
AcDbEntity
  8
0
100
AcDbBlockBegin
  2
*D20
 70
     1
 10
0.0
 20
0.0
 30
0.0
  3
*D20
  1

  0
LINE
  5
327
330
325
100
AcDbEntity
  8
0
 62
     0
370
    -2
100
AcDbLine
 10
37.34893314316961
 20
68.68941486767664
 30
0.0
 11
40.09073786186909
 21
68.68941486767664
 31
0.0
  0
LINE
  5
328
330
325
100
AcDbEntity
  8
0
 62
     0
370
    -2
100
AcDbLine
 10
37.06889419605134
 20
63.28440933517128
 30
0.0
 11
40.09073786186909
 21
63.28440933517128
 31
0.0
  0
LINE
  5
329
330
325
100
AcDbEntity
  8
0
 62
     0
370
    -2
100
AcDbLine
 10
40.06073786186909
 20
68.68941486767664
 30
0.0
 11
40.06073786186909
 21
67.1689167332015
 31
0.0
  0
LINE
  5
32A
330
325
100
AcDbEntity
  8
0
 62
     0
370
    -2
100
AcDbLine
 10
40.06073786186909
 20
63.28440933517128
 30
0.0
 11
40.06073786186909
 21
66.2022041127128
 31
0.0
  0
INSERT
  5
32B
330
325
100
AcDbEntity
  8
0
 62
     0
370
    -2
100
AcDbBlockReference
  2
_ArchTick
 10
40.06073786186909
 20
68.68941486767664
 30
0.0
 41
0.156
 42
0.156
 43
0.156
 50
90.0
  0
INSERT
  5
32C
330
325
100
AcDbEntity
  8
0
 62
     0
370
    -2
100
AcDbBlockReference
  2
_ArchTick
 10
40.06073786186909
 20
63.28440933517128
 30
0.0
 41
0.156
 42
0.156
 43
0.156
 50
270.0
  0
MTEXT
  5
32D
330
325
100
AcDbEntity
  8
0
 62
     0
100
AcDbMText
 10
40.06073786186909
 20
66.68556042295716
 30
0.0
 40
0.3125
 41
0.0
 71
     5
 72
     1
  1
\A1;5 13/32"\P [137mm]
 73
     1
 44
1.0
1001
ACAD
1000
MTEXTBEGIN
1070
    73
1070
     1
1070
    44
1040
1.0
1070
    74
1070
     0
1000
MTEXTEND
  0
POINT
  5
32E
330
325
100
AcDbEntity
  8
Defpoints
 62
     0
100
AcDbPoint
 10
37.30893314316961
 20
68.68941486767664
 30
0.0
  0
POINT
  5
32F
330
325
100
AcDbEntity
  8
Defpoints
 62
     0
100
AcDbPoint
 10
37.02889419605134
 20
63.28440933517128
 30
0.0
  0
POINT
  5
330
330
325
100
AcDbEntity
  8
Defpoints
 62
     0
100
AcDbPoint
 10
40.06073786186909
 20
63.28440933517128
 30
0.0
  0
ENDBLK
  5
331
330
325
100
AcDbEntity
  8
0
100
AcDbBlockEnd
  0
BLOCK
  5
334
330
333
100
AcDbEntity
  8
0
100
AcDbBlockBegin
  2
*D21
 70
     1
 10
0.0
 20
0.0
 30
0.0
  3
*D21
  1

  0
LINE
  5
335
330
333
100
AcDbEntity
  8
0
 62
     0
370
    -2
100
AcDbLine
 10
37.06889419605134
 20
57.90853721333994
 30
0.0
 11
40.09073786186909
 21
57.90853721333994
 31
0.0
  0
LINE
  5
336
330
333
100
AcDbEntity
  8
0
 62
     0
370
    -2
100
AcDbLine
 10
37.59893314316967
 20
48.15853721334645
 30
0.0
 11
40.09073786186909
 21
48.15853721334645
 31
0.0
  0
LINE
  5
337
330
333
100
AcDbEntity
  8
0
 62
     0
370
    -2
100
AcDbLine
 10
40.06073786186909
 20
57.90853721333994
 30
0.0
 11
40.06073786186909
 21
53.45577409969155
 31
0.0
  0
LINE
  5
338
330
333
100
AcDbEntity
  8
0
 62
     0
370
    -2
100
AcDbLine
 10
40.06073786186909
 20
48.15853721334645
 30
0.0
 11
40.06073786186909
 21
52.61130032699484
 31
0.0
  0
INSERT
  5
339
330
333
100
AcDbEntity
  8
0
 62
     0
370
    -2
100
AcDbBlockReference
  2
_ArchTick
 10
40.06073786186909
 20
57.90853721333994
 30
0.0
 41
0.156
 42
0.156
 43
0.156
 50
90.0
  0
INSERT
  5
33A
330
333
100
AcDbEntity
  8
0
 62
     0
370
    -2
100
AcDbBlockReference
  2
_ArchTick
 10
40.06073786186909
 20
48.15853721334645
 30
0.0
 41
0.156
 42
0.156
 43
0.156
 50
270.0
  0
MTEXT
  5
33B
330
333
100
AcDbEntity
  8
0
 62
     0
100
AcDbMText
 10
40.06073786186907
 20
53.23588169888456
 30
0.0
 40
0.3125
 41
0.0
 71
     5
 72
     1
  1
\A1;9 3/4"
 73
     1
 44
1.0
1001
ACAD
1000
MTEXTBEGIN
1070
    73
1070
     1
1070
    44
1040
1.0
1070
    74
1070
     0
1000
MTEXTEND
  0
MTEXT
  5
33C
330
333
100
AcDbEntity
  8
0
 62
     0
100
AcDbMText
 10
40.06073786186907
 20
52.81364481253621
 30
0.0
 40
0.3125
 41
0.0
 71
     5
 72
     1
  1
\A1;[248mm]
 73
     1
 44
1.0
1001
ACAD
1000
MTEXTBEGIN
1070
    73
1070
     1
1070
    44
1040
1.0
1070
    74
1070
     0
1000
MTEXTEND
  0
POINT
  5
33D
330
333
100
AcDbEntity
  8
Defpoints
 62
     0
100
AcDbPoint
 10
37.02889419605134
 20
57.90853721333994
 30
0.0
  0
POINT
  5
33E
330
333
100
AcDbEntity
  8
Defpoints
 62
     0
100
AcDbPoint
 10
37.55893314316967
 20
48.15853721334645
 30
0.0
  0
POINT
  5
33F
330
333
100
AcDbEntity
  8
Defpoints
 62
     0
100
AcDbPoint
 10
40.06073786186909
 20
48.15853721334645
 30
0.0
  0
ENDBLK
  5
340
330
333
100
AcDbEntity
  8
0
100
AcDbBlockEnd
  0
ENDSEC
  0
SECTION
  2
ENTITIES
  0
LWPOLYLINE
  5
6A
330
2
100
AcDbEntity
  8
0
  6
Continuous
100
AcDbPolyline
 90
       19
 70
     1
 43
0.0
 10
36.93393314316967
 20
63.59690933517135
 10
36.93393314316967
 20
63.84657664239998
 10
36.74693314316966
 20
63.84657664239998
 10
36.74693314316966
 20
63.94640933517135
 42
1.045128398166766
 10
36.56034119242139
 20
63.93716785082429
 42
-0.4419056050544676
 10
36.47770460588214
 20
63.84640933517133
 10
35.62093314316963
 20
63.84640933517133
 10
35.55893314316961
 20
63.90840933517134
 10
35.55893314316961
 20
67.81440933517135
 42
-0.4142135623730951
 10
35.62093314316963
 20
67.87640933517133
 10
37.24693314316966
 20
67.87640933517133
 42
-0.4142135623730951
 10
37.30893314316961
 20
67.81440933517135
 10
37.30893314316961
 20
63.59718941226939
 10
37.24693314316966
 20
63.53518941226937
 10
37.21389419605134
 20
63.53518941226937
 42
-0.3899024490717814
 10
37.02889419605134
 20
63.33401656094221
 10
37.02889419605134
 20
63.28440933517132
 10
36.93393314316961
 20
63.28440933517135
 10
36.93393314316961
 20
63.40940933517135
 42
0.7066666666666829
  0
LWPOLYLINE
  5
6B
330
2
100
AcDbEntity
  8
0
  6
Continuous
100
AcDbPolyline
 90
       26
 70
     0
 43
0.0
 10
37.24693314316966
 20
68.00141486767668
 10
35.18393314316956
 20
68.00140380266597
 10
35.18393314316956
 20
67.93940380266596
 10
34.69196531391401
 20
67.93940380266596
 10
34.69196531391401
 20
67.81440380266596
 10
35.18393314316961
 20
67.81440380266596
 10
35.18393314316956
 20
67.56340380266596
 42
-0.4142135623730951
 10
35.12193314316955
 20
67.50140380266597
 10
32.80893298351362
 20
67.50140987086829
 42
-0.4142128141791537
 10
32.74643314316956
 20
67.56390987086806
 10
32.74643314316956
 20
68.34641487225249
 42
1.000000000000008
 10
32.74643314316956
 20
68.56441487225251
 10
32.74643314316956
 20
68.63941486767666
 10
33.43343314316957
 20
68.63941486767666
 10
33.43343314316957
 20
68.68941486767667
 10
33.65187587023758
 20
68.68941486767667
 42
0.9999999999999998
 10
33.90187587023758
 20
68.68941486767667
 10
34.31294922854181
 20
68.68941486767667
 42
0.9999999999999998
 10
34.56294922854181
 20
68.68941486767667
 10
34.81294922854181
 20
68.68941486767667
 42
0.9999999999999998
 10
35.06294922854181
 20
68.68941486767667
 10
36.55887463428155
 20
68.68941486767667
 42
0.9999999999999998
 10
36.80887463428155
 20
68.68941486767667
 10
37.30893314316961
 20
68.68941486767667
 10
37.30893314316961
 20
68.06391486767669
 42
-0.4142135623730951
 10
37.24643314316961
 20
68.00141486767668
  0
LWPOLYLINE
  5
6C
330
2
100
AcDbEntity
  8
0
100
AcDbPolyline
 90
       48
 70
     1
 43
0.0
 10
31.74591017324605
 20
48.9702484368878
 42
0.3099869661589099
 10
31.88431129603163
 20
49.04669217498815
 42
0.6346282874007124
 10
31.82545226653059
 20
49.06834481665066
 42
-0.2491068491705158
 10
31.74932903173652
 20
49.02791002900778
 10
31.70918314316845
 20
49.02791002900778
 42
-0.4142135623730951
 10
31.67793314316117
 20
49.05916002900778
 10
31.67793314316117
 20
49.07349316363763
 10
31.67793314316117
 20
49.12448377674593
 42
-0.3892015183906261
 10
31.70626594843924
 20
49.15536882285684
 10
36.7006863764239
 20
49.5866808473994
 42
0.3892015181633394
 10
36.72993314317177
 20
49.61856218530499
 10
36.72993314317177
 20
49.69328721333806
 42
0.4142135623730951
 10
36.69868314315721
 20
49.72453721333806
 10
36.64593314316193
 20
49.72453721333806
 42
-0.4142135623731034
 10
36.61493314315925
 20
49.75553721332983
 42
-0.4142135623730867
 10
36.64593314316193
 20
49.78653721333978
 10
36.76068314316984
 20
49.78653721333978
 42
-0.4142135623730951
 10
36.79193314316985
 20
49.75528721332887
 10
36.79193314316985
 20
49.56168566576628
 42
-0.3892015181726193
 10
36.76268637642085
 20
49.52980432786046
 10
36.42793314316845
 20
49.50089544908599
 10
36.42793314316845
 20
49.25153721333993
 10
36.36593314317037
 20
49.25153721333993
 10
36.36593314317037
 20
49.49554120509958
 10
35.74093314314126
 20
49.44156697139954
 10
35.74093314314126
 20
49.25153721333993
 10
35.67893314317956
 20
49.25153721333993
 10
35.67893314317956
 20
49.43621272740632
 10
31.96106704253981
 20
49.11514236940829
 42
-0.4513779684185582
 10
31.73993314316652
 20
48.90853721334645
 10
31.73993314316652
 20
48.50253721334741
 10
31.80193314317188
 20
48.50253721334741
 42
-0.4142135623730951
 10
31.92693314315005
 20
48.37753721334741
 10
31.92693314315005
 20
48.22053721334817
 10
32.20893314317113
 20
48.22053721334817
 42
-0.9999999999999998
 10
32.20893314317113
 20
48.15853721334645
 10
31.70918314316845
 20
48.15853721334645
 42
-0.4142135623730951
 10
31.67793314316117
 20
48.18978721334644
 10
31.67793314316117
 20
48.28353721334645
 42
-0.9999999999999998
 10
31.73993314316652
 20
48.28353721334645
 10
31.73993314316652
 20
48.22153721333745
 10
31.86493314315925
 20
48.22153721333745
 10
31.86493314315925
 20
48.37803721334933
 42
0.4142135623730951
 10
31.80243314315197
 20
48.44053721334933
 10
31.70918314316845
 20
48.44053721334933
 42
-0.4142135623730951
 10
31.67793314316117
 20
48.47178721334933
 10
31.67793314316117
 20
48.9392484368924
 42
-0.4142135623730951
 10
31.70893314317112
 20
48.9702484368878
  0
LWPOLYLINE
  5
6D
330
2
100
AcDbEntity
  8
0
100
AcDbPolyline
 90
        6
 70
     1
 43
0.0
 10
37.30893314316967
 20
49.53422325985741
 10
37.4019331431777
 20
49.53422325985741
 10
37.52793314316699
 20
49.46147712594177
 42
-0.2679491924311338
 10
37.55893314316967
 20
49.40778355089571
 10
37.55893314316967
 20
48.15853721334645
 10
37.30893314316967
 20
48.15853721334645
  0
LWPOLYLINE
  5
6E
330
2
100
AcDbEntity
  8
0
100
AcDbPolyline
 90
       16
 70
     1
 43
0.0
 10
37.30893314316967
 20
49.04803721333985
 10
37.30893314316967
 20
48.26753721334319
 10
37.12186432251514
 20
48.26753721334319
 10
37.05893314316967
 20
48.15853721334645
 10
32.60693314318672
 20
48.15853721334645
 42
-0.414213562373095
 10
32.54493314316682
 20
48.22053721334817
 10
32.54493314316682
 20
48.43953721333821
 10
32.29493314316682
 20
48.43953721333821
 10
32.29493314316682
 20
48.30053721334627
 42
-0.4142135623730951
 10
32.23293314318329
 20
48.23853721333728
 10
31.9589331431784
 20
48.23853721333728
 10
31.9589331431784
 20
49.05153721334648
 10
34.4589331431784
 20
49.25153721333993
 10
36.99743314317692
 20
49.25153721333993
 42
-0.4142135623730951
 10
37.05943314317693
 20
49.18953721334003
 10
37.05943314317693
 20
49.04803721333985
  0
LWPOLYLINE
  5
6F
330
2
100
AcDbEntity
  8
0
  6
Continuous
100
AcDbPolyline
 90
       13
 70
     1
 43
0.0
 10
36.65193314316963
 20
49.84453721333991
 42
0.4142135623730951
 10
36.58993314316962
 20
49.78253721333991
 10
36.58993314316962
 20
49.58224569321894
 10
35.59711777841034
 20
49.50410942945066
 42
-0.5289142198612735
 10
35.58094959322767
 20
49.52425457067653
 10
35.73241153484997
 20
50.01966425903273
 42
-0.329750547140315
 10
35.79170242971969
 20
50.06353721333991
 10
37.24693314316966
 20
50.06353721333991
 42
-0.4142135623730951
 10
37.30893314316967
 20
50.00153721333993
 10
37.30893314316967
 20
49.25153721333993
 10
36.80893314316967
 20
49.25153721333993
 10
36.80893314316967
 20
49.78253721333991
 42
0.4142135623730956
 10
36.74693314316966
 20
49.84453721333991
  0
LWPOLYLINE
  5
70
330
2
100
AcDbEntity
  8
0
  6
Continuous
100
AcDbPolyline
 90
        7
 70
     1
 43
0.0
 10
34.93393314316961
 20
50.28253721334073
 10
34.93393314316961
 20
51.2110383494242
 42
-0.3738846794848032
 10
35.04153650554992
 20
51.33482185801728
 10
35.55893314316961
 20
51.40753721334073
 10
35.55893314316961
 20
50.59553721333992
 10
35.40293314316966
 20
50.59553721333992
 10
35.08993314316956
 20
50.28253721334073
  0
LWPOLYLINE
  5
71
330
2
100
AcDbEntity
  8
0
  6
Continuous
100
AcDbPolyline
 90
       19
 70
     1
 43
0.0
 10
36.93393314316961
 20
57.59603721333991
 10
36.93393314316961
 20
57.34636990611128
 10
36.74693314316966
 20
57.34636990611128
 10
36.74693314316966
 20
57.2465372133399
 42
-1.045128398166766
 10
36.56034119242145
 20
57.25577869768696
 42
0.4419056050544676
 10
36.47770460588214
 20
57.34653721333993
 10
35.62093314316963
 20
57.34653721333993
 10
35.55893314316961
 20
57.28453721333991
 10
35.55893314316961
 20
50.59553721333992
 42
0.4142135623730951
 10
35.62093314316963
 20
50.53353721333994
 10
37.2469331431696
 20
50.53353721333994
 42
0.4142135623730951
 10
37.30893314316961
 20
50.59553721333992
 10
37.30893314316961
 20
57.59575713624187
 10
37.2469331431696
 20
57.65775713624188
 10
37.21389419605134
 20
57.65775713624188
 42
0.3899024490717814
 10
37.02889419605134
 20
57.85892998756904
 10
37.02889419605134
 20
57.90853721333994
 10
36.93393314316961
 20
57.90853721333991
 10
36.93393314316961
 20
57.78353721333991
 42
-0.7066666666666826
  0
LWPOLYLINE
  5
72
330
2
100
AcDbEntity
  8
0
  6
Continuous
100
AcDbPolyline
 90
       26
 70
     0
 43
0.0
 10
37.30896531391403
 20
50.53353721333994
 10
35.55893314316961
 20
50.53353721333994
 10
35.55893314316961
 20
50.42453721333993
 42
0.157771401281339
 10
35.30893314316961
 20
49.97353721333993
 10
35.35408470016347
 20
49.96474307318675
 42
-0.1709509127273156
 10
35.62093314316963
 20
50.41829008181153
 10
35.62093314316963
 20
49.97353721333993
 10
35.66693314316962
 20
49.97353721333993
 10
35.66693314316962
 20
50.42453721333993
 10
36.10393314316963
 20
50.42453721333993
 10
36.10393314316963
 20
49.9656712229445
 10
36.14993314316962
 20
49.9656712229445
 10
36.14993314316962
 20
50.42453721333993
 10
36.58693314316963
 20
50.42453721333993
 10
36.58693314316963
 20
49.9656712229445
 10
36.63293314316963
 20
49.9656712229445
 10
36.63293314316963
 20
50.42453721333993
 10
37.06993314316964
 20
50.42453721333993
 10
37.06993314316964
 20
49.9656712229445
 10
37.11593314316963
 20
49.9656712229445
 10
37.11593314316963
 20
50.42453721333993
 10
37.41793314316965
 20
50.42453721333993
 10
37.41793314316965
 20
50.72153721333993
 42
0.4142135623730948
 10
37.35593314316964
 20
50.78353721333994
 10
37.30893314316961
 20
50.78353721333994
 10
37.30893314316961
 20
50.53353721333994
  0
HATCH
  5
73
330
2
100
AcDbEntity
  8
0
100
AcDbHatch
 10
0.0
 20
0.0
 30
0.0
210
0.0
220
0.0
230
1.0
  2
SOLID
 70
     1
 71
     0
 91
        1
 92
        7
 72
     1
 73
     1
 93
        2
 10
36.93393314316961
 20
63.40907664239998
 42
0.0
 10
36.93393314316967
 20
63.59657664239995
 42
-0.6666666666666311
 97
        0
 75
     1
 76
     1
 47
0.0010014887122476
 98
        1
 10
36.97999321951653
 20
63.52398183844411
1001
GradientColor1ACI
1070
     5
1001
GradientColor2ACI
1070
     2
1001
ACAD
1010
0.0
1020
0.0
1030
0.0
  0
HATCH
  5
76
330
2
100
AcDbEntity
  8
0
100
AcDbHatch
 10
0.0
 20
0.0
 30
0.0
210
0.0
220
0.0
230
1.0
  2
SOLID
 70
     1
 71
     0
 91
        1
 92
        7
 72
     1
 73
     1
 93
        2
 10
36.02470298568955
 20
63.40907664239998
 42
0.0
 10
36.02470298568955
 20
63.59657664239995
 42
0.6666666666666311
 97
        0
 75
     1
 76
     1
 47
0.0010014887122476
 98
        1
 10
35.97864290934263
 20
63.52398183844411
1001
GradientColor1ACI
1070
     5
1001
GradientColor2ACI
1070
     2
1001
ACAD
1010
0.0
1020
0.0
1030
0.0
  0
LWPOLYLINE
  5
77
330
2
100
AcDbEntity
  8
0
100
AcDbPolyline
 90
       11
 70
     1
 43
0.0
 10
36.02470298568955
 20
63.59657664239995
 10
36.02470298568955
 20
63.84657664239998
 10
35.65070298568952
 20
63.84657664239995
 10
35.65070298568952
 20
63.56507664239996
 42
0.4142135623731695
 10
35.68170298568947
 20
63.53407664239998
 10
35.728227753976
 20
63.53407664239998
 42
-0.235730494161761
 10
35.75300394855202
 20
63.52170834072115
 10
35.92240202282705
 20
63.29644494407881
 42
0.235730494161718
 10
35.94717821740307
 20
63.28407664239998
 10
36.02470298568955
 20
63.28407664239998
 10
36.02470298568955
 20
63.40907664239998
 42
-0.6666666666666588
  0
LWPOLYLINE
  5
78
330
2
100
AcDbEntity
  8
0
100
AcDbPolyline
 90
        4
 70
     0
 43
0.0
 10
36.77619306442961
 20
62.65897327425562
 10
36.77619306442961
 20
63.7375766423996
 10
36.93393314316967
 20
63.7375766423996
 10
36.93393314316967
 20
62.65897327425562
  0
LWPOLYLINE
  5
79
330
2
100
AcDbEntity
  8
0
100
AcDbPolyline
 90
        4
 70
     0
 43
0.0
 10
36.18244306442961
 20
62.65897327425562
 10
36.18244306442961
 20
63.7375766423996
 10
36.02470298568955
 20
63.7375766423996
 10
36.02470298568955
 20
62.65897327425562
  0
LWPOLYLINE
  5
7A
330
2
100
AcDbEntity
  8
0
100
AcDbPolyline
 90
       14
 70
     1
 43
0.0
 10
36.29181806442961
 20
63.52775190145107
 42
-0.3359746306540741
 10
36.25931415468262
 20
63.50738914239932
 10
36.22344306442978
 20
63.53157664239947
 42
0.4142135623730951
 10
36.20781806442977
 20
63.51595164239947
 10
36.20781806442977
 20
63.3343266423993
 10
36.75081806442944
 20
63.3343266423993
 10
36.75081806442944
 20
63.51595164239947
 42
0.414213562373094
 10
36.73519306442944
 20
63.53157664239947
 10
36.69970527637128
 20
63.50738914239932
 42
-0.3208708054700532
 10
36.66681806442961
 20
63.52811481053172
 10
36.66681806442961
 20
63.58495164239989
 42
0.4142135623730951
 10
36.65119306442961
 20
63.60057664239988
 10
36.30744306442961
 20
63.60057664239988
 42
0.4142135623730951
 10
36.29181806442961
 20
63.58495164239989
  0
LWPOLYLINE
  5
7B
330
2
100
AcDbEntity
  8
0
100
AcDbPolyline
 90
       14
 70
     1
 43
0.0
 10
36.29881806443012
 20
63.52653350130672
 42
-0.3593608004949541
 10
36.25681817710614
 20
63.50062948542595
 10
36.22159922999384
 20
63.52437725214471
 42
0.3524310491054993
 10
36.21481806442938
 20
63.51595164239947
 10
36.21481806442938
 20
63.3343266423993
 10
36.74381806442983
 20
63.3343266423993
 10
36.74381806442983
 20
63.51595164239947
 42
0.3518693664465323
 10
36.73705373672823
 20
63.52437354976095
 10
36.70212934556224
 20
63.50057004558161
 42
-0.3446308864324803
 10
36.65981806442909
 20
63.52680895958323
 10
36.65981806442909
 20
63.58495164239989
 42
0.4142135623730946
 10
36.65119306442961
 20
63.59357664239936
 10
36.30744306442961
 20
63.59357664239936
 42
0.4142135623730946
 10
36.29881806443012
 20
63.58495164239989
  0
LWPOLYLINE
  5
7C
330
2
100
AcDbEntity
  8
0
100
AcDbPolyline
 90
       10
 70
     1
 43
0.0
 10
36.32306806442961
 20
63.52301414239931
 42
-0.3584554666094669
 10
36.25816421827625
 20
63.47613914239932
 10
36.23906806442978
 20
63.47613914239932
 10
36.23906806442978
 20
63.3655766423993
 10
36.71956806442944
 20
63.3655766423993
 10
36.71956806442944
 20
63.47613914239932
 10
36.70047191058297
 20
63.47613914239932
 42
-0.3467993108968364
 10
36.63556806442961
 20
63.52301414239931
 10
36.63556806442961
 20
63.56932664239988
 10
36.32306806442961
 20
63.56932664239988
  0
LWPOLYLINE
  5
7D
330
2
100
AcDbEntity
  8
0
100
AcDbPolyline
 90
        6
 70
     0
 43
0.0
 10
36.20781806442977
 20
63.3625766423996
 10
36.19806806442961
 20
63.3625766423996
 10
36.19806806442961
 20
63.32457664239914
 10
36.76056806442961
 20
63.32457664239914
 10
36.76056806442961
 20
63.3625766423996
 10
36.75081806442944
 20
63.3625766423996
  0
LINE
  5
7E
330
2
100
AcDbEntity
  8
0
100
AcDbLine
 10
36.75081806442944
 20
63.51595164239947
 30
0.0
 11
36.77619306442961
 21
63.51595164239947
 31
0.0
  0
LINE
  5
7F
330
2
100
AcDbEntity
  8
0
100
AcDbLine
 10
36.75081806442944
 20
63.3625766423996
 30
0.0
 11
36.77619306442961
 21
63.3625766423996
 31
0.0
  0
LINE
  5
80
330
2
100
AcDbEntity
  8
0
100
AcDbLine
 10
36.20781806442977
 20
63.51595164239947
 30
0.0
 11
36.18244306442961
 21
63.51595164239947
 31
0.0
  0
LINE
  5
81
330
2
100
AcDbEntity
  8
0
100
AcDbLine
 10
36.20781806442977
 20
63.3625766423996
 30
0.0
 11
36.18244306442961
 21
63.3625766423996
 31
0.0
  0
HATCH
  5
82
330
2
100
AcDbEntity
  8
0
  6
Continuous
100
AcDbHatch
 10
0.0
 20
0.0
 30
0.0
210
0.0
220
0.0
230
1.0
  2
DOTS
 70
     0
 71
     0
 91
        2
 92
        7
 72
     0
 73
     1
 93
        4
 10
36.20781806442977
 20
63.51595164239947
 10
36.18244306442961
 20
63.51595164239947
 10
36.18244306442961
 20
63.3625766423996
 10
36.20781806442977
 20
63.3625766423996
 97
        0
 92
        7
 72
     0
 73
     1
 93
        4
 10
36.77619306442961
 20
63.51595164239947
 10
36.75081806442944
 20
63.51595164239947
 10
36.75081806442944
 20
63.3625766423996
 10
36.77619306442961
 20
63.3625766423996
 97
        0
 75
     0
 76
     1
 52
360.0
 41
0.1
 77
     0
 78
     1
 53
360.0
 43
30.08896331889304
 44
65.81028138598625
 45
0.003125
 46
-0.00625
 79
     2
 49
0.0
 49
-0.00625
 47
0.0006001443632006
 98
        2
 10
36.19609777428235
 20
63.45836670235107
 10
36.76598270367816
 20
63.45476582855221
  0
HATCH
  5
83
330
2
100
AcDbEntity
  8
0
  6
Continuous
100
AcDbHatch
 10
0.0
 20
0.0
 30
0.0
210
0.0
220
0.0
230
1.0
  2
DASH
 70
     0
 71
     0
 91
        1
 92
        7
 72
     1
 73
     1
 93
       16
 10
36.65119306442961
 20
63.60057664239988
 42
-0.4142135623730951
 10
36.66681806442961
 20
63.58495164239989
 42
0.0
 10
36.66681806442961
 20
63.52811481053172
 42
0.3208708054700533
 10
36.69970527637128
 20
63.50738914239932
 42
0.0
 10
36.73519306442944
 20
63.53157664239947
 42
-0.414213562373094
 10
36.75081806442944
 20
63.51595164239947
 42
0.0
 10
36.77619306443052
 20
63.51595164239947
 42
0.0
 10
36.7761930644287
 20
63.73757664239869
 42
0.0
 10
36.18244306442961
 20
63.73757664239869
 42
0.0
 10
36.18244306442961
 20
63.51595164239947
 42
0.0
 10
36.20781806442977
 20
63.51595164239947
 42
-0.4142135623730951
 10
36.22344306442978
 20
63.53157664239947
 42
0.0
 10
36.25931415468262
 20
63.50738914239932
 42
0.3359746306540741
 10
36.29181806442961
 20
63.52775190145107
 42
0.0
 10
36.29181806442961
 20
63.58495164239989
 42
-0.4142135623730951
 10
36.30744306442961
 20
63.60057664239988
 42
0.0
 97
        0
 75
     0
 76
     1
 52
360.0
 41
0.1
 77
     0
 78
     1
 53
360.0
 43
30.08896331889304
 44
65.81028138598625
 45
0.0125
 46
-0.0125
 79
     2
 49
0.0125
 49
-0.0125
 47
0.0009600803746669
 98
        1
 10
36.52833954451438
 20
63.65141591459391
  0
LINE
  5
84
330
2
100
AcDbEntity
  8
0
100
AcDbLine
 10
36.02470298568955
 20
63.84657664239998
 30
0.0
 11
36.93393314316967
 21
63.7375766423996
 31
0.0
  0
LWPOLYLINE
  5
85
330
2
100
AcDbEntity
  8
0
100
AcDbPolyline
 90
        8
 70
     0
 43
0.0
 10
36.02470298568955
 20
63.84657664239998
 10
36.93393314316967
 20
63.84657664239998
 10
36.93393314316967
 20
63.7375766423996
 10
36.02470298568955
 20
63.7375766423996
 10
36.02470298568955
 20
63.84657664239998
 10
36.93393314316967
 20
63.7375766423996
 10
36.02470298568955
 20
63.7375766423996
 10
36.93393314316967
 20
63.84657664239998
  0
HATCH
  5
86
330
2
100
AcDbEntity
  8
0
100
AcDbHatch
 10
0.0
 20
0.0
 30
0.0
210
0.0
220
0.0
230
1.0
  2
SOLID
 70
     1
 71
     0
 91
        1
 92
        7
 72
     1
 73
     1
 93
        2
 10
36.93393314316961
 20
57.78386990611128
 42
0.0
 10
36.93393314316961
 20
57.59636990611131
 42
0.6666666666666311
 97
        0
 75
     1
 76
     1
 47
0.0010014887122476
 98
        1
 10
36.97999321951653
 20
57.66896471006714
1001
GradientColor1ACI
1070
     5
1001
GradientColor2ACI
1070
     2
1001
ACAD
1010
0.0
1020
0.0
1030
0.0
  0
HATCH
  5
87
330
2
100
AcDbEntity
  8
0
100
AcDbHatch
 10
0.0
 20
0.0
 30
0.0
210
0.0
220
0.0
230
1.0
  2
SOLID
 70
     1
 71
     0
 91
        1
 92
        7
 72
     1
 73
     1
 93
        2
 10
36.02470298568955
 20
57.78386990611128
 42
0.0
 10
36.02470298568949
 20
57.59636990611131
 42
-0.6666666666666311
 97
        0
 75
     1
 76
     1
 47
0.0010014887122476
 98
        1
 10
35.97864290934263
 20
57.66896471006714
1001
GradientColor1ACI
1070
     5
1001
GradientColor2ACI
1070
     2
1001
ACAD
1010
0.0
1020
0.0
1030
0.0
  0
LWPOLYLINE
  5
88
330
2
100
AcDbEntity
  8
0
100
AcDbPolyline
 90
       11
 70
     1
 43
0.0
 10
36.02470298568949
 20
57.59636990611131
 10
36.02470298568949
 20
57.34636990611128
 10
35.65070298568952
 20
57.3463699061113
 10
35.65070298568946
 20
57.6278699061113
 42
-0.4142135623731695
 10
35.68170298568947
 20
57.65886990611128
 10
35.72822775397594
 20
57.65886990611128
 42
0.235730494161761
 10
35.75300394855196
 20
57.67123820779011
 10
35.92240202282699
 20
57.89650160443244
 42
-0.235730494161718
 10
35.94717821740301
 20
57.90886990611127
 10
36.02470298568955
 20
57.90886990611127
 10
36.02470298568955
 20
57.78386990611128
 42
0.6666666666666588
  0
LWPOLYLINE
  5
89
330
2
100
AcDbEntity
  8
0
100
AcDbPolyline
 90
        4
 70
     0
 43
0.0
 10
36.77619306442955
 20
58.53397327425563
 10
36.77619306442955
 20
57.45536990611165
 10
36.93393314316961
 20
57.45536990611165
 10
36.93393314316961
 20
58.53397327425563
  0
LWPOLYLINE
  5
8A
330
2
100
AcDbEntity
  8
0
100
AcDbPolyline
 90
        4
 70
     0
 43
0.0
 10
36.18244306442955
 20
58.53397327425563
 10
36.18244306442955
 20
57.45536990611165
 10
36.02470298568949
 20
57.45536990611165
 10
36.02470298568949
 20
58.53397327425563
  0
LWPOLYLINE
  5
8B
330
2
100
AcDbEntity
  8
0
100
AcDbPolyline
 90
       14
 70
     1
 43
0.0
 10
36.29181806442955
 20
57.66519464706019
 42
0.3359746306540741
 10
36.25931415468256
 20
57.68555740611194
 10
36.22344306442972
 20
57.66136990611179
 42
-0.4142135623730951
 10
36.20781806442972
 20
57.67699490611178
 10
36.20781806442972
 20
57.85861990611195
 10
36.75081806442938
 20
57.85861990611195
 10
36.75081806442938
 20
57.67699490611178
 42
-0.414213562373094
 10
36.73519306442938
 20
57.66136990611179
 10
36.69970527637122
 20
57.68555740611194
 42
0.3208708054700532
 10
36.66681806442955
 20
57.66483173797954
 10
36.66681806442955
 20
57.60799490611137
 42
-0.4142135623730951
 10
36.65119306442955
 20
57.59236990611137
 10
36.30744306442955
 20
57.59236990611137
 42
-0.4142135623730951
 10
36.29181806442955
 20
57.60799490611137
  0
LWPOLYLINE
  5
8C
330
2
100
AcDbEntity
  8
0
100
AcDbPolyline
 90
       14
 70
     1
 43
0.0
 10
36.29881806443007
 20
57.66641304720454
 42
0.3593608004949541
 10
36.25681817710609
 20
57.69231706308531
 10
36.22159922999379
 20
57.66856929636654
 42
-0.3524310491054993
 10
36.21481806442933
 20
57.67699490611178
 10
36.21481806442933
 20
57.85861990611195
 10
36.74381806442978
 20
57.85861990611195
 10
36.74381806442978
 20
57.67699490611178
 42
-0.3518693664465323
 10
36.73705373672817
 20
57.66857299875031
 10
36.70212934556218
 20
57.69237650292964
 42
0.3446308864324803
 10
36.65981806442903
 20
57.66613758892802
 10
36.65981806442903
 20
57.60799490611137
 42
-0.4142135623730946
 10
36.65119306442955
 20
57.59936990611189
 10
36.30744306442955
 20
57.59936990611189
 42
-0.4142135623730946
 10
36.29881806443007
 20
57.60799490611137
  0
LWPOLYLINE
  5
8D
330
2
100
AcDbEntity
  8
0
100
AcDbPolyline
 90
       10
 70
     1
 43
0.0
 10
36.32306806442955
 20
57.66993240611194
 42
0.3584554666094669
 10
36.25816421827619
 20
57.71680740611194
 10
36.23906806442972
 20
57.71680740611194
 10
36.23906806442972
 20
57.82736990611195
 10
36.71956806442938
 20
57.82736990611195
 10
36.71956806442938
 20
57.71680740611194
 10
36.70047191058291
 20
57.71680740611194
 42
0.3467993108968364
 10
36.63556806442955
 20
57.66993240611194
 10
36.63556806442955
 20
57.62361990611137
 10
36.32306806442955
 20
57.62361990611137
  0
LWPOLYLINE
  5
8E
330
2
100
AcDbEntity
  8
0
100
AcDbPolyline
 90
        6
 70
     0
 43
0.0
 10
36.20781806442972
 20
57.83036990611165
 10
36.19806806442955
 20
57.83036990611165
 10
36.19806806442955
 20
57.86836990611212
 10
36.76056806442955
 20
57.86836990611212
 10
36.76056806442955
 20
57.83036990611165
 10
36.75081806442938
 20
57.83036990611165
  0
LINE
  5
8F
330
2
100
AcDbEntity
  8
0
100
AcDbLine
 10
36.75081806442938
 20
57.67699490611178
 30
0.0
 11
36.77619306442955
 21
57.67699490611178
 31
0.0
  0
LINE
  5
90
330
2
100
AcDbEntity
  8
0
100
AcDbLine
 10
36.75081806442938
 20
57.83036990611165
 30
0.0
 11
36.77619306442955
 21
57.83036990611165
 31
0.0
  0
LINE
  5
91
330
2
100
AcDbEntity
  8
0
100
AcDbLine
 10
36.20781806442972
 20
57.67699490611178
 30
0.0
 11
36.18244306442955
 21
57.67699490611178
 31
0.0
  0
LINE
  5
92
330
2
100
AcDbEntity
  8
0
100
AcDbLine
 10
36.20781806442972
 20
57.83036990611165
 30
0.0
 11
36.18244306442955
 21
57.83036990611165
 31
0.0
  0
HATCH
  5
93
330
2
100
AcDbEntity
  8
0
  6
Continuous
100
AcDbHatch
 10
0.0
 20
0.0
 30
0.0
210
0.0
220
0.0
230
1.0
  2
DOTS
 70
     0
 71
     0
 91
        2
 92
        7
 72
     0
 73
     1
 93
        4
 10
36.20781806442972
 20
57.67699490611178
 10
36.18244306442955
 20
57.67699490611178
 10
36.18244306442955
 20
57.83036990611165
 10
36.20781806442972
 20
57.83036990611165
 97
        0
 92
        7
 72
     0
 73
     1
 93
        4
 10
36.77619306442955
 20
57.67699490611178
 10
36.75081806442938
 20
57.67699490611178
 10
36.75081806442938
 20
57.83036990611165
 10
36.77619306442955
 20
57.83036990611165
 97
        0
 75
     0
 76
     1
 52
360.0
 41
0.1
 77
     0
 78
     1
 53
360.0
 43
30.08896331889298
 44
60.93528138598625
 45
0.003125
 46
-0.00625
 79
     2
 49
0.0
 49
-0.00625
 47
0.0006001443632006
 98
        2
 10
36.19609777428229
 20
57.73457984616019
 10
36.76598270367811
 20
57.73818071995904
  0
HATCH
  5
94
330
2
100
AcDbEntity
  8
0
  6
Continuous
100
AcDbHatch
 10
0.0
 20
0.0
 30
0.0
210
0.0
220
0.0
230
1.0
  2
DASH
 70
     0
 71
     0
 91
        1
 92
        7
 72
     1
 73
     1
 93
       16
 10
36.65119306442955
 20
57.59236990611137
 42
0.4142135623730951
 10
36.66681806442955
 20
57.60799490611137
 42
0.0
 10
36.66681806442955
 20
57.66483173797954
 42
-0.3208708054700533
 10
36.69970527637122
 20
57.68555740611194
 42
0.0
 10
36.73519306442938
 20
57.66136990611179
 42
0.414213562373094
 10
36.75081806442938
 20
57.67699490611178
 42
0.0
 10
36.77619306443046
 20
57.67699490611178
 42
0.0
 10
36.77619306442864
 20
57.45536990611256
 42
0.0
 10
36.18244306442955
 20
57.45536990611256
 42
0.0
 10
36.18244306442955
 20
57.67699490611178
 42
0.0
 10
36.20781806442972
 20
57.67699490611178
 42
0.4142135623730951
 10
36.22344306442972
 20
57.66136990611179
 42
0.0
 10
36.25931415468256
 20
57.68555740611194
 42
-0.3359746306540741
 10
36.29181806442955
 20
57.66519464706019
 42
0.0
 10
36.29181806442955
 20
57.60799490611137
 42
0.4142135623730951
 10
36.30744306442955
 20
57.59236990611137
 42
0.0
 97
        0
 75
     0
 76
     1
 52
360.0
 41
0.1
 77
     0
 78
     1
 53
360.0
 43
30.08896331889298
 44
60.93528138598625
 45
0.0125
 46
-0.0125
 79
     2
 49
0.0125
 49
-0.0125
 47
0.0009600803746669
 98
        1
 10
36.52833954451433
 20
57.54153063391735
  0
LINE
  5
95
330
2
100
AcDbEntity
  8
0
100
AcDbLine
 10
36.02470298568949
 20
57.34636990611128
 30
0.0
 11
36.93393314316961
 21
57.45536990611165
 31
0.0
  0
LWPOLYLINE
  5
96
330
2
100
AcDbEntity
  8
0
100
AcDbPolyline
 90
        8
 70
     0
 43
0.0
 10
36.02470298568949
 20
57.34636990611128
 10
36.93393314316961
 20
57.34636990611128
 10
36.93393314316961
 20
57.45536990611165
 10
36.02470298568949
 20
57.45536990611165
 10
36.02470298568949
 20
57.34636990611128
 10
36.93393314316961
 20
57.45536990611165
 10
36.02470298568949
 20
57.45536990611165
 10
36.93393314316961
 20
57.34636990611128
  0
LINE
  5
97
330
2
100
AcDbEntity
  8
0
  6
HIDDEN2
100
AcDbLine
 10
29.49308562255931
 20
62.65897327425554
 30
0.0
 11
36.93393314316961
 21
62.65897327425562
 31
0.0
  0
HATCH
  5
99
330
2
100
AcDbEntity
  8
0
100
AcDbHatch
 10
0.0
 20
0.0
 30
0.0
210
0.0
220
0.0
230
1.0
  2
HONEY
 70
     0
 71
     0
 91
        2
 92
       16
 93
        9
 72
     1
 10
34.84079073964859
 20
67.90894640471567
 11
34.84079073964859
 21
67.93862309509515
 72
     1
 10
34.84079073964859
 20
67.93862309509512
 11
35.21818812603596
 21
67.93846743602466
 72
     1
 10
35.21818812603596
 20
67.93846743602466
 11
35.21805599698212
 21
67.61811887273106
 72
     1
 10
35.21805599698212
 20
67.61811887273109
 11
35.18455444397261
 21
67.61813269058141
 72
     1
 10
35.18455444397256
 20
67.61813269058141
 11
35.18467499214017
 21
67.91040324860197
 72
     1
 10
35.18467499214017
 20
67.91040324860197
 11
34.8712484592985
 21
67.91053252263648
 72
     1
 10
34.8712484592985
 20
67.91053252263648
 11
34.96615509911271
 21
67.81554756126737
 72
     1
 10
34.96615509911271
 20
67.81554756126737
 11
34.93411256940397
 21
67.81554756126737
 72
     1
 10
34.93411256940397
 20
67.81554756126737
 11
34.84079073964864
 21
67.90894640471567
 97
        0
 92
        1
 93
       11
 72
     1
 10
35.28785652559492
 20
67.60936741726226
 11
35.28796901153754
 21
67.88209100885649
 72
     2
 10
35.23084100042513
 20
67.88211457153451
 40
0.0571280159716573
 50
359.9763681265573
 51
449.9763681265644
 73
     1
 72
     1
 10
35.23086456310319
 20
67.93924258264692
 11
34.84001036471165
 21
67.93940379203363
 72
     1
 10
34.84001036471165
 20
67.93940379203363
 11
34.83995880796312
 21
67.81440380266602
 72
     1
 10
34.83995880796312
 20
67.81440380266602
 11
35.18393314316967
 21
67.81426192906749
 72
     1
 10
35.18393314316961
 20
67.81426192906749
 11
35.18381643723666
 21
67.53130691757093
 72
     2
 10
35.37132546299654
 20
67.55315131903333
 40
0.1887771506741734
 50
186.6448831998169
 51
353.3078530532888
 73
     1
 72
     1
 10
35.55881640533949
 20
67.53115224732528
 11
35.55894509433972
 21
67.84316035712851
 72
     2
 10
35.470142971592
 20
67.83707084063394
 40
0.0890106691113012
 50
3.922859359099021
 51
176.0298768940037
 73
     1
 72
     1
 10
35.3813459023483
 20
67.84323360862981
 11
35.44543281483112
 21
67.6327965485074
 72
     2
 10
35.36839138185661
 20
67.60933420033677
 40
0.0805348631119007
 50
343.0623079543601
 51
540.0236318734479
 73
     0
 97
        0
 75
     1
 76
     1
 52
0.0
 41
0.2
 77
     0
 78
     3
 53
0.0
 43
-70.46696600844535
 44
16.69305994496002
 45
0.0375
 46
0.021650635094611
 79
     2
 49
0.025
 49
-0.05
 53
120.0
 43
-70.46696600844535
 44
16.69305994496002
 45
-0.0375
 46
0.021650635094611
 79
     2
 49
0.0249999999999999
 49
-0.0499999999999999
 53
60.0
 43
-70.46696600844535
 44
16.69305994496002
 45
0.0
 46
0.043301270189222
 79
     2
 49
-0.05
 49
0.025
 98
        1
 10
-70.46696600844535
 20
16.69305994496002
1001
GradientColor1ACI
1070
     5
1001
GradientColor2ACI
1070
     2
1001
ACAD
1010
0.0
1020
0.0
1030
0.0
  0
LWPOLYLINE
  5
9A
330
2
100
AcDbEntity
  8
0
100
AcDbPolyline
 90
       11
 70
     1
 43
0.0
 10
35.28785652559492
 20
67.60936741726226
 10
35.28796901153754
 20
67.88209100885649
 42
0.4142135623731042
 10
35.23086456310319
 20
67.93924258264692
 10
34.84001036471165
 20
67.93940379203363
 10
34.83995880796312
 20
67.81440380266602
 10
35.18393314316961
 20
67.81426192906749
 10
35.18381643723666
 20
67.53130691757093
 42
0.8898955318630001
 10
35.55881640533949
 20
67.53115224732528
 10
35.55894509433972
 20
67.84316035712851
 42
0.9333884728362816
 10
35.3813459023483
 20
67.84323360862981
 10
35.44543281483112
 20
67.6327965485074
 42
-1.16016115395227
  0
LWPOLYLINE
  5
9B
330
2
100
AcDbEntity
  8
0
  6
Continuous
100
AcDbPolyline
 90
        9
 70
     1
 43
0.0
 10
34.84079073964859
 20
67.90894640471567
 10
34.84079073964859
 20
67.93862309509512
 10
35.21818812603596
 20
67.93846743602466
 10
35.21805599698212
 20
67.61811887273109
 10
35.18455444397256
 20
67.61813269058141
 10
35.18467499214017
 20
67.91040324860197
 10
34.8712484592985
 20
67.91053252263648
 10
34.96615509911271
 20
67.81554756126737
 10
34.93411256940397
 20
67.81554756126737
  0
LINE
  5
9C
330
2
100
AcDbEntity
  8
0
  6
HIDDEN
100
AcDbLine
 10
34.99643314316967
 20
50.19053721333992
 30
0.0
 11
34.99643314316967
 21
50.28253721334073
 31
0.0
  0
LINE
  5
9E
330
2
100
AcDbEntity
  8
0
  6
HIDDEN
100
AcDbLine
 10
34.99643314316967
 20
51.3192915248975
 30
0.0
 11
34.99643314316961
 21
58.53397327425563
 31
0.0
  0
LINE
  5
9F
330
2
100
AcDbEntity
  8
0
  6
HIDDEN
100
AcDbLine
 10
34.99643314316955
 20
62.6589732742556
 30
0.0
 11
34.99643314316961
 21
67.34540933517132
 31
0.0
  0
LINE
  5
A0
330
2
100
AcDbEntity
  8
0
100
AcDbLine
 10
35.18262334572501
 20
67.34540933517132
 30
0.0
 11
35.18262334572501
 21
62.6589732742556
 31
0.0
  0
LINE
  5
A1
330
2
100
AcDbEntity
  8
0
100
AcDbLine
 10
35.18262334572507
 20
58.53397327425563
 30
0.0
 11
35.18262334572495
 21
51.35465032030106
 31
0.0
  0
LINE
  5
A2
330
2
100
AcDbEntity
  8
0
100
AcDbLine
 10
35.18262334572495
 20
50.37522741589589
 30
0.0
 11
35.18262334572495
 21
50.19053721333992
 31
0.0
  0
LINE
  5
A3
330
2
100
AcDbEntity
  8
0
100
AcDbLine
 10
34.11962334572507
 20
67.34540933517132
 30
0.0
 11
34.11962334572507
 21
62.65897327425557
 31
0.0
  0
LINE
  5
A4
330
2
100
AcDbEntity
  8
0
100
AcDbLine
 10
34.18212334572507
 20
67.34540933517132
 30
0.0
 11
34.18212334572507
 21
62.65897327425557
 31
0.0
  0
LINE
  5
A5
330
2
100
AcDbEntity
  8
0
100
AcDbLine
 10
34.24462334572508
 20
67.34540933517132
 30
0.0
 11
34.24462334572508
 21
62.65897327425557
 31
0.0
  0
LINE
  5
A6
330
2
100
AcDbEntity
  8
0
100
AcDbLine
 10
34.11962334572507
 20
58.53397327425563
 30
0.0
 11
34.11962334572507
 21
50.19053721333992
 31
0.0
  0
LINE
  5
A7
330
2
100
AcDbEntity
  8
0
100
AcDbLine
 10
34.18212334572507
 20
58.53397327425563
 30
0.0
 11
34.18212334572507
 21
50.19053721333992
 31
0.0
  0
LINE
  5
A8
330
2
100
AcDbEntity
  8
0
100
AcDbLine
 10
34.24462334572508
 20
58.53397327425563
 30
0.0
 11
34.24462334572508
 21
50.19053721333992
 31
0.0
  0
LINE
  5
A9
330
2
100
AcDbEntity
  8
0
100
AcDbLine
 10
35.55893314316961
 20
67.34540933517132
 30
0.0
 11
34.11962334572507
 21
67.34540933517132
 31
0.0
  0
LINE
  5
AA
330
2
100
AcDbEntity
  8
0
100
AcDbLine
 10
35.18262334572495
 20
50.19053721333995
 30
0.0
 11
34.11962334572507
 21
50.19053721333995
 31
0.0
  0
LINE
  5
AB
330
2
100
AcDbEntity
  8
0
100
AcDbLine
 10
35.62093314316963
 20
50.53353721333994
 30
0.0
 11
35.34093314316948
 21
50.53353721333994
 31
0.0
  0
LINE
  5
AC
330
2
100
AcDbEntity
  8
0
  6
HIDDEN
100
AcDbLine
 10
34.99643314316995
 20
50.19053721345168
 30
0.0
 11
34.99643314316995
 21
50.28253721345248
 31
0.0
  0
LINE
  5
AD
330
2
100
AcDbEntity
  8
0
100
AcDbLine
 10
35.18262334572523
 20
50.37522741600764
 30
0.0
 11
35.18262334572523
 21
50.19053721345168
 31
0.0
  0
LWPOLYLINE
  5
AE
330
2
100
AcDbEntity
  8
0
  6
Continuous
100
AcDbPolyline
 90
       16
 70
     1
 43
0.0
 10
32.05870329009702
 20
50.25253721333363
 10
32.05870329010429
 20
49.78653721334055
 42
0.4142135623730951
 10
32.18370329010429
 20
49.66153721334055
 10
32.24670329011349
 20
49.66153721334055
 10
32.24670329011349
 20
49.40853721333994
 10
32.15370329012728
 20
49.40853721333994
 10
32.15370329012728
 20
49.47353721333863
 10
32.18470329010813
 20
49.47353721333863
 10
32.18470329010813
 20
49.59953721332428
 10
32.05870329009702
 20
49.59953721332428
 10
32.05870329009702
 20
49.47353721333863
 10
32.0897032901288
 20
49.47353721333863
 10
32.0897032901288
 20
49.40853721333994
 10
31.99670329011349
 20
49.40853721333994
 10
31.99670329011349
 20
50.28353721333994
 10
32.02770329010889
 20
50.28353721333363
 42
-0.4142135623730951
  0
LWPOLYLINE
  5
AF
330
2
100
AcDbEntity
  8
0
  6
Continuous
100
AcDbPolyline
 90
        2
 70
     0
 43
0.0
 10
32.0551263403587
 20
49.10936245275564
 10
32.0917032901026
 20
49.47353721333863
  0
LWPOLYLINE
  5
B0
330
2
100
AcDbEntity
  8
0
  6
Continuous
100
AcDbPolyline
 90
        2
 70
     0
 43
0.0
 10
32.12420329010263
 20
49.10936245275564
 10
32.12420329010263
 20
49.49853721333861
  0
LWPOLYLINE
  5
B1
330
2
100
AcDbEntity
  8
0
  6
Continuous
100
AcDbPolyline
 90
        2
 70
     0
 43
0.0
 10
32.11920329010264
 20
49.10936245275564
 10
32.11920329010264
 20
49.49853721333861
  0
LWPOLYLINE
  5
B2
330
2
100
AcDbEntity
  8
0
  6
Continuous
100
AcDbPolyline
 90
        3
 70
     0
 43
0.0
 10
32.11503662343591
 20
49.49853721333861
 10
32.11503662343591
 20
49.47353721333863
 10
32.11029432924659
 20
49.10936245275564
  0
LWPOLYLINE
  5
B3
330
2
100
AcDbEntity
  8
0
  6
Continuous
100
AcDbPolyline
 90
        3
 70
     0
 43
0.0
 10
32.11170329010258
 20
49.49853721333861
 10
32.11170329010258
 20
49.47353721333863
 10
32.10228123007676
 20
49.10936245275564
  0
LWPOLYLINE
  5
B4
330
2
100
AcDbEntity
  8
0
  6
Continuous
100
AcDbPolyline
 90
        3
 70
     0
 43
0.0
 10
32.10836995676925
 20
49.49853721333861
 10
32.10836995676925
 20
49.47353721333863
 10
32.09431317532529
 20
49.10936245275564
  0
LWPOLYLINE
  5
B5
330
2
100
AcDbEntity
  8
0
  6
Continuous
100
AcDbPolyline
 90
        3
 70
     0
 43
0.0
 10
32.10503662343592
 20
49.49853721333861
 10
32.10503662343592
 20
49.47353721333863
 10
32.08638951775413
 20
49.10936245275564
  0
LWPOLYLINE
  5
B6
330
2
100
AcDbEntity
  8
0
  6
Continuous
100
AcDbPolyline
 90
        3
 70
     0
 43
0.0
 10
32.10170329010259
 20
49.49853721333861
 10
32.10170329010259
 20
49.47353721333863
 10
32.07850962246642
 20
49.10936245275564
  0
LWPOLYLINE
  5
B7
330
2
100
AcDbEntity
  8
0
  6
Continuous
100
AcDbPolyline
 90
        3
 70
     0
 43
0.0
 10
32.09836995676926
 20
49.49853721333861
 10
32.09836995676926
 20
49.47353721333863
 10
32.07067286661323
 20
49.10936245275564
  0
LWPOLYLINE
  5
B8
330
2
100
AcDbEntity
  8
0
  6
Continuous
100
AcDbPolyline
 90
        3
 70
     0
 43
0.0
 10
32.09503662343593
 20
49.49853721333861
 10
32.09503662343593
 20
49.47353721333863
 10
32.06287863910984
 20
49.10936245275564
  0
LWPOLYLINE
  5
B9
330
2
100
AcDbEntity
  8
0
  6
Continuous
100
AcDbPolyline
 90
        3
 70
     0
 43
0.0
 10
32.13311225095868
 20
49.10936245275564
 10
32.12836995676923
 20
49.47353721333863
 10
32.12836995676923
 20
49.49853721333861
  0
LWPOLYLINE
  5
BA
330
2
100
AcDbEntity
  8
0
  6
Continuous
100
AcDbPolyline
 90
        3
 70
     0
 43
0.0
 10
32.1411253501285
 20
49.10936245275564
 10
32.13170329010268
 20
49.47353721333863
 10
32.13170329010268
 20
49.49853721333861
  0
LWPOLYLINE
  5
BB
330
2
100
AcDbEntity
  8
0
  6
Continuous
100
AcDbPolyline
 90
        3
 70
     0
 43
0.0
 10
32.14909340487987
 20
49.10936245275564
 10
32.13503662343601
 20
49.47353721333863
 10
32.13503662343601
 20
49.49853721333861
  0
LWPOLYLINE
  5
BC
330
2
100
AcDbEntity
  8
0
  6
Continuous
100
AcDbPolyline
 90
        3
 70
     0
 43
0.0
 10
32.15701706245102
 20
49.10936245275564
 10
32.13836995676934
 20
49.47353721333863
 10
32.13836995676934
 20
49.49853721333861
  0
LWPOLYLINE
  5
BD
330
2
100
AcDbEntity
  8
0
  6
Continuous
100
AcDbPolyline
 90
        3
 70
     0
 43
0.0
 10
32.16489695773885
 20
49.10936245275564
 10
32.14170329010267
 20
49.47353721333863
 10
32.14170329010267
 20
49.49853721333861
  0
LWPOLYLINE
  5
BE
330
2
100
AcDbEntity
  8
0
  6
Continuous
100
AcDbPolyline
 90
        3
 70
     0
 43
0.0
 10
32.17273371359204
 20
49.10936245275564
 10
32.145036623436
 20
49.47353721333863
 10
32.145036623436
 20
49.49853721333861
  0
LWPOLYLINE
  5
BF
330
2
100
AcDbEntity
  8
0
  6
Continuous
100
AcDbPolyline
 90
        3
 70
     0
 43
0.0
 10
32.18052794109542
 20
49.10936245275564
 10
32.14836995676933
 20
49.47353721333863
 10
32.14836995676933
 20
49.49853721333861
  0
LWPOLYLINE
  5
C0
330
2
100
AcDbEntity
  8
0
  6
Continuous
100
AcDbPolyline
 90
       10
 70
     0
 43
0.0
 10
32.2174814089999
 20
49.10936245275564
 10
32.15170329010266
 20
49.47353721333863
 10
32.18407829010266
 20
49.47353721333863
 10
32.18407829010266
 20
49.59791523644759
 10
32.0593282901026
 20
49.59791523644759
 10
32.0593282901026
 20
49.47353721333863
 10
32.0917032901026
 20
49.47353721333863
 10
32.0917032901026
 20
49.49853721333861
 10
32.15170329010266
 20
49.49853721333861
 10
32.15170329010266
 20
49.47353721333863
  0
LWPOLYLINE
  5
C1
330
2
100
AcDbEntity
  8
0
  6
Continuous
100
AcDbPolyline
 90
        3
 70
     0
 43
0.0
 10
32.20102443307974
 20
49.10936245275564
 10
32.15170329010266
 20
49.47353721333863
 10
32.18828023984656
 20
49.10936245275564
  0
LWPOLYLINE
  5
C2
330
2
100
AcDbEntity
  8
0
  6
Continuous
100
AcDbPolyline
 90
        2
 70
     0
 43
0.0
 10
32.20853676244974
 20
49.10936245275564
 10
32.15263377557881
 20
49.47017924927322
  0
LWPOLYLINE
  5
C3
330
2
100
AcDbEntity
  8
0
  6
Continuous
100
AcDbPolyline
 90
        3
 70
     0
 43
0.0
 10
32.02592517120536
 20
49.10936245275564
 10
32.0917032901026
 20
49.47353721333863
 10
32.04238214712552
 20
49.10936245275564
  0
LWPOLYLINE
  5
C4
330
2
100
AcDbEntity
  8
0
  6
Continuous
100
AcDbPolyline
 90
        2
 70
     0
 43
0.0
 10
32.03486981775552
 20
49.10936245275564
 10
32.09077280462646
 20
49.47017924927322
  0
LINE
  5
C5
330
2
100
AcDbEntity
  8
0
  6
HIDDEN2
100
AcDbLine
 10
29.49308562255931
 20
58.53579682370534
 30
0.0
 11
36.93393314316961
 21
58.53579682370543
 31
0.0
  0
LINE
  5
C6
330
2
100
AcDbEntity
  8
0
  6
HIDDEN
100
AcDbLine
 10
32.37170329011354
 20
67.34540933517132
 30
0.0
 11
32.37170329011338
 21
62.6589732742556
 31
0.0
  0
LINE
  5
C7
330
2
100
AcDbEntity
  8
0
  6
HIDDEN
100
AcDbLine
 10
32.37170329011326
 20
58.5357968237054
 30
0.0
 11
32.37170329011303
 21
49.34603721333994
 31
0.0
  0
LINE
  5
C8
330
2
100
AcDbEntity
  8
0
100
AcDbLine
 10
32.18551308755809
 20
67.34540933517135
 30
0.0
 11
32.18551308755815
 21
62.6589732742556
 31
0.0
  0
LINE
  5
C9
330
2
100
AcDbEntity
  8
0
100
AcDbLine
 10
32.18551308755815
 20
58.5357968237054
 30
0.0
 11
32.18551308755815
 21
49.66153721334055
 31
0.0
  0
LINE
  5
CA
330
2
100
AcDbEntity
  8
0
100
AcDbLine
 10
32.18551308755815
 20
49.40853721333994
 30
0.0
 11
32.18551308755815
 21
49.34603721333994
 31
0.0
  0
LINE
  5
CB
330
2
100
AcDbEntity
  8
0
100
AcDbLine
 10
33.12451308755806
 20
67.34540933517135
 30
0.0
 11
33.12451308755823
 21
62.6589732742556
 31
0.0
  0
LINE
  5
CC
330
2
100
AcDbEntity
  8
0
100
AcDbLine
 10
33.12451308755834
 20
58.5357968237054
 30
0.0
 11
33.12451308755851
 21
49.34603721333994
 31
0.0
  0
LINE
  5
CD
330
2
100
AcDbEntity
  8
0
100
AcDbLine
 10
33.18651308755813
 20
67.34540933517135
 30
0.0
 11
33.18651308755818
 21
62.6589732742556
 31
0.0
  0
LINE
  5
CE
330
2
100
AcDbEntity
  8
0
100
AcDbLine
 10
33.18651308755818
 20
58.5357968237054
 30
0.0
 11
33.18651308755818
 21
49.34603721333994
 31
0.0
  0
LINE
  5
CF
330
2
100
AcDbEntity
  8
0
100
AcDbLine
 10
33.24851308755808
 20
67.34540933517132
 30
0.0
 11
33.24851308755814
 21
62.6589732742556
 31
0.0
  0
LINE
  5
D0
330
2
100
AcDbEntity
  8
0
100
AcDbLine
 10
33.24851308755814
 20
58.5357968237054
 30
0.0
 11
33.24851308755808
 21
49.34603721333994
 31
0.0
  0
LINE
  5
D1
330
2
100
AcDbEntity
  8
0
100
AcDbLine
 10
33.24851308755808
 20
67.34540933517132
 30
0.0
 11
31.99670329011349
 21
67.34540933517132
 31
0.0
  0
LINE
  5
D2
330
2
100
AcDbEntity
  8
0
100
AcDbLine
 10
33.24851308755808
 20
49.34603721333994
 30
0.0
 11
31.99670329011349
 21
49.34603721333994
 31
0.0
  0
LINE
  5
D3
330
2
100
AcDbEntity
  8
0
100
AcDbLine
 10
31.99670329011349
 20
49.40853721333994
 30
0.0
 11
31.99670329011349
 21
49.34603721333994
 31
0.0
  0
LWPOLYLINE
  5
D4
330
2
100
AcDbEntity
  8
0
100
AcDbPolyline
 90
       15
 70
     0
 43
0.0
 10
29.30770329011324
 20
68.26741486767659
 42
0.4142135623730951
 10
29.36970329011325
 20
68.20541486767661
 10
30.2467032901132
 20
68.20541486767661
 10
30.24670329011332
 20
69.45541486767661
 10
30.30870329011327
 20
69.45541486767661
 10
30.30870329011327
 20
70.08041486767658
 10
29.24570329011329
 20
70.08041486767658
 42
0.4142135623731003
 10
29.18370329011327
 20
70.01841486767659
 10
29.18370329011327
 20
69.48641486767659
 42
0.4142135623730951
 10
29.21470329011328
 20
69.45541486767661
 10
29.24570329011329
 20
69.45541486767661
 10
29.24570329011329
 20
69.23641486767659
 42
0.4142135623730951
 10
29.27670329011329
 20
69.20541486767658
 10
29.30770329011324
 20
69.20541486767658
 10
29.30770329011324
 20
68.26741487714591
  0
HATCH
  5
D5
330
2
100
AcDbEntity
  8
0
  6
Continuous
100
AcDbHatch
 10
0.0
 20
0.0
 30
0.0
210
0.0
220
0.0
230
1.0
  2
STEEL
 70
     0
 71
     0
 91
        1
 92
        7
 72
     0
 73
     1
 93
        6
 10
30.30870329011321
 20
68.70141486767659
 10
30.30870329011333
 20
69.42123313161227
 10
30.24670329011332
 20
69.42123313161227
 10
30.2467032901132
 20
68.63941486767657
 10
30.90383468438796
 20
68.63941486767657
 10
30.90383468438796
 20
68.70141486767659
 97
        0
 75
     0
 76
     1
 52
-0.0000000000000127
 41
1.0
 77
     0
 78
     2
 53
44.99999999999999
 43
128.202088125639
 44
25.43536238666948
 45
-0.0883883476483184
 46
0.0883883476483185
 79
     0
 53
44.99999999999999
 43
128.202088125639
 44
25.49786238666948
 45
-0.0883883476483184
 46
0.0883883476483185
 79
     0
 47
0.003572857848563
 98
        1
 10
30.41727885525762
 20
68.67379678072032
  0
LINE
  5
D6
330
2
100
AcDbEntity
  8
0
100
AcDbLine
 10
30.24670329011332
 20
69.42123313161227
 30
0.0
 11
30.2467032901132
 21
68.63941486767657
 31
0.0
  0
LINE
  5
D7
330
2
100
AcDbEntity
  8
0
  6
Continuous
100
AcDbLine
 10
30.2467032901132
 20
68.63941486767657
 30
0.0
 11
30.90383468438796
 21
68.63941486767657
 31
0.0
  0
LINE
  5
D8
330
2
100
AcDbEntity
  8
0
  6
Continuous
100
AcDbLine
 10
30.30870329011321
 20
68.70141486767659
 30
0.0
 11
30.90383468438796
 21
68.70141486767659
 31
0.0
  0
LINE
  5
D9
330
2
100
AcDbEntity
  8
0
  6
Continuous
100
AcDbLine
 10
30.90383468438796
 20
68.70141486767659
 30
0.0
 11
30.90383468438796
 21
68.63941486767657
 31
0.0
  0
LINE
  5
DA
330
2
100
AcDbEntity
  8
0
100
AcDbLine
 10
30.30870329011333
 20
69.42123313161227
 30
0.0
 11
30.30870329011321
 21
68.70141486767659
 31
0.0
  0
INSERT
  5
DB
330
2
100
AcDbEntity
  8
0
100
AcDbBlockReference
  2
8 x .75 FH
 10
30.30870329011327
 20
69.06132399964443
 30
0.0
 50
270.0
  0
INSERT
  5
129
330
2
100
AcDbEntity
  8
0
100
AcDbBlockReference
  2
8 X .625 PH
 10
30.60626898725059
 20
68.70141486767659
 30
0.0
  0
LINE
  5
17E
330
2
100
AcDbEntity
  8
0
100
AcDbLine
 10
30.30870329011333
 20
69.42123313161227
 30
0.0
 11
30.24670329011332
 21
69.42123313161229
 31
0.0
  0
LWPOLYLINE
  5
17F
330
2
100
AcDbEntity
  8
0
100
AcDbPolyline
 90
       19
 70
     1
 43
0.0
 10
32.18420329011349
 20
67.89141486767704
 10
32.18420329011349
 20
67.68891486767703
 42
0.4142135623730818
 10
32.2462032901135
 20
67.62691486767701
 10
32.74643314316961
 20
67.62691486767701
 10
32.74643314316961
 20
67.7979148631012
 42
-0.3200000000033261
 10
32.74643314316961
 20
67.92291486310282
 10
32.74643314316961
 20
68.36241487225283
 42
1.0
 10
32.74643314316961
 20
68.54841487225218
 10
32.74643314316961
 20
68.639414867677
 10
32.12143314316961
 20
68.639414867677
 10
31.99640072180205
 20
68.38945811174676
 10
31.49670329011349
 20
68.639414867677
 10
30.24670329011349
 20
68.63941486767697
 10
30.24670329011349
 20
68.06441486767699
 42
0.4142135623730959
 10
30.3087032901135
 20
68.002414867677
 10
32.18420329011349
 20
68.00241486767703
 10
32.18420329011349
 20
67.99781977045663
 10
32.4240134559052
 20
68.01880044136169
 10
32.43325196463644
 20
67.91320380336395
  0
HATCH
  5
180
330
2
100
AcDbEntity
  8
0
100
AcDbHatch
 10
0.0
 20
0.0
 30
0.0
210
0.0
220
0.0
230
1.0
  2
HONEY
 70
     0
 71
     0
 91
        1
 92
        1
 93
       16
 72
     1
 10
32.29820329011352
 20
67.89841486767705
 11
32.29320329011353
 21
67.94041486767705
 72
     1
 10
32.29320329011353
 20
67.94041486767702
 11
32.18420329011355
 21
67.94041486767702
 72
     1
 10
32.18420329011349
 20
67.94041486767702
 11
32.18420329011355
 21
67.68741486767701
 72
     2
 10
32.12220329011348
 20
67.68741486767703
 40
0.0620000000000118
 50
0.0
 51
90.0
 73
     0
 72
     1
 10
32.12220329011348
 20
67.62541486767702
 11
32.07497708880061
 21
67.62541486767708
 72
     2
 10
32.07497708880061
 20
67.64041486767706
 40
0.0149999999999864
 50
90.0
 51
160.149945478262
 73
     0
 72
     1
 10
32.0608683215554
 20
67.63532147128353
 11
31.94098227488058
 21
67.96740721482294
 72
     2
 10
31.95509104212579
 20
67.97250061121644
 40
0.0149999999999975
 50
160.1499454783641
 51
249.5218661953308
 73
     0
 72
     1
 10
31.94984329382226
 20
67.98655269781392
 11
31.9798228798175
 21
67.9977485668727
 72
     2
 10
31.98507062812098
 20
67.98369648027523
 40
0.0149999999999873
 50
249.5218661952929
 51
340.1499454783642
 73
     0
 72
     1
 10
31.99917939536618
 20
67.98878987666876
 11
32.09209452286831
 21
67.7314138929041
 72
     2
 10
32.10620329011346
 20
67.7365072892976
 40
0.0149999999999804
 50
199.8500545217748
 51
359.9999999998914
 73
     1
 72
     1
 10
32.1212032901135
 20
67.7365072892976
 11
32.1212032901135
 21
67.97141486767703
 72
     2
 10
32.15220329011345
 20
67.97141486767703
 40
0.0310000000000059
 50
180.0
 51
270.0
 73
     0
 72
     1
 10
32.15220329011345
 20
68.00241486767703
 11
32.40220329011345
 21
68.00241486767703
 72
     1
 10
32.40220329011345
 20
68.00241486767703
 11
32.29820329011346
 21
67.89841486767705
 97
        0
 75
     1
 76
     1
 52
360.0
 41
0.15
 77
     0
 78
     3
 53
360.0
 43
197.5846664563628
 44
-89.80233269586802
 45
0.028125
 46
0.0162379763209582
 79
     2
 49
0.01875
 49
-0.0375
 53
119.9999999999999
 43
197.5846664563628
 44
-89.80233269586802
 45
-0.028125
 46
0.0162379763209582
 79
     2
 49
0.01875
 49
-0.0374999999999999
 53
59.99999999999997
 43
197.5846664563628
 44
-89.80233269586802
 45
0.0
 46
0.0324759526419165
 79
     2
 49
-0.0375
 49
0.01875
 98
        1
 10
197.5846664563628
 20
-89.80233269586802
1001
GradientColor1ACI
1070
     5
1001
GradientColor2ACI
1070
     2
1001
ACAD
1010
0.0
1020
0.0
1030
0.0
  0
LWPOLYLINE
  5
181
330
2
100
AcDbEntity
  8
0
100
AcDbPolyline
 90
       16
 70
     1
 43
0.0
 10
32.29820329011352
 20
67.89841486767705
 10
32.29320329011353
 20
67.94041486767702
 10
32.18420329011349
 20
67.94041486767702
 10
32.18420329011349
 20
67.68741486767703
 42
-0.4142135623730951
 10
32.12220329011348
 20
67.62541486767702
 10
32.07497708880061
 20
67.62541486767708
 42
-0.3160182401893135
 10
32.0608683215554
 20
67.63532147128353
 10
31.94098227488064
 20
67.96740721482291
 42
-0.4110064843483962
 10
31.94984329382226
 20
67.98655269781392
 10
31.97982287981745
 20
67.9977485668727
 42
-0.4174279297685614
 10
31.99917939536618
 20
67.98878987666876
 10
32.09209452286831
 20
67.73141389290407
 42
0.840215161469082
 10
32.1212032901135
 20
67.7365072892976
 10
32.1212032901135
 20
67.97141486767703
 42
-0.4142135623730951
 10
32.15220329011345
 20
68.00241486767703
 10
32.40220329011345
 20
68.00241486767703
  0
LWPOLYLINE
  5
182
330
2
100
AcDbEntity
  8
0
  6
HIDDEN2
100
AcDbPolyline
 90
        4
 70
     0
 43
0.02
 10
31.77795329011349
 20
63.59566486767509
 10
31.68888483473017
 20
63.59566486767509
 42
0.4142135623730951
 10
31.64238483473014
 20
63.5491648676751
 10
31.64238483473014
 20
62.65897327425562
  0
LWPOLYLINE
  5
183
330
2
100
AcDbEntity
  8
0
100
AcDbPolyline
 90
        2
 70
     1
 43
0.05859375
 10
31.71932034246527
 20
63.62496174267509
 42
1.0
 10
31.71932034246527
 20
63.56636799267509
 42
1.0
  0
HATCH
  5
184
330
2
100
AcDbEntity
  8
0
100
AcDbHatch
 10
0.0
 20
0.0
 30
0.0
210
0.0
220
0.0
230
1.0
  2
SOLID
 70
     1
 71
     0
 91
        1
 92
        7
 72
     0
 73
     1
 93
        4
 10
29.77582570129937
 20
63.65816486767508
 10
29.65082570129937
 20
63.65816486767511
 10
29.65082570129937
 20
63.53316486767508
 10
29.77582570129937
 20
63.53316486767508
 97
        0
 75
     1
 76
     1
 47
0.0019978748433788
 98
        1
 10
29.68892685616004
 20
63.61150614538567
1001
GradientColor1ACI
1070
     5
1001
GradientColor2ACI
1070
     2
1001
ACAD
1010
0.0
1020
0.0
1030
0.0
  0
HATCH
  5
185
330
2
100
AcDbEntity
  8
0
100
AcDbHatch
 10
0.0
 20
0.0
 30
0.0
210
0.0
220
0.0
230
1.0
  2
SOLID
 70
     1
 71
     0
 91
        1
 92
        7
 72
     1
 73
     1
 93
        2
 10
29.49308562255942
 20
63.40816486767508
 42
0.0
 10
29.49308562255931
 20
63.59566486767505
 42
0.6666666666666311
 97
        0
 75
     1
 76
     1
 47
0.0010014887122476
 98
        1
 10
29.44702554621244
 20
63.52307006371922
1001
GradientColor1ACI
1070
     5
1001
GradientColor2ACI
1070
     2
1001
ACAD
1010
0.0
1020
0.0
1030
0.0
  0
LWPOLYLINE
  5
186
330
2
100
AcDbEntity
  8
0
100
AcDbPolyline
 90
        4
 70
     0
 43
0.0
 10
29.65082570129937
 20
62.65806149953073
 10
29.65082570129937
 20
63.7366648676747
 10
29.49308562255931
 20
63.7366648676747
 10
29.49308562255931
 20
62.65806149953073
  0
LWPOLYLINE
  5
187
330
2
100
AcDbEntity
  8
0
100
AcDbPolyline
 90
        8
 70
     0
 43
0.0
 10
29.49308562255931
 20
63.84566486767508
 10
29.65082570129937
 20
63.84566486767508
 10
29.65082570129937
 20
63.7366648676747
 10
29.49308562255931
 20
63.7366648676747
 10
29.49308562255931
 20
63.84566486767508
 10
29.65082570129937
 20
63.7366648676747
 10
29.49308562255931
 20
63.7366648676747
 10
29.65082570129937
 20
63.84566486767508
  0
LWPOLYLINE
  5
188
330
2
100
AcDbEntity
  8
0
  6
Continuous
100
AcDbPolyline
 90
       16
 70
     1
 43
0.0
 10
32.05870329009702
 20
50.25253721333363
 10
32.05870329010429
 20
49.78653721334055
 42
0.4142135623730951
 10
32.18370329010429
 20
49.66153721334055
 10
32.24670329011349
 20
49.66153721334055
 10
32.24670329011349
 20
49.40853721333994
 10
32.15370329012728
 20
49.40853721333994
 10
32.15370329012728
 20
49.47353721333863
 10
32.18470329010813
 20
49.47353721333863
 10
32.18470329010813
 20
49.59953721332428
 10
32.05870329009702
 20
49.59953721332428
 10
32.05870329009702
 20
49.47353721333863
 10
32.0897032901288
 20
49.47353721333863
 10
32.0897032901288
 20
49.40853721333994
 10
31.99670329011349
 20
49.40853721333994
 10
31.99670329011349
 20
50.28353721333994
 10
32.02770329010889
 20
50.28353721333363
 42
-0.4142135623730951
  0
LWPOLYLINE
  5
189
330
2
100
AcDbEntity
  8
0
  6
Continuous
100
AcDbPolyline
 90
        2
 70
     0
 43
0.0
 10
32.0551263403587
 20
49.10936245275564
 10
32.0917032901026
 20
49.47353721333863
  0
LWPOLYLINE
  5
18A
330
2
100
AcDbEntity
  8
0
  6
Continuous
100
AcDbPolyline
 90
        2
 70
     0
 43
0.0
 10
32.12420329010263
 20
49.10936245275564
 10
32.12420329010263
 20
49.49853721333861
  0
LWPOLYLINE
  5
18B
330
2
100
AcDbEntity
  8
0
  6
Continuous
100
AcDbPolyline
 90
        2
 70
     0
 43
0.0
 10
32.11920329010264
 20
49.10936245275564
 10
32.11920329010264
 20
49.49853721333861
  0
LWPOLYLINE
  5
18C
330
2
100
AcDbEntity
  8
0
  6
Continuous
100
AcDbPolyline
 90
        3
 70
     0
 43
0.0
 10
32.11503662343591
 20
49.49853721333861
 10
32.11503662343591
 20
49.47353721333863
 10
32.11029432924659
 20
49.10936245275564
  0
LWPOLYLINE
  5
18D
330
2
100
AcDbEntity
  8
0
  6
Continuous
100
AcDbPolyline
 90
        3
 70
     0
 43
0.0
 10
32.11170329010258
 20
49.49853721333861
 10
32.11170329010258
 20
49.47353721333863
 10
32.10228123007676
 20
49.10936245275564
  0
LWPOLYLINE
  5
18E
330
2
100
AcDbEntity
  8
0
  6
Continuous
100
AcDbPolyline
 90
        3
 70
     0
 43
0.0
 10
32.10836995676925
 20
49.49853721333861
 10
32.10836995676925
 20
49.47353721333863
 10
32.09431317532529
 20
49.10936245275564
  0
LWPOLYLINE
  5
18F
330
2
100
AcDbEntity
  8
0
  6
Continuous
100
AcDbPolyline
 90
        3
 70
     0
 43
0.0
 10
32.10503662343592
 20
49.49853721333861
 10
32.10503662343592
 20
49.47353721333863
 10
32.08638951775413
 20
49.10936245275564
  0
LWPOLYLINE
  5
190
330
2
100
AcDbEntity
  8
0
  6
Continuous
100
AcDbPolyline
 90
        3
 70
     0
 43
0.0
 10
32.10170329010259
 20
49.49853721333861
 10
32.10170329010259
 20
49.47353721333863
 10
32.07850962246642
 20
49.10936245275564
  0
LWPOLYLINE
  5
191
330
2
100
AcDbEntity
  8
0
  6
Continuous
100
AcDbPolyline
 90
        3
 70
     0
 43
0.0
 10
32.09836995676926
 20
49.49853721333861
 10
32.09836995676926
 20
49.47353721333863
 10
32.07067286661323
 20
49.10936245275564
  0
LWPOLYLINE
  5
192
330
2
100
AcDbEntity
  8
0
  6
Continuous
100
AcDbPolyline
 90
        3
 70
     0
 43
0.0
 10
32.09503662343593
 20
49.49853721333861
 10
32.09503662343593
 20
49.47353721333863
 10
32.06287863910984
 20
49.10936245275564
  0
LWPOLYLINE
  5
193
330
2
100
AcDbEntity
  8
0
  6
Continuous
100
AcDbPolyline
 90
        3
 70
     0
 43
0.0
 10
32.13311225095868
 20
49.10936245275564
 10
32.12836995676923
 20
49.47353721333863
 10
32.12836995676923
 20
49.49853721333861
  0
LWPOLYLINE
  5
194
330
2
100
AcDbEntity
  8
0
  6
Continuous
100
AcDbPolyline
 90
        3
 70
     0
 43
0.0
 10
32.1411253501285
 20
49.10936245275564
 10
32.13170329010268
 20
49.47353721333863
 10
32.13170329010268
 20
49.49853721333861
  0
LWPOLYLINE
  5
195
330
2
100
AcDbEntity
  8
0
  6
Continuous
100
AcDbPolyline
 90
        3
 70
     0
 43
0.0
 10
32.14909340487987
 20
49.10936245275564
 10
32.13503662343601
 20
49.47353721333863
 10
32.13503662343601
 20
49.49853721333861
  0
LWPOLYLINE
  5
196
330
2
100
AcDbEntity
  8
0
  6
Continuous
100
AcDbPolyline
 90
        3
 70
     0
 43
0.0
 10
32.15701706245102
 20
49.10936245275564
 10
32.13836995676934
 20
49.47353721333863
 10
32.13836995676934
 20
49.49853721333861
  0
LWPOLYLINE
  5
197
330
2
100
AcDbEntity
  8
0
  6
Continuous
100
AcDbPolyline
 90
        3
 70
     0
 43
0.0
 10
32.16489695773885
 20
49.10936245275564
 10
32.14170329010267
 20
49.47353721333863
 10
32.14170329010267
 20
49.49853721333861
  0
LWPOLYLINE
  5
198
330
2
100
AcDbEntity
  8
0
  6
Continuous
100
AcDbPolyline
 90
        3
 70
     0
 43
0.0
 10
32.17273371359204
 20
49.10936245275564
 10
32.145036623436
 20
49.47353721333863
 10
32.145036623436
 20
49.49853721333861
  0
LWPOLYLINE
  5
199
330
2
100
AcDbEntity
  8
0
  6
Continuous
100
AcDbPolyline
 90
        3
 70
     0
 43
0.0
 10
32.18052794109542
 20
49.10936245275564
 10
32.14836995676933
 20
49.47353721333863
 10
32.14836995676933
 20
49.49853721333861
  0
LWPOLYLINE
  5
19A
330
2
100
AcDbEntity
  8
0
  6
Continuous
100
AcDbPolyline
 90
       10
 70
     0
 43
0.0
 10
32.2174814089999
 20
49.10936245275564
 10
32.15170329010266
 20
49.47353721333863
 10
32.18407829010266
 20
49.47353721333863
 10
32.18407829010266
 20
49.59791523644759
 10
32.0593282901026
 20
49.59791523644759
 10
32.0593282901026
 20
49.47353721333863
 10
32.0917032901026
 20
49.47353721333863
 10
32.0917032901026
 20
49.49853721333861
 10
32.15170329010266
 20
49.49853721333861
 10
32.15170329010266
 20
49.47353721333863
  0
LWPOLYLINE
  5
19B
330
2
100
AcDbEntity
  8
0
  6
Continuous
100
AcDbPolyline
 90
        3
 70
     0
 43
0.0
 10
32.20102443307974
 20
49.10936245275564
 10
32.15170329010266
 20
49.47353721333863
 10
32.18828023984656
 20
49.10936245275564
  0
LWPOLYLINE
  5
19C
330
2
100
AcDbEntity
  8
0
  6
Continuous
100
AcDbPolyline
 90
        2
 70
     0
 43
0.0
 10
32.20853676244974
 20
49.10936245275564
 10
32.15263377557881
 20
49.47017924927322
  0
LWPOLYLINE
  5
19D
330
2
100
AcDbEntity
  8
0
  6
Continuous
100
AcDbPolyline
 90
        3
 70
     0
 43
0.0
 10
32.02592517120536
 20
49.10936245275564
 10
32.0917032901026
 20
49.47353721333863
 10
32.04238214712552
 20
49.10936245275564
  0
LWPOLYLINE
  5
19E
330
2
100
AcDbEntity
  8
0
  6
Continuous
100
AcDbPolyline
 90
        2
 70
     0
 43
0.0
 10
32.03486981775552
 20
49.10936245275564
 10
32.09077280462646
 20
49.47017924927322
  0
LWPOLYLINE
  5
19F
330
2
100
AcDbEntity
  8
0
  6
Continuous
100
AcDbPolyline
 90
       24
 70
     1
 43
0.0
 10
32.02795329011349
 20
59.78466835459503
 10
32.02795329011349
 20
61.40827819391621
 10
31.93291434299533
 20
61.40827819392163
 42
0.389902449071936
 10
31.74791434299038
 20
61.609451045246
 10
31.74791434299038
 20
61.6590582710198
 10
31.65295329011349
 20
61.6590582710198
 10
31.65295329011349
 20
61.40955827102172
 10
31.77795329011349
 20
61.40955827102172
 10
31.77795329011349
 20
61.28455827102172
 10
31.65295329011349
 20
61.28455827102172
 10
31.65295329011349
 20
61.0965582710217
 10
30.30920329010428
 20
61.0965582710217
 42
0.4142135623747382
 10
30.27795329010974
 20
61.06530827102151
 10
30.27795329010428
 20
60.12763827748969
 42
0.4142135623747382
 10
30.30920329010428
 20
60.09638827748952
 10
31.65295329011349
 20
60.09638827748952
 10
31.65295329011349
 20
59.90838827748953
 10
31.77795329011349
 20
59.90838827748951
 10
31.77795329011349
 20
59.78338827748951
 10
31.65295329011349
 20
59.78338827748951
 10
31.65295329011349
 20
59.53388827749143
 10
31.74791434299038
 20
59.53388827749143
 10
31.74791434299038
 20
59.58349550326523
 42
0.3899024490719359
 10
31.93291434299533
 20
59.78466835458959
  0
LWPOLYLINE
  5
1A0
330
2
100
AcDbEntity
  8
0
  6
HIDDEN2
100
AcDbPolyline
 90
        4
 70
     0
 43
0.02
 10
31.77795329011349
 20
59.84638827748952
 10
31.68888483473017
 20
59.84638827748952
 42
0.4142135623730951
 10
31.64238483473014
 20
59.79988827748954
 10
31.64238483473014
 20
58.90878490934517
  0
LWPOLYLINE
  5
1A1
330
2
100
AcDbEntity
  8
0
100
AcDbPolyline
 90
        2
 70
     1
 43
0.05859375
 10
31.71932034246527
 20
59.87568515248952
 42
1.0
 10
31.71932034246527
 20
59.81709140248952
 42
1.0
  0
LWPOLYLINE
  5
1A2
330
2
100
AcDbEntity
  8
0
  6
HIDDEN2
100
AcDbPolyline
 90
        4
 70
     0
 43
0.02
 10
31.77795329011349
 20
61.34655827102171
 10
31.68888483473017
 20
61.34655827102171
 42
-0.4142135623730951
 10
31.64238483473014
 20
61.39305827102169
 10
31.64238483473014
 20
62.28416163916605
  0
LWPOLYLINE
  5
1A3
330
2
100
AcDbEntity
  8
0
100
AcDbPolyline
 90
        2
 70
     1
 43
0.05859375
 10
31.71932034246527
 20
61.31726139602171
 42
-1.0
 10
31.71932034246527
 20
61.37585514602171
 42
-1.0
  0
LWPOLYLINE
  5
1A4
330
2
100
AcDbEntity
  8
0
  6
Continuous
100
AcDbPolyline
 90
       24
 70
     1
 43
0.0
 10
30.02582570129937
 20
59.78466835459503
 10
30.02582570129937
 20
61.40827819391621
 10
29.93078675418122
 20
61.40827819392163
 42
0.389902449071936
 10
29.74578675417627
 20
61.609451045246
 10
29.74578675417627
 20
61.6590582710198
 10
29.65082570129937
 20
61.6590582710198
 10
29.65082570129937
 20
61.40955827102172
 10
29.77582570129937
 20
61.40955827102172
 10
29.77582570129937
 20
61.28455827102172
 10
29.65082570129937
 20
61.28455827102172
 10
29.65082570129937
 20
61.0965582710217
 10
28.30707570129016
 20
61.0965582710217
 42
0.4142135623747382
 10
28.27582570129562
 20
61.06530827102151
 10
28.27582570129016
 20
60.12763827748969
 42
0.4142135623747382
 10
28.30707570129016
 20
60.09638827748952
 10
29.65082570129937
 20
60.09638827748952
 10
29.65082570129937
 20
59.90838827748953
 10
29.77582570129937
 20
59.90838827748951
 10
29.77582570129937
 20
59.78338827748951
 10
29.65082570129937
 20
59.78338827748951
 10
29.65082570129937
 20
59.53388827749143
 10
29.74578675417627
 20
59.53388827749143
 10
29.74578675417627
 20
59.58349550326523
 42
0.3899024490719359
 10
29.93078675418122
 20
59.78466835458959
  0
HATCH
  5
1A5
330
2
100
AcDbEntity
  8
0
100
AcDbHatch
 10
0.0
 20
0.0
 30
0.0
210
0.0
220
0.0
230
1.0
  2
SOLID
 70
     1
 71
     0
 91
        1
 92
        7
 72
     0
 73
     1
 93
        4
 10
29.77582570129937
 20
61.2840582710217
 10
29.65082570129937
 20
61.28405827102167
 10
29.65082570129937
 20
61.4090582710217
 10
29.77582570129937
 20
61.4090582710217
 97
        0
 75
     1
 76
     1
 47
0.0019978748433788
 98
        1
 10
29.68892685616004
 20
61.33071699331111
1001
GradientColor1ACI
1070
     5
1001
GradientColor2ACI
1070
     2
1001
ACAD
1010
0.0
1020
0.0
1030
0.0
  0
HATCH
  5
1A6
330
2
100
AcDbEntity
  8
0
100
AcDbHatch
 10
0.0
 20
0.0
 30
0.0
210
0.0
220
0.0
230
1.0
  2
SOLID
 70
     1
 71
     0
 91
        1
 92
        7
 72
     1
 73
     1
 93
        2
 10
29.49308562255942
 20
61.5340582710217
 42
0.0
 10
29.49308562255931
 20
61.34655827102173
 42
-0.6666666666666311
 97
        0
 75
     1
 76
     1
 47
0.0010014887122476
 98
        1
 10
29.44702554621244
 20
61.41915307497757
1001
GradientColor1ACI
1070
     5
1001
GradientColor2ACI
1070
     2
1001
ACAD
1010
0.0
1020
0.0
1030
0.0
  0
LWPOLYLINE
  5
1A7
330
2
100
AcDbEntity
  8
0
100
AcDbPolyline
 90
        4
 70
     0
 43
0.0
 10
29.65082570129937
 20
62.28416163916605
 10
29.65082570129937
 20
61.20555827102208
 10
29.49308562255931
 20
61.20555827102208
 10
29.49308562255931
 20
62.28416163916605
  0
LWPOLYLINE
  5
1A8
330
2
100
AcDbEntity
  8
0
100
AcDbPolyline
 90
        8
 70
     0
 43
0.0
 10
29.49308562255931
 20
61.0965582710217
 10
29.65082570129937
 20
61.0965582710217
 10
29.65082570129937
 20
61.20555827102208
 10
29.49308562255931
 20
61.20555827102208
 10
29.49308562255931
 20
61.0965582710217
 10
29.65082570129937
 20
61.20555827102208
 10
29.49308562255931
 20
61.20555827102208
 10
29.65082570129937
 20
61.0965582710217
  0
HATCH
  5
1A9
330
2
100
AcDbEntity
  8
0
100
AcDbHatch
 10
0.0
 20
0.0
 30
0.0
210
0.0
220
0.0
230
1.0
  2
SOLID
 70
     1
 71
     0
 91
        1
 92
        7
 72
     0
 73
     1
 93
        4
 10
29.77582570129937
 20
59.90888827748952
 10
29.65082570129937
 20
59.90888827748955
 10
29.65082570129937
 20
59.78388827748952
 10
29.77582570129937
 20
59.78388827748952
 97
        0
 75
     1
 76
     1
 47
0.0019978748433788
 98
        1
 10
29.68892685616004
 20
59.86222955520012
1001
GradientColor1ACI
1070
     5
1001
GradientColor2ACI
1070
     2
1001
ACAD
1010
0.0
1020
0.0
1030
0.0
  0
HATCH
  5
1AA
330
2
100
AcDbEntity
  8
0
100
AcDbHatch
 10
0.0
 20
0.0
 30
0.0
210
0.0
220
0.0
230
1.0
  2
SOLID
 70
     1
 71
     0
 91
        1
 92
        7
 72
     1
 73
     1
 93
        2
 10
29.49308562255942
 20
59.65888827748952
 42
0.0
 10
29.49308562255931
 20
59.84638827748949
 42
0.6666666666666311
 97
        0
 75
     1
 76
     1
 47
0.0010014887122476
 98
        1
 10
29.44702554621244
 20
59.77379347353366
1001
GradientColor1ACI
1070
     5
1001
GradientColor2ACI
1070
     2
1001
ACAD
1010
0.0
1020
0.0
1030
0.0
  0
LWPOLYLINE
  5
1AB
330
2
100
AcDbEntity
  8
0
100
AcDbPolyline
 90
        4
 70
     0
 43
0.0
 10
29.65082570129937
 20
58.90878490934517
 10
29.65082570129937
 20
59.98738827748915
 10
29.49308562255931
 20
59.98738827748915
 10
29.49308562255931
 20
58.90878490934517
  0
LWPOLYLINE
  5
1AC
330
2
100
AcDbEntity
  8
0
100
AcDbPolyline
 90
        8
 70
     0
 43
0.0
 10
29.49308562255931
 20
60.09638827748952
 10
29.65082570129937
 20
60.09638827748952
 10
29.65082570129937
 20
59.98738827748915
 10
29.49308562255931
 20
59.98738827748915
 10
29.49308562255931
 20
60.09638827748952
 10
29.65082570129937
 20
59.98738827748915
 10
29.49308562255931
 20
59.98738827748915
 10
29.65082570129937
 20
60.09638827748952
  0
LINE
  5
1AD
330
2
100
AcDbEntity
  8
0
  6
HIDDEN2
100
AcDbLine
 10
29.49308562255931
 20
62.28416163916605
 30
0.0
 11
31.64238483473014
 21
62.28416163916605
 31
0.0
  0
LINE
  5
1AE
330
2
100
AcDbEntity
  8
0
  6
HIDDEN2
100
AcDbLine
 10
29.49308562255931
 20
58.90878490934517
 30
0.0
 11
31.64238483473014
 21
58.90878490934517
 31
0.0
  0
LWPOLYLINE
  5
1AF
330
2
100
AcDbEntity
  8
0
100
AcDbPolyline
 90
       58
 70
     1
 43
0.0
 10
27.85414790222558
 20
48.28132056747856
 10
27.85414790222831
 20
48.29732056747818
 42
0.4142135623730951
 10
27.82314790222563
 20
48.32832056747813
 10
27.71314790222505
 20
48.32832056747722
 42
-0.4142135623730951
 10
27.6821479022251
 20
48.35932056747989
 10
27.68214790222237
 20
48.77356209955107
 42
-0.3942343667532849
 10
27.71102013211612
 20
48.80448899067161
 10
29.14505537305058
 20
48.90315061524891
 42
-0.4344790572301746
 10
29.17818314315946
 20
48.87222372413018
 10
29.17818314316219
 20
48.2806141920548
 10
29.13218314316009
 20
48.2806141920548
 42
0.4142135623730951
 10
29.10118314316014
 20
48.24961419205576
 10
29.10118314315742
 20
48.23361419205614
 42
0.414213562373095
 10
29.13218314316009
 20
48.20261419205619
 10
29.28818314316277
 20
48.20261419205346
 42
0.4142135623730953
 10
29.31918314316272
 20
48.23361419205614
 10
29.31918314315817
 20
48.24961419205576
 42
0.4142135623730951
 10
29.28818314316277
 20
48.28061419205571
 10
29.24218314316068
 20
48.2806141920548
 10
29.24218314316068
 20
48.88089252412758
 42
-0.3942343667589309
 10
29.27105537304715
 20
48.91181941524812
 10
30.58105537305209
 20
49.00194741524976
 42
-0.4344790572290187
 10
30.61418314316097
 20
48.9710205241274
 10
30.61418314315643
 20
48.28560741623661
 42
-0.4240125356243142
 10
30.58318314315739
 20
48.25562408753578
 42
0.4240125356243143
 10
30.55218314315744
 20
48.22564075883494
 10
30.55218314315835
 20
48.19857190703917
 42
0.4142135623730951
 10
30.58218314315718
 20
48.16857190703942
 10
30.67618314316178
 20
48.16857190703669
 10
30.73818314315986
 20
48.16857190703669
 42
0.4142135623730953
 10
30.76818314315961
 20
48.19857190703917
 10
31.22040909747421
 20
48.31672714694215
 10
31.70918314315759
 20
48.31672714694215
 10
31.70918314315759
 20
48.31672714694215
 42
-0.4142135623730951
 10
31.74018314315754
 20
48.28572714694312
 10
31.78384748382496
 20
48.32690048952574
 42
0.6788458185167731
 10
31.76326601094888
 20
48.37872714694478
 10
31.21252387380491
 20
48.37872714694388
 10
30.75954530899208
 20
48.26161225379403
 10
30.70618314316062
 20
48.26161225379312
 42
-0.4142135623730951
 10
30.67618314316178
 20
48.29161225379286
 10
30.67618314315723
 20
48.97955172412841
 42
-0.3942343667515597
 10
30.70505537304825
 20
49.01047861524713
 10
31.61655638386628
 20
49.07318988479094
 42
0.476286245979241
 10
31.70918314316123
 20
48.97243837048719
 10
31.7461601732507
 20
48.97243837048719
 42
0.3101477582205477
 10
31.8845612960472
 20
49.04888210858846
 42
0.6346282873960475
 10
31.82570226652433
 20
49.07053475024733
 42
-0.2527834310209322
 10
31.7615625736039
 20
49.0338113009486
 10
31.71130638578006
 20
49.03036106712099
 42
-0.4344355510162874
 10
31.67818314316219
 20
49.06128826939968
 10
31.67818314316219
 20
49.07568309723794
 10
31.67818314316219
 20
49.1556141920548
 10
27.63302013211478
 20
48.87730697689514
 42
0.3942343667589309
 10
27.60414790222831
 20
48.8463800857746
 10
27.60414790222376
 20
48.28132056747856
 42
0.4142135623730951
 10
27.63514790222371
 20
48.25032056747861
 10
27.82314790222563
 20
48.25032056747952
 42
0.4142135623730951
  0
LWPOLYLINE
  5
1B0
330
2
100
AcDbEntity
  8
0
100
AcDbPolyline
 90
       10
 70
     1
 43
0.0
 10
29.49308562255931
 20
61.34655827102171
 10
29.49308562255931
 20
61.0965582710217
 10
28.49308562255931
 20
61.0965582710217
 10
28.49308562255931
 20
61.27016612635327
 42
-0.3738846794847955
 10
28.51977125642958
 20
61.30086443648429
 10
28.88361039084577
 20
61.35199869213252
 10
29.06230942798334
 20
61.58963039045369
 42
-0.2357304941617284
 10
29.08708562255936
 20
61.60199869213252
 10
29.49308562255931
 20
61.65905827102171
 10
29.49308562255931
 20
61.5340582710217
 42
0.6666666666666656
  0
LWPOLYLINE
  5
1B1
330
2
100
AcDbEntity
  8
0
100
AcDbPolyline
 90
       10
 70
     1
 43
0.0
 10
31.63173613159756
 20
61.34655827102171
 10
31.63173613159756
 20
61.0965582710217
 10
30.63173613159757
 20
61.0965582710217
 10
30.63173613159757
 20
61.27016612635327
 42
-0.3738846794847955
 10
30.65842176546778
 20
61.30086443648429
 10
31.02226089988403
 20
61.35199869213252
 10
31.20095993702154
 20
61.58963039045369
 42
-0.2357304941617284
 10
31.22573613159756
 20
61.60199869213252
 10
31.63173613159756
 20
61.65905827102171
 10
31.63173613159756
 20
61.5340582710217
 42
0.6666666666666656
  0
LWPOLYLINE
  5
1B2
330
2
100
AcDbEntity
  8
0
100
AcDbPolyline
 90
       10
 70
     1
 43
0.0
 10
31.63173613159756
 20
59.84638827748949
 10
31.63173613159756
 20
60.0963882774895
 10
30.63173613159757
 20
60.0963882774895
 10
30.63173613159757
 20
59.92278042215793
 42
0.3738846794847955
 10
30.65842176546778
 20
59.89208211202691
 10
31.02226089988403
 20
59.84094785637868
 10
31.20095993702154
 20
59.60331615805751
 42
0.2357304941617284
 10
31.22573613159756
 20
59.59094785637867
 10
31.63173613159756
 20
59.53388827748949
 10
31.63173613159756
 20
59.65888827748949
 42
-0.6666666666666656
  0
LWPOLYLINE
  5
1B3
330
2
100
AcDbEntity
  8
0
100
AcDbPolyline
 90
       10
 70
     1
 43
0.0
 10
29.49308562255931
 20
59.84638827748949
 10
29.49308562255931
 20
60.0963882774895
 10
28.49308562255931
 20
60.0963882774895
 10
28.49308562255931
 20
59.92278042215793
 42
0.3738846794847955
 10
28.51977125642958
 20
59.89208211202691
 10
28.88361039084577
 20
59.84094785637868
 10
29.06230942798334
 20
59.60331615805751
 42
0.2357304941617284
 10
29.08708562255936
 20
59.59094785637867
 10
29.49308562255931
 20
59.53388827748949
 10
29.49308562255931
 20
59.65888827748949
 42
-0.6666666666666656
  0
LWPOLYLINE
  5
1B4
330
2
100
AcDbEntity
  8
0
  6
Continuous
100
AcDbPolyline
 90
       25
 70
     0
 43
0.0
 10
29.65082570129937
 20
63.65816486767508
 10
29.77582570129937
 20
63.65816486767508
 10
29.77582570129937
 20
63.53316486767508
 10
29.65082570129937
 20
63.53316486767508
 10
29.65082570129937
 20
63.283664867677
 10
29.74578675417627
 20
63.283664867677
 10
29.74578675417627
 20
63.3332720934508
 42
0.3899024490719342
 10
29.93078675418122
 20
63.53444494477518
 10
30.02582570129937
 20
63.53444494478058
 10
30.02582570129937
 20
64.7046648676791
 42
0.4142135623730951
 10
29.99482570130397
 20
64.7356648676745
 10
29.61957570129937
 20
64.7356648676745
 10
29.61957570129937
 20
65.20441486767643
 42
0.4142135623730951
 10
29.58832570129937
 20
65.23566486767643
 10
29.58832570129937
 20
65.23566486767643
 10
29.58832570129937
 20
65.23566486767643
 10
29.58832570129937
 20
65.23566486767643
 10
29.58832570129937
 20
65.23566486767643
 10
29.58832570129937
 20
65.23566486767643
 10
28.33832570130835
 20
65.23566486767643
 10
28.27582570130108
 20
65.17316486767644
 10
28.2758257012938
 20
63.87666486767776
 42
0.4142135623730951
 10
28.30682570130375
 20
63.84566486767508
 10
29.65082570129937
 20
63.84566486767508
 10
29.65082570129937
 20
63.65816486767508
  0
LWPOLYLINE
  5
1B5
330
2
100
AcDbEntity
  8
0
100
AcDbPolyline
 90
       10
 70
     1
 43
0.0
 10
29.49308562255931
 20
63.59566486767505
 10
29.49308562255931
 20
63.84566486767505
 10
28.49308562255931
 20
63.84566486767505
 10
28.49308562255931
 20
63.67205701234349
 42
0.3738846794847955
 10
28.51977125642958
 20
63.64135870221247
 10
28.88361039084577
 20
63.59022444656424
 10
29.06230942798334
 20
63.35259274824307
 42
0.2357304941617284
 10
29.08708562255936
 20
63.34022444656423
 10
29.49308562255931
 20
63.28316486767505
 10
29.49308562255931
 20
63.40816486767505
 42
-0.6666666666666656
  0
LWPOLYLINE
  5
1B6
330
2
100
AcDbEntity
  8
0
  6
Continuous
100
AcDbPolyline
 90
       25
 70
     0
 43
0.0
 10
31.65295329011349
 20
63.65816486767508
 10
31.77795329011349
 20
63.65816486767508
 10
31.77795329011349
 20
63.53316486767508
 10
31.65295329011349
 20
63.53316486767508
 10
31.65295329011349
 20
63.283664867677
 10
31.74791434299038
 20
63.283664867677
 10
31.74791434299038
 20
63.3332720934508
 42
0.3899024490719342
 10
31.93291434299533
 20
63.53444494477518
 10
32.02795329011349
 20
63.53444494478058
 10
32.02795329011349
 20
64.7046648676791
 42
0.4142135623730951
 10
31.99695329011809
 20
64.7356648676745
 10
31.62170329011349
 20
64.7356648676745
 10
31.62170329011349
 20
65.20441486767643
 42
0.4142135623730951
 10
31.59045329011349
 20
65.23566486767643
 10
31.59045329011349
 20
65.23566486767643
 10
31.59045329011349
 20
65.23566486767643
 10
31.59045329011349
 20
65.23566486767643
 10
31.59045329011349
 20
65.23566486767643
 10
31.59045329011349
 20
65.23566486767643
 10
30.34045329012247
 20
65.23566486767643
 10
30.2779532901152
 20
65.17316486767644
 10
30.27795329010792
 20
63.87666486767776
 42
0.4142135623730951
 10
30.30895329011787
 20
63.84566486767508
 10
31.65295329011349
 20
63.84566486767508
 10
31.65295329011349
 20
63.65816486767508
  0
LWPOLYLINE
  5
1B7
330
2
100
AcDbEntity
  8
0
100
AcDbPolyline
 90
       10
 70
     1
 43
0.0
 10
31.63132021036052
 20
63.59566486767505
 10
31.63132021036052
 20
63.84566486767505
 10
30.63132021036051
 20
63.84566486767505
 10
30.63132021036051
 20
63.67205701234349
 42
0.3738846794847955
 10
30.65800584423079
 20
63.64135870221247
 10
31.02184497864698
 20
63.59022444656424
 10
31.20054401578455
 20
63.35259274824307
 42
0.2357304941617284
 10
31.22532021036056
 20
63.34022444656423
 10
31.63132021036052
 20
63.28316486767505
 10
31.63132021036052
 20
63.40816486767505
 42
-0.6666666666666656
  0
LWPOLYLINE
  5
1B8
102
{ACAD_REACTORS
330
315
102
}
330
2
100
AcDbEntity
  8
0
100
AcDbPolyline
 90
       12
 70
     1
 43
0.0
 10
30.24670329011349
 20
67.81491486767698
 10
30.24670329011349
 20
65.42478986767699
 10
30.30920329011349
 20
65.36228986767699
 10
31.49670329011349
 20
65.36228986767699
 10
31.50763937305425
 20
65.48728986767699
 10
31.62170329011349
 20
65.48728986767699
 10
31.62170329011349
 20
64.79978986767699
 10
31.93444112148279
 20
64.82715088257748
 10
31.99670329011349
 20
64.89509811649921
 10
31.99670329011349
 20
67.81491486767698
 42
0.4142135623730951
 10
31.93420329011349
 20
67.87741486767697
 10
30.30920329011349
 20
67.87741486767697
 42
0.414213562373094
  0
LWPOLYLINE
  5
1B9
330
2
100
AcDbEntity
  8
0
100
AcDbPolyline
 90
       12
 70
     1
 43
0.0
 10
30.24670329011349
 20
49.40853721333994
 10
30.24670329011349
 20
55.76815668083421
 10
30.30920329011349
 20
55.8306566808342
 10
31.49670329011349
 20
55.8306566808342
 10
31.50763937305425
 20
55.70565668083421
 10
31.62170329011349
 20
55.70565668083421
 10
31.62170329011349
 20
56.39315668083421
 10
31.93444112148279
 20
56.36579566593372
 10
31.99670329011349
 20
56.29784843201199
 10
31.99670329011349
 20
49.40853721333994
 42
-0.4142135623730951
 10
31.93420329011349
 20
49.34603721333994
 10
30.30920329011349
 20
49.34603721333994
 42
-0.414213562373094
  0
INSERT
  5
1BA
330
2
100
AcDbEntity
  8
0
100
AcDbBlockReference
  2
8 X 1.5 FH
 10
32.0589169324864
 20
68.51443648971306
 30
0.0
 50
63.4250392974013
  0
LWPOLYLINE
  5
228
330
2
100
AcDbEntity
  8
0
  6
HIDDEN2
100
AcDbPolyline
 90
        4
 70
     0
 43
0.02
 10
31.77795329011349
 20
57.59728168083611
 10
31.68888483473017
 20
57.59728168083611
 42
-0.4142135623730951
 10
31.64238483473014
 20
57.64378168083609
 10
31.64238483473014
 20
58.53397327425557
  0
LWPOLYLINE
  5
229
330
2
100
AcDbEntity
  8
0
100
AcDbPolyline
 90
        2
 70
     1
 43
0.05859375
 10
31.71932034246527
 20
57.56798480583611
 42
-1.0
 10
31.71932034246527
 20
57.62657855583611
 42
-1.0
  0
HATCH
  5
22A
330
2
100
AcDbEntity
  8
0
100
AcDbHatch
 10
0.0
 20
0.0
 30
0.0
210
0.0
220
0.0
230
1.0
  2
SOLID
 70
     1
 71
     0
 91
        1
 92
        7
 72
     0
 73
     1
 93
        4
 10
29.77582570129937
 20
57.53478168083612
 10
29.65082570129937
 20
57.53478168083609
 10
29.65082570129937
 20
57.65978168083612
 10
29.77582570129937
 20
57.65978168083612
 97
        0
 75
     1
 76
     1
 47
0.0019978748433788
 98
        1
 10
29.68892685616004
 20
57.58144040312553
1001
GradientColor1ACI
1070
     5
1001
GradientColor2ACI
1070
     2
1001
ACAD
1010
0.0
1020
0.0
1030
0.0
  0
HATCH
  5
22B
330
2
100
AcDbEntity
  8
0
100
AcDbHatch
 10
0.0
 20
0.0
 30
0.0
210
0.0
220
0.0
230
1.0
  2
SOLID
 70
     1
 71
     0
 91
        1
 92
        7
 72
     1
 73
     1
 93
        2
 10
29.49308562255942
 20
57.78478168083612
 42
0.0
 10
29.49308562255931
 20
57.59728168083615
 42
-0.6666666666666311
 97
        0
 75
     1
 76
     1
 47
0.0010014887122476
 98
        1
 10
29.44702554621244
 20
57.66987648479198
1001
GradientColor1ACI
1070
     5
1001
GradientColor2ACI
1070
     2
1001
ACAD
1010
0.0
1020
0.0
1030
0.0
  0
LWPOLYLINE
  5
22C
330
2
100
AcDbEntity
  8
0
100
AcDbPolyline
 90
        4
 70
     0
 43
0.0
 10
29.65082570129937
 20
58.53488504898047
 10
29.65082570129937
 20
57.4562816808365
 10
29.49308562255931
 20
57.4562816808365
 10
29.49308562255931
 20
58.53488504898047
  0
LWPOLYLINE
  5
22D
330
2
100
AcDbEntity
  8
0
100
AcDbPolyline
 90
        8
 70
     0
 43
0.0
 10
29.49308562255931
 20
57.34728168083612
 10
29.65082570129937
 20
57.34728168083612
 10
29.65082570129937
 20
57.4562816808365
 10
29.49308562255931
 20
57.4562816808365
 10
29.49308562255931
 20
57.34728168083612
 10
29.65082570129937
 20
57.4562816808365
 10
29.49308562255931
 20
57.4562816808365
 10
29.65082570129937
 20
57.34728168083612
  0
LWPOLYLINE
  5
22E
330
2
100
AcDbEntity
  8
0
  6
Continuous
100
AcDbPolyline
 90
       25
 70
     0
 43
0.0
 10
29.65082570129937
 20
57.53478168083612
 10
29.77582570129937
 20
57.53478168083612
 10
29.77582570129937
 20
57.65978168083612
 10
29.65082570129937
 20
57.65978168083612
 10
29.65082570129937
 20
57.9092816808342
 10
29.74578675417627
 20
57.9092816808342
 10
29.74578675417627
 20
57.8596744550604
 42
-0.3899024490719342
 10
29.93078675418122
 20
57.65850160373602
 10
30.02582570129937
 20
57.65850160373062
 10
30.02582570129937
 20
56.4882816808321
 42
-0.4142135623730951
 10
29.99482570130397
 20
56.4572816808367
 10
29.61957570129937
 20
56.4572816808367
 10
29.61957570129937
 20
55.98853168083476
 42
-0.4142135623730951
 10
29.58832570129937
 20
55.95728168083477
 10
29.58832570129937
 20
55.95728168083477
 10
29.58832570129937
 20
55.95728168083477
 10
29.58832570129937
 20
55.95728168083477
 10
29.58832570129937
 20
55.95728168083477
 10
29.58832570129937
 20
55.95728168083477
 10
28.33832570130835
 20
55.95728168083477
 10
28.27582570130108
 20
56.01978168083476
 10
28.2758257012938
 20
57.31628168083344
 42
-0.4142135623730951
 10
28.30682570130375
 20
57.34728168083612
 10
29.65082570129937
 20
57.34728168083612
 10
29.65082570129937
 20
57.53478168083612
  0
LWPOLYLINE
  5
22F
330
2
100
AcDbEntity
  8
0
100
AcDbPolyline
 90
       10
 70
     1
 43
0.0
 10
29.49308562255931
 20
57.59728168083615
 10
29.49308562255931
 20
57.34728168083615
 10
28.49308562255931
 20
57.34728168083615
 10
28.49308562255931
 20
57.52088953616771
 42
-0.3738846794847955
 10
28.51977125642958
 20
57.55158784629873
 10
28.88361039084577
 20
57.60272210194696
 10
29.06230942798334
 20
57.84035380026813
 42
-0.2357304941617284
 10
29.08708562255936
 20
57.85272210194697
 10
29.49308562255931
 20
57.90978168083615
 10
29.49308562255931
 20
57.78478168083615
 42
0.6666666666666656
  0
LWPOLYLINE
  5
230
330
2
100
AcDbEntity
  8
0
  6
Continuous
100
AcDbPolyline
 90
       25
 70
     0
 43
0.0
 10
31.65295329011349
 20
57.53478168083612
 10
31.77795329011349
 20
57.53478168083612
 10
31.77795329011349
 20
57.65978168083612
 10
31.65295329011349
 20
57.65978168083612
 10
31.65295329011349
 20
57.9092816808342
 10
31.74791434299038
 20
57.9092816808342
 10
31.74791434299038
 20
57.8596744550604
 42
-0.3899024490719342
 10
31.93291434299533
 20
57.65850160373602
 10
32.02795329011349
 20
57.65850160373062
 10
32.02795329011349
 20
56.4882816808321
 42
-0.4142135623730951
 10
31.99695329011809
 20
56.4572816808367
 10
31.62170329011349
 20
56.4572816808367
 10
31.62170329011349
 20
55.98853168083476
 42
-0.4142135623730951
 10
31.59045329011349
 20
55.95728168083477
 10
31.59045329011349
 20
55.95728168083477
 10
31.59045329011349
 20
55.95728168083477
 10
31.59045329011349
 20
55.95728168083477
 10
31.59045329011349
 20
55.95728168083477
 10
31.59045329011349
 20
55.95728168083477
 10
30.34045329012247
 20
55.95728168083477
 10
30.2779532901152
 20
56.01978168083476
 10
30.27795329010792
 20
57.31628168083344
 42
-0.4142135623730951
 10
30.30895329011787
 20
57.34728168083612
 10
31.65295329011349
 20
57.34728168083612
 10
31.65295329011349
 20
57.53478168083612
  0
LWPOLYLINE
  5
231
330
2
100
AcDbEntity
  8
0
100
AcDbPolyline
 90
       10
 70
     1
 43
0.0
 10
31.63132021036052
 20
57.59728168083615
 10
31.63132021036052
 20
57.34728168083615
 10
30.63132021036051
 20
57.34728168083615
 10
30.63132021036051
 20
57.52088953616771
 42
-0.3738846794847955
 10
30.65800584423079
 20
57.55158784629873
 10
31.02184497864698
 20
57.60272210194696
 10
31.20054401578455
 20
57.84035380026813
 42
-0.2357304941617284
 10
31.22532021036056
 20
57.85272210194697
 10
31.63132021036052
 20
57.90978168083615
 10
31.63132021036052
 20
57.78478168083615
 42
0.6666666666666656
  0
DIMENSION
  5
232
330
2
100
AcDbEntity
  8
0
100
AcDbDimension
  2
*D4
 10
30.30870329011334
 20
69.88111212642258
 30
0.0
 11
33.80881821664147
 21
69.88111212642258
 31
0.0
 71
     5
 42
7.000229853056275
  3
Knife
100
AcDbAlignedDimension
 13
37.30893314316961
 23
68.68941486767664
 33
0.0
 14
30.30870329011334
 24
69.4554148676767
 34
0.0
100
AcDbRotatedDimension
1001
ACAD
1000
DSTYLE
1002
{
1070
    40
1040
1.0
1002
}
  0
DIMENSION
  5
242
330
2
100
AcDbEntity
  8
0
100
AcDbDimension
  2
*D5
 10
35.98892715286095
 20
68.68941486767664
 30
0.0
 11
36.67545260600924
 21
69.19294907772904
 31
0.0
 70
   128
 71
     5
 42
0.6880055325053434
  3
Knife
100
AcDbAlignedDimension
 13
36.21543314316961
 23
68.00140933517131
 33
0.0
 14
36.21543314316961
 24
68.68941486767664
 34
0.0
 50
90.0
100
AcDbRotatedDimension
1001
ACAD
1000
DSTYLE
1002
{
1070
    40
1040
1.0
1002
}
  0
DIMENSION
  5
251
330
2
100
AcDbEntity
  8
0
100
AcDbDimension
  2
*D6
 10
34.04296105391279
 20
67.50140700351884
 30
0.0
 11
34.04296105391278
 21
68.09541093559776
 31
0.0
 71
     5
 42
1.188007864157796
  3
Knife
100
AcDbAlignedDimension
 13
33.90187587023758
 23
68.68941486767664
 33
0.0
 14
33.90187275347512
 24
67.50140700351884
 34
0.0
 50
90.0
100
AcDbRotatedDimension
1001
ACAD
1000
DSTYLE
1002
{
1070
    40
1040
1.0
1002
}
  0
DIMENSION
  5
260
330
2
100
AcDbEntity
  8
0
100
AcDbDimension
  2
*D7
 10
38.53432722031011
 20
63.28440933517128
 30
0.0
 11
38.5343272203101
 21
65.58040933517131
 31
0.0
 71
     5
 42
4.59200000000002
  3
Knife
100
AcDbAlignedDimension
 13
37.24693314316964
 23
67.8764093351713
 33
0.0
 14
37.02889419605134
 24
63.28440933517128
 34
0.0
 50
90.0
100
AcDbRotatedDimension
1001
ACAD
1000
DSTYLE
1002
{
1070
    40
1040
1.0
1002
}
  0
DIMENSION
  5
26F
330
2
100
AcDbEntity
  8
0
100
AcDbDimension
  2
*D8
 10
37.30893314316961
 20
66.20478597133493
 30
0.0
 11
36.43393314316961
 21
66.20478597133493
 31
0.0
 71
     5
 42
1.75
  3
Knife
100
AcDbAlignedDimension
 13
35.55893314316961
 23
66.46836002496342
 33
0.0
 14
37.30893314316961
 24
66.46836002496342
 34
0.0
100
AcDbRotatedDimension
1001
ACAD
1000
DSTYLE
1002
{
1070
    40
1040
1.0
1002
}
  0
DIMENSION
  5
27E
330
2
100
AcDbEntity
  8
0
100
AcDbDimension
  2
*D9
 10
38.53432722031011
 20
50.53353721333994
 30
0.0
 11
38.53432722031009
 21
54.22103721333995
 31
0.0
 71
     5
 42
7.375
  3
Knife
100
AcDbAlignedDimension
 13
37.02889419605134
 23
57.90853721333994
 33
0.0
 14
37.30896531391403
 24
50.53353721333994
 34
0.0
 50
90.0
100
AcDbRotatedDimension
1001
ACAD
1000
DSTYLE
1002
{
1070
    40
1040
1.0
1002
}
  0
DIMENSION
  5
28D
330
2
100
AcDbEntity
  8
0
100
AcDbDimension
  2
*D10
 10
38.5343272203101
 20
48.15853721334645
 30
0.0
 11
38.53432722031008
 21
49.3460372133432
 31
0.0
 71
     5
 42
2.374999999993491
  3
Knife
100
AcDbAlignedDimension
 13
37.30893314316961
 23
50.53353721333994
 33
0.0
 14
37.55893314316967
 24
48.15853721334645
 34
0.0
 50
90.0
100
AcDbRotatedDimension
1001
ACAD
1000
DSTYLE
1002
{
1070
    40
1040
1.0
1002
}
  0
DIMENSION
  5
29C
330
2
100
AcDbEntity
  8
0
100
AcDbDimension
  2
*D14
 10
38.53432722031011
 20
63.28440933517132
 30
0.0
 11
38.5343272203101
 21
60.59647327425564
 31
0.0
  1
DAYLIGHT\POPENING
 71
     5
 42
5.375872121831378
  3
Knife
100
AcDbAlignedDimension
 13
37.02889419605134
 23
57.90853721333994
 33
0.0
 14
37.02889419605295
 24
63.28440933517132
 34
0.0
 50
90.0
100
AcDbRotatedDimension
1001
ACAD
1000
DSTYLE
1002
{
1070
    40
1040
1.0
1002
}
  0
DIMENSION
  5
2AA
330
2
100
AcDbEntity
  8
0
100
AcDbDimension
  2
*D11
 10
41.44763417022107
 20
48.15853721334645
 30
0.0
 11
41.44763417022107
 21
58.79717818571447
 31
0.0
 70
   128
  1
BOX
 71
     5
 42
20.53087765433021
  3
Knife
100
AcDbAlignedDimension
 13
37.30893314316961
 23
68.68941486767664
 33
0.0
 14
37.55893314316967
 24
48.15853721334645
 34
0.0
 50
90.0
100
AcDbRotatedDimension
1001
ACAD
1000
DSTYLE
1002
{
1070
    40
1040
1.0
1002
}
  0
DIMENSION
  5
2B8
330
2
100
AcDbEntity
  8
0
100
AcDbDimension
  2
*D12
 10
41.44763417022107
 20
69.43941486767664
 30
0.0
 11
42.13415962336937
 21
70.01404728641482
 31
0.0
 70
   128
 71
     5
 42
0.75
  3
Knife
100
AcDbAlignedDimension
 13
37.30893314316961
 23
68.68941486767664
 33
0.0
 14
37.30893314316961
 24
69.43941486767664
 34
0.0
 50
90.0
100
AcDbRotatedDimension
1001
ACAD
1000
DSTYLE
1002
{
1070
    40
1040
1.0
1002
}
  0
DIMENSION
  5
2C7
330
2
100
AcDbEntity
  8
0
100
AcDbDimension
  2
*D13
 10
42.76973408838756
 20
48.15853721334645
 30
0.0
 11
42.76973408838755
 21
58.79897604051156
 31
0.0
  1
ROUGH\POPENING
 71
     5
 42
21.2808776543302
  3
Knife
100
AcDbAlignedDimension
 13
37.30893314316961
 23
69.43941486767664
 33
0.0
 14
37.55893314316967
 24
48.15853721334645
 34
0.0
 50
90.0
100
AcDbRotatedDimension
1001
ACAD
1000
DSTYLE
1002
{
1070
    40
1040
1.0
1002
}
  0
DIMENSION
  5
2D5
330
2
100
AcDbEntity
  8
0
100
AcDbDimension
  2
*D15
 10
26.83432041360096
 20
67.877414867677
 30
0.0
 11
26.83432041360094
 21
65.58028986767602
 31
0.0
 71
     5
 42
4.594250000001942
  3
Knife
100
AcDbAlignedDimension
 13
29.41556085427283
 23
63.28316486767505
 33
0.0
 14
30.80920329011349
 24
67.877414867677
 34
0.0
 50
90.0
100
AcDbRotatedDimension
1001
ACAD
1000
DSTYLE
1002
{
1070
    40
1040
1.0
1002
}
  0
DIMENSION
  5
2E4
330
2
100
AcDbEntity
  8
0
100
AcDbDimension
  2
*D16
 10
26.83432041360096
 20
59.53388827748949
 30
0.0
 11
26.83432041360094
 21
60.59647327425562
 31
0.0
 71
     5
 42
2.125169993532239
  3
Knife
100
AcDbAlignedDimension
 13
29.41556085427283
 23
61.65905827102173
 33
0.0
 14
29.41556085427283
 24
59.53388827748949
 34
0.0
 50
90.0
100
AcDbRotatedDimension
1001
ACAD
1000
DSTYLE
1002
{
1070
    40
1040
1.0
1002
}
  0
DIMENSION
  5
2F3
330
2
100
AcDbEntity
  8
0
100
AcDbDimension
  2
*D17
 10
26.89855218485082
 20
49.34603721333994
 30
0.0
 11
26.89855218485081
 21
53.62790944708808
 31
0.0
 71
     5
 42
8.563744467496263
  3
Knife
100
AcDbAlignedDimension
 13
29.41556085427283
 23
57.9097816808362
 33
0.0
 14
30.80920329011349
 24
49.34603721333994
 34
0.0
 50
90.0
100
AcDbRotatedDimension
1001
ACAD
1000
DSTYLE
1002
{
1070
    40
1040
1.0
1002
}
  0
DIMENSION
  5
302
330
2
100
AcDbEntity
  8
0
100
AcDbDimension
  2
*D18
 10
26.89855218485082
 20
48.15853721334645
 30
0.0
 11
26.89855218485081
 21
48.7522872133432
 31
0.0
 71
     5
 42
1.187499999993491
  3
Knife
100
AcDbAlignedDimension
 13
30.80920329011349
 23
49.34603721333994
 33
0.0
 14
31.70918314316845
 24
48.15853721334645
 34
0.0
 50
90.0
100
AcDbRotatedDimension
1001
ACAD
1000
DSTYLE
1002
{
1070
    40
1040
1.0
1002
}
  0
TEXT
  5
311
330
2
100
AcDbEntity
  8
0
100
AcDbText
 10
24.65029421314813
 20
60.45780415211455
 30
0.0
 40
0.25
  1
%%USTORM INSERT
 41
0.55
 51
5.0
 72
     1
 11
25.33215366170227
 21
60.45780415211455
 31
0.0
100
AcDbText
  0
TEXT
  5
312
330
2
100
AcDbEntity
  8
0
100
AcDbText
 10
32.28173861806984
 20
60.45780415211455
 30
0.0
 40
0.25
  1
%%USCREEN INSERT
 41
0.55
 51
5.0
 72
     1
 11
33.02041968733682
 21
60.45780415211455
 31
0.0
100
AcDbText
  0
DIMENSION
  5
313
102
{ACAD_XDICTIONARY
360
314
102
}
102
{ACAD_REACTORS
330
315
102
}
330
2
100
AcDbEntity
  8
0
100
AcDbDimension
  2
*D19
 10
30.24670329011349
 20
66.20478597133493
 30
0.0
 11
31.12170329011349
 21
66.20478597133493
 31
0.0
 71
     5
 42
1.75
  3
Knife
100
AcDbAlignedDimension
 13
31.99670329011349
 23
66.35500649208809
 33
0.0
 14
30.24670329011349
 24
66.35500649208809
 34
0.0
100
AcDbRotatedDimension
1001
ACAD
1000
DSTYLE
1002
{
1070
    40
1040
1.0
1002
}
  0
DIMENSION
  5
324
330
2
100
AcDbEntity
  8
0
100
AcDbDimension
  2
*D20
 10
40.06073786186909
 20
63.28440933517128
 30
0.0
 11
40.06073786186909
 21
66.68556042295716
 31
0.0
 70
   128
 71
     5
 42
5.405005532505363
  3
Knife
100
AcDbAlignedDimension
 13
37.30893314316961
 23
68.68941486767664
 33
0.0
 14
37.02889419605134
 24
63.28440933517128
 34
0.0
 50
90.0
100
AcDbRotatedDimension
1001
ACAD
1000
DSTYLE
1002
{
1070
    40
1040
1.0
1002
}
  0
DIMENSION
  5
332
330
2
100
AcDbEntity
  8
0
100
AcDbDimension
  2
*D21
 10
40.06073786186909
 20
48.15853721334645
 30
0.0
 11
40.06073786186907
 21
53.0335372133432
 31
0.0
 71
     5
 42
9.749999999993491
  3
Knife
100
AcDbAlignedDimension
 13
37.02889419605134
 23
57.90853721333994
 33
0.0
 14
37.55893314316967
 24
48.15853721334645
 34
0.0
 50
90.0
100
AcDbRotatedDimension
1001
ACAD
1000
DSTYLE
1002
{
1070
    40
1040
1.0
1002
}
  0
ENDSEC
  0
SECTION
  2
OBJECTS
  0
DICTIONARY
  5
B
330
0
100
AcDbDictionary
281
     1
  3
ACAD_COLOR
350
50
  3
ACAD_GROUP
350
3D
  3
ACAD_LAYOUT
350
18
  3
ACAD_MATERIAL
350
D
  3
ACAD_MLEADERSTYLE
350
53
  3
ACAD_MLINESTYLE
350
3E
  3
ACAD_PLOTSETTINGS
350
3F
  3
ACAD_PLOTSTYLENAME
350
A
  3
ACAD_SCALELIST
350
51
  3
ACAD_TABLESTYLE
350
52
  3
ACAD_VISUALSTYLE
350
31
  3
ACDB_RECOMPOSE_DATA
350
34E
  3
AcDbVariableDictionary
350
344
  0
DICTIONARY
  5
33
330
2E
100
AcDbDictionary
280
     1
281
     1
  0
DICTIONARY
  5
23
330
22
100
AcDbDictionary
280
     1
281
     1
  3
ACAD_LAYERSTATES
360
24
  0
DICTIONARY
  5
7
330
6
100
AcDbDictionary
280
     1
281
     1
  3
ADSK_XREC_LAYER_RECONCILED
360
8
  0
DICTIONARY
  5
E0
330
DF
100
AcDbDictionary
280
     1
281
     1
  0
DICTIONARY
  5
3
330
2
100
AcDbDictionary
280
     1
281
     1
  3
ACAD_SORTENTS
360
341
  0
DICTIONARY
  5
314
330
313
100
AcDbDictionary
280
     1
281
     1
  3
ACAD_DIMASSOC
360
315
  0
DICTIONARY
  5
50
102
{ACAD_REACTORS
330
B
102
}
330
B
100
AcDbDictionary
281
     1
  0
DICTIONARY
  5
3D
102
{ACAD_REACTORS
330
B
102
}
330
B
100
AcDbDictionary
281
     1
  0
DICTIONARY
  5
18
102
{ACAD_REACTORS
330
B
102
}
330
B
100
AcDbDictionary
281
     1
  3
Layout1
350
1F
  3
Model
350
17
  0
DICTIONARY
  5
D
102
{ACAD_REACTORS
330
B
102
}
330
B
100
AcDbDictionary
281
     1
  3
ByBlock
350
48
  3
ByLayer
350
40
  3
Global
350
C
  0
DICTIONARY
  5
53
102
{ACAD_REACTORS
330
B
102
}
330
B
100
AcDbDictionary
281
     1
  0
DICTIONARY
  5
3E
102
{ACAD_REACTORS
330
B
102
}
330
B
100
AcDbDictionary
281
     1
  3
Standard
350
54
  0
DICTIONARY
  5
3F
102
{ACAD_REACTORS
330
B
102
}
330
B
100
AcDbDictionary
281
     1
  0
ACDBDICTIONARYWDFLT
  5
A
102
{ACAD_REACTORS
330
B
102
}
330
B
100
AcDbDictionary
281
     1
  3
Normal
350
9
100
AcDbDictionaryWithDefault
340
9
  0
DICTIONARY
  5
51
102
{ACAD_REACTORS
330
B
102
}
330
B
100
AcDbDictionary
281
     1
  3
A0
350
59
  3
A1
350
5A
  3
A2
350
5B
  3
A3
350
5C
  3
A4
350
5D
  3
A5
350
5E
  3
A6
350
5F
  3
A7
350
60
  3
A8
350
61
  3
A9
350
62
  3
B0
350
63
  3
B1
350
64
  3
B2
350
65
  3
B3
350
66
  3
B4
350
67
  3
B5
350
68
  3
B6
350
69
  0
DICTIONARY
  5
52
102
{ACAD_REACTORS
330
B
102
}
330
B
100
AcDbDictionary
281
     1
  3
Standard
350
55
  0
DICTIONARY
  5
31
102
{ACAD_REACTORS
330
B
102
}
330
B
100
AcDbDictionary
281
     1
  3
2dWireframe
350
30
  3
Realistic
350
57
  3
Wireframe
350
58
  0
XRECORD
  5
34E
102
{ACAD_REACTORS
330
B
102
}
330
B
100
AcDbXrecord
280
     1
 90
        1
330
55
  0
DICTIONARY
  5
344
102
{ACAD_REACTORS
330
B
102
}
330
B
100
AcDbDictionary
281
     1
  3
CANNOSCALE
350
347
  3
CMLEADERSTYLE
350
346
  3
CTABLESTYLE
350
345
  3
DIMASSOC
350
34C
  3
HIDETEXT
350
34A
  3
INDEXCTL
350
349
  3
SORTENTS
350
348
  3
XCLIPFRAME
350
34B
  0
DICTIONARY
  5
24
102
{ACAD_REACTORS
330
23
102
}
330
23
100
AcDbDictionary
281
     1
  0
XRECORD
  5
8
102
{ACAD_REACTORS
330
7
102
}
330
7
100
AcDbXrecord
280
     1
290
     1
  0
SORTENTSTABLE
  5
341
102
{ACAD_REACTORS
330
3
102
}
330
3
100
AcDbSortentsTable
330
2
  0
DIMASSOC
  5
315
102
{ACAD_REACTORS
330
314
102
}
330
314
100
AcDbDimAssoc
330
313
 90
        3
 70
     0
 71
     0
  1
AcDbOsnapPointRef
 72
     2
331
1B8
 73
     2
 91
        9
 40
0.5
 10
0.0
 20
0.0
 30
0.0
 75
     0
  1
AcDbOsnapPointRef
 72
     8
331
1B8
 73
     2
 91
        1
 40
0.6108083784692815
 10
0.0
 20
0.0
 30
0.0
 75
     1
  1
AcDbOsnapPointRef
 72
     2
331
1B8
 73
     2
 91
        9
 40
0.5
 10
0.0
 20
0.0
 30
0.0
 75
     0
  0
LAYOUT
  5
1F
102
{ACAD_XDICTIONARY
360
20
102
}
102
{ACAD_REACTORS
330
18
102
}
330
18
100
AcDbPlotSettings
  1

  2
Default Windows System Printer.pc3
  4
Letter
  6

 40
4.857749938964843
 41
4.857737064361572
 42
4.85772705078125
 43
4.011077880859375
 44
279.3999938964844
 45
215.8999938964844
 46
-0.730858697408237
 47
-3.856245104248928
 48
0.0
 49
0.0
140
0.0
141
0.0
142
1.0
143
1.0
 70
   692
 72
     0
 73
     1
 74
     1
  7
monochrome.ctb
 75
    16
147
1.0
148
0.0083604749971762
149
0.0163435974585369
100
AcDbLayout
  1
Layout1
 70
     1
 71
     1
 10
-0.0064249311656545
 20
-0.1631194818509899
 11
8.493574828538456
 21
10.83688027785312
 12
0.0
 22
0.0
 32
0.0
 14
-0.0001993256062995
 24
-0.0006438736622698
 34
-0.0000000349181948
 15
8.45427583816383
 25
10.67440472088713
 35
0.0000000814935746
146
0.0
 13
0.0
 23
0.0
 33
0.0
 16
1.0
 26
0.0
 36
0.0
 17
0.0
 27
1.0
 37
0.0
 76
     0
330
1C
1001
ACAD_PSEXT
1000
Default Windows System Printer.pc3
1000
HP LaserJet Professional M1212nf MFP
1000
USB001
1000

1070
     0
  0
LAYOUT
  5
17
102
{ACAD_XDICTIONARY
360
19
102
}
102
{ACAD_REACTORS
330
18
102
}
330
18
100
AcDbPlotSettings
  1

  2
hp LaserJet 1000
  4
Letter
  6

 40
5.111750125885009
 41
5.11176061630249
 42
5.111740112304687
 43
5.11175537109375
 44
215.8999938964844
 45
279.3999938964844
 46
-1737.727141600119
 47
-1443.590822120185
 48
0.0
 49
0.0
140
0.0
141
0.0
142
1.0
143
1.0
 70
 11956
 72
     0
 73
     1
 74
     1
  7
monochrome.ctb
 75
    16
147
1.0
148
-1178909.293504616
149
-716480.0773740626
100
AcDbLayout
  1
Model
 70
     1
 71
     0
 10
0.0
 20
0.0
 11
12.0
 21
9.0
 12
0.0
 22
0.0
 32
0.0
 14
0.0
 24
0.0
 34
0.0
 15
0.0
 25
0.0
 35
0.0
146
0.0
 13
0.0
 23
0.0
 33
0.0
 16
1.0
 26
0.0
 36
0.0
 17
0.0
 27
1.0
 37
0.0
 76
     0
330
2
1001
ACAD_PSEXT
1000
hp LaserJet 1000
1000
hp LaserJet 1000
1000
USB001
1000

1070
     0
  0
MATERIAL
  5
48
102
{ACAD_XDICTIONARY
360
49
102
}
102
{ACAD_REACTORS
330
D
102
}
330
D
100
AcDbMaterial
  1
ByBlock
 72
     0
 43
0.0208333333333333
 43
0.0
 43
0.0
 43
0.0
 43
0.0
 43
0.0208333333333333
 43
0.0
 43
0.0
 43
0.0
 43
0.0
 43
1.0
 43
0.0
 43
0.0
 43
0.0
 43
0.0
 43
1.0
 77
     0
 47
0.0208333333333333
 47
0.0
 47
0.0
 47
0.0
 47
0.0
 47
0.0208333333333333
 47
0.0
 47
0.0
 47
0.0
 47
0.0
 47
1.0
 47
0.0
 47
0.0
 47
0.0
 47
0.0
 47
1.0
171
     0
 49
0.0208333333333333
 49
0.0
 49
0.0
 49
0.0
 49
0.0
 49
0.0208333333333333
 49
0.0
 49
0.0
 49
0.0
 49
0.0
 49
1.0
 49
0.0
 49
0.0
 49
0.0
 49
0.0
 49
1.0
175
     0
142
0.0208333333333333
142
0.0
142
0.0
142
0.0
142
0.0
142
0.0208333333333333
142
0.0
142
0.0
142
0.0
142
0.0
142
1.0
142
0.0
142
0.0
142
0.0
142
0.0
142
1.0
179
     0
144
0.0208333333333333
144
0.0
144
0.0
144
0.0
144
0.0
144
0.0208333333333333
144
0.0
144
0.0
144
0.0
144
0.0
144
1.0
144
0.0
144
0.0
144
0.0
144
0.0
144
1.0
147
0.0208333333333333
147
0.0
147
0.0
147
0.0
147
0.0
147
0.0208333333333333
147
0.0
147
0.0
147
0.0
147
0.0
147
1.0
147
0.0
147
0.0
147
0.0
147
0.0
147
1.0
  0
MATERIAL
  5
40
102
{ACAD_XDICTIONARY
360
41
102
}
102
{ACAD_REACTORS
330
D
102
}
330
D
100
AcDbMaterial
  1
ByLayer
 72
     0
 43
0.0208333333333333
 43
0.0
 43
0.0
 43
0.0
 43
0.0
 43
0.0208333333333333
 43
0.0
 43
0.0
 43
0.0
 43
0.0
 43
1.0
 43
0.0
 43
0.0
 43
0.0
 43
0.0
 43
1.0
 77
     0
 47
0.0208333333333333
 47
0.0
 47
0.0
 47
0.0
 47
0.0
 47
0.0208333333333333
 47
0.0
 47
0.0
 47
0.0
 47
0.0
 47
1.0
 47
0.0
 47
0.0
 47
0.0
 47
0.0
 47
1.0
171
     0
 49
0.0208333333333333
 49
0.0
 49
0.0
 49
0.0
 49
0.0
 49
0.0208333333333333
 49
0.0
 49
0.0
 49
0.0
 49
0.0
 49
1.0
 49
0.0
 49
0.0
 49
0.0
 49
0.0
 49
1.0
175
     0
142
0.0208333333333333
142
0.0
142
0.0
142
0.0
142
0.0
142
0.0208333333333333
142
0.0
142
0.0
142
0.0
142
0.0
142
1.0
142
0.0
142
0.0
142
0.0
142
0.0
142
1.0
179
     0
144
0.0208333333333333
144
0.0
144
0.0
144
0.0
144
0.0
144
0.0208333333333333
144
0.0
144
0.0
144
0.0
144
0.0
144
1.0
144
0.0
144
0.0
144
0.0
144
0.0
144
1.0
147
0.0208333333333333
147
0.0
147
0.0
147
0.0
147
0.0
147
0.0208333333333333
147
0.0
147
0.0
147
0.0
147
0.0
147
1.0
147
0.0
147
0.0
147
0.0
147
0.0
147
1.0
  0
MATERIAL
  5
C
102
{ACAD_XDICTIONARY
360
E
102
}
102
{ACAD_REACTORS
330
D
102
}
330
D
100
AcDbMaterial
  1
Global
 72
     0
 43
0.0208333333333333
 43
0.0
 43
0.0
 43
0.0
 43
0.0
 43
0.0208333333333333
 43
0.0
 43
0.0
 43
0.0
 43
0.0
 43
1.0
 43
0.0
 43
0.0
 43
0.0
 43
0.0
 43
1.0
 77
     0
 47
0.0208333333333333
 47
0.0
 47
0.0
 47
0.0
 47
0.0
 47
0.0208333333333333
 47
0.0
 47
0.0
 47
0.0
 47
0.0
 47
1.0
 47
0.0
 47
0.0
 47
0.0
 47
0.0
 47
1.0
171
     0
 49
0.0208333333333333
 49
0.0
 49
0.0
 49
0.0
 49
0.0
 49
0.0208333333333333
 49
0.0
 49
0.0
 49
0.0
 49
0.0
 49
1.0
 49
0.0
 49
0.0
 49
0.0
 49
0.0
 49
1.0
175
     0
142
0.0208333333333333
142
0.0
142
0.0
142
0.0
142
0.0
142
0.0208333333333333
142
0.0
142
0.0
142
0.0
142
0.0
142
1.0
142
0.0
142
0.0
142
0.0
142
0.0
142
1.0
179
     0
144
0.0208333333333333
144
0.0
144
0.0
144
0.0
144
0.0
144
0.0208333333333333
144
0.0
144
0.0
144
0.0
144
0.0
144
1.0
144
0.0
144
0.0
144
0.0
144
0.0
144
1.0
147
0.0208333333333333
147
0.0
147
0.0
147
0.0
147
0.0
147
0.0208333333333333
147
0.0
147
0.0
147
0.0
147
0.0
147
1.0
147
0.0
147
0.0
147
0.0
147
0.0
147
1.0
  0
MLINESTYLE
  5
54
102
{ACAD_REACTORS
330
3E
102
}
330
3E
100
AcDbMlineStyle
  2
STANDARD
 70
     0
  3

 62
   256
 51
90.0
 52
90.0
 71
     2
 49
0.5
 62
   256
  6
BYLAYER
 49
-0.5
 62
   256
  6
BYLAYER
  0
ACDBPLACEHOLDER
  5
9
102
{ACAD_REACTORS
330
A
102
}
330
A
  0
SCALE
  5
59
102
{ACAD_REACTORS
330
51
102
}
330
51
100
AcDbScale
 70
     0
300
1:1
140
1.0
141
1.0
290
     1
  0
SCALE
  5
5A
102
{ACAD_REACTORS
330
51
102
}
330
51
100
AcDbScale
 70
     0
300
1/128" = 1'-0"
140
0.0078125
141
12.0
290
     0
  0
SCALE
  5
5B
102
{ACAD_REACTORS
330
51
102
}
330
51
100
AcDbScale
 70
     0
300
1/64" = 1'-0"
140
0.015625
141
12.0
290
     0
  0
SCALE
  5
5C
102
{ACAD_REACTORS
330
51
102
}
330
51
100
AcDbScale
 70
     0
300
1/32" = 1'-0"
140
0.03125
141
12.0
290
     0
  0
SCALE
  5
5D
102
{ACAD_REACTORS
330
51
102
}
330
51
100
AcDbScale
 70
     0
300
1/16" = 1'-0"
140
0.0625
141
12.0
290
     0
  0
SCALE
  5
5E
102
{ACAD_REACTORS
330
51
102
}
330
51
100
AcDbScale
 70
     0
300
3/32" = 1'-0"
140
0.09375
141
12.0
290
     0
  0
SCALE
  5
5F
102
{ACAD_REACTORS
330
51
102
}
330
51
100
AcDbScale
 70
     0
300
1/8" = 1'-0"
140
0.125
141
12.0
290
     0
  0
SCALE
  5
60
102
{ACAD_REACTORS
330
51
102
}
330
51
100
AcDbScale
 70
     0
300
3/16" = 1'-0"
140
0.1875
141
12.0
290
     0
  0
SCALE
  5
61
102
{ACAD_REACTORS
330
51
102
}
330
51
100
AcDbScale
 70
     0
300
1/4" = 1'-0"
140
0.25
141
12.0
290
     0
  0
SCALE
  5
62
102
{ACAD_REACTORS
330
51
102
}
330
51
100
AcDbScale
 70
     0
300
3/8" = 1'-0"
140
0.375
141
12.0
290
     0
  0
SCALE
  5
63
102
{ACAD_REACTORS
330
51
102
}
330
51
100
AcDbScale
 70
     0
300
1/2" = 1'-0"
140
0.5
141
12.0
290
     0
  0
SCALE
  5
64
102
{ACAD_REACTORS
330
51
102
}
330
51
100
AcDbScale
 70
     0
300
3/4" = 1'-0"
140
0.75
141
12.0
290
     0
  0
SCALE
  5
65
102
{ACAD_REACTORS
330
51
102
}
330
51
100
AcDbScale
 70
     0
300
1" = 1'-0"
140
1.0
141
12.0
290
     0
  0
SCALE
  5
66
102
{ACAD_REACTORS
330
51
102
}
330
51
100
AcDbScale
 70
     0
300
1-1/2" = 1'-0"
140
1.5
141
12.0
290
     0
  0
SCALE
  5
67
102
{ACAD_REACTORS
330
51
102
}
330
51
100
AcDbScale
 70
     0
300
3" = 1'-0"
140
3.0
141
12.0
290
     0
  0
SCALE
  5
68
102
{ACAD_REACTORS
330
51
102
}
330
51
100
AcDbScale
 70
     0
300
6" = 1'-0"
140
6.0
141
12.0
290
     0
  0
SCALE
  5
69
102
{ACAD_REACTORS
330
51
102
}
330
51
100
AcDbScale
 70
     0
300
1'-0" = 1'-0"
140
12.0
141
12.0
290
     0
  0
TABLESTYLE
  5
55
102
{ACAD_XDICTIONARY
360
56
102
}
102
{ACAD_REACTORS
330
52
102
}
330
52
100
AcDbTableStyle
  3
Standard
 70
     0
 71
     0
 40
0.06
 41
0.06
280
     0
281
     0
  7
Standard
140
0.18
170
     2
 62
     0
 63
     7
283
     0
274
    -2
284
     1
 64
     0
275
    -2
285
     1
 65
     0
276
    -2
286
     1
 66
     0
277
    -2
287
     1
 67
     0
278
    -2
288
     1
 68
     0
279
    -2
289
     1
 69
     0
  7
Standard
140
0.25
170
     5
 62
     0
 63
     7
283
     0
274
    -2
284
     1
 64
     0
275
    -2
285
     1
 65
     0
276
    -2
286
     1
 66
     0
277
    -2
287
     1
 67
     0
278
    -2
288
     1
 68
     0
279
    -2
289
     1
 69
     0
  7
Standard
140
0.18
170
     5
 62
     0
 63
     7
283
     0
274
    -2
284
     1
 64
     0
275
    -2
285
     1
 65
     0
276
    -2
286
     1
 66
     0
277
    -2
287
     1
 67
     0
278
    -2
288
     1
 68
     0
279
    -2
289
     1
 69
     0
  0
VISUALSTYLE
  5
30
102
{ACAD_XDICTIONARY
360
352
102
}
102
{ACAD_REACTORS
330
31
102
}
330
31
100
AcDbVisualStyle
  2
2dWireframe
 70
     4
 71
     0
 72
     2
 73
     0
 90
        0
 40
-0.6
 41
-30.0
 62
     5
 63
     7
 74
     1
 91
        4
 64
     7
 65
   257
 75
     1
175
     1
 42
1.0
 92
        0
 66
   257
 43
1.0
 76
     1
 77
     6
 78
     2
 67
     7
 79
     5
170
     0
171
     0
290
     0
174
     0
 93
        1
 44
0.0
173
     0
291
     0
 45
0.0
1001
ACAD
1000
AcDbSavedByObjectVersion
1070
     0
  0
VISUALSTYLE
  5
57
102
{ACAD_XDICTIONARY
360
357
102
}
102
{ACAD_REACTORS
330
31
102
}
330
31
100
AcDbVisualStyle
  2
Realistic
 70
     8
 71
     2
 72
     2
 73
     0
 90
        2
 40
-0.6
 41
30.0
 62
     5
 63
     7
 74
     0
 91
        0
 64
     7
 65
   257
 75
     1
175
     1
 42
1.0
 92
        8
 66
   257
 43
1.0
 76
     1
 77
     6
 78
     2
 67
     7
 79
     3
170
     0
171
     0
290
     0
174
     0
 93
       13
 44
0.0
173
     0
291
     0
 45
0.0
1001
ACAD
1000
AcDbSavedByObjectVersion
1070
     0
  0
VISUALSTYLE
  5
58
102
{ACAD_XDICTIONARY
360
359
102
}
102
{ACAD_REACTORS
330
31
102
}
330
31
100
AcDbVisualStyle
  2
Wireframe
 70
     5
 71
     0
 72
     2
 73
     0
 90
        0
 40
-0.6
 41
-30.0
 62
     5
 63
     7
 74
     1
 91
        4
 64
     7
 65
   257
 75
     1
175
     1
 42
1.0
 92
        0
 66
   257
 43
1.0
 76
     1
 77
     6
 78
     2
 67
     7
 79
     3
170
     0
171
     0
290
     0
174
     0
 93
        1
 44
0.0
173
     0
291
     0
 45
0.0
1001
ACAD
1000
AcDbSavedByObjectVersion
1070
     0
  0
DICTIONARYVAR
  5
347
102
{ACAD_REACTORS
330
344
102
}
330
344
100
DictionaryVariables
280
     0
  1
1:1
  0
DICTIONARYVAR
  5
346
102
{ACAD_REACTORS
330
344
102
}
330
344
100
DictionaryVariables
280
     0
  1
STANDARD
  0
DICTIONARYVAR
  5
345
102
{ACAD_REACTORS
330
344
102
}
330
344
100
DictionaryVariables
280
     0
  1
STANDARD
  0
DICTIONARYVAR
  5
34C
102
{ACAD_REACTORS
330
344
102
}
330
344
100
DictionaryVariables
280
     0
  1
2
  0
DICTIONARYVAR
  5
34A
102
{ACAD_REACTORS
330
344
102
}
330
344
100
DictionaryVariables
280
     0
  1
1
  0
DICTIONARYVAR
  5
349
102
{ACAD_REACTORS
330
344
102
}
330
344
100
DictionaryVariables
280
     0
  1
0
  0
DICTIONARYVAR
  5
348
102
{ACAD_REACTORS
330
344
102
}
330
344
100
DictionaryVariables
280
     0
  1
127
  0
DICTIONARYVAR
  5
34B
102
{ACAD_REACTORS
330
344
102
}
330
344
100
DictionaryVariables
280
     0
  1
0
  0
DICTIONARY
  5
20
330
1F
100
AcDbDictionary
280
     1
281
     1
  3
ACAD_XREC_ROUNDTRIP
360
351
  3
ADSK_XREC_LAYOUTTHUMBNAIL
360
21
  0
DICTIONARY
  5
19
330
17
100
AcDbDictionary
280
     1
281
     1
  3
ACAD_XREC_ROUNDTRIP
360
350
  3
ADSK_XREC_LAYOUTTHUMBNAIL
360
1A
  0
DICTIONARY
  5
49
330
48
100
AcDbDictionary
280
     1
281
     1
  3
ACAD_XREC_ROUNDTRIP
360
355
  3
BUMPTILE
360
4A
  3
DIFFUSETILE
360
4B
  3
OPACITYTILE
360
4C
  3
REFLECTIONTILE
360
4D
  3
REFRACTIONTILE
360
4E
  3
SPECULARTILE
360
4F
  0
DICTIONARY
  5
41
330
40
100
AcDbDictionary
280
     1
281
     1
  3
ACAD_XREC_ROUNDTRIP
360
354
  3
BUMPTILE
360
42
  3
DIFFUSETILE
360
43
  3
OPACITYTILE
360
44
  3
REFLECTIONTILE
360
45
  3
REFRACTIONTILE
360
46
  3
SPECULARTILE
360
47
  0
DICTIONARY
  5
E
330
C
100
AcDbDictionary
280
     1
281
     1
  3
ACAD_XREC_ROUNDTRIP
360
34F
  3
BUMPTILE
360
F
  3
DIFFUSETILE
360
10
  3
OPACITYTILE
360
11
  3
REFLECTIONTILE
360
12
  3
REFRACTIONTILE
360
13
  3
SPECULARTILE
360
14
  0
DICTIONARY
  5
56
330
55
100
AcDbDictionary
280
     1
281
     1
  3
ACAD_ROUNDTRIP_2008_TABLESTYLE_CELLSTYLEMAP
360
34D
  3
ACAD_XREC_ROUNDTRIP
360
356
  0
DICTIONARY
  5
352
330
30
100
AcDbDictionary
280
     1
281
     1
  3
ACAD_XREC_ROUNDTRIP
360
353
  0
DICTIONARY
  5
357
330
57
100
AcDbDictionary
280
     1
281
     1
  3
ACAD_XREC_ROUNDTRIP
360
358
  0
DICTIONARY
  5
359
330
58
100
AcDbDictionary
280
     1
281
     1
  3
ACAD_XREC_ROUNDTRIP
360
35A
  0
XRECORD
  5
351
102
{ACAD_REACTORS
330
20
102
}
330
20
100
AcDbXrecord
280
     1
102
SHADEPLOT
 70
     1
102
SHADEPLOTRESLEVEL
 70
     4
102
SHADEPLOTCUSTOMDPI
 70
   300
  0
XRECORD
  5
21
102
{ACAD_REACTORS
330
20
102
}
330
20
100
AcDbXrecord
280
     1
310
280000006B0000008C0000000100080000000000103B000000000000000000000001000000000000FFFFFF0000000000C8C8C8000000000000000000000000000000000000000000000000000000000000000000330000006600000099000000CC000000FF00000000330000333300006633000099330000CC330000FF3300
310
0000660000336600006666000099660000CC660000FF66000000990000339900006699000099990000CC990000FF99000000CC000033CC000066CC000099CC0000CCCC0000FFCC000000FF000033FF000066FF000099FF0000CCFF0000FFFF000000003300330033006600330099003300CC003300FF003300003333003333
310
33006633330099333300CC333300FF33330000663300336633006666330099663300CC663300FF66330000993300339933006699330099993300CC993300FF99330000CC330033CC330066CC330099CC3300CCCC3300FFCC330000FF330033FF330066FF330099FF3300CCFF3300FFFF330000006600330066006600660099
310
006600CC006600FF00660000336600333366006633660099336600CC336600FF33660000666600336666006666660099666600CC666600FF66660000996600339966006699660099996600CC996600FF99660000CC660033CC660066CC660099CC6600CCCC6600FFCC660000FF660033FF660066FF660099FF6600CCFF6600
310
FFFF660000009900330099006600990099009900CC009900FF00990000339900333399006633990099339900CC339900FF33990000669900336699006666990099669900CC669900FF66990000999900339999006699990099999900CC999900FF99990000CC990033CC990066CC990099CC9900CCCC9900FFCC990000FF99
310
0033FF990066FF990099FF9900CCFF9900FFFF99000000CC003300CC006600CC009900CC00CC00CC00FF00CC000033CC003333CC006633CC009933CC00CC33CC00FF33CC000066CC003366CC006666CC009966CC00CC66CC00FF66CC000099CC003399CC006699CC009999CC00CC99CC00FF99CC0000CCCC0033CCCC0066CC
310
CC0099CCCC00CCCCCC00FFCCCC0000FFCC0033FFCC0066FFCC0099FFCC00CCFFCC00FFFFCC000000FF003300FF006600FF009900FF00CC00FF00FF00FF000033FF003333FF006633FF009933FF00CC33FF00FF33FF000066FF003366FF006666FF009966FF00CC66FF00FF66FF000099FF003399FF006699FF009999FF00CC
310
99FF00FF99FF0000CCFF0033CCFF0066CCFF0099CCFF00CCCCFF00FFCCFF0000FFFF0033FFFF0066FFFF0099FFFF00CCFFFF00FFFFFF00000000000D0D0D001A1A1A00282828003535350043434300505050005D5D5D006B6B6B00787878008686860093939300A1A1A100AEAEAE00BBBBBB00C9C9C900D6D6D600E4E4E400
310
F1F1F100FFFFFF0000000000000000000000000000000000000000000000000000000000000000000000000000000000E2E2E2E2E2E2E2E2E2E2E2E2E2E2E2E2E2E2E2E2E2E2E2E2E2E2E2E2E2E2E2E2E2E2E2E2E2E2E2E2E2E2E2E2E2E2E2E2E2E2E2E2E2E2E2E2E2E2E2E2E2E2E2E2E2E2E2E2E2E2E2E2E2E2E2E2E2E2E2
310
E2E2E2E2E2E2E2E2E2E2E2E2E2E2E2E2E2E2E2E2E2E2E2E2E2E2E2E240E200000000000000000000000000000000000000000000000000000000000000000000000000000000000000000000000000000000000000000000000000000000000000000000000000000000000000000000000000000000000000000000000000
310
000000000000000000B8E20000000000000000000000000000000000000000000000000000000000000000000000000000000000000000000000000000000000000000000000000000000000000000000000000000000000000000000000000000000000000000000000000000000000000000000030E2E2E2E2E2E2E2E2E2
310
E2E2000000000000000000E2E2E2E2E2E2E2E2E2E2E2E2E2E2E2E200000000000000000000E2E2E2E2E2E2E2E2E2E2E2E2E2E2E2E200000000000000000000E2E2E2E2E2E2E2E2E2E2E2E2E2E2E2E2000000000000000000E2E2E2E2E2E2E2E2E2007EE200E200000000000000000000000000000000000000000000000000
310
0000000000000000000000000000000000000000000000000000000000000000000000000000000000000000000000000000000000000000000000000000000000000000000000000000000000E20000E200E20000000000000000000000000000000000000000000000000000000000000000000000000000000000000000
310
0000000000E2E2E20000000000000000000000000000000000000000000000000000000000000000000000000000000000000000000000000000E20001E200E200000000000000000000000000000000000000000000000000000000000000000000000000000000000000000000000000E2E2E20000000000000000000000
310
000000000000000000000000000000000000000000000000000000000000000000000000000000E20019E200E200000000000000000000000000000000000000000000000000000000000000000000000000000000000000000000000000000000000000000000000000000000000000000000000000000000000000000000
310
0000000000000000000000000000000000000000E20001E200E2000000000000000000000000000000000000000000000000000000000000000000000000000000000000000000000000E2E2E2E2E2000000000000000000000000000000000000000000000000000000000000000000000000000000000000000000000000
310
00E20000E200E2000000000000000000000000000000000000000000000000000000000000000000000000000000000000000000000000E2E2E2E2E200000000000000000000000000000000000000000000000000000000000000000000000000000000000000000000000000E20000E200E2000000000000000000000000
310
000000000000000000000000000000000000000000000000000000000000000000000000000000000000000000000000000000000000000000000000000000000000000000000000000000000000000000000000000000000000E20001E200E200000000000000000000000000000000000000000000000000000000000000
310
0000000000000000000000000000000000000000000000000000000000000000000000000000000000000000000000000000000000000000000000000000000000000000000000E20000E200000000000000000000000000000000000000000000000000000000000000000000000000000000000000000000000000000000
310
00000000000000000000000000000000000000000000000000000000000000000000000000000000000000000000000000000000000000E20000000000000000000000000000000000000000000000000000000000000000000000000000000000000000000000000000000000000000000000000000000000000000000000
310
000000000000000000000000000000000000000000000000000000000000000000000000E2000000000000000000000000000000000000000000000000000000000000000000000000000000000000000000000000000000000000000000000000000000000000000000000000000000000000000000000000000000000000
310
0000000000000000000000000000000000E20000000000000000000000000000000000000000000000000000000000000000000000000000000000000000000000000000000000000000000000000000000000000000000000000000000000000000000000000000000000000000000000000000000000000000000000E200
310
00000000000000000000000000000000000000000000000000000000000000000000000000000000000000000000000000000000000000000000000000000000000000000000000000000000000000000000000000000000000000000000000000000000000000000000E20000000000000000000000000000000000000000
310
000000000000000000000000000000000000000000000000000000000000000000000000000000000000000000000000000000000000000000000000000000000000000000000000000000000000000000000000000002E2000000000000000000000000000000000000000000000000000000000000000000000000000000
310
0000000000000000000000000000000000000000000000000000000000000000000000000000000000000000000000000000000000000000000000000000000000000002E200000000000000000000000000000000000000000000000000000000000000000000000000000000000000000000000000000000000000000000
310
000000000000000000000000000000000000000000000000000000000000000000000000000000000000000000000000FFE20000000000000000000000000000000000000000000000000000000000000000000000000000000000000000000000000000000000000000000000000000000000000000000000000000000000
310
000000000000000000000000000000000000000000000000000000000000E2000000000000000000000000000000000000000000000000000000000000000000000000000000000000000000000000000000000000000000000000000000000000000000000000000000000000000000000000000000000000000000000000
310
0000000000000000000099E200E2000000000000000000000000000000000000000000000000000000000000000000000000000000000000000000000000000000000000000000000000000000000000000000000000000000000000000000000000000000000000000000000000000000000000E20066E200E20000000000
310
00000000000000000000000000000000000000000000000000000000000000000000000000000000000000000000000000000000000000000000000000000000000000000000000000000000000000000000000000000000000000000000000000E20066E200E2000000000000000000000000000000000000000000000000
310
000000000000000000000000000000000000000000000000000000000000000000000000000000000000000000000000000000000000000000000000000000000000000000000000000000000000E20066E200E200000000000000000000000000000000000000000000000000000000000000000000000000000000000000
310
0000000000000000000000000000000000000000000000000000000000000000000000000000000000000000000000000000000000000000000000E20000E200E20000000000000000000000000000000000000000000000000000000000000000000000000000000000000000000000000000000000000000000000000000
310
00000000000000000000000000000000000000000000000000000000000000000000000000000000E20099E200E2000000000000000000000000000000000000000000000000E2E2E2E2E2E2E2E2E2E2E2E2E2E2E2E2E2E2E2E2E2E2E2E2E2E2E2E2E2E2E2E2E2E2E2E2E2E2E2E2E2E2E2E2E2E2E2E2E2E2E2E2E2E2E2E2E2
310
000000000000000000000000000000000000000000E20000E200E20000000000000000000000000000000000000000000000E2E2E200E2E2000000E2E2000000E2E2E2E2E2E2E2E2000000000000000000000000000000E2E2E20000E200000000E2E2000000E2E2000000E200000000000000000000000000000000000000
310
0000E200FFE200E20000000000000000000000000000000000000000000000E2E2E200E200000000E2E200000000E20000E2E2000000000000000000000000000000000000E2E20000E20000000000E200000000E2000000E2000000000000000000000000000000000000000000E20000E200E20000000000000000000000
310
000000000000000000000000E2E2E200E2E2E2E2E2E2E2E2E2E2E2E2E200E2E2000000000000000000000000000000000000E2E200E2E2E200000000E200000000E2000000E2000000000000000000000000000000000000000000E20000E200E200000000000000000000000000000000000000000000000000E200000000
310
00000000E2E2E2E2E2E2E2E2E2E2E2E2E2E2E2E2E2E2E2E2E2E2E2E2E2E2E2E2E200E2E2E200000000E200000000E2000000E2000000000000000000000000000000000000000000E20000E200E2000000000000000000000000000000000000000000000000E2E2E2E2E2E2E2E2E2E2E2E2E2E2E2E2E2E2E2E2E2E2E2E2E2
310
E2E2E2E2E2E2E2E2E2E2E200E2E200E2E2E200000000E200000000E2000000E2000000000000000000000000000000000000000000E20000E200E200000000000000000000000000000000000000000000000000E200000000000000000000E20000000000E2E2E200E2E200000000000000E2E2E2E2E200E2000000E20000
310
000000E200000000E2000000E2000000000000000000000000000000000000000000E2000FE200E200000000000000000000000000000000000000000000000000E200000000000000000000E20000000000E2E2E200E2E2000000000000E2E2E2E2E2E2E2E2000000E20000000000E200000000E2000000E2000000000000
310
000000000000000000000000000000E20000E200E200000000000000000000000000000000000000000000000000E200000000000000000000E20000000000E2E2E200E2E20000E2E2E2E2E2E2E2E2E2E2E2E2000000E20000000000E200000000E2000000E2000000000000000000000000000000000000000000E20000E2
310
00E200000000000000000000000000000000000000000000000000E200000000000000000000E20000000000E2E2E200E2E20000E20000E2E2E2E2E2E2E2E2E2E2E2E2E2E200000000E200000000E2000000E2000000000000000000000000000000000000000000E20000E200E20000000000000000000000000000000000
310
0000000000000000E200000000000000000000E20000000000E2E2E200E2E20000E20000E200E20000000000E2000000E20000000000E200000000E2000000E2000000000000000000000000000000000000000000E20000E200E200000000000000000000000000000000000000000000000000E200000000000000000000
310
E20000000000E2E2E200E2E20000E20000E200E20000000000E2000000E20000000000E200000000E2000000E2000000000000000000000000000000000000000000E2000FE2000000000000000000000000000000000000000000000000000000E200000000000000000000E20000000000E2E2E200E2E20000E20000E2E2
310
E20000000000E2000000E20000000000E200000000E2000000E2000000000000000000000000000000000000000000000000E2000000000000000000000000000000000000000000000000000000E200000000000000000000E20000000000E2E2E200E2E20000E20000E2E2E20000000000E2000000E20000000000E20000
310
0000E2000000E20000000000000000000000000000000000000000000000F5E2000000000000000000000000000000000000000000000000000000E200000000000000000000E20000000000E2E2E200E2E20000E20000E2E2E20000000000E2000000E20000000000E200000000E2000000E2000000000000000000000000
310
000000000000000000000000E2000000000000000000000000000000000000000000000000000000E200000000000000000000E20000000000E2E2E200E2E20000E20000E2E2E20000000000E2000000E20000000000E200000000E2000000E2000000000000000000000000000000000000000000000000E2000000000000
310
000000000000000000000000000000000000000000E200000000000000000000E20000000000E2E2E200E2E20000E20000E2E2E20000000000E2000000E2000000E2E2E200000000E2000000E2000000000000000000000000000000000000000000000000E200000000000000000000000000000000000000000000000000
310
0000E200000000000000000000E20000000000E2E2E200E2E20000E20000E2E2E20000000000E2000000E2000000E2E2E200000000E2000000E2000000000000000000000000000000000000000000000000E200000000000000000000000000000000000000000000000000E2E2E200000000000000000000E20000000000
310
E2E2E200E2E20000E20000E2E2E20000000000E2000000E2000000E2E2E200000000E2000000E200000000000000000000000000000000000000000000000FE200000000000000000000000000000000000000000000000000E2E2E200000000000000000000E20000000000E2E2E200E2E20000E20000E2E2E20000000000
310
E2000000E20000000000E200000000E2000000E2000000000000000000000000000000000000000000000000E200000000000000000000000000000000000000000000000000E2E2E200000000000000000000E20000000000E2E2E200E2E20000E20000E2E2E20000000000E200E2E2E2E200000000E200000000E2000000
310
E2000000000000000000000000000000000000000000000000E200E200000000000000000000000000000000000000000000000000E200000000000000000000E20000000000E2E2E200E2E20000E20000E2E2E20000000000E20000E2E2E200000000E200000000E2000000E2000000000000000000000000000000000000
310
000000E20000E200E200000000000000000000000000000000000000000000000000E200000000000000000000E20000000000E2E2E200E2E20000E20000E2E2E20000000000E20000E2E2E200000000E200000000E2000000E2000000000000000000000000000000000000000000E20000E200E200000000000000000000
310
000000000000000000000000000000E200000000000000000000E20000000000E2E2E200E2E20000E20000E2E2E20000000000E20000E2E2E200000000E200000000E2000000E2000000000000000000000000000000000000000000E200F5E200E200000000000000000000000000000000000000000000000000E2000000
310
00000000000000E20000000000E2E2E200E2E20000E20000E2E2E20000000000E2000000E20000000000E200000000E2000000E2000000000000000000000000000000000000000000E20000E200E200000000000000000000000000000000000000000000000000E200000000000000000000E20000000000E2E2E200E2E2
310
0000E20000E2E2E20000000000E2000000E20000000000E200000000E2000000E2000000000000000000000000000000000000000000E20000E200E200000000000000000000000000000000000000000000000000E200000000000000000000E20000000000E2E2E200E2E20000E20000E2E2E20000000000E2000000E200
310
00000000E200000000E2000000E2000000000000000000000000000000000000000000E20000E200E200000000000000000000000000000000000000000000000000E200000000000000000000E200000000E2E2E2E200E2E20000E20000E2E2E20000000000E2000000E20000000000E200000000E2000000E20000000000
310
00000000000000000000000000000000E20000E200E200000000000000000000000000000000000000000000000000E2000000E2E2E2E2E2E200E2E2E2E2E2E2E2E2E200E2E20000E20000E2E2E20000000000E2000000E20000000000E200000000E2000000E2000000000000000000000000000000000000000000E200F5
310
E200E200000000000000000000000000000000000000000000000000E2000000E200000000E200E200000000E2E2E2E200E2E20000E20000E2E2E20000000000E2000000E20000000000E200000000E2000000E2000000000000000000000000000000000000000000E20000E200E200000000000000000000000000000000
310
000000000000000000E2000000E200000000E2E2E200000000E2E2E2E200E2E20000E20000E2E2E20000000000E2000000E20000000000E200000000E2000000E2000000000000000000000000000000000000000000E200F5E200E200000000000000000000000000000000000000000000000000E2000000E20000000000
310
E2E20000000000E2E2E200E2E20000E20000E2E2E20000000000E2000000E20000000000E200000000E2000000E2000000000000000000000000000000000000000000E20000E200E200000000000000000000000000000000000000000000000000E2000000E20000000000E2E20000000000E2E2E200E2E20000E20000E2
310
E2E20000E2E200E2000000E20000000000E200000000E2000000E2000000000000000000000000000000000000000000E20000E200E200000000000000000000000000000000000000000000000000E2000000E2E2E2E2E2E2E2E2E2E2E2E2E2E2E2E200E2E20000E20000E2E2E2E2E2E2E2E2E2000000E20000000000E200
310
000000E2000000E2000000000000000000000000000000000000000000E20000E200E200000000000000000000000000000000000000000000000000E200000000E2E200E2E2E20000E2E200E2E2E2E200E2E20000E20000E2E2E2E2E2E2E2E2E2000000E20000000000E200000000E2000000E20000000000000000000000
310
00000000000000000000E20000E200E2000000000000000000000000000000000000000000000000E2E2E2E2E2E2E2E2E2E2E2E200000000E2E2E2E2E200E2E20000E20000E2E200E2E2E2E2E2E2E2E2E2E2E2E2E2E2E2E200000000E2000000E2000000000000000000000000000000000000000000E200F5E200E2000000
310
00000000000000000000000000000000000000000000000000000000000000E2000000000000E200E2E200E2E20000E20000E2E200E2E200E2E200000000E200000000000000000000E200E2E2E2E20000000000000000000000000000000000000000E20000E200E200000000000000000000000000000000000000000000
310
000000000000000000000000E2E2E2E2E2E2E2E2E2E2E2E2E2E2E2E2E2E2E2E2E2E2E2E2E2E2E200000000E2000000000000000000E2E200E2E2E2E20000000000000000000000000000000000000000E20000E2000000000000000000000000000000000000000000000000000000000000000000000000E2E2E2E2E2E2E2
310
E20000000000000000000000000000000000000000000000E2000000000000000000E2000000E2E2000000000000000000000000000000000000000000000000E2000000000000000000000000000000000000000000000000000000000000000000000000E2000000000000E2000000000000000000000000000000000000
310
0000000000E200000000000000000000E20000E2E2000000000000000000000000000000000000000000000000E2000000000000000000000000000000000000000000000000000000E20000000000000000E2000000000000E20000000000000000000000000000000000000000000000E200000000000000000000E20000
310
00E20000000000000000000000000000000000000000000000F5E20000000000000000000000000000000000000000000000000000E2E2E2E2E2E2E2E2E2E2E2E200000000E2E2E200000000000000000000000000000000000000000000E200000000000000000000E2000000E20000000000000000000000000000000000
310
00000000000000E20000000000000000000000000000000000000000000000000000E20000000000E2E200E2E2E20000E2E200E2E200000000000000000000000000000000000000000000E200000000000000000000E2000000E2000000000000000000000000000000000000000000000000E20000000000000000000000
310
0000000000000000000000000000E2E2E2000000E2E2E2E2E2E2E2E2E2E2E2E2E2E20000000000000000000000000000000000000000E2E2E2E2000000000000000000E2000000E2000000000000000000000000000000000000000000000000E200000000000000000000000000000000000000E2E2E2E2E200E2E2E20000
310
00E20000000000E2E20000000000E2E2E2E2E2E2E2E200000000000000000000000000E2E2E2E2000000000000000000E2000000E2000000000000000000000000000000000000000000000000E200000000000000000000000000000000000000000000000000E2E2E2000000E20000000000E2E20000000000E200000000
310
00000000000000000000000000000000E2E2E2E2000000000000000000E2000000E20000000000000000000000000000000000000000000000F5E20000000000000000000000000000000000000000000000000000E200000000E2E2E2E2E2E2E2E2E2E2E2E2E2E200000000000000000000000000000000000000000000E2
310
00000000000000000000E2000000E2000000000000000000000000000000000000000000000000E20000000000000000000000000000000000000000000000000000E20000000000E2E200E2E2E20000E2E200E2E200000000000000000000000000000000000000000000E200000000000000000000E2000000E200000000
310
00000000000000000000000000000000000000F5E200E2000000000000000000000000000000000000000000000000E2E2E2E2E2E2E2E2E2E2E2E200000000E2E2E200000000000000000000000000000000000000000000E200000000000000000000E2000000E2000000000000000000000000000000000000000000E200
310
00E200E200000000000000000000000000000000000000000000000000000000000000000000E2000000000000E20000000000000000000000000000000000000000000000E200000000000000000000E2000000E2000000000000000000000000000000000000000000E20000E200E2000000000000000000000000000000
310
00000000000000000000000000000000000000E2E2E2E2E2E2E2E20000000000000000000000000000000000000000000000E200000000000000000000E2000000E2000000000000000000000000000000000000000000E2007FE200E200000000000000000000000000000000000000000000000000000000000000000000
310
00000000000000000000000000000000000000000000000000000000000000E200000000000000000000E2000000E2000000000000000000000000000000000000000000E20000E200E200000000000000000000000000000000000000000000000000000000000000000000E2E2E2E2E2E2E2E2E2E2E2E2E2E2E2E2E2E2E2
310
E2E2E2E2E2E2E2E200000000E200000000000000000000E2000000E2000000000000000000000000000000000000000000E200F5E200E200000000000000000000000000000000000000000000000000000000000000000000E2000000000000E200E2E200E2E20000E20000E2E200E2E200E2E200000000E2000000000000
310
00000000E2000000E2000000000000000000000000000000000000000000E20000E200E2000000000000000000000000000000000000000000000000E2E2E2E2E2E2E2E2E2E2E2E200000000E2E2E2E2E200E2E20000E20000E2E200E2E2E2E2E2E2E2E2E2E2E2E2E2E2E2E200000000E2000000E200000000000000000000
310
0000000000000000000000E20000E200E2000000000000000000000000000000000000000000000000E20000000000E2E200E2E2E20000E2E200E2E2E2E200E2E20000E20000E2E2E2E2E2E2E2E2E2000000E20000000000E200000000E2000000E2000000000000000000000000000000000000000000E20000E200E20000
310
00000000000000000000000000000000000000000000E200000000E2E2E2E2E2E2E2E2E2E2E2E2E2E2E2E200E2E20000E20000E2E2E2E2E2E2E2E2E2000000E20000000000E200000000E2000000E2000000000000000000000000000000000000000000E20036E200E2000000000000000000000000000000000000000000
310
000000E200000000E20000000000E2E20000000000E2E2E200E2E20000E20000E2E2E2000000E200E2000000E20000000000E200000000E2000000E2000000000000000000000000000000000000000000E200F5E200E2000000000000000000000000000000000000000000000000E200000000E20000000000E2E2000000
310
0000E2E2E200E2E20000E20000E2E2E20000000000E2000000E20000000000E200000000E2000000E2000000000000000000000000000000000000000000E20000E200E2000000000000000000000000000000000000000000000000E200000000E200000000E2E2E200000000E2E2E2E200E2E20000E20000E2E2E2000000
310
0000E2000000E20000000000E200000000E2000000E2000000000000000000000000000000000000000000E200F5E200E200000000000000000000000000000000000000000000E2E2E2E2000000E200000000E200E200000000E2E2E2E200E2E20000E20000E2E2E20000000000E200E2E2E2E200000000E200000000E200
310
0000E2000000000000000000000000000000000000000000E20000E200E20000000000000000000000000000000000000000000000E2E2E2000000E2E2E2E2E2E200E2E2E2E2E2E2E2E2E200E2E20000E20000E2E2E20000000000E20000E2E2E200000000E200000000E2000000E200000000000000000000000000000000
310
0000000000E20000E200E200000000000000000000000000000000000000000000E2E2E2E200000000000000000000E200000000E2E2E2E200E2E20000E20000E2E2E20000000000E200E2E2E2E200000000E200000000E2000000E2000000000000000000000000000000000000000000E200F5E200E20000000000000000
310
0000000000000000000000000000E2E2E2E200000000000000000000E200E2E2E200E2E2E200E2E20000E20000E2E2E2E2E2E20000E200E2E2E2E200000000E200000000E2000000E2000000000000000000000000000000000000000000E20000E200E2000000000000000000000000000000000000000000000000E20000
310
000000000000000000E2E2E2E2E2E2E2E2E200E2E20000E20000E2E2E2E2E2E2E2E2E2000000E2000000E2E2E2E2000000E2000000E2000000000000000000000000000000000000000000E200F5E20000000000000000000000000000000000000000000000000000E20000000000000000000000E200E2E2E200E2E2E200
310
E2E20000E20000E2E2E200E2E2E200E2000000E2000000E2E2E2E2000000E2000000E2000000000000000000000000000000000000000000000000E20000000000000000000000000000000000000000000000000000E20000000000000000000000E20000000000E2E2E200E2E20000E20000E2E2E20000000000E2000000
310
E2000000E2E2E2E2000000E2000000E2000000000000000000000000000000000000000000000000E20000000000000000000000000000000000000000000000000000E20000000000000000000000E20000000000E2E2E200E2E20000E20000E2E2E20000000000E2000000E2000000E2E2E2E2000000E2000000E2000000
310
000000000000000000000000000000000000000000E20000000000000000000000000000000000000000000000000000E20000000000000000000000E20000000000E2E2E2E2E2E20000E2E2E2E2E2E20000000000E2000000E20000000000E200000000E2000000E200000000000000000000000000000000000000000000
310
0000E20000000000000000000000000000000000000000000000000000E20000000000000000000000E20000000000E2E2E2E2E2E2E2E2E2E2E2E2E2E20000000000E2000000E20000000000E200000000E2000000E2000000000000000000000000000000000000000000000000E200000000000000000000000000000000
310
00000000000000000000E2E2E2E2E2E2E2E2E2E2E2E2E2E2E2E2E2E2E2E2E2E2E2E2E2E2E200E2E2E2E2E2E2E2E2E2E2E2E2E2E2E200000000E200000000E2000000E2000000000000000000000000000000000000000000000000E20000000000000000000000000000000000000000000000000000000000000000000000
310
E2E2E2E2E2E20000000000E2E2E2E2E2E2E20000000000E200000000E2000000000000000000E200000000E2000000E2000000000000000000000000000000000000000000000000E20000000000000000000000000000000000000000000000000000000000000000000000E20000E2E2E2000000E2E2E2E20000E2E2E2E2
310
00E20000E20000E200E2000000000000000000E200000000E2000000E2000000000000000000000000000000000000000000000000E20000000000000000000000000000000000000000000000000000000000000000000000E20000E2E2E2E2E2E200E2E2E2E2E2E2E2E2E2E2E2E2E2E2E2E2E2E2E2E2E2E2E2E2E2E2E2E2
310
E2E2E2E2E2E2000000E2000000000000000000000000000000000000000000000000E200E2000000000000000000000000000000000000000000000000000000000000000000E2E2E2E2E2000000000000000000000000000000000000E2E2E2E2E2E20000000000000000000000000000E2000000E2000000000000000000
310
000000000000000000000000E200F5E200E2000000000000000000000000000000000000000000000000000000000000000000E200E2E200000000000000000000000000000000000000E2E2E2E200E20000000000000000000000000000E2000000E2000000000000000000000000000000000000000000E20000E200E200
310
0000000000000000000000000000000000000000000000000000000000000000E20000E200000000000000000000E2E2E200000000000000E2E2E200E2E2E2E2E2E2E2E2E2E2E2E2E2E2E2E2E2E2E2E2000000000000000000000000000000000000000000E200F5E200E20000000000000000000000000000000000000000
310
00000000000000000000000000E20000E2E2E2E2E2E2E2E2E2E2E2E2E20000E2E2E2E2E2E2E2E2E2E2E20000000000000000000000000000E2E2E2E200000000000000000000000000000000000000000000E20000E200E2000000000000000000000000000000000000000000000000000000000000000000E2E2E2E20000
310
000000000000000000E2000000000000000000000000000000000000000000000000000000E2E2E20000000000000000000000000000000000000000000000E20000E200E200000000000000000000000000000000000000000000000000000000000000000000000000000000000000000000000000000000000000000000
310
00000000000000000000000000000000000000E2E20000000000000000000000000000000000000000000000E200F5E200E20000000000000000000000000000000000000000000000000000000000000000000000000000000000000000000000000000000000000000000000000000000000000000000000000000000000
310
00000000000000000000000000000000000000000000000000E20000E200E2000000000000000000000000000000000000000000000000000000000000000000000000000000000000000000000000000000000000000000000000000000000000000000000000000000000000000000000000000000000000000000000000
310
000000000000E20000E200E2000000000000000000000000000000000000000000000000000000000000000000000000000000000000000000000000000000000000000000000000000000000000000000000000000000000000000000000000000000000000000000000000000000000000E20000E200E200000000000000
310
0000000000000000000000000000000000000000000000000000000000000000000000000000000000000000000000000000000000000000000000000000000000000000000000000000000000000000000000000000000000000000000000E20000E200E20000000000000000000000000000000000000000000000000000
310
00000000000000000000000000000000000000000000000000000000000000000000000000000000000000000000000000000000000000000000000000000000000000000000000000000000E20000E200E2000000000000000000000000000000000000000000000000000000000000000000000000000000000000000000
310
000000000000000000000000000000000000000000000000000000000000000000000000000000000000000000000000000000000000000000E20000E200E200000000000000000000000000000000000000000000000000000000000000000000000000000000000000000000000000000000000000000000000000000000
310
0000000000000000000000000000000000000000000000000000000000000000000000000000E20000E200E20000000000000000000000000000000000000000000000000000000000000000000000000000000000000000000000000000000000000000000000000000000000000000000000000000000000000000000000
310
00000000000000000000000000000000000000E20000E200E2000000000000000000000000000000000000000000000000000000000000000000000000000000000000000000000000000000000000000000000000000000000000000000000000000000000000000000000000000000000000000000000000000000000000
310
E20000E200E2000000000000000000000000000000000000000000000000000000000000000000000000000000000000000000000000000000000000000000000000000000000000000000000000000000000000000000000000000000000000000000000000000000000000E20000E200E200000000E2E2E2E2E2E2E2E2E2
310
E2E2E2E2E2E2E2E2E2E2E2E2E2E2E2E2E2E2E2E2E2E2E2E2E2E2E2E2E2E2E2E2E2E2E2E2E2E2E2E2E2E2E2E2E2E2E2E2E2E2E2E2E2E2E2E2E2E2E2E2E2E2E20000000000000000000000000000000000000000000000000000E20000E2000000000000E2E2E2E2E2E2E2E2E2E2E2E2E2E2E2E2E2E2E2E2E2E2E2E2E2E2E2E2
310
E2E2E2E2E2E2E2E2E2E2E2E2E2E2E2E2E2E2E2E2E2E2E2E2E2E2E2E2E2E2E2E2E2E2E2E2E2E2E2E2E2E2E2E20000000000000000000000000000000000000000000000000000000000E2000000000000E2E2E2E2E2E2E2E2E2E2E2E2E2E2E2E2E2E2E2E2E2E2E2E2E2E2E2E2E2E2E2E2E2E2E2E2E2E2E2E2E2E2E2E2E2E2E2
310
E2E2E2E2E2E2E2E2E2E2E2E2E2E2E2E2E2E2E2E2E2E2E2E2E20000000000000000000000000000000000000000000000000000000000E2000000000000E2E2E2E2E2E2E2E2E2E2E2E2E2E2E2E2E2E2E2E2E2E2E2E2E2E2E2E2E2E2E2E2E2E2E2E2E2E2E2E2E2E2E2E2E2E2E2E2E2E2E2E2E2E2E2E2E2E2E2E2E2E2E2E2E2E2
310
E2E2E2E2E2E200000000000000000000000000000000000000000000000000000000F5E20000000000E2E2E2E2E2E2E2E2E2E2E2E2E2E2E2E2E2E2E2E2E2E2E2E2E2E2E2E2E2E2E2E2E2E2E2E2E2E2E2E2E2E2E2E2E2E2E2E2E2E2E2E2E2E2E2E2E2E2E2E2E2E2E2E2E2E2E2E2E2E2E2E2E2E2E2E2E2E2E2E2E2E2E2E2E2E2
310
E2E2E2E2E2E2E2E2E2E2E2E2E2000000E2000000000000E2E2E2E2E2E2E2E2E2E2E2E2E2E2E2E2E2E2E2E2E2E2E2E2E2E2E2E2E2E2E2E2000000000000000000000000000000000000000000000000000000000000000000000000000000000000000000000000000000000000000000000000000000000000000000E20000
310
00000000E2E2E2E2E2E2E2E2E2E2E2E2E2E2E2E2E2E2E2E2E2E2E2E2E2E2E2E2E2E2E2E20000000000000000000000000000000000000000000000000000000000000000000000000000000000000000000000000000000000000000000000000000000000000000F5E2000000000000E2E2E2E2E2E2E2E2E2E2E2E2E2E2E2
310
E2E2E2E2E2E2E2E2E2E2E2E2E2E2E2E2E2000000000000000000000000000000000000000000000000000000000000000000000000E2E2E2E2E2E2E2E2E2E2E2E2E2E2E2E2E2E2E2E2E2E2E2E2E2E2E2E2E200000000E2000000000000E2E2E2E2E2E2E2E2E2E2E2E2E2E2E2E2E2E2E2E2E2E2E2E2E2E2E2E2E2E2E2E20000
310
00000000000000000000000000000000000000000000000000000000000000000000E2000000000000000000000000000000000000000000000000000000E2000000F5E20000000000000000000000000000000000000000000000000000000000000000000000000000000000000000000000000000000000000000000000
310
000000000000000000000000000000E20000E5E5E5E5E500E5E5E5E5E5E5E5E5E5E000E50025E525E5E500E200000000E20000000000000000000000000000000000000000000000000000000000000000000000000000000000000000000000000000000000000000000000000000000000000000000000000000E200E500
310
0000000000000000000000000000000000000000000000E5E200000000E200E2000000000000000000000000000000000000000000000000000000000000000000000000000000000000000000000000000000000000000000000000000000000000000000000000E2E5E50000000000E50000000000000000000000000000
310
0000E50000E200E20000E200E2000000000000000000000000000000000000000000000000000000000000000000000000000000000000000000000000000000000000000000000000000000000000000000000000E2E5E50000000000E500000000000000000000000000000000E50000E200E20000E200E2000000000000
310
000000000000000000000000000000000000000000000000000000000000000000000000000000000000000000000000000000000000000000000000000000000000E2E5E50000E500000000000000000000E50000000000000000E00000E200E200F5E200E200000000000000000000000000000000000000000000000000
310
0000000000000000000000000000000000000000000000000000000000000000000000000000000000000000000000E2000000000000E0000000040000E500000004002000E500000000E4E200E20000E200E20000000000000000000000000000000000000000000000000000000000000000000000000000000000000000
310
00000000000000000000000000000000000000000000000000000000E20000000000000000C0C00000000000000000C0C000000000000000E200E20000E200E2000000000000000000000000000000000000000000000000000000000000000000000000000000000000000000000000000000000000000000000000000000
310
000000000000000000E2000000000000000000000000000000000000000000000000000000E200E20000E200E2000000000000000000000000000000000000000000000000000000000000000000000000000000000000000000000000000000000000000000000000000000000000000000000000E2000000000000000000
310
000000000000000000000000000000000000E200E20000E200E2000000000000000000000000000000000000000000000000000000000000000000000000000000000000000000000000000000000000000000000000000000000000000000000000E2E2E2E2E2E2E2E2E2E2E2E2E2E2E2E2E2E2E2E2E2E2E2E2E2E2E2E2E2
310
00E200F5E200E2E2E2E2E2E2E2E2E2000000000000000000E2E2E2E2E2E2E2E2E2E2E2E2E2E2E2E200000000000000000000E2E2E2E2E2E2E2E2E2E2E2E2E2E2E2E200000000000000000000E2E2E2E2E2E2E2E2E2E2E2E2E2E2E2E2000000000000000000E2E2E2E2E2E2E2E2E2E200E20000000000000000000000000000
310
00000000000000000000000000000000000000000000000000000000000000000000000000000000000000000000000000000000000000000000000000000000000000000000000000000000000000000000000000000000000000E2F5E2000000000000000000000000000000000000000000000000000000000000000000
310
0000000000000000000000000000000000000000000000000000000000000000000000000000000000000000000000000000000000000000000000000000000000000000000000000000E2E2E2E2E2E2E2E2E2E2E2E2E2E2E2E2E2E2E2E2E2E2E2E2E2E2E2E2E2E2E2E2E2E2E2E2E2E2E2E2E2E2E2E2E2E2E2E2E2E2E2E2E2
310
E2E2E2E2E2E2E2E2E2E2E2E2E2E2E2E2E2E2E2E2E2E2E2E2E2E2E2E2E2E2E2E2E2E2E2E2E2E2E2E2E2E2E2E2E2E2E2E2E2E2E2E2E2E200
  0
XRECORD
  5
350
102
{ACAD_REACTORS
330
19
102
}
330
19
100
AcDbXrecord
280
     1
102
SHADEPLOT
 70
     0
102
SHADEPLOTRESLEVEL
 70
     2
102
SHADEPLOTCUSTOMDPI
 70
   300
  0
XRECORD
  5
1A
102
{ACAD_REACTORS
330
19
102
}
330
19
100
AcDbXrecord
280
     1
310
280000000001000076000000010008000000000000760000000000000000000000010000000000000000000000000000C8C8C8000000000000000000000000000000000000000000000000000000000000000000330000006600000099000000CC000000FF00000000330000333300006633000099330000CC330000FF3300
310
0000660000336600006666000099660000CC660000FF66000000990000339900006699000099990000CC990000FF99000000CC000033CC000066CC000099CC0000CCCC0000FFCC000000FF000033FF000066FF000099FF0000CCFF0000FFFF000000003300330033006600330099003300CC003300FF003300003333003333
310
33006633330099333300CC333300FF33330000663300336633006666330099663300CC663300FF66330000993300339933006699330099993300CC993300FF99330000CC330033CC330066CC330099CC3300CCCC3300FFCC330000FF330033FF330066FF330099FF3300CCFF3300FFFF330000006600330066006600660099
310
006600CC006600FF00660000336600333366006633660099336600CC336600FF33660000666600336666006666660099666600CC666600FF66660000996600339966006699660099996600CC996600FF99660000CC660033CC660066CC660099CC6600CCCC6600FFCC660000FF660033FF660066FF660099FF6600CCFF6600
310
FFFF660000009900330099006600990099009900CC009900FF00990000339900333399006633990099339900CC339900FF33990000669900336699006666990099669900CC669900FF66990000999900339999006699990099999900CC999900FF99990000CC990033CC990066CC990099CC9900CCCC9900FFCC990000FF99
310
0033FF990066FF990099FF9900CCFF9900FFFF99000000CC003300CC006600CC009900CC00CC00CC00FF00CC000033CC003333CC006633CC009933CC00CC33CC00FF33CC000066CC003366CC006666CC009966CC00CC66CC00FF66CC000099CC003399CC006699CC009999CC00CC99CC00FF99CC0000CCCC0033CCCC0066CC
310
CC0099CCCC00CCCCCC00FFCCCC0000FFCC0033FFCC0066FFCC0099FFCC00CCFFCC00FFFFCC000000FF003300FF006600FF009900FF00CC00FF00FF00FF000033FF003333FF006633FF009933FF00CC33FF00FF33FF000066FF003366FF006666FF009966FF00CC66FF00FF66FF000099FF003399FF006699FF009999FF00CC
310
99FF00FF99FF0000CCFF0033CCFF0066CCFF0099CCFF00CCCCFF00FFCCFF0000FFFF0033FFFF0066FFFF0099FFFF00CCFFFF00FFFFFF00000000000D0D0D001A1A1A00282828003535350043434300505050005D5D5D006B6B6B00787878008686860093939300A1A1A100AEAEAE00BBBBBB00C9C9C900D6D6D600E4E4E400
310
F1F1F100FFFFFF000000000000000000000000000000000000000000000000000000000000000000000000000000000000000000000000000000000000000000000000000000000000000000000000000000000000000000000000000000000000000000000000000000000000000000000000000000000000000000000000
310
00000000000000000000000000000000000000000000000000000000000000000000000000000000000000000000000000000000000000000000000000000000000000000000000000000000000000000000000000000000000000000000000000000000000000000000000000000000000000000000000000000000000000
310
00000000000000000000000000000000000000000000000000000000000000000000000000000000000000000000000000000000000000000000000000000000000000000000000000000000000000000000000000000000000000000000000000000000000000000000000000000000000000000000000000000000000000
310
00000000000000000000000000000000000000000000000000000000000000000000000000000000000000000000000000000000000000000000000000000000000000000000000000000000000000000000000000000000000000000000000000000000000000000000000000000000000000000000000000000000000000
310
00000000000000000000000000000000000000000000000000000000000000000000000000000000000000000000000000000000000000000000000000000000000000000000000000000000000000000000000000000000000000000000000000000000000000000000000000000000000000000000000000000000000000
310
00000000000000000000000000000000000000000000000000000000000000000000000000000000000000000000000000000000000000000000000000000000000000000000000000000000000000000000000000000000000000000000000000000000000000000000000000000000000000000000000000000000000000
310
00000000000000000000000000000000000000000000000000000000000000000000000000000000000000000000000000000000000000000000000000000000000000000000000000000000000000000000000000000000000000000000000000000000000000000000000000000000000000000000000000000000000000
310
00000000000000000000000000000000000000000000000000000000000000000000000000000000000000000000000000000000000000000000000000000000000000000000000000000000000000000000000000000000000000000000000000000000000000000000000000000000000000000000000000000000000000
310
00000000000000000000000000000000000000000000000000000000000000000000000000000000000000000000000000000000000000000000000000000000000000000000000000000000000000000000000000000000000000000000000000000000000000000000000000000000000000000000000000000000000000
310
00000000000000000000000000000000000000000000000000000000000000000000000000000000000000000000000000000000000000000000000000000000000000000000000000000000000000000000000000000000000000000000000000000000000000000000000000000000000000000000000000000000000000
310
00000000000000000000000000000000000000000000000000000000000000000000000000000000000000000000000000000000000000000000000000000000000000000000000000000000000000000000000000000000000000000000000000000000000000000000000000000000000000000000000000000000000000
310
00000000000000000000000000000000000000000000000000000000000000000000000000000000000000000000000000000000000000000000000000000000000000000000000000000000000000000000000000000000000000000000000000000000000000000000000000000000000000000000000000000000000000
310
00000000000000000000000000000000000000000000000000000000000000000000000000000000000000000000000000000000000000000000000000000000000000000000000000000000000000000000000000000000000000000000000000000000000000000000000000000000000000000000000000000000000000
310
00000000000000000000000000000000000000000000000000000000000000000000000000000000000000000000000000000000000000000000000000000000000000000000000000000000000000000000000000000000000000000000000000000000000000000000000000000000000000000000000000000000000000
310
00000000000000000000000000000000000000000000000000000000000000000000000000000000000000000000000000000000000000000000000000000000000000000000000000000000000000000000000000000000000000000000000000000000000000000000000000000000000000000000000000000000000000
310
00000000000000000000000000000000000000000000000000000000000000000000000000000000000000000000000000000000000000000000000000000000000000000000000000000000000000000000000000000000000000000000000000000000000000000000000000000000000000000000000000000000000000
310
00000000000000000000000000000000000000000000000000000000000000000000000000000000000000000000000000000000000000000000000000000000000000000000000000000000000000000000000000000000000000000000000000000000000000000000000000000000000000000000000000000000000000
310
00000000000000000000000000000000000000000000000000000000000000000000000000000000000000000000000000000000000000000000000000000000000000000000000000000000000000000000000000000000000000000000000000000000000000000000000000000000000000000000000000000000000000
310
00000000000000000000000000000000000000000000000000000000000000000000000000000000000000000000000000000000000000000000000000000000000000000000000000000000000000000000000000000000000000000000000000000000000000000000000000000000000000000000000000000000000000
310
00000000000000000000000000000000000000000000000000000000000000000000000000000000000000000000000000000000000000000000000000000000000000000000000000000000000000000000000000000000000000000000000000000000000000000000000000000000000000000000000000000000000000
310
00000000000000000000000000000000000000000000000000000000000000000000000000000000000000000000000000000000000000000000000000000000000000000000000000000000000000000000000000000000000000000000000000000000000000000000000000000000000000000000000000000000000000
310
00000000000000000000000000000000000000000000000000000000000000000000000000000000000000000000000000000000000000000000000000000000000000000000000000000000000000000000000000000000000000000000000000000000000000000000000000000000000000000000000000000000000000
310
00000000000000000000000000000000000000000000000000000000000000000000000000000000000000000000000000000000000000000000000000000000000000000000000000000000000000000000000000000000000000000000000000000000000000000000000000000000000000000000000000000000000000
310
00000000000000000000000000000000000000000000000000000000000000000000000000000000000000000000000000000000000000000000000000000000000000000000000000000000000000000000000000000000000000000000000000000000000000000000000000000000000000000000000000000000000000
310
00000000000000000000000000000000000000000000000000000000000000000000000000000000000000000000000000000000000000000000000000000000000000000000000000000000000000000000000000000000000000000000000000000000000000000000000000000000000000000000000000000000000000
310
00000000000000000000000000000000000000000000000000000000000000000000000000000000000000000000000000000000000000000000000000000000000000000000000000000000000000000000000000000000000000000000000000000000000000000000000000000000000000000000000000000000000000
310
00000000000000000000000000000000000000000000000000000000000000000000000000000000000000000000000000000000000000000000000000000000000000000000000000000000000000000000000000000000000000000000000000000000000000000000000000000000000000000000000000000000000000
310
00000000000000000000000000000000000000000000000000000000000000000000000000000000000000000000000000000000000000000000000000000000000000000000000000000000000000000000000000000000000000000000000000000000000000000000000000000000000000000000000000000000000000
310
00000000000000000000000000000000000000000000000000000000000000000000000000000000000000000000000000000000000000000000000000000000000000000000000000000000000000000000000000000000000000000000000000000000000000000000000000000000000000000000000000000000000000
310
00000000000000000000000000000000000000000000000000000000000000000000000000000000000000000000000000000000000000000000000000000000000000000000000000000000000000000000000000000000000000000000000000000000000000000000000000000000000000000000000000000000000000
310
00000000000000000000000000000000000000000000000000000000000000000000000000000000000000000000000000000000000000000000000000000000000000000000000000000000000000000000000000000000000000000000000000000000000000000000000000000000000000000000000000000000000000
310
00000000000000000000000000000000000000000000000000000000000000000000000000000000000000000000000000000000000000000000000000000000000000000000000000000000000000000000000000000000000000000000000000000000000000000000000000000000000000000000000000000000000000
310
00000000000000000000000000000000000000000000000000000000000000000000000000000000000000000000000000000000000000000000000000000000000000000000000000000000000000000000000000000000000000000000000000000000000000000000000000000000000000000000000000000000000000
310
00000000000000000000000000000000000000000000000000000000000000000000000000000000000000000000000000000000000000000000000000000000000000000000000000000000000000000000000000000000000000000000000000000000000000000000000000000000000000000000000000000000000000
310
00000000000000000000000000000000000000000000000000000000000000000000000000000000000000000000000000000000000000000000000000000000000000000000000000000000000000000000000000000000000000000000000000000000000000000000000000000000000000000000000000000000000000
310
00000000000000000000000000000000000000000000000000000000000000000000000000000000000000000000000000000000000000000000000000000000000000000000000000000000000000000000000000000000000000000000000000000000000000000000000000000000000000000000000000000000000000
310
00000000000000000000000000000000000000000000000000000000000000000000000000000000000000000000000000000000000000000000000000000000000000000000000000000000000000000000000000000000000000000000000000000000000000000000000000000000000000000000000000000000000000
310
00000000000000000000000000000000000000000000000000000000000000000000000000000000000000000000000000000000000000000000000000000000000000000000000000000000000000000000000000000000000000000000000000000000000000000000000000000000000000000000000000000000000000
310
00000000000000000000000000000000000000000000000000000000000000000000000000000000000000000000000000000000000000000000000000000000000000000000000000000000000000000000000000000000000000000000000000000000000000000000000000000000000000000000000000000000000000
310
00000000000000000000000000000000000000000000000000000000000000000000000000000000000000000000000000000000000000000000000000000000000000000000000000000000000000000000000000000000000000000000000000000000000000000000000000000000000000000000000000000000000000
310
00000000000000000000000000000000000000000000000000000000000000000000000000000000000000000000000000000000000000000000000000000000000000000000000000000000000000000000000000000000000000000000000000000000000000000000000000000000000000000000000000000000000000
310
00000000000000000000000000000000000000000000000000000000000000000000000000000000000000000000000000000000000000000000000000000000000000000000000000000000000000000000000000000000000000000000000000000000000000000000000000000000000000000000000000000000000000
310
00000000000000000000000000000000000000000000000000000000000000000000000000000000000000000000000000000000000000000000000000000000000000000000000000000000000000000000000000000000000000000000000000000000000000000000000000000000000000000000000000000000000000
310
00000000000000000000000000000000000000000000000000000000000000000000000000000000000000000000000000000000000000000000000000000000000000000000000000000000000000000000000000000000000000000000000000000000000000000000000000000000000000000000000000000000000000
310
00000000000000000000000000000000000000000000000000000000000000000000000000000000000000000000000000000000000000000000000000000000000000000000000000000000000000000000000000000000000000000000000000000000000000000000000000000000000000000000000000000000000000
310
0000000000000000000000000000000000000000000000000000000000000000000000000000000000000000000000000000F5000000000000000000000000000000000000000000000000000000000000F5000000F50000F5F50000F500000000000000000000000000000000000000000000000000000000000000000000
310
00000000000000000000000000000000000000000000000000000000000000000000000000000000000000000000000000000000000000000000000000000000000000000000000000000000000000000000000000000000000000000000000000000000000000000000000000000000000000000000000000000000000000
310
000000000000000000000000000000000000000000000000000000000000000000000000000000000000000000000000000000F5F5F5F5F5F5F5F5F5F5F5F5F5F5F5F5F5F5F5F5F5F5F5F5F5F5F5F5F5F5F5F5F5F5F5F5F5F5F5F5F5F5F5F50000000000000000000000000000000000000000000000000000000000000000
310
00000000000000000000000000000000000000000000000000000000000000000000000000000000000000000000000000000000000000000000000000000000000000000000000000000000000000000000000000000000000000000000000000000000000000000000000000000000000000000000000000000000000000
310
00000000000000000000000000000000000000000000000000000000000000000000000000000000000000000000000000000000F5F5F500F5F5F5F5F5000000F500F5F500000000000000000000000000F5F50000F5000000F50000F5000000F5000000000000000000000000000000000000000000000000000000000000
310
00000000000000000000000000000000000000000000000000000000000000000000000000000000000000000000000000000000000000000000000000000000000000000000000000000000000000000000000000000000000000000000000000000000000000000000000000000000000000000000000000000000000000
310
0000000000000000000000000000000000000000000000000000000000000000000000000000000000000000000000000000000000000000F5000000F5F5F5F5F5F5F5F5F5F5F5F5F5F5F5F5F5F5F5F5F5F5F5F5F5F5F5F5000000F50000F5000000F500000000000000000000000000000000000000000000000000000000
310
00000000000000000000000000000000000000000000000000000000000000000000000000000000000000000000000000000000000000000000000000000000000000000000000000000000000000000000000000000000000000000000000000000000000000000000000000000000000000000000000000000000000000
310
000000000000000000000000000000000000000000000000000000000000000000000000000000000000000000000000000000000000000000F5F5F5F5F5F5F5F5F5F5F5F5F5F5F5F5F5F5F5F5F5F5F5F5F5F5F5F5F5F5F5F5F5000000F50000F5000000F50000000000000000000000000000000000000000000000000000
310
00000000000000000000000000000000000000000000000000000000000000000000000000000000000000000000000000000000000000000000000000000000000000000000000000000000000000000000000000000000000000000000000000000000000000000000000000000000000000000000000000000000000000
310
000000000000000000000000000000000000000000000000000000000000000000000000000000000000000000000000000000000000000000000000F50000000000000000F5000000F5F500F5F500000000F5F5F5F5F5F5000000F5000000F50000F5000000F5000000000000000000000000000000000000000000000000
310
00000000000000000000000000000000000000000000000000000000000000000000000000000000000000000000000000000000000000000000000000000000000000000000000000000000000000000000000000000000000000000000000000000000000000000000000000000000000000000000000000000000000000
310
0000000000000000000000000000000000000000000000000000000000000000000000000000000000000000000000000000000000000000000000000000F50000000000000000F5000000F5F500F5F500F5F5F5F5F5F5F5F5F5000000F5000000F50000F5000000F500000000000000000000000000000000000000000000
310
00000000000000000000000000000000000000000000000000000000000000000000000000000000000000000000000000000000000000000000000000000000000000000000000000000000000000000000000000000000000000000000000000000000000000000000000000000000000000000000000000000000000000
310
00000000000000000000000000000000000000000000000000000000000000000000000000000000000000000000000000000000000000000000000000000000F50000000000000000F5000000F5F500F5F500F500F5F5F5F5F5F5F5F5F5F5F5000000F50000F5000000F50000000000000000000000000000000000000000
310
00000000000000000000000000000000000000000000000000000000000000000000000000000000000000000000000000000000000000000000000000000000000000000000000000000000000000000000000000000000000000000000000000000000000000000000000000000000000000000000000000000000000000
310
000000000000000000000000000000000000000000000000000000000000000000000000000000000000000000000000000000000000000000000000000000000000F50000000000000000F5000000F5F500F5F500F500F500F5000000F5000000F5000000F50000F5000000F5000000000000000000000000000000000000
310
00000000000000000000000000000000000000000000000000000000000000000000000000000000000000000000000000000000000000000000000000000000000000000000000000000000000000000000000000000000000000000000000000000000000000000000000000000000000000000000000000000000000000
310
0000000000000000000000000000000000000000000000000000000000000000000000000000000000000000000000000000000000000000000000000000000000000000F50000000000000000F5000000F5F500F5F500F500F5F5F5000000F5000000F5000000F50000F5000000F500000000000000000000000000000000
310
00000000000000000000000000000000000000000000000000000000000000000000000000000000000000000000000000000000000000000000000000000000000000000000000000000000000000000000000000000000000000000000000000000000000000000000000000000000000000000000000000000000000000
310
00000000000000000000000000000000000000000000000000000000000000000000000000000000000000000000000000000000000000000000000000000000000000000000F50000000000000000F5000000F5F500F5F500F500F5F5F5000000F5000000F5000000F50000F5000000F50000000000000000000000000000
310
00000000000000000000000000000000000000000000000000000000000000000000000000000000000000000000000000000000000000000000000000000000000000000000000000000000000000000000000000000000000000000000000000000000000000000000000000000000000000000000000000000000000000
310
000000000000000000000000000000000000000000000000000000000000000000000000000000000000000000000000000000000000000000000000000000000000000000000000F50000000000000000F5000000F5F500F5F500F500F5F5F5000000F5000000F5000000F50000F5000000F5000000000000000000000000
310
00000000000000000000000000000000000000000000000000000000000000000000000000000000000000000000000000000000000000000000000000000000000000000000000000000000000000000000000000000000000000000000000000000000000000000000000000000000000000000000000000000000000000
310
0000000000000000000000000000000000000000000000000000000000000000000000000000000000000000000000000000000000000000000000000000000000000000000000000000F50000000000000000F5000000F5F500F5F500F500F5F5F5000000F5000000F500F5F5F50000F5000000F500000000000000000000
310
00000000000000000000000000000000000000000000000000000000000000000000000000000000000000000000000000000000000000000000000000000000000000000000000000000000000000000000000000000000000000000000000000000000000000000000000000000000000000000000000000000000000000
310
00000000000000000000000000000000000000000000000000000000000000000000000000000000000000000000000000000000000000000000000000000000000000000000000000000000F50000000000000000F5000000F5F500F5F500F500F5F5F5000000F5000000F500F5F5F50000F5000000F50000000000000000
310
00000000000000000000000000000000000000000000000000000000000000000000000000000000000000000000000000000000000000000000000000000000000000000000000000000000000000000000000000000000000000000000000000000000000000000000000000000000000000000000000000000000000000
310
00000000000000000000000000000000000000000000000000000000000000000000000000000000000000000000000000000000000000000000000000000000000000000000000000000000F5F5F50000000000000000F5000000F5F500F5F500F500F5F5F5000000F5000000F50000F5F50000F5000000F5000000000000
310
00000000000000000000000000000000000000000000000000000000000000000000000000000000000000000000000000000000000000000000000000000000000000000000000000000000000000000000000000000000000000000000000000000000000000000000000000000000000000000000000000000000000000
310
000000000000000000000000000000000000000000000000000000000000000000000000000000000000000000000000000000000000000000000000000000000000000000000000000000000000F5F5F50000000000000000F5000000F5F500F5F500F500F5F5F5000000F500F5F5F5000000F50000F5000000F500000000
310
00000000000000000000000000000000000000000000000000000000000000000000000000000000000000000000000000000000000000000000000000000000000000000000000000000000000000000000000000000000000000000000000000000000000000000000000000000000000000000000000000000000000000
310
00000000000000000000000000000000000000000000000000000000000000000000000000000000000000000000000000000000000000000000000000000000000000000000000000000000000000000000F50000000000000000F5000000F5F500F5F500F500F5F5F5000000F500F5F5F5000000F50000F5000000F50000
310
00000000000000000000000000000000000000000000000000000000000000000000000000000000000000000000000000000000000000000000000000000000000000000000000000000000000000000000000000000000000000000000000000000000000000000000000000000000000000000000000000000000000000
310
000000000000000000000000000000000000000000000000000000000000000000000000000000000000000000000000000000000000000000000000000000000000000000000000000000000000000000000000F50000000000000000F5000000F5F500F5F500F500F5F5F5000000F50000F5F5000000F50000F5000000F5
310
00000000000000000000000000000000000000000000000000000000000000000000000000000000000000000000000000000000000000000000000000000000000000000000000000000000000000000000000000000000000000000000000000000000000000000000000000000000000000000000000000000000000000
310
0000000000000000000000000000000000000000000000000000000000000000000000000000000000000000000000000000000000000000000000000000000000000000000000000000000000000000000000000000F50000000000000000F5000000F5F500F5F500F500F5F5F5000000F5000000F5000000F50000F50000
310
00F50000000000000000000000000000000000000000000000000000000000000000000000000000000000000000000000000000000000000000000000000000000000000000000000000000000000000000000000000000000000000000000000000000000000000000000000000000000000000000000000000000000000
310
00000000000000000000000000000000000000000000000000000000000000000000000000000000000000000000000000000000000000000000000000000000000000000000000000000000000000000000000000000000F50000000000000000F5000000F5F500F5F500F500F5F5F5000000F5000000F5000000F50000F5
310
000000F5000000000000000000000000000000000000000000000000000000000000000000000000000000000000000000000000000000000000000000000000000000000000000000000000000000000000000000000000000000000000000000000000000000000000000000000000000000000000000000000000000000
310
000000000000000000000000000000000000000000000000000000000000000000000000000000000000000000000000000000000000000000000000000000000000000000000000000000000000000000000000000000000000F50000000000000000F5000000F5F500F5F500F500F5F5F5000000F5000000F5000000F500
310
00F5000000F500000000000000000000000000000000000000000000000000000000000000000000000000000000000000000000000000000000000000000000000000000000000000000000000000000000000000000000000000000000000000000000000000000000000000000000000000000000000000000000000000
310
0000000000000000000000000000000000000000000000000000000000000000000000000000000000000000000000000000000000000000000000000000000000000000000000000000000000000000000000000000000000000000F50000F5F5F5F5F500F5F5F5F5F5F500F5F500F500F5F5F5000000F5000000F5000000
310
F50000F5000000F50000000000000000000000000000000000000000000000000000000000000000000000000000000000000000000000000000000000000000000000000000000000000000000000000000000000000000000000000000000000000000000000000000000000000000000000000000000000000000000000
310
00000000000000000000000000000000000000000000000000000000000000000000000000000000000000000000000000000000000000000000000000000000000000000000000000000000000000000000000000000000000000000000F50000F5000000F5F5F50000F5F5F500F5F500F500F5F5F5000000F5000000F500
310
0000F50000F5000000F5000000000000000000000000000000000000000000000000000000000000000000000000000000000000000000000000000000000000000000000000000000000000000000000000000000000000000000000000000000000000000000000000000000000000000000000000000000000000000000
310
000000000000000000000000000000000000000000000000000000000000000000000000000000000000000000000000000000000000000000000000000000000000000000000000000000000000000000000000000000000000000000000000F50000F500000000F5F5000000F5F500F5F500F500F5F5F5000000F5000000
310
F5000000F50000F5000000F500000000000000000000000000000000000000000000000000000000000000000000000000000000000000000000000000000000000000000000000000000000000000000000000000000000000000000000000000000000000000000000000000000000000000000000000000000000000000
310
0000000000000000000000000000000000000000000000000000000000000000000000000000000000000000000000000000000000000000000000000000000000000000000000000000000000000000000000000000000000000000000000000000F50000F500000000F5F5000000F5F500F5F500F500F5F5F500F5F5F500
310
0000F5000000F50000F5000000F50000000000000000000000000000000000000000000000000000000000000000000000000000000000000000000000000000000000000000000000000000000000000000000000000000000000000000000000000000000000000000000000000000000000000000000000000000000000
310
00000000000000000000000000000000000000000000000000000000000000000000000000000000000000000000000000000000000000000000000000000000000000000000000000000000000000000000000000000000000000000000000000000000F50000F5F5F5F5F5F5F5F5F5F5F5F500F5F500F500F5F5F5F5F5F5
310
F5000000F5000000F50000F5000000F5000000000000000000000000000000000000000000000000000000000000000000000000000000000000000000000000000000000000000000000000000000000000000000000000000000000000000000000000000000000000000000000000000000000000000000000000000000
310
000000000000000000000000000000000000000000000000000000000000000000000000000000000000000000000000000000000000000000000000000000000000000000000000000000000000000000000000000000000000000000000000000000000000F5F5F5F5F5F5F5F5F50000F5F5F5F500F5F500F500F5F5F5F5
310
F5F5F5F5F5F5F5F5F5F5F50000F5000000F500000000000000000000000000000000000000000000000000000000000000000000000000000000000000000000000000000000000000000000000000000000000000000000000000000000000000000000000000000000000000000000000000000000000000000000000000
310
00000000000000000000000000000000000000000000000000000000000000000000000000000000000000000000000000000000000000000000000000000000000000000000000000000000000000000000000000000000000000000000000000000000000000F5F5000000000000F500000000F500F500F5F500F500F5F5
310
00F500F5000000F5F50000F5000000F500F5F5F50000000000000000000000000000000000000000000000000000000000000000000000000000000000000000000000000000000000000000000000000000000000000000000000000000000000000000000000000000000000000000000000000000000000000000000000
310
0000000000000000000000000000000000000000000000000000000000000000000000000000000000000000000000000000000000000000000000000000000000000000000000000000000000000000000000000000000000000000000000000000000000000000000000000000000000F5F5F5F5F5F5F5F5F5F5F5F5F5F5
310
F5F5F5F5F5F500000000F5000000000000F50000F5F5000000000000000000000000000000000000000000000000000000000000000000000000000000000000000000000000000000000000000000000000000000000000000000000000000000000000000000000000000000000000000000000000000000000000000000
310
00000000000000000000000000000000000000000000000000000000000000000000000000000000000000000000000000000000000000000000000000000000000000000000000000000000000000000000000000000000000000000000000000000000000000000000000000000000000000F5F5F5F5F5F5000000000000
310
000000000000000000000000F5000000000000F50000F5F500000000000000000000000000000000000000000000000000000000000000000000000000000000000000000000000000000000000000000000000000000000000000000000000000000000000000000000000000000000000000000000000000000000000000
310
0000000000000000000000000000000000000000000000000000000000000000000000000000000000000000000000000000000000000000000000000000000000000000000000000000000000000000000000000000000000000000000000000000000000000000000000000000F5000000000000F500000000F500000000
310
0000000000000000000000000000F5000000000000F5000000F50000000000000000000000000000000000000000000000000000000000000000000000000000000000000000000000000000000000000000000000000000000000000000000000000000000000000000000000000000000000000000000000000000000000
310
000000000000000000000000000000000000000000000000000000000000000000000000000000000000000000000000000000000000000000000000000000000000000000000000000000000000000000000000000000000000000000000000000000000000000000000000000000F5F5F5F5F5F5F5F5F5F50000F5F5F500
310
00000000000000000000000000000000F5000000000000F5000000F5000000000000000000000000000000000000000000000000000000000000000000000000000000000000000000000000000000000000000000000000000000000000000000000000000000000000000000000000000000000000000000000000000000
310
00000000000000000000000000000000000000000000000000000000000000000000000000000000000000000000000000000000000000000000000000000000000000000000000000000000000000000000000000000000000000000000000000000000000000000000000000000000F5F5F50000F5F5F5F5F5F5F5F5F5F5
310
F5000000000000000000000000000000F5F5F5000000000000F5000000F500000000000000000000000000000000000000000000000000000000000000000000000000000000000000000000000000000000000000000000000000000000000000000000000000000000000000000000000000000000000000000000000000
310
0000000000000000000000000000000000000000000000000000000000000000000000000000000000000000000000000000000000000000000000000000000000000000000000000000000000000000000000000000000000000000000000000000000000000000000000000000F5F5F5F5F5F5F50000F500000000F5F500
310
0000F5F5F5F5F5F500000000000000000000F5F5F5000000000000F5000000F50000000000000000000000000000000000000000000000000000000000000000000000000000000000000000000000000000000000000000000000000000000000000000000000000000000000000000000000000000000000000000000000
310
0000000000000000000000000000000000000000000000000000000000000000000000000000000000000000000000000000000000000000000000000000000000000000000000000000000000000000000000000000000000000000000000000000000000000000000000000000000000000000F5F5F50000F500000000F5
310
F5000000F5000000000000000000000000000000F5F5F5000000000000F5000000F5000000000000000000000000000000000000000000000000000000000000000000000000000000000000000000000000000000000000000000000000000000000000000000000000000000000000000000000000000000000000000000
310
000000000000000000000000000000000000000000000000000000000000000000000000000000000000000000000000000000000000000000000000000000000000000000000000000000000000000000000000000000000000000000000000000000000000000000000000000000000000000000000000F50000F5F5F5F5
310
F5F5F5F5F5F5F50000000000000000000000000000000000F5000000000000F5000000F500000000000000000000000000000000000000000000000000000000000000000000000000000000000000000000000000000000000000000000000000000000000000000000000000000000000000000000000000000000000000
310
00000000000000000000000000000000000000000000000000000000000000000000000000000000000000000000000000000000000000000000000000000000000000000000000000000000000000000000000000000000000000000000000000000000000000000000000000000000000000000000000000F5F5F5F5F5F5
310
F5F5F5F50000F5F5F50000000000000000000000000000000000F5000000000000F5000000F50000000000000000000000000000000000000000000000000000000000000000000000000000000000000000000000000000000000000000000000000000000000000000000000000000000000000000000000000000000000
310
00000000000000000000000000000000000000000000000000000000000000000000000000000000000000000000000000000000000000000000000000000000000000000000000000000000000000000000000000000000000000000000000000000000000000000000000000000000000000000000000000000000000000
310
00000000F500000000F5000000000000000000000000000000000000F5000000000000F5000000F5000000000000000000000000000000000000000000000000000000000000000000000000000000000000000000000000000000000000000000000000000000000000000000000000000000000000000000000000000000
310
00000000000000000000000000000000000000000000000000000000000000000000000000000000000000000000000000000000000000000000000000000000000000000000000000000000000000000000000000000000000000000000000000000000000000000000000000000000000000000000000000000000000000
310
000000000000F5F5F5F5F5F5000000000000000000000000000000000000F5000000000000F5000000F500000000000000000000000000000000000000000000000000000000000000000000000000000000000000000000000000000000000000000000000000000000000000000000000000000000000000000000000000
310
00000000000000000000000000000000000000000000000000000000000000000000000000000000000000000000000000000000000000000000000000000000000000000000000000000000000000000000000000000000000000000000000000000000000000000000000000000000000000000000000000000000000000
310
0000000000000000F5F5F5F5F5F5F5F5F5F5F5F5F5F5F5F5F5F5F5F500000000F5000000000000F5000000F50000000000000000000000000000000000000000000000000000000000000000000000000000000000000000000000000000000000000000000000000000000000000000000000000000000000000000000000
310
00000000000000000000000000000000000000000000000000000000000000000000000000000000000000000000000000000000000000000000000000000000000000000000000000000000000000000000000000000000000000000000000000000000000000000000000000000000000000000000000000000000000000
310
000000F5000000000000F500000000F500F500F5F500F500F5F500F500F500000000F5000000F50000F5000000F5000000000000000000000000000000000000000000000000000000000000000000000000000000000000000000000000000000000000000000000000000000000000000000000000000000000000000000
310
00000000000000000000000000000000000000000000000000000000000000000000000000000000000000000000000000000000000000000000000000000000000000000000000000000000000000000000000000000000000000000000000000000000000000000000000000000000000000000000000000000000000000
310
00000000F5F5F5F5F5F5F5F5F5F500F5F5F5F5F500F5F500F500F5F5F5F5F5F5F5F5F5F5F5F5F5F5F50000F5000000F500000000000000000000000000000000000000000000000000000000000000000000000000000000000000000000000000000000000000000000000000000000000000000000000000000000000000
310
00000000000000000000000000000000000000000000000000000000000000000000000000000000000000000000000000000000000000000000000000000000000000000000000000000000000000000000000000000000000000000000000000000000000000000000000000000000000000000000000000000000000000
310
00000000000000F50000F5F5F5F5F5F5F5F5F5F5F5F500F5F500F500F5F5F5F5F5F5F5000000F5000000F50000F5000000F50000000000000000000000000000000000000000000000000000000000000000000000000000000000000000000000000000000000000000000000000000000000000000000000000000000000
310
00000000000000000000000000000000000000000000000000000000000000000000000000000000000000000000000000000000000000000000000000000000000000000000000000000000000000000000000000000000000000000000000000000000000000000000000000000000000000000000000000000000000000
310
000000000000000000F50000F500000000F5F5000000F5F500F5F500F500F5F5F50000F5F5000000F5000000F50000F5000000F5000000000000000000000000000000000000000000000000000000000000000000000000000000000000000000000000000000000000000000000000000000000000000000000000000000
310
00000000000000000000000000000000000000000000000000000000000000000000000000000000000000000000000000000000000000000000000000000000000000000000000000000000000000000000000000000000000000000000000000000000000000000000000000000000000000000000000000000000000000
310
0000000000000000000000F50000F5000000F5F5F50000F5F5F500F5F500F500F5F5F5000000F5000000F5000000F50000F5000000F500000000000000000000000000000000000000000000000000000000000000000000000000000000000000000000000000000000000000000000000000000000000000000000000000
310
00000000000000000000000000000000000000000000000000000000000000000000000000000000000000000000000000000000000000000000000000000000000000000000000000000000000000000000000000000000000000000000000000000000000000000000000000000000000000000000000000000000000000
310
0000000000000000000000F5F5F50000F5000000F500F50000F5F5F500F5F500F500F5F5F5000000F500F5F5F5000000F50000F5000000F50000000000000000000000000000000000000000000000000000000000000000000000000000000000000000000000000000000000000000000000000000000000000000000000
310
00000000000000000000000000000000000000000000000000000000000000000000000000000000000000000000000000000000000000000000000000000000000000000000000000000000000000000000000000000000000000000000000000000000000000000000000000000000000000000000000000000000000000
310
00000000000000000000000000F5F5F5000000F5F5F5F500F5F5F5F5F5F500F5F500F500F5F5F5000000F500F5F5F500F5F5F50000F5000000F5000000000000000000000000000000000000000000000000000000000000000000000000000000000000000000000000000000000000000000000000000000000000000000
310
00000000000000000000000000000000000000000000000000000000000000000000000000000000000000000000000000000000000000000000000000000000000000000000000000000000000000000000000000000000000000000000000000000000000000000000000000000000000000000000000000000000000000
310
000000000000000000000000000000F5F5F50000000000000000F5F5F500F5F500F5F500F500F5F5F5F5F500F500F5F5F500F5F5F50000F5000000F500000000000000000000000000000000000000000000000000000000000000000000000000000000000000000000000000000000000000000000000000000000000000
310
00000000000000000000000000000000000000000000000000000000000000000000000000000000000000000000000000000000000000000000000000000000000000000000000000000000000000000000000000000000000000000000000000000000000000000000000000000000000000000000000000000000000000
310
00000000000000000000000000000000000000F500000000000000F5F5F5F5F5F5F500F5F500F500F5F5F5F5F5F5F5F50000F500F5F5F50000F5000000F50000000000000000000000000000000000000000000000000000000000000000000000000000000000000000000000000000000000000000000000000000000000
310
00000000000000000000000000000000000000000000000000000000000000000000000000000000000000000000000000000000000000000000000000000000000000000000000000000000000000000000000000000000000000000000000000000000000000000000000000000000000000000000000000000000000000
310
000000000000000000000000000000000000000000F50000000000000000F5000000F5F500F5F500F500F5F5F5000000F5000000F5000000F50000F5000000F5000000000000000000000000000000000000000000000000000000000000000000000000000000000000000000000000000000000000000000000000000000
310
00000000000000000000000000000000000000000000000000000000000000000000000000000000000000000000000000000000000000000000000000000000000000000000000000000000000000000000000000000000000000000000000000000000000000000000000000000000000000000000000000000000000000
310
0000000000000000000000000000000000000000000000F50000000000000000F5000000F5F500F5F500F500F5F5F5000000F5000000F5000000F50000F5000000F500000000000000000000000000000000000000000000000000000000000000000000000000000000000000000000000000000000000000000000000000
310
00000000000000000000000000000000000000000000000000000000000000000000000000000000000000000000000000000000000000000000000000000000000000000000000000000000000000000000000000000000000000000000000000000000000000000000000000000000000000000000000000000000000000
310
00000000000000000000000000000000000000000000000000F50000000000000000F5000000F5F5F5F5F500F5F5F5F5F5000000F5000000F5000000F50000F5000000F50000000000000000000000000000000000000000000000000000000000000000000000000000000000000000000000000000000000000000000000
310
00000000000000000000000000000000000000000000000000000000000000000000000000000000000000000000000000000000000000000000000000000000000000000000000000000000000000000000000000000000000000000000000000000000000000000000000000000000000000000000000000000000000000
310
000000000000000000000000000000000000000000000000000000F50000000000000000F5000000F5F5F5F5F5F5F5F5F5F5F5000000F5000000F5000000F50000F5000000F5000000000000000000000000000000000000000000000000000000000000000000000000000000000000000000000000000000000000000000
310
00000000000000000000000000000000000000000000000000000000000000000000000000000000000000000000000000000000000000000000000000000000000000000000000000000000000000000000000000000000000000000000000000000000000000000000000000000000000000000000000000000000000000
310
00000000000000000000000000000000000000000000000000000000F5F5F5F5F5F5F5F5F5F5F5F5F5F5F5F5F5F5F5F5F5F5F5F5F5F5F5F5F5F5F5F5F5000000F50000F5000000F500000000000000000000000000000000000000000000000000000000000000000000000000000000000000000000000000000000000000
310
00000000000000000000000000000000000000000000000000000000000000000000000000000000000000000000000000000000000000000000000000000000000000000000000000000000000000000000000000000000000000000000000000000000000000000000000000000000000000000000000000000000000000
310
00000000000000000000000000000000000000000000000000000000000000000000000000F50000F5F50000F5F5F50000F5F5F5F50000F500F5F500000000000000F50000F5000000F50000000000000000000000000000000000000000000000000000000000000000000000000000000000000000000000000000000000
310
00000000000000000000000000000000000000000000000000000000000000000000000000000000000000000000000000000000000000000000000000000000000000000000000000000000000000000000000000000000000000000000000000000000000000000000000000000000000000000000000000000000000000
310
000000000000000000000000000000000000000000000000000000000000000000000000000000F50000F5F5F5F500F5F5F5F5F5F5F5F5F5F5F5F5F5F5F5F5F5F5F5F5F5F5F5F5F5F50000F5000000000000000000000000000000000000000000000000000000000000000000000000000000000000000000000000000000
310
00000000000000000000000000000000000000000000000000000000000000000000000000000000000000000000000000000000000000000000000000000000000000000000000000000000000000000000000000000000000000000000000000000000000000000000000000000000000000000000000000000000000000
310
0000000000000000000000000000000000000000000000000000000000000000000000000000000000F5F5F5F50000000000000000000000000000F5F5F5F500000000000000000000F5000000F500000000000000000000000000000000000000000000000000000000000000000000000000000000000000000000000000
310
00000000000000000000000000000000000000000000000000000000000000000000000000000000000000000000000000000000000000000000000000000000000000000000000000000000000000000000000000000000000000000000000000000000000000000000000000000000000000000000000000000000000000
310
00000000000000000000000000000000000000000000000000000000000000000000000000000000000000F50000F500000000000000F5F5000000000000F5F5F5F5F5F5F5F5F5F5F5F5F5F5F5F5F5F50000000000000000000000000000000000000000000000000000000000000000000000000000000000000000000000
310
00000000000000000000000000000000000000000000000000000000000000000000000000000000000000000000000000000000000000000000000000000000000000000000000000000000000000000000000000000000000000000000000000000000000000000000000000000000000000000000000000000000000000
310
000000000000000000000000000000000000000000000000000000000000000000000000000000000000000000F5F5F5F5F5F5F5F5F5F5F5F500F5F5F5F5F5F5F5F5F5F5000000000000000000F5F5F50000000000000000000000000000000000000000000000000000000000000000000000000000000000000000000000
310
00000000000000000000000000000000000000000000000000000000000000000000000000000000000000000000000000000000000000000000000000000000000000000000000000000000000000000000000000000000000000000000000000000000000000000000000000000000000000000000000000000000000000
310
0000000000000000000000000000000000000000000000000000000000000000000000000000000000000000000000000000000000000000000000000000000000000000000000000000000000000000F5F5000000000000000000000000000000000000000000000000000000000000000000000000000000000000000000
310
00000000000000000000000000000000000000000000000000000000000000000000000000000000000000000000000000000000000000000000000000000000000000000000000000000000000000000000000000000000000000000000000000000000000000000000000000000000000000000000000000000000000000
310
00000000000000000000000000000000000000000000000000000000000000000000000000000000000000000000000000000000000000000000000000000000000000000000000000000000000000000000000000000000000000000000000000000000000000000000000000000000000000000000000000000000000000
310
00000000000000000000000000000000000000000000000000000000000000000000000000000000000000000000000000000000000000000000000000000000000000000000000000000000000000000000000000000000000000000000000000000000000000000000000000000000000000000000000000000000000000
310
00000000000000000000000000000000000000000000000000000000000000000000000000000000000000000000000000000000000000000000000000000000000000000000000000000000000000000000000000000000000000000000000000000000000000000000000000000000000000000000000000000000000000
310
00000000000000000000000000000000000000000000000000000000000000000000000000000000000000000000000000000000000000000000000000000000000000000000000000000000000000000000000000000000000000000000000000000000000000000000000000000000000000000000000000000000000000
310
00000000000000000000000000000000000000000000000000000000000000000000000000000000000000000000000000000000000000000000000000000000000000000000000000000000000000000000000000000000000000000000000000000000000000000000000000000000000000000000000000000000000000
310
00000000000000000000000000000000000000000000000000000000000000000000000000000000000000000000000000000000000000000000000000000000000000000000000000000000000000000000000000000000000000000000000000000000000000000000000000000000000000000000000000000000000000
310
00000000000000000000000000000000000000000000000000000000000000000000000000000000000000000000000000000000000000000000000000000000000000000000000000000000000000000000000000000000000000000000000000000000000000000000000000000000000000000000000000000000000000
310
00000000000000000000000000000000000000000000000000000000000000000000000000000000000000000000000000000000000000000000000000000000000000000000000000000000000000000000000000000000000000000000000000000000000000000000000000000000000000000000000000000000000000
310
00000000000000000000000000000000000000000000000000000000000000000000000000000000000000000000000000000000000000000000000000000000000000000000000000000000000000000000000000000000000000000000000000000000000000000000000000000000000000000000000000000000000000
310
00000000000000000000000000000000000000000000000000000000000000000000000000000000000000000000000000000000000000000000000000000000000000000000000000000000000000000000000000000000000000000000000000000000000000000000000000000000000000000000000000000000000000
310
00000000000000000000000000000000000000000000000000000000000000000000000000000000000000000000000000000000000000000000000000000000000000000000000000000000000000000000000000000000000000000000000000000000000000000000000000000000000000000000000000000000000000
310
00000000000000000000000000000000000000000000000000000000000000000000000000000000000000000000000000000000000000000000000000000000000000000000000000000000000000000000000000000000000000000000000000000000000000000000000000000000000000000000000000000000000000
310
00000000000000000000000000000000000000000000000000000000000000000000000000000000000000000000000000000000000000000000000000000000000000000000000000000000000000000000000000000000000000000000000000000000000000000000000000000000000000000000000000000000000000
310
00000000000000000000000000000000000000000000000000000000000000000000000000000000000000000000000000000000000000000000000000000000000000000000000000000000000000000000000000000000000000000000000000000000000000000000000000000000000000000000000000000000000000
310
00000000000000000000000000000000000000000000000000000000000000000000000000000000000000000000000000000000000000000000000000000000000000000000000000000000000000000000000000000000000000000000000000000000000000000000000000000000000000000000000000000000000000
310
00000000000000000000000000000000000000000000000000000000000000000000000000000000000000000000000000000000000000000000000000000000000000000000000000000000000000000000000000000000000000000000000000000000000000000000000000000000000000000000000000000000000000
310
00000000000000000000000000000000000000000000000000000000000000000000000000000000000000000000000000000000000000000000000000000000000000000000000000000000000000000000000000000000000000000000000000000000000000000000000000000000000000000000000000000000000000
310
00000000000000000000000000000000000000000000000000000000000000000000000000000000000000000000000000000000000000000000000000000000000000000000000000000000000000000000000000000000000000000000000000000000000000000000000000000000000000000000000000000000000000
310
00000000000000000000000000000000000000000000000000000000000000000000000000000000000000000000000000000000000000000000000000000000000000000000000000000000000000000000000000000000000000000000000000000000000000000000000000000000000000000000000000000000000000
310
00000000000000000000000000000000000000000000000000000000000000000000000000000000000000000000000000000000000000000000000000000000000000000000000000000000000000000000000000000000000000000000000000000000000000000000000000000000000000000000000000000000000000
310
00000000000000000000000000000000000000000000000000000000000000000000000000000000000000000000000000000000000000000000000000000000000000000000000000000000000000000000000000000000000000000000000000000000000000000000000000000000000000000000000000000000000000
310
00000000000000000000000000000000000000000000000000000000000000000000000000000000000000000000000000000000000000000000000000000000000000000000000000000000000000000000000000000000000000000000000000000000000000000000000000000000000000000000000000000000000000
310
00000000000000000000000000000000000000000000000000000000000000000000000000000000000000000000000000000000000000000000000000000000000000000000000000000000000000000000000000000000000000000000000000000000000000000000000000000000000000000000000000000000000000
310
00000000000000000000000000000000000000000000000000000000000000000000000000000000000000000000000000000000000000000000000000000000000000000000000000000000000000000000000000000000000000000000000000000000000000000000000000000000000000000000000000000000000000
310
00000000000000000000000000000000000000000000000000000000000000000000000000000000000000000000000000000000000000000000000000000000000000000000000000000000000000000000000000000000000000000000000000000000000000000000000000000000000000000000000000000000000000
310
00000000000000000000000000000000000000000000000000000000000000000000000000000000000000000000000000000000000000000000000000000000000000000000000000000000000000000000000000000000000000000000000000000000000000000000000000000000000000000000000000000000000000
310
00000000000000000000000000000000000000000000000000000000000000000000000000000000000000000000000000000000000000000000000000000000000000000000000000000000000000000000000000000000000000000000000000000000000000000000000000000000000000000000000000000000000000
310
00000000000000000000000000000000000000000000000000000000000000000000000000000000000000000000000000000000000000000000000000000000000000000000000000000000000000000000000000000000000000000000000000000000000000000000000000000000000000000000000000000000000000
310
00000000000000000000000000000000000000000000000000000000000000000000000000000000000000000000000000000000000000000000000000000000000000000000000000000000000000000000000000000000000000000000000000000000000000000000000000000000000000000000000000000000000000
310
00000000000000000000000000000000000000000000000000000000000000000000000000000000000000000000000000000000000000000000000000000000000000000000000000000000000000000000000000000000000000000000000000000000000000000000000000000000000000000000000000000000000000
310
00000000000000000000000000000000000000000000000000000000000000000000000000000000000000000000000000000000000000000000000000000000000000000000000000000000000000000000000000000000000000000000000000000000000000000000000000000000000000000000000000000000000000
310
00000000000000000000000000000000000000000000000000000000000000000000000000000000000000000000000000000000000000000000000000000000000000000000000000000000000000000000000000000000000000000000000000000000000000000000000000000000000000000000000000000000000000
310
00000000000000000000000000000000000000000000000000000000000000000000000000000000000000000000000000000000000000000000000000000000000000000000000000000000000000000000000000000000000000000000000000000000000000000000000000000000000000000000000000000000000000
310
00000000000000000000000000000000000000000000000000000000000000000000000000000000000000000000000000000000000000000000000000000000000000000000000000000000000000000000000000000000000000000000000000000000000000000000000000000000000000000000000000000000000000
310
00000000000000000000000000000000000000000000000000000000000000000000000000000000000000000000000000000000000000000000000000000000000000000000000000000000000000000000000000000000000000000000000000000000000000000000000000000000000000000000000000000000000000
310
00000000000000000000000000000000000000000000000000000000000000000000000000000000000000000000000000000000000000000000000000000000000000000000000000000000000000000000000000000000000000000000000000000000000000000000000000000000000000000000000000000000000000
310
00000000000000000000000000000000000000000000000000000000000000000000000000000000000000000000000000000000000000000000000000000000000000000000000000000000000000000000000000000000000000000000000000000000000000000000000000000000000000000000000000000000000000
310
00000000000000000000000000000000000000000000000000000000000000000000000000000000000000000000000000000000000000000000000000000000000000000000000000000000000000000000000000000000000000000000000000000000000000000000000000000000000000000000000000000000000000
310
00000000000000000000000000000000000000000000000000000000000000000000000000000000000000000000000000000000000000000000000000000000000000000000000000000000000000000000000000000000000000000000000000000000000000000000000000000000000000000000000000000000000000
310
00000000000000000000000000000000000000000000000000000000000000000000000000000000000000000000000000000000000000000000000000000000000000000000000000000000000000000000000000000000000000000000000000000000000000000000000000000000000000000000000000000000000000
310
00000000000000000000000000000000000000000000000000000000000000000000000000000000000000000000000000000000000000000000000000000000000000000000000000000000000000000000000000000000000000000000000000000000000000000000000000000000000000000000000000000000000000
310
00000000000000000000000000000000000000000000000000000000000000000000000000000000000000000000000000000000000000000000000000000000000000000000000000000000000000000000000000000000000000000000000000000000000000000000000000000000000000000000000000000000000000
310
00000000000000000000000000000000000000000000000000000000000000000000000000000000000000000000000000000000000000000000000000000000000000000000000000000000000000000000000000000000000000000000000000000000000000000000000000000000000000000000000000000000000000
310
00000000000000000000000000000000000000000000000000000000000000000000000000000000000000000000000000000000000000000000000000000000000000000000000000000000000000000000000000000000000000000000000000000000000000000000000000000000000000000000000000000000000000
310
00000000000000000000000000000000000000000000000000000000000000000000000000000000000000000000000000000000000000000000000000000000000000000000000000000000000000000000000000000000000000000000000000000000000000000000000000000000000000000000000000000000000000
310
00000000000000000000000000000000000000000000000000000000000000000000000000000000000000000000000000000000000000000000000000000000000000000000000000000000000000000000000000000000000000000000000000000000000000000000000000000000000000000000000000000000000000
310
00000000000000000000000000000000000000000000000000000000000000000000000000000000000000000000000000000000000000000000000000000000000000000000000000000000000000000000000000000000000000000000000000000000000000000000000000000000000000000000000000000000000000
310
00000000000000000000000000000000000000000000000000000000000000000000000000000000000000000000000000000000000000000000000000000000000000000000000000000000000000000000000000000000000000000000000000000000000000000000000000000000000000000000000000000000000000
310
00000000000000000000000000000000000000000000000000000000000000000000000000000000000000000000000000000000000000000000000000000000000000000000000000000000000000000000000000000000000000000000000000000000000000000000000000000000000000000000000000000000000000
310
00000000000000000000000000000000000000000000000000000000000000000000000000000000000000000000000000000000000000000000000000000000000000000000000000000000000000000000000000000000000000000000000000000000000000000000000000000000000000000000000000000000000000
310
00000000000000000000000000000000000000000000000000000000000000000000000000000000000000000000000000000000000000000000000000000000000000000000000000000000000000000000000000000000000000000000000000000000000000000000000000000000000000000000000000000000000000
310
00000000000000000000000000000000000000000000000000000000000000000000000000000000000000000000000000000000000000000000000000000000000000000000000000000000000000000000000000000000000000000000000000000000000000000000000000000000000000000000000000000000000000
310
00000000000000000000000000000000000000000000000000000000000000000000000000000000000000000000000000000000000000000000000000000000000000000000000000000000000000000000000000000000000000000000000000000000000000000000000000000000000000000000000000000000000000
310
00000000000000000000000000000000000000000000000000000000000000000000000000000000000000000000000000000000000000000000000000000000000000000000000000000000000000000000000000000000000000000000000000000000000000000000000000000000000000000000000000000000000000
310
00000000000000000000000000000000000000000000000000000000000000000000000000000000000000000000000000000000000000000000000000000000000000000000000000000000000000000000000000000000000000000000000000000000000000000000000000000000000000000000000000000000000000
310
00000000000000000000000000000000000000000000000000000000000000000000000000000000000000000000000000000000000000000000000000000000000000000000000000000000000000000000000000000000000000000000000000000000000000000000000000000000000000000000000000000000000000
310
00000000000000000000000000000000000000000000000000000000000000000000000000000000000000000000000000000000000000000000000000000000000000000000000000000000000000000000000000000000000000000000000000000000000000000000000000000000000000000000000000000000000000
310
00000000000000000000000000000000000000000000000000000000000000000000000000000000000000000000000000000000000000000000000000000000000000000000000000000000000000000000000000000000000000000000000000000000000000000000000000000000000000000000000000000000000000
310
00000000000000000000000000000000000000000000000000000000000000000000000000000000000000000000000000000000000000000000000000000000000000000000000000000000000000000000000000000000000000000000000000000000000000000000000000000000000000000000000000000000000000
310
00000000000000000000000000000000000000000000000000000000000000000000000000000000000000000000000000000000000000000000000000000000000000000000000000000000000000000000000000000000000000000000000000000000000000000000000000000000000000000000000000000000000000
310
00000000000000000000000000000000000000000000000000000000000000000000000000000000000000000000000000000000000000000000000000000000000000000000000000000000000000000000000000000000000000000000000000000000000000000000000000000000000000000000000000000000000000
310
00000000000000000000000000000000000000000000000000000000000000000000000000000000000000000000000000000000000000000000000000000000000000000000000000000000000000000000000000000000000000000000000000000000000000000000000000000000000000000000000000000000000000
310
00000000000000000000000000000000000000000000000000000000000000000000000000000000000000000000000000000000000000000000000000000000000000000000000000000000000000000000000000000000000000000000000000000000000000000000000000000000000000000000000000000000000000
310
00000000000000000000000000000000000000000000000000000000000000000000000000000000000000000000000000000000000000000000000000000000000000000000000000000000000000000000000000000000000000000000000000000000000000000000000000000000000000000000000000000000000000
310
00000000000000000000000000000000000000000000000000000000000000000000000000000000000000000000000000000000000000000000000000000000000000000000000000000000000000000000000000000000000000000000000000000000000000000000000000000000000000000000000000000000000000
310
00000000000000000000000000000000000000000000000000000000000000000000000000000000000000000000000000000000000000000000000000000000000000000000000000000000000000000000000000000000000000000000000000000000000000000000000000000000000000000000000000000000000000
310
00000000000000000000000000000000000000000000000000000000000000000000000000000000000000000000000000000000000000000000000000000000000000000000000000000000000000000000000000000000000000000000000000000000000000000000000000000000000000000000000000000000000000
310
00000000000000000000000000000000000000000000000000000000000000000000000000000000000000000000000000000000000000000000000000000000000000000000000000000000000000000000000000000000000000000000000000000000000000000000000000000000000000000000000000000000000000
310
00000000000000000000000000000000000000000000000000000000000000000000000000000000000000000000000000000000000000000000000000000000000000000000000000000000000000000000000000000000000000000000000000000000000000000000000000000000000000000000000000000000000000
310
00000000000000000000000000000000000000000000000000000000000000000000000000000000000000000000000000000000000000000000000000000000000000000000000000000000000000000000000000000000000000000000000000000000000000000000000000000000000000000000000000000000000000
310
00000000000000000000000000000000000000000000000000000000000000000000000000000000000000000000000000000000000000000000000000000000000000000000000000000000000000000000000000000000000000000000000000000000000000000000000000000000000000000000000000000000000000
310
00000000000000000000000000000000000000000000000000000000000000000000000000000000000000000000000000000000000000000000000000000000000000000000000000000000000000000000000000000000000000000000000000000000000000000000000000000000000000000000000000000000000000
310
000000000000000000000000000000000000000000000000000000000000
  0
XRECORD
  5
355
102
{ACAD_REACTORS
330
49
102
}
330
49
100
AcDbXrecord
280
     1
102
MATERIAL
148
0.0
149
0.0
149
0.0
 93
        0
 94
      127
282
     0
 72
     0
 77
     0
171
     0
175
     0
179
     0
273
     0
  0
XRECORD
  5
4A
102
{ACAD_REACTORS
330
49
102
}
330
49
100
AcDbXrecord
280
     1
270
     1
271
     1
  0
XRECORD
  5
4B
102
{ACAD_REACTORS
330
49
102
}
330
49
100
AcDbXrecord
280
     1
270
     1
271
     1
  0
XRECORD
  5
4C
102
{ACAD_REACTORS
330
49
102
}
330
49
100
AcDbXrecord
280
     1
270
     1
271
     1
  0
XRECORD
  5
4D
102
{ACAD_REACTORS
330
49
102
}
330
49
100
AcDbXrecord
280
     1
270
     1
271
     1
  0
XRECORD
  5
4E
102
{ACAD_REACTORS
330
49
102
}
330
49
100
AcDbXrecord
280
     1
270
     1
271
     1
  0
XRECORD
  5
4F
102
{ACAD_REACTORS
330
49
102
}
330
49
100
AcDbXrecord
280
     1
270
     1
271
     1
  0
XRECORD
  5
354
102
{ACAD_REACTORS
330
41
102
}
330
41
100
AcDbXrecord
280
     1
102
MATERIAL
148
0.0
149
0.0
149
0.0
 93
        0
 94
      127
282
     0
 72
     0
 77
     0
171
     0
175
     0
179
     0
273
     0
  0
XRECORD
  5
42
102
{ACAD_REACTORS
330
41
102
}
330
41
100
AcDbXrecord
280
     1
270
     1
271
     1
  0
XRECORD
  5
43
102
{ACAD_REACTORS
330
41
102
}
330
41
100
AcDbXrecord
280
     1
270
     1
271
     1
  0
XRECORD
  5
44
102
{ACAD_REACTORS
330
41
102
}
330
41
100
AcDbXrecord
280
     1
270
     1
271
     1
  0
XRECORD
  5
45
102
{ACAD_REACTORS
330
41
102
}
330
41
100
AcDbXrecord
280
     1
270
     1
271
     1
  0
XRECORD
  5
46
102
{ACAD_REACTORS
330
41
102
}
330
41
100
AcDbXrecord
280
     1
270
     1
271
     1
  0
XRECORD
  5
47
102
{ACAD_REACTORS
330
41
102
}
330
41
100
AcDbXrecord
280
     1
270
     1
271
     1
  0
XRECORD
  5
34F
102
{ACAD_REACTORS
330
E
102
}
330
E
100
AcDbXrecord
280
     1
102
MATERIAL
148
0.0
149
0.0
149
0.0
 93
        0
 94
      127
282
     0
 72
     0
 77
     0
171
     0
175
     0
179
     0
273
     0
  0
XRECORD
  5
F
102
{ACAD_REACTORS
330
E
102
}
330
E
100
AcDbXrecord
280
     1
270
     1
271
     1
  0
XRECORD
  5
10
102
{ACAD_REACTORS
330
E
102
}
330
E
100
AcDbXrecord
280
     1
270
     1
271
     1
  0
XRECORD
  5
11
102
{ACAD_REACTORS
330
E
102
}
330
E
100
AcDbXrecord
280
     1
270
     1
271
     1
  0
XRECORD
  5
12
102
{ACAD_REACTORS
330
E
102
}
330
E
100
AcDbXrecord
280
     1
270
     1
271
     1
  0
XRECORD
  5
13
102
{ACAD_REACTORS
330
E
102
}
330
E
100
AcDbXrecord
280
     1
270
     1
271
     1
  0
XRECORD
  5
14
102
{ACAD_REACTORS
330
E
102
}
330
E
100
AcDbXrecord
280
     1
270
     1
271
     1
  0
CELLSTYLEMAP
  5
34D
102
{ACAD_REACTORS
330
56
102
}
330
56
100
AcDbCellStyleMap
 90
        3
300
CELLSTYLE
  1
TABLEFORMAT_BEGIN
 90
        5
170
     1
 91
        0
 92
    32768
 62
   257
 93
        1
300
CONTENTFORMAT
  1
CONTENTFORMAT_BEGIN
 90
        0
 91
        0
 92
        4
 93
        0
300

 40
0.0
140
1.0
 94
        5
 62
     0
340
26
144
0.25
309
CONTENTFORMAT_END
171
     1
301
MARGIN
  1
CELLMARGIN_BEGIN
 40
0.06
 40
0.06
 40
0.06
 40
0.06
 40
0.18
 40
0.18
309
CELLMARGIN_END
 94
        6
 95
        1
302
GRIDFORMAT
  1
GRIDFORMAT_BEGIN
 90
        0
 91
        1
 62
     0
 92
       -2
340
0
 93
        0
 40
0.045
309
GRIDFORMAT_END
 95
        2
302
GRIDFORMAT
  1
GRIDFORMAT_BEGIN
 90
        0
 91
        1
 62
     0
 92
       -2
340
0
 93
        0
 40
0.045
309
GRIDFORMAT_END
 95
        4
302
GRIDFORMAT
  1
GRIDFORMAT_BEGIN
 90
        0
 91
        1
 62
     0
 92
       -2
340
0
 93
        0
 40
0.045
309
GRIDFORMAT_END
 95
        8
302
GRIDFORMAT
  1
GRIDFORMAT_BEGIN
 90
        0
 91
        1
 62
     0
 92
       -2
340
0
 93
        0
 40
0.045
309
GRIDFORMAT_END
 95
       16
302
GRIDFORMAT
  1
GRIDFORMAT_BEGIN
 90
        0
 91
        1
 62
     0
 92
       -2
340
0
 93
        0
 40
0.045
309
GRIDFORMAT_END
 95
       32
302
GRIDFORMAT
  1
GRIDFORMAT_BEGIN
 90
        0
 91
        1
 62
     0
 92
       -2
340
0
 93
        0
 40
0.045
309
GRIDFORMAT_END
309
TABLEFORMAT_END
  1
CELLSTYLE_BEGIN
 90
        1
 91
        1
300
_TITLE
309
CELLSTYLE_END
300
CELLSTYLE
  1
TABLEFORMAT_BEGIN
 90
        5
170
     1
 91
        0
 92
        0
 62
   257
 93
        1
300
CONTENTFORMAT
  1
CONTENTFORMAT_BEGIN
 90
        0
 91
        0
 92
        4
 93
        0
300

 40
0.0
140
1.0
 94
        5
 62
     0
340
26
144
0.18
309
CONTENTFORMAT_END
171
     1
301
MARGIN
  1
CELLMARGIN_BEGIN
 40
0.06
 40
0.06
 40
0.06
 40
0.06
 40
0.18
 40
0.18
309
CELLMARGIN_END
 94
        6
 95
        1
302
GRIDFORMAT
  1
GRIDFORMAT_BEGIN
 90
        0
 91
        1
 62
     0
 92
       -2
340
0
 93
        0
 40
0.045
309
GRIDFORMAT_END
 95
        2
302
GRIDFORMAT
  1
GRIDFORMAT_BEGIN
 90
        0
 91
        1
 62
     0
 92
       -2
340
0
 93
        0
 40
0.045
309
GRIDFORMAT_END
 95
        4
302
GRIDFORMAT
  1
GRIDFORMAT_BEGIN
 90
        0
 91
        1
 62
     0
 92
       -2
340
0
 93
        0
 40
0.045
309
GRIDFORMAT_END
 95
        8
302
GRIDFORMAT
  1
GRIDFORMAT_BEGIN
 90
        0
 91
        1
 62
     0
 92
       -2
340
0
 93
        0
 40
0.045
309
GRIDFORMAT_END
 95
       16
302
GRIDFORMAT
  1
GRIDFORMAT_BEGIN
 90
        0
 91
        1
 62
     0
 92
       -2
340
0
 93
        0
 40
0.045
309
GRIDFORMAT_END
 95
       32
302
GRIDFORMAT
  1
GRIDFORMAT_BEGIN
 90
        0
 91
        1
 62
     0
 92
       -2
340
0
 93
        0
 40
0.045
309
GRIDFORMAT_END
309
TABLEFORMAT_END
  1
CELLSTYLE_BEGIN
 90
        2
 91
        1
300
_HEADER
309
CELLSTYLE_END
300
CELLSTYLE
  1
TABLEFORMAT_BEGIN
 90
        5
170
     1
 91
        0
 92
        0
 62
   257
 93
        1
300
CONTENTFORMAT
  1
CONTENTFORMAT_BEGIN
 90
        0
 91
        0
 92
        4
 93
        0
300

 40
0.0
140
1.0
 94
        2
 62
     0
340
26
144
0.18
309
CONTENTFORMAT_END
171
     1
301
MARGIN
  1
CELLMARGIN_BEGIN
 40
0.06
 40
0.06
 40
0.06
 40
0.06
 40
0.18
 40
0.18
309
CELLMARGIN_END
 94
        6
 95
        1
302
GRIDFORMAT
  1
GRIDFORMAT_BEGIN
 90
        0
 91
        1
 62
     0
 92
       -2
340
0
 93
        0
 40
0.045
309
GRIDFORMAT_END
 95
        2
302
GRIDFORMAT
  1
GRIDFORMAT_BEGIN
 90
        0
 91
        1
 62
     0
 92
       -2
340
0
 93
        0
 40
0.045
309
GRIDFORMAT_END
 95
        4
302
GRIDFORMAT
  1
GRIDFORMAT_BEGIN
 90
        0
 91
        1
 62
     0
 92
       -2
340
0
 93
        0
 40
0.045
309
GRIDFORMAT_END
 95
        8
302
GRIDFORMAT
  1
GRIDFORMAT_BEGIN
 90
        0
 91
        1
 62
     0
 92
       -2
340
0
 93
        0
 40
0.045
309
GRIDFORMAT_END
 95
       16
302
GRIDFORMAT
  1
GRIDFORMAT_BEGIN
 90
        0
 91
        1
 62
     0
 92
       -2
340
0
 93
        0
 40
0.045
309
GRIDFORMAT_END
 95
       32
302
GRIDFORMAT
  1
GRIDFORMAT_BEGIN
 90
        0
 91
        1
 62
     0
 92
       -2
340
0
 93
        0
 40
0.045
309
GRIDFORMAT_END
309
TABLEFORMAT_END
  1
CELLSTYLE_BEGIN
 90
        3
 91
        2
300
_DATA
309
CELLSTYLE_END
  0
XRECORD
  5
356
102
{ACAD_REACTORS
330
56
102
}
330
56
100
AcDbXrecord
280
     1
102
ACAD_ROUNDTRIP_PRE2007_TABLESTYLE
 90
        4
 91
        0
  1

 92
        4
 93
        0
  2

 94
        4
 95
        0
  3

  0
XRECORD
  5
353
102
{ACAD_REACTORS
330
352
102
}
330
352
100
AcDbXrecord
280
     1
102
RTVSPropertyOp0
 70
     1
102
RTVSPropertyOp1
 70
     1
102
RTVSPropertyOp2
 70
     1
102
RTVSPropertyOp3
 70
     1
102
RTVSPropertyOp4
 70
     1
102
RTVSPropertyOp5
 70
     1
102
RTVSPropertyOp6
 70
     1
102
RTVSPropertyOp7
 70
     1
102
RTVSPropertyOp8
 70
     1
102
RTVSPropertyOp9
 70
     1
102
RTVSPropertyOp10
 70
     1
102
RTVSPropertyOp11
 70
     1
102
RTVSPropertyOp12
 70
     1
102
RTVSPropertyOp13
 70
     1
102
RTVSPropertyOp14
 70
     1
102
RTVSPropertyOp15
 70
     1
102
RTVSPropertyOp16
 70
     1
102
RTVSPropertyOp17
 70
     1
102
RTVSPropertyOp18
 70
     1
102
RTVSPropertyOp19
 70
     1
102
RTVSPropertyOp20
 70
     1
102
RTVSPropertyOp21
 70
     1
102
RTVSPropertyOp22
 70
     1
102
RTVSPropertyOp23
 70
     1
102
RTVSPropertyOp24
 70
     1
102
RTVSPropertyOp25
 70
     1
102
RTVSPropertyOp26
 70
     1
102
RTVSPropertyOp27
 70
     1
102
RTVSPropertyOp28
 70
     1
102
RTVSPropertyOp29
 70
     1
102
RTVSPropertyOp30
 70
     1
102
RTVSPropertyOp31
 70
     1
102
RTVSPropertyOp32
 70
     1
  0
XRECORD
  5
358
102
{ACAD_REACTORS
330
357
102
}
330
357
100
AcDbXrecord
280
     1
102
RTVSPropertyOp0
 70
     1
102
RTVSPropertyOp1
 70
     1
102
RTVSPropertyOp2
 70
     1
102
RTVSPropertyOp3
 70
     1
102
RTVSPropertyOp4
 70
     1
102
RTVSPropertyOp5
 70
     1
102
RTVSPropertyOp6
 70
     1
102
RTVSPropertyOp7
 70
     1
102
RTVSPropertyOp8
 70
     1
102
RTVSPropertyOp9
 70
     1
102
RTVSPropertyOp10
 70
     1
102
RTVSPropertyOp11
 70
     1
102
RTVSPropertyOp12
 70
     1
102
RTVSPropertyOp13
 70
     1
102
RTVSPropertyOp14
 70
     1
102
RTVSPropertyOp15
 70
     1
102
RTVSPropertyOp16
 70
     1
102
RTVSPropertyOp17
 70
     1
102
RTVSPropertyOp18
 70
     1
102
RTVSPropertyOp19
 70
     1
102
RTVSPropertyOp20
 70
     1
102
RTVSPropertyOp21
 70
     1
102
RTVSPropertyOp22
 70
     1
102
RTVSPropertyOp23
 70
     1
102
RTVSPropertyOp24
 70
     1
102
RTVSPropertyOp25
 70
     1
102
RTVSPropertyOp26
 70
     1
102
RTVSPropertyOp27
 70
     1
102
RTVSPropertyOp28
 70
     1
102
RTVSPropertyOp29
 70
     1
102
RTVSPropertyOp30
 70
     1
102
RTVSPropertyOp31
 70
     1
102
RTVSPropertyOp32
 70
     1
  0
XRECORD
  5
35A
102
{ACAD_REACTORS
330
359
102
}
330
359
100
AcDbXrecord
280
     1
102
RTVSPropertyOp0
 70
     1
102
RTVSPropertyOp1
 70
     1
102
RTVSPropertyOp2
 70
     1
102
RTVSPropertyOp3
 70
     1
102
RTVSPropertyOp4
 70
     1
102
RTVSPropertyOp5
 70
     1
102
RTVSPropertyOp6
 70
     1
102
RTVSPropertyOp7
 70
     1
102
RTVSPropertyOp8
 70
     1
102
RTVSPropertyOp9
 70
     1
102
RTVSPropertyOp10
 70
     1
102
RTVSPropertyOp11
 70
     1
102
RTVSPropertyOp12
 70
     1
102
RTVSPropertyOp13
 70
     1
102
RTVSPropertyOp14
 70
     1
102
RTVSPropertyOp15
 70
     1
102
RTVSPropertyOp16
 70
     1
102
RTVSPropertyOp17
 70
     1
102
RTVSPropertyOp18
 70
     1
102
RTVSPropertyOp19
 70
     1
102
RTVSPropertyOp20
 70
     1
102
RTVSPropertyOp21
 70
     1
102
RTVSPropertyOp22
 70
     1
102
RTVSPropertyOp23
 70
     1
102
RTVSPropertyOp24
 70
     1
102
RTVSPropertyOp25
 70
     1
102
RTVSPropertyOp26
 70
     1
102
RTVSPropertyOp27
 70
     1
102
RTVSPropertyOp28
 70
     1
102
RTVSPropertyOp29
 70
     1
102
RTVSPropertyOp30
 70
     1
102
RTVSPropertyOp31
 70
     1
102
RTVSPropertyOp32
 70
     1
  0
ENDSEC
  0
EOF
