  0
SECTION
  2
HEADER
  9
$ACADVER
  1
AC1015
  9
$ACADMAINTVER
 70
    18
  9
$DWGCODEPAGE
  3
ANSI_1252
  9
$INSBASE
 10
37.03626786816247
 20
73.97012127702902
 30
0.0
  9
$EXTMIN
 10
27.72847501280436
 20
61.53329429309163
 30
0.0
  9
$EXTMAX
 10
44.55953758860624
 20
84.09019871199545
 30
0.0
  9
$LIMMIN
 10
0.0
 20
0.0
  9
$LIMMAX
 10
10000.0
 20
10000.0
  9
$ORTHOMODE
 70
     0
  9
$REGENMODE
 70
     1
  9
$FILLMODE
 70
     1
  9
$QTEXTMODE
 70
     0
  9
$MIRRTEXT
 70
     0
  9
$LTSCALE
 40
0.5
  9
$ATTMODE
 70
     1
  9
$TEXTSIZE
 40
0.25
  9
$TRACEWID
 40
0.05
  9
$TEXTSTYLE
  7
Standard
  9
$CLAYER
  8
0
  9
$CELTYPE
  6
ByLayer
  9
$CECOLOR
 62
   256
  9
$CELTSCALE
 40
1.0
  9
$DISPSILH
 70
     0
  9
$DIMSCALE
 40
0.0
  9
$DIMASZ
 40
0.156
  9
$DIMEXO
 40
0.04
  9
$DIMDLI
 40
0.38
  9
$DIMRND
 40
0.0
  9
$DIMDLE
 40
0.0
  9
$DIMEXE
 40
0.03
  9
$DIMTP
 40
0.0
  9
$DIMTM
 40
0.0
  9
$DIMTXT
 40
0.3125
  9
$DIMCEN
 40
0.0
  9
$DIMTSZ
 40
0.0
  9
$DIMTOL
 70
     0
  9
$DIMLIM
 70
     0
  9
$DIMTIH
 70
     1
  9
$DIMTOH
 70
     1
  9
$DIMSE1
 70
     0
  9
$DIMSE2
 70
     0
  9
$DIMTAD
 70
     0
  9
$DIMZIN
 70
     0
  9
$DIMBLK
  1
ArchTick
  9
$DIMASO
 70
     1
  9
$DIMSHO
 70
     1
  9
$DIMPOST
  1
\X
  9
$DIMAPOST
  1
mm
  9
$DIMALT
 70
     1
  9
$DIMALTD
 70
     0
  9
$DIMALTF
 40
25.4
  9
$DIMLFAC
 40
1.0
  9
$DIMTOFL
 70
     0
  9
$DIMTVP
 40
0.0
  9
$DIMTIX
 70
     0
  9
$DIMSOXD
 70
     0
  9
$DIMSAH
 70
     0
  9
$DIMBLK1
  1

  9
$DIMBLK2
  1

  9
$DIMSTYLE
  2
Knife
  9
$DIMCLRD
 70
     0
  9
$DIMCLRE
 70
     0
  9
$DIMCLRT
 70
     0
  9
$DIMTFAC
 40
1.0
  9
$DIMGAP
 40
0.04
  9
$DIMJUST
 70
     0
  9
$DIMSD1
 70
     0
  9
$DIMSD2
 70
     0
  9
$DIMTOLJ
 70
     1
  9
$DIMTZIN
 70
     0
  9
$DIMALTZ
 70
     0
  9
$DIMALTTZ
 70
     0
  9
$DIMUPT
 70
     0
  9
$DIMDEC
 70
     5
  9
$DIMTDEC
 70
     5
  9
$DIMALTU
 70
     2
  9
$DIMALTTD
 70
     0
  9
$DIMTXSTY
  7
Standard
  9
$DIMAUNIT
 70
     0
  9
$DIMADEC
 70
     1
  9
$DIMALTRND
 40
0.0
  9
$DIMAZIN
 70
     0
  9
$DIMDSEP
 70
    46
  9
$DIMATFIT
 70
     3
  9
$DIMFRAC
 70
     2
  9
$DIMLDRBLK
  1

  9
$DIMLUNIT
 70
     4
  9
$DIMLWD
 70
    -2
  9
$DIMLWE
 70
    -2
  9
$DIMTMOVE
 70
     0
  9
$LUNITS
 70
     2
  9
$LUPREC
 70
     4
  9
$SKETCHINC
 40
0.1
  9
$FILLETRAD
 40
0.0
  9
$AUNITS
 70
     0
  9
$AUPREC
 70
     0
  9
$MENU
  1
.
  9
$ELEVATION
 40
0.0
  9
$PELEVATION
 40
0.0
  9
$THICKNESS
 40
0.0
  9
$LIMCHECK
 70
     0
  9
$CHAMFERA
 40
0.0
  9
$CHAMFERB
 40
0.0
  9
$CHAMFERC
 40
0.0
  9
$CHAMFERD
 40
0.0
  9
$SKPOLY
 70
     0
  9
$TDCREATE
 40
2454538.540644179
  9
$TDUCREATE
 40
2454538.665644178
  9
$TDUPDATE
 40
2456098.433822338
  9
$TDUUPDATE
 40
2456098.558822338
  9
$TDINDWG
 40
0.3269006481
  9
$TDUSRTIMER
 40
0.3269006481
  9
$USRTIMER
 70
     1
  9
$ANGBASE
 50
0.0
  9
$ANGDIR
 70
     0
  9
$PDMODE
 70
     3
  9
$PDSIZE
 40
0.0
  9
$PLINEWID
 40
0.0
  9
$SPLFRAME
 70
     0
  9
$SPLINETYPE
 70
     6
  9
$SPLINESEGS
 70
    12
  9
$HANDSEED
  5
35A
  9
$SURFTAB1
 70
     6
  9
$SURFTAB2
 70
     6
  9
$SURFTYPE
 70
     6
  9
$SURFU
 70
     6
  9
$SURFV
 70
     6
  9
$UCSBASE
  2

  9
$UCSNAME
  2

  9
$UCSORG
 10
0.0
 20
0.0
 30
0.0
  9
$UCSXDIR
 10
1.0
 20
0.0
 30
0.0
  9
$UCSYDIR
 10
0.0
 20
1.0
 30
0.0
  9
$UCSORTHOREF
  2

  9
$UCSORTHOVIEW
 70
     0
  9
$UCSORGTOP
 10
0.0
 20
0.0
 30
0.0
  9
$UCSORGBOTTOM
 10
0.0
 20
0.0
 30
0.0
  9
$UCSORGLEFT
 10
0.0
 20
0.0
 30
0.0
  9
$UCSORGRIGHT
 10
0.0
 20
0.0
 30
0.0
  9
$UCSORGFRONT
 10
0.0
 20
0.0
 30
0.0
  9
$UCSORGBACK
 10
0.0
 20
0.0
 30
0.0
  9
$PUCSBASE
  2

  9
$PUCSNAME
  2

  9
$PUCSORG
 10
0.0
 20
0.0
 30
0.0
  9
$PUCSXDIR
 10
1.0
 20
0.0
 30
0.0
  9
$PUCSYDIR
 10
0.0
 20
1.0
 30
0.0
  9
$PUCSORTHOREF
  2

  9
$PUCSORTHOVIEW
 70
     0
  9
$PUCSORGTOP
 10
0.0
 20
0.0
 30
0.0
  9
$PUCSORGBOTTOM
 10
0.0
 20
0.0
 30
0.0
  9
$PUCSORGLEFT
 10
0.0
 20
0.0
 30
0.0
  9
$PUCSORGRIGHT
 10
0.0
 20
0.0
 30
0.0
  9
$PUCSORGFRONT
 10
0.0
 20
0.0
 30
0.0
  9
$PUCSORGBACK
 10
0.0
 20
0.0
 30
0.0
  9
$USERI1
 70
     0
  9
$USERI2
 70
     0
  9
$USERI3
 70
     0
  9
$USERI4
 70
     0
  9
$USERI5
 70
     0
  9
$USERR1
 40
0.0
  9
$USERR2
 40
0.0
  9
$USERR3
 40
0.0
  9
$USERR4
 40
0.0
  9
$USERR5
 40
0.0
  9
$WORLDVIEW
 70
     1
  9
$SHADEDGE
 70
     3
  9
$SHADEDIF
 70
    70
  9
$TILEMODE
 70
     1
  9
$MAXACTVP
 70
    64
  9
$PINSBASE
 10
0.0
 20
0.0
 30
0.0
  9
$PLIMCHECK
 70
     0
  9
$PEXTMIN
 10
0.0000000075458644
 20
0.0000000082145277
 30
0.0
  9
$PEXTMAX
 10
8.454000007545857
 20
10.67400000821453
 30
0.0
  9
$PLIMMIN
 10
-0.0064249311656545
 20
-0.1631194818509899
  9
$PLIMMAX
 10
8.493574828538456
 20
10.83688027785312
  9
$UNITMODE
 70
     0
  9
$VISRETAIN
 70
     1
  9
$PLINEGEN
 70
     0
  9
$PSLTSCALE
 70
     1
  9
$TREEDEPTH
 70
  3020
  9
$CMLSTYLE
  2
Standard
  9
$CMLJUST
 70
     0
  9
$CMLSCALE
 40
1.0
  9
$PROXYGRAPHICS
 70
     1
  9
$MEASUREMENT
 70
     0
  9
$CELWEIGHT
370
    -1
  9
$ENDCAPS
280
     0
  9
$JOINSTYLE
280
     0
  9
$LWDISPLAY
290
     0
  9
$INSUNITS
 70
     1
  9
$HYPERLINKBASE
  1

  9
$STYLESHEET
  1

  9
$XEDIT
290
     1
  9
$CEPSNTYPE
380
     0
  9
$PSTYLEMODE
290
     1
  9
$FINGERPRINTGUID
  2
{83F9564B-5AE7-4601-A44D-5031F9B8E916}
  9
$VERSIONGUID
  2
{CC377796-B580-4453-809F-1A7713B29F15}
  9
$EXTNAMES
290
     1
  9
$PSVPSCALE
 40
0.0
  9
$OLESTARTUP
290
     0
  0
ENDSEC
  0
SECTION
  2
CLASSES
  0
CLASS
  1
ACDBDICTIONARYWDFLT
  2
AcDbDictionaryWithDefault
  3
ObjectDBX Classes
 90
        0
280
     0
281
     0
  0
CLASS
  1
ACDBPLACEHOLDER
  2
AcDbPlaceHolder
  3
ObjectDBX Classes
 90
        0
280
     0
281
     0
  0
CLASS
  1
LAYOUT
  2
AcDbLayout
  3
ObjectDBX Classes
 90
        0
280
     0
281
     0
  0
CLASS
  1
DICTIONARYVAR
  2
AcDbDictionaryVar
  3
ObjectDBX Classes
 90
        0
280
     0
281
     0
  0
CLASS
  1
TABLESTYLE
  2
AcDbTableStyle
  3
ObjectDBX Classes
 90
     4095
280
     0
281
     0
  0
CLASS
  1
SORTENTSTABLE
  2
AcDbSortentsTable
  3
ObjectDBX Classes
 90
        0
280
     0
281
     0
  0
CLASS
  1
DIMASSOC
  2
AcDbDimAssoc
  3
"AcDbDimAssoc|Product Desc:     AcDim ARX App For Dimension|Company:          Autodesk, Inc.|WEB Address:      www.autodesk.com"
 90
        0
280
     0
281
     0
  0
CLASS
  1
MATERIAL
  2
AcDbMaterial
  3
ObjectDBX Classes
 90
     1153
280
     0
281
     0
  0
CLASS
  1
VISUALSTYLE
  2
AcDbVisualStyle
  3
ObjectDBX Classes
 90
     4095
280
     0
281
     0
  0
CLASS
  1
SCALE
  2
AcDbScale
  3
ObjectDBX Classes
 90
     1153
280
     0
281
     0
  0
CLASS
  1
MLEADERSTYLE
  2
AcDbMLeaderStyle
  3
ACDB_MLEADERSTYLE_CLASS
 90
    36863
280
     0
281
     0
  0
CLASS
  1
CELLSTYLEMAP
  2
AcDbCellStyleMap
  3
ObjectDBX Classes
 90
     1152
280
     0
281
     0
  0
ENDSEC
  0
SECTION
  2
TABLES
  0
TABLE
  2
VPORT
  5
2E
102
{ACAD_XDICTIONARY
360
33
102
}
330
0
100
AcDbSymbolTable
 70
     1
  0
VPORT
  5
2F
330
2E
100
AcDbSymbolTableRecord
100
AcDbViewportTableRecord
  2
*Active
 70
     0
 10
0.0
 20
0.0
 11
1.0
 21
1.0
 12
41.86390263569149
 22
72.23571986667301
 13
0.0
 23
0.0
 14
0.5
 24
0.5
 15
0.5
 25
0.5
 16
0.0
 26
0.0
 36
1.0
 17
0.0
 27
0.0
 37
0.0
 40
24.67908686888804
 41
2.183284457478005
 42
50.0
 43
0.0
 44
0.0
 50
0.0
 51
0.0
 71
     0
 72
  5000
 73
     1
 74
     3
 75
     0
 76
     0
 77
     0
 78
     0
281
     0
 65
     1
110
0.0
120
0.0
130
0.0
111
1.0
121
0.0
131
0.0
112
0.0
122
1.0
132
0.0
 79
     0
146
0.0
1001
ACAD_NAV_VCDISPLAY
1070
     3
  0
ENDTAB
  0
TABLE
  2
LTYPE
  5
29
330
0
100
AcDbSymbolTable
 70
     4
  0
LTYPE
  5
2A
330
29
100
AcDbSymbolTableRecord
100
AcDbLinetypeTableRecord
  2
ByBlock
 70
     0
  3

 72
    65
 73
     0
 40
0.0
  0
LTYPE
  5
2B
330
29
100
AcDbSymbolTableRecord
100
AcDbLinetypeTableRecord
  2
ByLayer
 70
     0
  3

 72
    65
 73
     0
 40
0.0
  0
LTYPE
  5
15
330
29
100
AcDbSymbolTableRecord
100
AcDbLinetypeTableRecord
  2
Continuous
 70
     0
  3
Solid line
 72
    65
 73
     0
 40
0.0
  0
LTYPE
  5
102
330
29
100
AcDbSymbolTableRecord
100
AcDbLinetypeTableRecord
  2
CENTER
 70
     0
  3
____ _ ____ _ ____ _ ____ _ ____ _ ____ 
 72
    65
 73
     4
 40
2.0
 49
1.25
 74
     0
 49
-0.25
 74
     0
 49
0.25
 74
     0
 49
-0.25
 74
     0
  0
LTYPE
  5
98
330
29
100
AcDbSymbolTableRecord
100
AcDbLinetypeTableRecord
  2
HIDDEN2
 70
     0
  3
Hidden (.5x) _ _ _ _ _ _ _ _ _ _ _ _ _ _ _ _ _
 72
    65
 73
     2
 40
0.1875
 49
0.125
 74
     0
 49
-0.0625
 74
     0
  0
LTYPE
  5
9D
330
29
100
AcDbSymbolTableRecord
100
AcDbLinetypeTableRecord
  2
HIDDEN
 70
     0
  3
Hidden __ __ __ __ __ __ __ __ __ __ __ __ __ __
 72
    65
 73
     2
 40
0.375
 49
0.25
 74
     0
 49
-0.125
 74
     0
  0
ENDTAB
  0
TABLE
  2
LAYER
  5
22
102
{ACAD_XDICTIONARY
360
23
102
}
330
0
100
AcDbSymbolTable
 70
     3
  0
LAYER
  5
6
102
{ACAD_XDICTIONARY
360
7
102
}
330
22
100
AcDbSymbolTableRecord
100
AcDbLayerTableRecord
  2
0
 70
     0
 62
     7
  6
Continuous
370
    18
390
9
  0
LAYER
  5
229
330
22
100
AcDbSymbolTableRecord
100
AcDbLayerTableRecord
  2
Defpoints
 70
     0
 62
     7
  6
Continuous
290
     0
370
    18
390
9
  0
LAYER
  5
BA
102
{ACAD_XDICTIONARY
360
BB
102
}
330
22
100
AcDbSymbolTableRecord
100
AcDbLayerTableRecord
  2
Screw
 70
     0
 62
     7
  6
Continuous
370
    18
390
9
  0
ENDTAB
  0
TABLE
  2
STYLE
  5
25
330
0
100
AcDbSymbolTable
 70
     1
  0
STYLE
  5
26
330
25
100
AcDbSymbolTableRecord
100
AcDbTextStyleTableRecord
  2
Standard
 70
     0
 40
0.0
 41
0.55
 50
5.0
 71
     0
 42
0.25
  3
lc______.ttf
  4

1001
ACAD
1000
Letter Gothic
1071
       50
  0
ENDTAB
  0
TABLE
  2
VIEW
  5
2C
330
0
100
AcDbSymbolTable
 70
     0
  0
ENDTAB
  0
TABLE
  2
UCS
  5
2D
330
0
100
AcDbSymbolTable
 70
     0
  0
ENDTAB
  0
TABLE
  2
APPID
  5
34
330
0
100
AcDbSymbolTable
 70
     5
  0
APPID
  5
27
330
34
100
AcDbSymbolTableRecord
100
AcDbRegAppTableRecord
  2
ACAD
 70
     0
  0
APPID
  5
1B
330
34
100
AcDbSymbolTableRecord
100
AcDbRegAppTableRecord
  2
ACAD_PSEXT
 70
     0
  0
APPID
  5
32
330
34
100
AcDbSymbolTableRecord
100
AcDbRegAppTableRecord
  2
ACAD_NAV_VCDISPLAY
 70
     0
  0
APPID
  5
74
330
34
100
AcDbSymbolTableRecord
100
AcDbRegAppTableRecord
  2
GradientColor1ACI
 70
     0
  0
APPID
  5
75
330
34
100
AcDbSymbolTableRecord
100
AcDbRegAppTableRecord
  2
GradientColor2ACI
 70
     0
  0
ENDTAB
  0
TABLE
  2
DIMSTYLE
  5
35
330
0
100
AcDbSymbolTable
 70
     2
100
AcDbDimStyleTable
 71
     2
340
36
340
3B
  0
DIMSTYLE
105
3B
330
35
100
AcDbSymbolTableRecord
100
AcDbDimStyleTableRecord
  2
Standard
 70
     0
  3
"
 40
0.0
 41
0.095
 42
0.04
 44
0.04
140
0.125
141
0.0
147
0.04
179
     1
271
     6
272
     6
276
     2
277
     5
340
26
  0
DIMSTYLE
105
36
102
{ACAD_REACTORS
330
21B
330
22D
330
23E
330
24F
330
260
330
26F
330
280
330
291
330
2A2
330
2B3
330
2C4
330
2D5
330
2E6
330
2F4
330
303
330
311
330
323
330
332
102
}
330
35
100
AcDbSymbolTableRecord
100
AcDbDimStyleTableRecord
  2
Knife
 70
     0
  3
\X
  4
mm
 40
0.0
 41
0.156
 42
0.04
 44
0.03
140
0.3125
141
0.0
147
0.04
170
     1
171
     0
179
     1
271
     5
272
     5
274
     0
276
     2
277
     4
340
26
342
37
  0
ENDTAB
  0
TABLE
  2
BLOCK_RECORD
  5
1
330
0
100
AcDbSymbolTable
 70
    22
  0
BLOCK_RECORD
  5
2
102
{ACAD_XDICTIONARY
360
3
102
}
330
1
100
AcDbSymbolTableRecord
100
AcDbBlockTableRecord
  2
*Model_Space
340
17
  0
BLOCK_RECORD
  5
1C
330
1
100
AcDbSymbolTableRecord
100
AcDbBlockTableRecord
  2
*Paper_Space
340
1F
  0
BLOCK_RECORD
  5
37
330
1
100
AcDbSymbolTableRecord
100
AcDbBlockTableRecord
  2
_ArchTick
340
0
102
{BLKREFS
331
258
331
259
331
267
331
268
331
278
331
279
331
289
331
28A
331
29A
331
29B
331
2AB
331
2AC
331
2BC
331
2BD
331
2CD
331
2CE
331
2DE
331
2DF
331
2ED
331
2EE
331
2FC
331
2FD
331
30A
331
30B
331
31A
331
31B
331
32A
331
32B
331
339
331
33A
331
224
331
225
331
237
331
238
331
247
331
248
102
}
  0
BLOCK_RECORD
  5
B7
330
1
100
AcDbSymbolTableRecord
100
AcDbBlockTableRecord
  2
8 x .75 FH
340
0
310
2800000020000000200000000100080000000000000400000000000000000000000000000000000000000000000080000080000000808000800000008000800080800000C0C0C000C0DCC000F0CAA6000020400000206000002080000020A0000020C0000020E00000400000004020000040400000406000004080000040A0
310
000040C0000040E00000600000006020000060400000606000006080000060A0000060C0000060E00000800000008020000080400000806000008080000080A0000080C0000080E00000A0000000A0200000A0400000A0600000A0800000A0A00000A0C00000A0E00000C0000000C0200000C0400000C0600000C0800000C0
310
A00000C0C00000C0E00000E0000000E0200000E0400000E0600000E0800000E0A00000E0C00000E0E00040000000400020004000400040006000400080004000A0004000C0004000E00040200000402020004020400040206000402080004020A0004020C0004020E000404000004040200040404000404060004040800040
310
40A0004040C0004040E00040600000406020004060400040606000406080004060A0004060C0004060E00040800000408020004080400040806000408080004080A0004080C0004080E00040A0000040A0200040A0400040A0600040A0800040A0A00040A0C00040A0E00040C0000040C0200040C0400040C0600040C08000
310
40C0A00040C0C00040C0E00040E0000040E0200040E0400040E0600040E0800040E0A00040E0C00040E0E00080000000800020008000400080006000800080008000A0008000C0008000E00080200000802020008020400080206000802080008020A0008020C0008020E00080400000804020008040400080406000804080
310
008040A0008040C0008040E00080600000806020008060400080606000806080008060A0008060C0008060E00080800000808020008080400080806000808080008080A0008080C0008080E00080A0000080A0200080A0400080A0600080A0800080A0A00080A0C00080A0E00080C0000080C0200080C0400080C0600080C0
310
800080C0A00080C0C00080C0E00080E0000080E0200080E0400080E0600080E0800080E0A00080E0C00080E0E000C0000000C0002000C0004000C0006000C0008000C000A000C000C000C000E000C0200000C0202000C0204000C0206000C0208000C020A000C020C000C020E000C0400000C0402000C0404000C0406000C0
310
408000C040A000C040C000C040E000C0600000C0602000C0604000C0606000C0608000C060A000C060C000C060E000C0800000C0802000C0804000C0806000C0808000C080A000C080C000C080E000C0A00000C0A02000C0A04000C0A06000C0A08000C0A0A000C0A0C000C0A0E000C0C00000C0C02000C0C04000C0C06000
310
C0C08000C0C0A000F0FBFF00A4A0A000808080000000FF0000FF000000FFFF00FF000000FF00FF00FFFF0000FFFFFF0007070707070707070707070707070707070707070707070707070707070707070707070707070707070707070707070700070707070707070707070707070707070707070707070707070707070707
310
07000707070707070707070707070707070707070707070707070707070707070700070707070707070707070707070707070707070707070707070707070707070007070707070707070707070707070707070707070707070707070707070000000707070707070707070707070707070707070707070707070707070707
310
07000000070707070707070707070707070707070707070707070707070707000007000007070707070707070707070707070707070707070707070707070707000000000007070707070707070707070707070707070707070707070707070700070000000707070707070707070707070707070707070707070707070707
310
00000000000707070707070707070707070707070707070707070707070707070700070000000707070707070707070707070707070707070707070707070707000000000007070707070707070707070707070707070707070707070707070707000700000007070707070707070707070707070707070707070707070707
310
07000000000007070707070707070707070707070707070707070707070707070707000700000007070707070707070707070707070707070707070707070707070000000000070707070707070707070707070707070707070707070707070707070007000000070707070707070707070707070707070707070707070707
310
07070000000000070707070707070707070707070707070707070707070707070707070007000000070707070707070707070707070707070707070707070707070707000700000707070707070707070707070707070707070707070707070707070000000000070707070707070707070707070707070707070707070707
310
07070707000700000007070707070707070707070707070707070707070707070707070700000000070707070707070707070707070707070707070707070707070707000707000700070707070707070707070707070707070707070707070707070007070700070700070707070707070707070707070707070707070707
310
07070007070707000707070007070707070707070707070707070707070707070700000000000000000000000007070707070707070707070707070707070707070000000000000000000000000707070707070707070707070707070707070707070707070707000707070707070707070707070707070707070707070707
310
0707070707070707000707070707070707070707070707070707070707070707070707070707070707070707070707070707070707070707
102
{BLKREFS
331
B6
102
}
  0
BLOCK_RECORD
  5
105
330
1
100
AcDbSymbolTableRecord
100
AcDbBlockTableRecord
  2
8 X .625 PH
340
0
310
2800000020000000200000000100080000000000000400000000000000000000000000000000000000000000000080000080000000808000800000008000800080800000C0C0C000C0DCC000F0CAA6000020400000206000002080000020A0000020C0000020E00000400000004020000040400000406000004080000040A0
310
000040C0000040E00000600000006020000060400000606000006080000060A0000060C0000060E00000800000008020000080400000806000008080000080A0000080C0000080E00000A0000000A0200000A0400000A0600000A0800000A0A00000A0C00000A0E00000C0000000C0200000C0400000C0600000C0800000C0
310
A00000C0C00000C0E00000E0000000E0200000E0400000E0600000E0800000E0A00000E0C00000E0E00040000000400020004000400040006000400080004000A0004000C0004000E00040200000402020004020400040206000402080004020A0004020C0004020E000404000004040200040404000404060004040800040
310
40A0004040C0004040E00040600000406020004060400040606000406080004060A0004060C0004060E00040800000408020004080400040806000408080004080A0004080C0004080E00040A0000040A0200040A0400040A0600040A0800040A0A00040A0C00040A0E00040C0000040C0200040C0400040C0600040C08000
310
40C0A00040C0C00040C0E00040E0000040E0200040E0400040E0600040E0800040E0A00040E0C00040E0E00080000000800020008000400080006000800080008000A0008000C0008000E00080200000802020008020400080206000802080008020A0008020C0008020E00080400000804020008040400080406000804080
310
008040A0008040C0008040E00080600000806020008060400080606000806080008060A0008060C0008060E00080800000808020008080400080806000808080008080A0008080C0008080E00080A0000080A0200080A0400080A0600080A0800080A0A00080A0C00080A0E00080C0000080C0200080C0400080C0600080C0
310
800080C0A00080C0C00080C0E00080E0000080E0200080E0400080E0600080E0800080E0A00080E0C00080E0E000C0000000C0002000C0004000C0006000C0008000C000A000C000C000C000E000C0200000C0202000C0204000C0206000C0208000C020A000C020C000C020E000C0400000C0402000C0404000C0406000C0
310
408000C040A000C040C000C040E000C0600000C0602000C0604000C0606000C0608000C060A000C060C000C060E000C0800000C0802000C0804000C0806000C0808000C080A000C080C000C080E000C0A00000C0A02000C0A04000C0A06000C0A08000C0A0A000C0A0C000C0A0E000C0C00000C0C02000C0C04000C0C06000
310
C0C08000C0C0A000F0FBFF00A4A0A000808080000000FF0000FF000000FFFF00FF000000FF00FF00FFFF0000FFFFFF0007070707070707070707070707070707070707070707070707070707070707070707070707070707070707070707070700070707070707070707070707070707070707070707070707070707070707
310
07000707070707070707070707070707070707070707070707070707070707070700070707070707070707070707070707070707070707070707070707070707070007070707070707070707070707070707070707070707070707070707070000000707070707070707070707070707070707070707070707070707070707
310
00000000070707070707070707070707070707070707070707070707070707070007000007070707070707070707070707070707070707070707070707070700000000000007070707070707070707070707070707070707070707070707070007070000000707070707070707070707070707070707070707070707070707
310
00000000070007070707070707070707070707070707070707070707070707070007070000000707070707070707070707070707070707070707070707070707000000000700070707070707070707070707070707070707070707070707070700070700000007070707070707070707070707070707070707070707070707
310
07000000000700070707070707070707070707070707070707070707070707070700070700000007070707070707070707070707070707070707070707070707070007070007000707070707070707070707070707070707070707070707070707000000000700070707070707070707070707070707070707070707070707
310
07070007070000000707070707070707070707070707070707070707070707070707000000000700070707070707070707070707070707070707070707070707070700070700000007070707070707070707070707070707070707070707070707070000000007000707070707070707070707070707070707070707070707
310
07070700070700000007070707070707070707070707070707070707070707070707070000000007000707070707070707070707070707070707070707070707070000000000000000000007070707070707070707070707070707070707070700070707070700070707070007070707070707070707070707070707070707
310
07000000000000000000000000070707070707070707070707070707070707070707000007070700070700000707070707070707070707070707070707070707070707070000000000000707070707070707070707070707070707070707070707070707070707000707070707070707070707070707070707070707070707
310
0707070707070707000707070707070707070707070707070707070707070707070707070707070707070707070707070707070707070707
102
{BLKREFS
331
104
102
}
  0
BLOCK_RECORD
  5
1AE
330
1
100
AcDbSymbolTableRecord
100
AcDbBlockTableRecord
  2
8 X 1.5 FH
340
0
310
2800000020000000200000000100080000000000000400000000000000000000000000000000000000000000000080000080000000808000800000008000800080800000C0C0C000C0DCC000F0CAA6000020400000206000002080000020A0000020C0000020E00000400000004020000040400000406000004080000040A0
310
000040C0000040E00000600000006020000060400000606000006080000060A0000060C0000060E00000800000008020000080400000806000008080000080A0000080C0000080E00000A0000000A0200000A0400000A0600000A0800000A0A00000A0C00000A0E00000C0000000C0200000C0400000C0600000C0800000C0
310
A00000C0C00000C0E00000E0000000E0200000E0400000E0600000E0800000E0A00000E0C00000E0E00040000000400020004000400040006000400080004000A0004000C0004000E00040200000402020004020400040206000402080004020A0004020C0004020E000404000004040200040404000404060004040800040
310
40A0004040C0004040E00040600000406020004060400040606000406080004060A0004060C0004060E00040800000408020004080400040806000408080004080A0004080C0004080E00040A0000040A0200040A0400040A0600040A0800040A0A00040A0C00040A0E00040C0000040C0200040C0400040C0600040C08000
310
40C0A00040C0C00040C0E00040E0000040E0200040E0400040E0600040E0800040E0A00040E0C00040E0E00080000000800020008000400080006000800080008000A0008000C0008000E00080200000802020008020400080206000802080008020A0008020C0008020E00080400000804020008040400080406000804080
310
008040A0008040C0008040E00080600000806020008060400080606000806080008060A0008060C0008060E00080800000808020008080400080806000808080008080A0008080C0008080E00080A0000080A0200080A0400080A0600080A0800080A0A00080A0C00080A0E00080C0000080C0200080C0400080C0600080C0
310
800080C0A00080C0C00080C0E00080E0000080E0200080E0400080E0600080E0800080E0A00080E0C00080E0E000C0000000C0002000C0004000C0006000C0008000C000A000C000C000C000E000C0200000C0202000C0204000C0206000C0208000C020A000C020C000C020E000C0400000C0402000C0404000C0406000C0
310
408000C040A000C040C000C040E000C0600000C0602000C0604000C0606000C0608000C060A000C060C000C060E000C0800000C0802000C0804000C0806000C0808000C080A000C080C000C080E000C0A00000C0A02000C0A04000C0A06000C0A08000C0A0A000C0A0C000C0A0E000C0C00000C0C02000C0C04000C0C06000
310
C0C08000C0C0A000F0FBFF00A4A0A000808080000000FF0000FF000000FFFF00FF000000FF00FF00FFFF0000FFFFFF0007070707070707070707070707070707070707070707070707070707070707070707070707070707070707070707070700070707070707070707070707070707070707070707070707070707070707
310
07000707070707070707070707070707070707070707070707070707070707070000070707070707070707070707070707070707070707070707070707070707000007070707070707070707070707070707070707070707070707070707070000000007070707070707070707070707070707070707070707070707070707
310
00000000070707070707070707070707070707070707070707070707070707070000000007070707070707070707070707070707070707070707070707070707000000000707070707070707070707070707070707070707070707070707070700000000070707070707070707070707070707070707070707070707070707
310
07000000000707070707070707070707070707070707070707070707070707070700070000070707070707070707070707070707070707070707070707070707070000000007070707070707070707070707070707070707070707070707070707000000000707070707070707070707070707070707070707070707070707
310
07070000000007070707070707070707070707070707070707070707070707070707000000000707070707070707070707070707070707070707070707070707070700000000070707070707070707070707070707070707070707070707070707070000000007070707070707070707070707070707070707070707070707
310
07070700070000070707070707070707070707070707070707070707070707070707070007000007070707070707070707070707070707070707070707070707070707000700000707070707070707070707070707070707070707070707070707070700070000070707070707070707070707070707070707070707070707
310
07070707000700000707070707070707070707070707070707070707070707070707070700070000070707070707070707070707070707070707070707070707070707070007000007070707070707070707070707070707070707070707070707070707000700000707070707070707070707070707070707070707070707
310
07070707070000000007070707070707070707070707070707070707070707070707070707000700070007070707070707070707070707070707070707070707070707070000000000000707070707070707070707070707070707070707070707070707000000000000070707070707070707070707070707070707070707
310
0707070707070707000707070707070707070707070707070707070707070707070707070707070707070707070707070707070707070707
102
{BLKREFS
331
1AD
102
}
  0
BLOCK_RECORD
  5
21E
330
1
100
AcDbSymbolTableRecord
100
AcDbBlockTableRecord
  2
*D4
340
0
  0
BLOCK_RECORD
  5
230
330
1
100
AcDbSymbolTableRecord
100
AcDbBlockTableRecord
  2
*D5
340
0
  0
BLOCK_RECORD
  5
241
330
1
100
AcDbSymbolTableRecord
100
AcDbBlockTableRecord
  2
*D6
340
0
  0
BLOCK_RECORD
  5
252
330
1
100
AcDbSymbolTableRecord
100
AcDbBlockTableRecord
  2
*D7
340
0
  0
BLOCK_RECORD
  5
261
330
1
100
AcDbSymbolTableRecord
100
AcDbBlockTableRecord
  2
*D8
340
0
  0
BLOCK_RECORD
  5
272
330
1
100
AcDbSymbolTableRecord
100
AcDbBlockTableRecord
  2
*D9
340
0
  0
BLOCK_RECORD
  5
283
330
1
100
AcDbSymbolTableRecord
100
AcDbBlockTableRecord
  2
*D10
340
0
  0
BLOCK_RECORD
  5
294
330
1
100
AcDbSymbolTableRecord
100
AcDbBlockTableRecord
  2
*D11
340
0
  0
BLOCK_RECORD
  5
2A5
330
1
100
AcDbSymbolTableRecord
100
AcDbBlockTableRecord
  2
*D12
340
0
  0
BLOCK_RECORD
  5
2B6
330
1
100
AcDbSymbolTableRecord
100
AcDbBlockTableRecord
  2
*D13
340
0
  0
BLOCK_RECORD
  5
2C7
330
1
100
AcDbSymbolTableRecord
100
AcDbBlockTableRecord
  2
*D14
340
0
  0
BLOCK_RECORD
  5
2D8
330
1
100
AcDbSymbolTableRecord
100
AcDbBlockTableRecord
  2
*D15
340
0
  0
BLOCK_RECORD
  5
2E7
330
1
100
AcDbSymbolTableRecord
100
AcDbBlockTableRecord
  2
*D16
340
0
  0
BLOCK_RECORD
  5
2F5
330
1
100
AcDbSymbolTableRecord
100
AcDbBlockTableRecord
  2
*D17
340
0
  0
BLOCK_RECORD
  5
304
330
1
100
AcDbSymbolTableRecord
100
AcDbBlockTableRecord
  2
*D18
340
0
  0
BLOCK_RECORD
  5
314
330
1
100
AcDbSymbolTableRecord
100
AcDbBlockTableRecord
  2
*D19
340
0
  0
BLOCK_RECORD
  5
324
330
1
100
AcDbSymbolTableRecord
100
AcDbBlockTableRecord
  2
*D20
340
0
  0
BLOCK_RECORD
  5
333
330
1
100
AcDbSymbolTableRecord
100
AcDbBlockTableRecord
  2
*D21
340
0
  0
ENDTAB
  0
ENDSEC
  0
SECTION
  2
BLOCKS
  0
BLOCK
  5
5
330
2
100
AcDbEntity
  8
0
100
AcDbBlockBegin
  2
*Model_Space
 70
     0
 10
0.0
 20
0.0
 30
0.0
  3
*Model_Space
  1

  0
ENDBLK
  5
16
330
2
100
AcDbEntity
  8
0
100
AcDbBlockEnd
  0
BLOCK
  5
1D
330
1C
100
AcDbEntity
 67
     1
  8
0
100
AcDbBlockBegin
  2
*Paper_Space
 70
     0
 10
0.0
 20
0.0
 30
0.0
  3
*Paper_Space
  1

  0
ENDBLK
  5
1E
330
1C
100
AcDbEntity
 67
     1
  8
0
100
AcDbBlockEnd
  0
BLOCK
  5
38
330
37
100
AcDbEntity
  8
0
100
AcDbBlockBegin
  2
_ArchTick
 70
     0
 10
0.0
 20
0.0
 30
0.0
  3
_ArchTick
  1

  0
LWPOLYLINE
  5
39
330
37
100
AcDbEntity
  8
0
  6
ByBlock
 62
     0
100
AcDbPolyline
 90
        2
 70
     0
 43
0.15
 10
-0.5
 20
-0.5
 10
0.5
 20
0.5
  0
ENDBLK
  5
3A
330
37
100
AcDbEntity
  8
0
100
AcDbBlockEnd
  0
BLOCK
  5
B8
330
B7
100
AcDbEntity
  8
0
 62
     7
370
     9
100
AcDbBlockBegin
  2
8 x .75 FH
 70
     0
 10
0.0
 20
0.0
 30
0.0
  3
8 x .75 FH
  1

  0
LINE
  5
B9
330
B7
100
AcDbEntity
  8
Screw
 62
     7
370
     9
100
AcDbLine
 10
0.0550146141445112
 20
-0.6503624430697528
 30
0.0
 11
-0.040994238129656
 21
-0.6842106249981726
 31
0.0
  0
LINE
  5
BC
330
B7
100
AcDbEntity
  8
Screw
 62
     7
370
     9
100
AcDbLine
 10
0.082499999998845
 20
-0.5862344890166469
 30
0.0
 11
-0.0718750000007731
 21
-0.6184212499980504
 31
0.0
  0
LINE
  5
BD
330
B7
100
AcDbEntity
  8
Screw
 62
     7
370
     9
100
AcDbLine
 10
0.0439236020391718
 20
-0.6439590442452073
 30
0.0
 11
0.0490410471671794
 21
-0.6316044388123601
 31
0.0
  0
LINE
  5
BE
330
B7
100
AcDbEntity
  8
Screw
 62
     7
370
     9
100
AcDbLine
 10
0.029903226022725
 20
-0.6778072261735133
 30
0.0
 11
0.0229311243443817
 21
-0.6946393686034753
 31
0.0
  0
LINE
  5
BF
330
B7
100
AcDbEntity
  8
Screw
 62
     7
370
     9
100
AcDbLine
 10
0.0578546239828484
 20
-0.6103265821309379
 30
0.0
 11
0.0490410471671794
 21
-0.6316044388123601
 31
0.0
  0
LINE
  5
C0
330
B7
100
AcDbEntity
  8
Screw
 62
     7
370
     9
100
AcDbLine
 10
-0.0000000000006821
 20
-0.749999999998181
 30
0.0
 11
-0.0229311243459733
 21
-0.6946393686034753
 31
0.0
  0
LINE
  5
C1
330
B7
100
AcDbEntity
  8
Screw
 62
     7
370
     9
100
AcDbLine
 10
-0.0718750000007731
 20
-0.6184212499980504
 30
0.0
 11
-0.0600000000014234
 21
-0.6115652155518774
 31
0.0
  0
LINE
  5
C2
330
B7
100
AcDbEntity
  8
Screw
 62
     7
370
     9
100
AcDbLine
 10
-0.0718750000007731
 20
-0.6184212499981641
 30
0.0
 11
-0.0490410471686573
 21
-0.6316044388123601
 31
0.0
  0
LINE
  5
C3
330
B7
100
AcDbEntity
  8
Screw
 62
     7
370
     9
100
AcDbLine
 10
-0.040994238129656
 20
-0.6842106249981726
 30
0.0
 11
-0.0299032260242029
 21
-0.6778072261735133
 31
0.0
  0
LINE
  5
C4
330
B7
100
AcDbEntity
  8
Screw
 62
     7
370
     9
100
AcDbLine
 10
-0.040994238129656
 20
-0.6842106249981726
 30
0.0
 11
-0.0229311243459733
 21
-0.6946393686034753
 31
0.0
  0
LINE
  5
C5
330
B7
100
AcDbEntity
  8
Screw
 62
     7
370
     9
100
AcDbLine
 10
-0.0299032260242029
 20
-0.6778072261735133
 30
0.0
 11
-0.0490410471686573
 21
-0.6316044388123601
 31
0.0
  0
LINE
  5
C6
330
B7
100
AcDbEntity
  8
Screw
 62
     7
370
     9
100
AcDbLine
 10
0.029903226022725
 20
-0.6778072261735133
 30
0.0
 11
0.0369515003608285
 21
-0.6607911866751693
 31
0.0
  0
LINE
  5
C7
330
B7
100
AcDbEntity
  8
Screw
 62
     7
370
     9
100
AcDbLine
 10
0.0578546239828484
 20
-0.6103265821309379
 30
0.0
 11
0.0632241464040817
 21
-0.5973634082783974
 31
0.0
  0
LINE
  5
C8
330
B7
100
AcDbEntity
  8
Screw
 62
     7
370
     9
100
AcDbLine
 10
0.0550146141445112
 20
-0.6503624430697528
 30
0.0
 11
0.0369515003608285
 21
-0.6607911866751693
 31
0.0
  0
LINE
  5
C9
330
B7
100
AcDbEntity
  8
Screw
 62
     7
370
     9
100
AcDbLine
 10
0.0550146141445112
 20
-0.6503624430697528
 30
0.0
 11
0.0439236020391718
 21
-0.6439590442452073
 31
0.0
  0
LINE
  5
CA
330
B7
100
AcDbEntity
  8
Screw
 62
     7
370
     9
100
AcDbLine
 10
0.0824999999986176
 20
-0.5862344890166469
 30
0.0
 11
0.063224146403968
 21
-0.5973634082782838
 31
0.0
  0
LINE
  5
CB
330
B7
100
AcDbEntity
  8
Screw
 62
     7
370
     9
100
AcDbLine
 10
0.0824999999986176
 20
-0.5862344890166469
 30
0.0
 11
0.0684796239821708
 21
-0.5781398211494207
 31
0.0
  0
LINE
  5
CC
330
B7
100
AcDbEntity
  8
Screw
 62
     7
370
     9
100
AcDbLine
 10
-0.0000000000006821
 20
-0.749999999998181
 30
0.0
 11
0.0229311243443817
 21
-0.6946393686034753
 31
0.0
  0
LINE
  5
CD
330
B7
100
AcDbEntity
  8
Screw
 62
     7
370
     9
100
AcDbLine
 10
0.0599999999988086
 20
-0.4018567450733599
 30
0.0
 11
0.0599999999988086
 21
-0.4416653579600052
 31
0.0
  0
LINE
  5
CE
330
B7
100
AcDbEntity
  8
Screw
 62
     7
370
     9
100
AcDbLine
 10
0.0824999999987313
 20
-0.3888663640167351
 30
0.0
 11
0.0599999999988086
 21
-0.4018567450733599
 31
0.0
  0
LINE
  5
CF
330
B7
100
AcDbEntity
  8
Screw
 62
     7
370
     9
100
AcDbLine
 10
0.0599999999988086
 20
-0.4676461200734821
 30
0.0
 11
0.0599999999988086
 21
-0.5074547329599
 31
0.0
  0
LINE
  5
D0
330
B7
100
AcDbEntity
  8
Screw
 62
     7
370
     9
100
AcDbLine
 10
0.0824999999987313
 20
-0.5204451140167521
 30
0.0
 11
0.0599999999988086
 21
-0.5334354950734906
 31
0.0
  0
LINE
  5
D1
330
B7
100
AcDbEntity
  8
Screw
 62
     7
370
     9
100
AcDbLine
 10
0.0824999999987313
 20
-0.5204451140167521
 30
0.0
 11
0.0599999999986949
 21
-0.5074547329599
 31
0.0
  0
LINE
  5
D2
330
B7
100
AcDbEntity
  8
Screw
 62
     7
370
     9
100
AcDbLine
 10
0.0824999999987313
 20
-0.45465573901663
 30
0.0
 11
0.0599999999988086
 21
-0.4676461200734821
 31
0.0
  0
LINE
  5
D3
330
B7
100
AcDbEntity
  8
Screw
 62
     7
370
     9
100
AcDbLine
 10
0.0824999999987313
 20
-0.45465573901663
 30
0.0
 11
0.0599999999988086
 21
-0.4416653579600052
 31
0.0
  0
LINE
  5
D4
330
B7
100
AcDbEntity
  8
Screw
 62
     7
370
     9
100
AcDbLine
 10
0.0824999999987313
 20
-0.3888663640167351
 30
0.0
 11
-0.0825000000013461
 21
-0.4176219848775418
 31
0.0
  0
LINE
  5
D5
330
B7
100
AcDbEntity
  8
Screw
 62
     7
370
     9
100
AcDbLine
 10
0.0824999999987313
 20
-0.5204451140167521
 30
0.0
 11
-0.0825000000013461
 21
-0.5492007348775588
 31
0.0
  0
LINE
  5
D6
330
B7
100
AcDbEntity
  8
Screw
 62
     7
370
     9
100
AcDbLine
 10
0.0824999999987313
 20
-0.45465573901663
 30
0.0
 11
-0.0825000000013461
 21
-0.4834113598775503
 31
0.0
  0
LINE
  5
D7
330
B7
100
AcDbEntity
  8
Screw
 62
     7
370
     9
100
AcDbLine
 10
0.0824999999987313
 20
-0.3888663640167351
 30
0.0
 11
0.0599999999988086
 21
-0.3758759829599967
 31
0.0
  0
LINE
  5
D8
330
B7
100
AcDbEntity
  8
Screw
 62
     7
370
     9
100
AcDbLine
 10
0.0824999999987313
 20
-0.5862344890167606
 30
0.0
 11
0.0599999999986949
 21
-0.5732441079599085
 31
0.0
  0
LINE
  5
D9
330
B7
100
AcDbEntity
  8
Screw
 62
     7
370
     9
100
AcDbLine
 10
0.0599999999988086
 20
-0.5334354950734906
 30
0.0
 11
0.0599999999988086
 21
-0.5732441079599085
 31
0.0
  0
LINE
  5
DA
330
B7
100
AcDbEntity
  8
Screw
 62
     7
370
     9
100
AcDbLine
 10
-0.0825000000012324
 20
-0.4834113598774366
 30
0.0
 11
-0.0600000000013097
 21
-0.4704209788208118
 31
0.0
  0
LINE
  5
DB
330
B7
100
AcDbEntity
  8
Screw
 62
     7
370
     9
100
AcDbLine
 10
-0.0825000000012324
 20
-0.483411359877664
 30
0.0
 11
-0.0600000000013097
 21
-0.4964017409342887
 31
0.0
  0
LINE
  5
DC
330
B7
100
AcDbEntity
  8
Screw
 62
     7
370
     9
100
AcDbLine
 10
-0.0825000000012324
 20
-0.5492007348775588
 30
0.0
 11
-0.0600000000013097
 21
-0.5362103538207066
 31
0.0
  0
LINE
  5
DD
330
B7
100
AcDbEntity
  8
Screw
 62
     7
370
     9
100
AcDbLine
 10
-0.0825000000012324
 20
-0.5492007348775588
 30
0.0
 11
-0.0600000000013097
 21
-0.5621911159342972
 31
0.0
  0
LINE
  5
DE
330
B7
100
AcDbEntity
  8
Screw
 62
     7
370
     9
100
AcDbLine
 10
-0.0825000000012324
 20
-0.4176219848775418
 30
0.0
 11
-0.0600000000013097
 21
-0.4306123659343939
 31
0.0
  0
LINE
  5
DF
330
B7
100
AcDbEntity
  8
Screw
 62
     7
370
     9
100
AcDbLine
 10
-0.0825000000012324
 20
-0.4176219848775418
 30
0.0
 11
-0.0600000000013097
 21
-0.4046316038208034
 31
0.0
  0
LINE
  5
E0
330
B7
100
AcDbEntity
  8
Screw
 62
     7
370
     9
100
AcDbLine
 10
-0.0600000000013097
 20
-0.5621911159342972
 30
0.0
 11
-0.0600000000013097
 21
-0.6115652155519911
 31
0.0
  0
LINE
  5
E1
330
B7
100
AcDbEntity
  8
Screw
 62
     7
370
     9
100
AcDbLine
 10
-0.0600000000013097
 20
-0.496401740934175
 30
0.0
 11
-0.0600000000013097
 21
-0.5362103538205929
 31
0.0
  0
LINE
  5
E2
330
B7
100
AcDbEntity
  8
Screw
 62
     7
370
     9
100
AcDbLine
 10
-0.0600000000013097
 20
-0.4306123659340529
 30
0.0
 11
-0.0600000000013097
 21
-0.4704209788206981
 31
0.0
  0
LINE
  5
E3
330
B7
100
AcDbEntity
  8
Screw
 62
     7
370
     9
100
AcDbLine
 10
0.0824999999987313
 20
-0.2572876140167182
 30
0.0
 11
0.0599999999988086
 21
-0.2442972329599797
 31
0.0
  0
LINE
  5
E4
330
B7
100
AcDbEntity
  8
Screw
 62
     7
370
     9
100
AcDbLine
 10
0.0824999999987313
 20
-0.323076989016613
 30
0.0
 11
-0.0825000000013461
 21
-0.3518326098775333
 31
0.0
  0
LINE
  5
E5
330
B7
100
AcDbEntity
  8
Screw
 62
     7
370
     9
100
AcDbLine
 10
0.0824999999987313
 20
-0.2572876140167182
 30
0.0
 11
-0.0825000000013461
 21
-0.2860432348775248
 31
0.0
  0
LINE
  5
E6
330
B7
100
AcDbEntity
  8
Screw
 62
     7
370
     9
100
AcDbLine
 10
0.0824999999987313
 20
-0.323076989016613
 30
0.0
 11
0.0599999999988086
 21
-0.3100866079599882
 31
0.0
  0
LINE
  5
E7
330
B7
100
AcDbEntity
  8
Screw
 62
     7
370
     9
100
AcDbLine
 10
0.0824999999987313
 20
-0.323076989016613
 30
0.0
 11
0.0599999999988086
 21
-0.3360673700734651
 31
0.0
  0
LINE
  5
E8
330
B7
100
AcDbEntity
  8
Screw
 62
     7
370
     9
100
AcDbLine
 10
0.0599999999988086
 20
-0.3360673700734651
 30
0.0
 11
0.0599999999988086
 21
-0.375875982959883
 31
0.0
  0
LINE
  5
E9
330
B7
100
AcDbEntity
  8
Screw
 62
     7
370
     9
100
AcDbLine
 10
0.0824999999987313
 20
-0.2572876140167182
 30
0.0
 11
0.0599999999988086
 21
-0.2702779950733429
 31
0.0
  0
LINE
  5
EA
330
B7
100
AcDbEntity
  8
Screw
 62
     7
370
     9
100
AcDbLine
 10
0.0599999999988086
 20
-0.2702779950733429
 30
0.0
 11
0.0599999999988086
 21
-0.3100866079599882
 31
0.0
  0
LINE
  5
EB
330
B7
100
AcDbEntity
  8
Screw
 62
     7
370
     9
100
AcDbLine
 10
-0.0600000000013097
 20
-0.2990336159340359
 30
0.0
 11
-0.0600000000013097
 21
-0.3388422288206812
 31
0.0
  0
LINE
  5
EC
330
B7
100
AcDbEntity
  8
Screw
 62
     7
370
     9
100
AcDbLine
 10
-0.0600000000013097
 20
-0.364822990934158
 30
0.0
 11
-0.0600000000013097
 21
-0.404631603820576
 31
0.0
  0
LINE
  5
ED
330
B7
100
AcDbEntity
  8
Screw
 62
     7
370
     9
100
AcDbLine
 10
-0.0825000000012324
 20
-0.2860432348775248
 30
0.0
 11
-0.0600000000013097
 21
-0.2730528538207864
 31
0.0
  0
LINE
  5
EE
330
B7
100
AcDbEntity
  8
Screw
 62
     7
370
     9
100
AcDbLine
 10
-0.0825000000012324
 20
-0.2860432348775248
 30
0.0
 11
-0.0600000000013097
 21
-0.2990336159343769
 31
0.0
  0
LINE
  5
EF
330
B7
100
AcDbEntity
  8
Screw
 62
     7
370
     9
100
AcDbLine
 10
-0.0825000000012324
 20
-0.351832609877647
 30
0.0
 11
-0.0600000000013097
 21
-0.3648229909342717
 31
0.0
  0
LINE
  5
F0
330
B7
100
AcDbEntity
  8
Screw
 62
     7
370
     9
100
AcDbLine
 10
-0.0825000000012324
 20
-0.3518326098774196
 30
0.0
 11
-0.0600000000013097
 21
-0.3388422288207948
 31
0.0
  0
LINE
  5
F1
330
B7
100
AcDbEntity
  8
Screw
 62
     7
370
     9
100
AcDbLine
 10
0.0599999999988086
 20
-0.2044886200734481
 30
0.0
 11
0.0599999999988086
 21
-0.244297232959866
 31
0.0
  0
LINE
  5
F2
330
B7
100
AcDbEntity
  8
Screw
 62
     7
370
     9
100
AcDbLine
 10
-0.0600000000013097
 20
-0.2332442409341411
 30
0.0
 11
-0.0600000000013097
 21
-0.273052853820559
 31
0.0
  0
LINE
  5
F3
330
B7
100
AcDbEntity
  8
Screw
 62
     7
370
     9
100
AcDbLine
 10
-0.0600000000013097
 20
-0.1430000000002565
 30
0.0
 11
-0.0600000000013097
 21
-0.2072634788206642
 31
0.0
  0
LINE
  5
F4
330
B7
100
AcDbEntity
  8
Screw
 62
     7
370
     9
100
AcDbLine
 10
-0.0825000000012324
 20
-0.22025385987763
 30
0.0
 11
-0.0600000000013097
 21
-0.2332442409342548
 31
0.0
  0
LINE
  5
F5
330
B7
100
AcDbEntity
  8
Screw
 62
     7
370
     9
100
AcDbLine
 10
-0.0825000000012324
 20
-0.2202538598774026
 30
0.0
 11
-0.0600000000013097
 21
-0.2072634788207779
 31
0.0
  0
LINE
  5
F6
330
B7
100
AcDbEntity
  8
Screw
 62
     7
370
     9
100
AcDbLine
 10
0.0824999999987313
 20
-0.191498239016596
 30
0.0
 11
-0.0825000000013461
 21
-0.2202538598775163
 31
0.0
  0
LINE
  5
F7
330
B7
100
AcDbEntity
  8
Screw
 62
     7
370
     9
100
AcDbLine
 10
0.0824999999987313
 20
-0.191498239016596
 30
0.0
 11
0.0599999999988086
 21
-0.1785078579599713
 31
0.0
  0
LINE
  5
F8
330
B7
100
AcDbEntity
  8
Screw
 62
     7
370
     9
100
AcDbLine
 10
0.0824999999987313
 20
-0.191498239016596
 30
0.0
 11
0.0599999999988086
 21
-0.2044886200734481
 31
0.0
  0
LINE
  5
F9
330
B7
100
AcDbEntity
  8
Screw
 62
     7
370
     9
100
AcDbLine
 10
0.0599999999989223
 20
-0.1430000000002565
 30
0.0
 11
0.0599999999988086
 21
-0.1785078579599713
 31
0.0
  0
LINE
  5
FA
330
B7
100
AcDbEntity
  8
Screw
 62
     7
370
     9
100
AcDbLine
 10
-0.1550000000002001
 20
0.0000000000001137
 30
0.0
 11
-0.1550000000020191
 21
-0.015999999999849
 31
0.0
  0
LINE
  5
FB
330
B7
100
AcDbEntity
  8
Screw
 62
     7
370
     9
100
AcDbLine
 10
0.1549999999986085
 20
0.0
 30
0.0
 11
0.1549999999986085
 21
-0.0159999999999627
 31
0.0
  0
LINE
  5
FC
330
B7
100
AcDbEntity
  8
Screw
 62
     7
370
     9
100
AcDbLine
 10
0.1549999999987222
 20
-0.0160000000006448
 30
0.0
 11
-0.155000000001337
 21
-0.0159999999999627
 31
0.0
  0
LINE
  5
FD
330
B7
100
AcDbEntity
  8
Screw
 62
     7
370
     9
100
AcDbLine
 10
0.1549999999987222
 20
0.0
 30
0.0
 11
-0.155000000001337
 21
0.0
 31
0.0
  0
LINE
  5
FE
330
B7
100
AcDbEntity
  8
Screw
 62
     7
370
     9
100
AcDbLine
 10
0.0599999999989223
 20
-0.1430000000000291
 30
0.0
 11
-0.0600000000013097
 21
-0.1430000000000291
 31
0.0
  0
LINE
  5
FF
330
B7
100
AcDbEntity
  8
Screw
 62
     7
370
     9
100
AcDbLine
 10
0.1549999999986085
 20
-0.0160000000006448
 30
0.0
 11
0.0599999999988086
 21
-0.1430000000001428
 31
0.0
  0
LINE
  5
100
330
B7
100
AcDbEntity
  8
Screw
 62
     7
370
     9
100
AcDbLine
 10
-0.1550000000020191
 20
-0.0159999999999627
 30
0.0
 11
-0.0600000000013097
 21
-0.1430000000001428
 31
0.0
  0
LINE
  5
101
330
B7
100
AcDbEntity
  8
Screw
  6
CENTER
 62
     7
370
     9
100
AcDbLine
 10
0.0
 20
0.0516137131638743
 30
0.0
 11
0.0
 21
-0.8012116686045374
 31
0.0
  0
ENDBLK
  5
103
330
B7
100
AcDbEntity
  8
0
 62
     7
370
     9
100
AcDbBlockEnd
  0
BLOCK
  5
106
330
105
100
AcDbEntity
  8
0
 62
     5
100
AcDbBlockBegin
  2
8 X .625 PH
 70
     0
 10
0.0
 20
0.0
 30
0.0
  3
8 X .625 PH
  1

  0
LINE
  5
107
330
105
100
AcDbEntity
  8
Screw
  6
CENTER
 62
     7
370
     9
100
AcDbLine
 10
0.0
 20
0.1516137131640107
 30
0.0
 11
-0.0000000000001137
 21
-0.6762116686043101
 31
0.0
  0
LINE
  5
108
330
105
100
AcDbEntity
  8
Screw
 62
     7
370
     9
100
AcDbLine
 10
0.1549999999987222
 20
0.0400000000003047
 30
0.0
 11
0.1549999999986085
 21
0.0100000000001046
 31
0.0
  0
LINE
  5
109
330
105
100
AcDbEntity
  8
Screw
 62
     7
370
     9
100
AcDbLine
 10
-0.1550000000386262
 20
0.0400000000013279
 30
0.0
 11
-0.1550000000420368
 21
0.0100000000010141
 31
0.0
  0
LINE
  5
10A
330
105
100
AcDbEntity
  8
Screw
 62
     7
370
     9
100
AcDbLine
 10
0.0599999999986949
 20
-0.0136992450730986
 30
0.0
 11
0.0599999999986949
 21
-0.0535078579597439
 31
0.0
  0
LINE
  5
10B
330
105
100
AcDbEntity
  8
Screw
 62
     7
370
     9
100
AcDbLine
 10
0.0824999999986176
 20
-0.0007088640164739
 30
0.0
 11
0.0599999999986949
 21
-0.0136992450730986
 31
0.0
  0
LINE
  5
10C
330
105
100
AcDbEntity
  8
Screw
 62
     7
370
     9
100
AcDbLine
 10
0.0824999999986176
 20
-0.0664982390163687
 30
0.0
 11
0.0599999999986949
 21
-0.0794886200732208
 31
0.0
  0
LINE
  5
10D
330
105
100
AcDbEntity
  8
Screw
 62
     7
370
     9
100
AcDbLine
 10
0.0824999999986176
 20
-0.0664982390163687
 30
0.0
 11
0.0599999999986949
 21
-0.0535078579597439
 31
0.0
  0
LINE
  5
10E
330
105
100
AcDbEntity
  8
Screw
 62
     7
370
     9
100
AcDbLine
 10
0.0824999999986176
 20
-0.0007088640164739
 30
0.0
 11
-0.0825000000014598
 21
-0.0294644848772805
 31
0.0
  0
LINE
  5
10F
330
105
100
AcDbEntity
  8
Screw
 62
     7
370
     9
100
AcDbLine
 10
0.0824999999986176
 20
-0.0664982390163687
 30
0.0
 11
-0.0825000000014598
 21
-0.095253859877289
 31
0.0
  0
LINE
  5
110
330
105
100
AcDbEntity
  8
Screw
 62
     7
370
     9
100
AcDbLine
 10
0.0824999999986176
 20
-0.0007088640164739
 30
0.0
 11
0.0812722115064162
 21
0.0000000000001137
 31
0.0
  0
LINE
  5
111
330
105
100
AcDbEntity
  8
Screw
 62
     7
370
     9
100
AcDbLine
 10
-0.0825000000013461
 20
-0.0952538598771753
 30
0.0
 11
-0.0600000000014234
 21
-0.0822634788205505
 31
0.0
  0
LINE
  5
112
330
105
100
AcDbEntity
  8
Screw
 62
     7
370
     9
100
AcDbLine
 10
-0.0825000000013461
 20
-0.0952538598774027
 30
0.0
 11
-0.0600000000014234
 21
-0.1082442409340274
 31
0.0
  0
LINE
  5
113
330
105
100
AcDbEntity
  8
Screw
 62
     7
370
     9
100
AcDbLine
 10
-0.0825000000013461
 20
-0.0294644848772805
 30
0.0
 11
-0.0600000000014234
 21
-0.0424548659341326
 31
0.0
  0
LINE
  5
114
330
105
100
AcDbEntity
  8
Screw
 62
     7
370
     9
100
AcDbLine
 10
-0.0825000000013461
 20
-0.0294644848772805
 30
0.0
 11
-0.0600000000014234
 21
-0.0164741038205421
 31
0.0
  0
LINE
  5
115
330
105
100
AcDbEntity
  8
Screw
 62
     7
370
     9
100
AcDbLine
 10
-0.0600000000014234
 20
-0.0424548659337916
 30
0.0
 11
-0.0600000000014234
 21
-0.0822634788204369
 31
0.0
  0
LINE
  5
116
330
105
100
AcDbEntity
  8
Screw
 62
     7
370
     9
100
AcDbLine
 10
-0.0600000000015371
 20
0.0
 30
0.0
 11
-0.0600000000014234
 21
-0.0164741038203147
 31
0.0
  0
LINE
  5
117
330
105
100
AcDbEntity
  8
Screw
 62
     7
370
     9
100
AcDbLine
 10
-0.0600000000014234
 20
-0.1082442409339137
 30
0.0
 11
-0.0600000000014234
 21
-0.1480528538203316
 31
0.0
  0
LINE
  5
118
330
105
100
AcDbEntity
  8
Screw
 62
     7
370
     9
100
AcDbLine
 10
0.0599999999986949
 20
-0.0794886200732208
 30
0.0
 11
0.0599999999986949
 21
-0.1192972329596387
 31
0.0
  0
LINE
  5
119
330
105
100
AcDbEntity
  8
Screw
 62
     7
370
     9
100
AcDbLine
 10
-0.0825000000013461
 20
-0.2268326098771922
 30
0.0
 11
-0.0600000000014234
 21
-0.2138422288205675
 31
0.0
  0
LINE
  5
11A
330
105
100
AcDbEntity
  8
Screw
 62
     7
370
     9
100
AcDbLine
 10
-0.0825000000013461
 20
-0.2268326098774196
 30
0.0
 11
-0.0600000000014234
 21
-0.2398229909340443
 31
0.0
  0
LINE
  5
11B
330
105
100
AcDbEntity
  8
Screw
 62
     7
370
     9
100
AcDbLine
 10
-0.0825000000013461
 20
-0.1610432348772974
 30
0.0
 11
-0.0600000000014234
 21
-0.1740336159341496
 31
0.0
  0
LINE
  5
11C
330
105
100
AcDbEntity
  8
Screw
 62
     7
370
     9
100
AcDbLine
 10
-0.0825000000013461
 20
-0.1610432348772974
 30
0.0
 11
-0.0600000000014234
 21
-0.148052853820559
 31
0.0
  0
LINE
  5
11D
330
105
100
AcDbEntity
  8
Screw
 62
     7
370
     9
100
AcDbLine
 10
-0.0600000000014234
 20
-0.2398229909339307
 30
0.0
 11
-0.0600000000014234
 21
-0.2796316038203486
 31
0.0
  0
LINE
  5
11E
330
105
100
AcDbEntity
  8
Screw
 62
     7
370
     9
100
AcDbLine
 10
-0.0600000000014234
 20
-0.1740336159338085
 30
0.0
 11
-0.0600000000014234
 21
-0.2138422288204538
 31
0.0
  0
LINE
  5
11F
330
105
100
AcDbEntity
  8
Screw
 62
     7
370
     9
100
AcDbLine
 10
0.0599999999986949
 20
-0.1452779950731156
 30
0.0
 11
0.0599999999986949
 21
-0.1850866079597608
 31
0.0
  0
LINE
  5
120
330
105
100
AcDbEntity
  8
Screw
 62
     7
370
     9
100
AcDbLine
 10
0.0824999999986176
 20
-0.1322876140164908
 30
0.0
 11
0.0599999999986949
 21
-0.1452779950731156
 31
0.0
  0
LINE
  5
121
330
105
100
AcDbEntity
  8
Screw
 62
     7
370
     9
100
AcDbLine
 10
0.0599999999986949
 20
-0.2110673700732377
 30
0.0
 11
0.0599999999986949
 21
-0.2508759829596556
 31
0.0
  0
LINE
  5
122
330
105
100
AcDbEntity
  8
Screw
 62
     7
370
     9
100
AcDbLine
 10
0.0824999999986176
 20
-0.1980769890163856
 30
0.0
 11
0.0599999999986949
 21
-0.2110673700732377
 31
0.0
  0
LINE
  5
123
330
105
100
AcDbEntity
  8
Screw
 62
     7
370
     9
100
AcDbLine
 10
0.0824999999986176
 20
-0.1980769890163856
 30
0.0
 11
0.0599999999986949
 21
-0.1850866079597608
 31
0.0
  0
LINE
  5
124
330
105
100
AcDbEntity
  8
Screw
 62
     7
370
     9
100
AcDbLine
 10
0.0824999999986176
 20
-0.1322876140164908
 30
0.0
 11
-0.0825000000014598
 21
-0.1610432348772974
 31
0.0
  0
LINE
  5
125
330
105
100
AcDbEntity
  8
Screw
 62
     7
370
     9
100
AcDbLine
 10
0.0824999999986176
 20
-0.1980769890163856
 30
0.0
 11
-0.0825000000014598
 21
-0.2268326098773059
 31
0.0
  0
LINE
  5
126
330
105
100
AcDbEntity
  8
Screw
 62
     7
370
     9
100
AcDbLine
 10
0.0824999999986176
 20
-0.1322876140164908
 30
0.0
 11
0.0599999999986949
 21
-0.1192972329597524
 31
0.0
  0
LINE
  5
127
330
105
100
AcDbEntity
  8
Screw
 62
     7
370
     9
100
AcDbLine
 10
-0.0600000000014234
 20
-0.3056123659338255
 30
0.0
 11
-0.0600000000014234
 21
-0.3454209788204707
 31
0.0
  0
LINE
  5
128
330
105
100
AcDbEntity
  8
Screw
 62
     7
370
     9
100
AcDbLine
 10
-0.0600000000014234
 20
-0.3714017409339476
 30
0.0
 11
-0.0600000000014234
 21
-0.4112103538203656
 31
0.0
  0
LINE
  5
129
330
105
100
AcDbEntity
  8
Screw
 62
     7
370
     9
100
AcDbLine
 10
-0.0600000000014234
 20
-0.4371911159340698
 30
0.0
 11
-0.0600000000014234
 21
-0.4865652155517637
 31
0.0
  0
LINE
  5
12A
330
105
100
AcDbEntity
  8
Screw
 62
     7
370
     9
100
AcDbLine
 10
-0.0825000000013461
 20
-0.2926219848773144
 30
0.0
 11
-0.0600000000014234
 21
-0.2796316038205759
 31
0.0
  0
LINE
  5
12B
330
105
100
AcDbEntity
  8
Screw
 62
     7
370
     9
100
AcDbLine
 10
-0.0825000000013461
 20
-0.2926219848773144
 30
0.0
 11
-0.0600000000014234
 21
-0.3056123659341665
 31
0.0
  0
LINE
  5
12C
330
105
100
AcDbEntity
  8
Screw
 62
     7
370
     9
100
AcDbLine
 10
-0.0825000000013461
 20
-0.4242007348773314
 30
0.0
 11
-0.0600000000014234
 21
-0.4371911159340698
 31
0.0
  0
LINE
  5
12D
330
105
100
AcDbEntity
  8
Screw
 62
     7
370
     9
100
AcDbLine
 10
-0.0825000000013461
 20
-0.4242007348773314
 30
0.0
 11
-0.0600000000014234
 21
-0.4112103538204793
 31
0.0
  0
LINE
  5
12E
330
105
100
AcDbEntity
  8
Screw
 62
     7
370
     9
100
AcDbLine
 10
-0.0825000000013461
 20
-0.3584113598774365
 30
0.0
 11
-0.0600000000014234
 21
-0.3714017409340613
 31
0.0
  0
LINE
  5
12F
330
105
100
AcDbEntity
  8
Screw
 62
     7
370
     9
100
AcDbLine
 10
-0.0825000000013461
 20
-0.3584113598772092
 30
0.0
 11
-0.0600000000014234
 21
-0.3454209788205844
 31
0.0
  0
LINE
  5
130
330
105
100
AcDbEntity
  8
Screw
 62
     7
370
     9
100
AcDbLine
 10
0.0599999999986949
 20
-0.4084354950732632
 30
0.0
 11
0.0599999999986949
 21
-0.4482441079596811
 31
0.0
  0
LINE
  5
131
330
105
100
AcDbEntity
  8
Screw
 62
     7
370
     9
100
AcDbLine
 10
0.0824999999986176
 20
-0.4612344890165332
 30
0.0
 11
0.0599999999985812
 21
-0.4482441079596811
 31
0.0
  0
LINE
  5
132
330
105
100
AcDbEntity
  8
Screw
 62
     7
370
     9
100
AcDbLine
 10
0.0824999999986176
 20
-0.2638663640165078
 30
0.0
 11
0.0599999999986949
 21
-0.2508759829597693
 31
0.0
  0
LINE
  5
133
330
105
100
AcDbEntity
  8
Screw
 62
     7
370
     9
100
AcDbLine
 10
0.0824999999986176
 20
-0.3296557390164025
 30
0.0
 11
-0.0825000000014598
 21
-0.3584113598773229
 31
0.0
  0
LINE
  5
134
330
105
100
AcDbEntity
  8
Screw
 62
     7
370
     9
100
AcDbLine
 10
0.0824999999986176
 20
-0.3954451140165247
 30
0.0
 11
-0.0825000000014598
 21
-0.4242007348773314
 31
0.0
  0
LINE
  5
135
330
105
100
AcDbEntity
  8
Screw
 62
     7
370
     9
100
AcDbLine
 10
0.0824999999986176
 20
-0.2638663640165078
 30
0.0
 11
-0.0825000000014598
 21
-0.2926219848773144
 31
0.0
  0
LINE
  5
136
330
105
100
AcDbEntity
  8
Screw
 62
     7
370
     9
100
AcDbLine
 10
0.0824999999986176
 20
-0.3296557390164025
 30
0.0
 11
0.0599999999986949
 21
-0.3166653579597778
 31
0.0
  0
LINE
  5
137
330
105
100
AcDbEntity
  8
Screw
 62
     7
370
     9
100
AcDbLine
 10
0.0824999999986176
 20
-0.3296557390164025
 30
0.0
 11
0.0599999999986949
 21
-0.3426461200732547
 31
0.0
  0
LINE
  5
138
330
105
100
AcDbEntity
  8
Screw
 62
     7
370
     9
100
AcDbLine
 10
0.0824999999986176
 20
-0.3954451140165247
 30
0.0
 11
0.0599999999985812
 21
-0.3824547329596726
 31
0.0
  0
LINE
  5
139
330
105
100
AcDbEntity
  8
Screw
 62
     7
370
     9
100
AcDbLine
 10
0.0824999999986176
 20
-0.3954451140165247
 30
0.0
 11
0.0599999999986949
 21
-0.4084354950732632
 31
0.0
  0
LINE
  5
13A
330
105
100
AcDbEntity
  8
Screw
 62
     7
370
     9
100
AcDbLine
 10
0.0599999999986949
 20
-0.3426461200732547
 30
0.0
 11
0.0599999999986949
 21
-0.3824547329596726
 31
0.0
  0
LINE
  5
13B
330
105
100
AcDbEntity
  8
Screw
 62
     7
370
     9
100
AcDbLine
 10
0.0824999999986176
 20
-0.2638663640165078
 30
0.0
 11
0.0599999999986949
 21
-0.2768567450731325
 31
0.0
  0
LINE
  5
13C
330
105
100
AcDbEntity
  8
Screw
 62
     7
370
     9
100
AcDbLine
 10
0.0599999999986949
 20
-0.2768567450731325
 30
0.0
 11
0.0599999999986949
 21
-0.3166653579597778
 31
0.0
  0
LINE
  5
13D
330
105
100
AcDbEntity
  8
Screw
 62
     7
370
     9
100
AcDbLine
 10
-0.0000000000007958
 20
-0.6249999999979537
 30
0.0
 11
0.022931124344268
 21
-0.569639368603248
 31
0.0
  0
LINE
  5
13E
330
105
100
AcDbEntity
  8
Screw
 62
     7
370
     9
100
AcDbLine
 10
0.0824999999985039
 20
-0.4612344890164195
 30
0.0
 11
0.0684796239820571
 21
-0.4531398211491933
 31
0.0
  0
LINE
  5
13F
330
105
100
AcDbEntity
  8
Screw
 62
     7
370
     9
100
AcDbLine
 10
0.0824999999985039
 20
-0.4612344890164195
 30
0.0
 11
0.0632241464038543
 21
-0.4723634082780564
 31
0.0
  0
LINE
  5
140
330
105
100
AcDbEntity
  8
Screw
 62
     7
370
     9
100
AcDbLine
 10
0.0550146141443975
 20
-0.5253624430695254
 30
0.0
 11
0.0439236020390581
 21
-0.5189590442449799
 31
0.0
  0
LINE
  5
141
330
105
100
AcDbEntity
  8
Screw
 62
     7
370
     9
100
AcDbLine
 10
0.0550146141443975
 20
-0.5253624430695254
 30
0.0
 11
0.0369515003607148
 21
-0.5357911866749419
 31
0.0
  0
LINE
  5
142
330
105
100
AcDbEntity
  8
Screw
 62
     7
370
     9
100
AcDbLine
 10
0.0578546239827347
 20
-0.4853265821307105
 30
0.0
 11
0.063224146403968
 21
-0.4723634082781701
 31
0.0
  0
LINE
  5
143
330
105
100
AcDbEntity
  8
Screw
 62
     7
370
     9
100
AcDbLine
 10
0.0299032260226113
 20
-0.552807226173286
 30
0.0
 11
0.0369515003607148
 21
-0.5357911866749419
 31
0.0
  0
LINE
  5
144
330
105
100
AcDbEntity
  8
Screw
 62
     7
370
     9
100
AcDbLine
 10
-0.0299032260243166
 20
-0.552807226173286
 30
0.0
 11
-0.049041047168771
 21
-0.5066044388121327
 31
0.0
  0
LINE
  5
145
330
105
100
AcDbEntity
  8
Screw
 62
     7
370
     9
100
AcDbLine
 10
-0.0409942381297697
 20
-0.5592106249979452
 30
0.0
 11
-0.022931124346087
 21
-0.569639368603248
 31
0.0
  0
LINE
  5
146
330
105
100
AcDbEntity
  8
Screw
 62
     7
370
     9
100
AcDbLine
 10
-0.0409942381297697
 20
-0.5592106249979452
 30
0.0
 11
-0.0299032260243166
 21
-0.552807226173286
 31
0.0
  0
LINE
  5
147
330
105
100
AcDbEntity
  8
Screw
 62
     7
370
     9
100
AcDbLine
 10
-0.0718750000008868
 20
-0.4934212499979367
 30
0.0
 11
-0.049041047168771
 21
-0.5066044388121327
 31
0.0
  0
LINE
  5
148
330
105
100
AcDbEntity
  8
Screw
 62
     7
370
     9
100
AcDbLine
 10
-0.0718750000008868
 20
-0.493421249997823
 30
0.0
 11
-0.0600000000015371
 21
-0.48656521555165
 31
0.0
  0
LINE
  5
149
330
105
100
AcDbEntity
  8
Screw
 62
     7
370
     9
100
AcDbLine
 10
-0.0000000000007958
 20
-0.6249999999979537
 30
0.0
 11
-0.022931124346087
 21
-0.569639368603248
 31
0.0
  0
LINE
  5
14A
330
105
100
AcDbEntity
  8
Screw
 62
     7
370
     9
100
AcDbLine
 10
0.0578546239827347
 20
-0.4853265821307105
 30
0.0
 11
0.0490410471670657
 21
-0.5066044388121327
 31
0.0
  0
LINE
  5
14B
330
105
100
AcDbEntity
  8
Screw
 62
     7
370
     9
100
AcDbLine
 10
0.0299032260226113
 20
-0.552807226173286
 30
0.0
 11
0.022931124344268
 21
-0.569639368603248
 31
0.0
  0
LINE
  5
14C
330
105
100
AcDbEntity
  8
Screw
 62
     7
370
     9
100
AcDbLine
 10
0.0439236020390581
 20
-0.5189590442449799
 30
0.0
 11
0.0490410471670657
 21
-0.5066044388121327
 31
0.0
  0
LINE
  5
14D
330
105
100
AcDbEntity
  8
Screw
 62
     7
370
     9
100
AcDbLine
 10
0.0824999999987313
 20
-0.4612344890164195
 30
0.0
 11
-0.0718750000008868
 21
-0.493421249997823
 31
0.0
  0
LINE
  5
14E
330
105
100
AcDbEntity
  8
Screw
 62
     7
370
     9
100
AcDbLine
 10
0.0550146141443975
 20
-0.5253624430695254
 30
0.0
 11
-0.0409942381297697
 21
-0.5592106249979452
 31
0.0
  0
LINE
  5
14F
330
105
100
AcDbEntity
  8
Screw
 62
     7
370
     9
100
AcDbLine
 10
-0.1450000000420459
 20
-0.0000000000001137
 30
0.0
 11
0.1449999999986176
 21
0.0000000000001137
 31
0.0
  0
LINE
  5
150
330
105
100
AcDbEntity
  8
Screw
 62
     7
370
     9
100
AcDbLine
 10
-0.1450000000385216
 20
0.0500000000004093
 30
0.0
 11
0.1449999999986176
 21
0.050000000000523
 31
0.0
  0
ARC
  5
151
330
105
100
AcDbEntity
  8
Screw
 62
     7
370
     9
100
AcDbCircle
 10
0.1449999999986176
 20
0.0100000000001046
 30
0.0
 40
0.01
100
AcDbArc
 50
270.0
 51
0.0
  0
ARC
  5
152
330
105
100
AcDbEntity
  8
Screw
 62
     7
370
     9
100
AcDbCircle
 10
-0.1450000000420459
 20
0.0099999999998772
 30
0.0
 40
0.01
100
AcDbArc
 50
179.9999999934667
 51
270.0
  0
LINE
  5
153
330
105
100
AcDbEntity
  8
Screw
 62
     7
370
     9
100
AcDbLine
 10
-0.0570000000392383
 20
0.1000000000004775
 30
0.0
 11
0.0569999999995616
 21
0.1000000000003638
 31
0.0
  0
ARC
  5
154
330
105
100
AcDbEntity
  8
Screw
 62
     7
370
     9
100
AcDbCircle
 10
0.1449999999986176
 20
0.0400000000003047
 30
0.0
 40
0.01
100
AcDbArc
 50
0.0
 51
90.0
  0
ARC
  5
155
330
105
100
AcDbEntity
  8
Screw
 62
     7
370
     9
100
AcDbCircle
 10
-0.1450000000385216
 20
0.040000000000191
 30
0.0
 40
0.01
100
AcDbArc
 50
90.0
 51
179.9999999934862
  0
ARC
  5
156
330
105
100
AcDbEntity
  8
Screw
 62
     7
370
     9
100
AcDbCircle
 10
-0.0000000000198952
 20
-0.1142505253642412
 30
0.0
 40
0.2217031520327291
100
AcDbArc
 50
46.77058113432305
 51
75.10191228261263
  0
ARC
  5
157
330
105
100
AcDbEntity
  8
Screw
 62
     7
370
     9
100
AcDbCircle
 10
-0.0000000000198952
 20
-0.1142505253642412
 30
0.0
 40
0.2217031520327291
100
AcDbArc
 50
104.8980877173874
 51
133.2294188657414
  0
ENDBLK
  5
158
330
105
100
AcDbEntity
  8
0
 62
     5
100
AcDbBlockEnd
  0
BLOCK
  5
1AF
330
1AE
100
AcDbEntity
  8
0
 62
     5
100
AcDbBlockBegin
  2
8 X 1.5 FH
 70
     0
 10
0.0
 20
0.0
 30
0.0
  3
8 X 1.5 FH
  1

  0
LINE
  5
1B0
330
1AE
100
AcDbEntity
  8
Screw
 62
     7
370
     9
100
AcDbLine
 10
-0.0600000000013097
 20
-0.1430000000001428
 30
0.0
 11
-0.0600000000013097
 21
-0.6283166038209629
 31
0.0
  0
LINE
  5
1B1
330
1AE
100
AcDbEntity
  8
Screw
 62
     7
370
     9
100
AcDbLine
 10
-0.0825000000012324
 20
-0.6413069848773603
 30
0.0
 11
-0.0600000000013097
 21
-0.6283166038207355
 31
0.0
  0
LINE
  5
1B2
330
1AE
100
AcDbEntity
  8
Screw
 62
     7
370
     9
100
AcDbLine
 10
-0.0825000000012324
 20
-0.6413069848775877
 30
0.0
 11
-0.0600000000013097
 21
-0.6542973659342124
 31
0.0
  0
LINE
  5
1B3
330
1AE
100
AcDbEntity
  8
Screw
 62
     7
370
     9
100
AcDbLine
 10
-0.0600000000013097
 20
-0.6542973659340987
 30
0.0
 11
-0.0600000000013097
 21
-0.6941059788205167
 31
0.0
  0
LINE
  5
1B4
330
1AE
100
AcDbEntity
  8
Screw
 62
     7
370
     9
100
AcDbLine
 10
0.0599999999989223
 20
-0.1430000000001428
 30
0.0
 11
0.0599999999985812
 21
-0.5995609829597015
 31
0.0
  0
LINE
  5
1B5
330
1AE
100
AcDbEntity
  8
Screw
 62
     7
370
     9
100
AcDbLine
 10
0.0599999999988086
 20
-0.6255417450734058
 30
0.0
 11
0.0599999999988086
 21
-0.6653503579598237
 31
0.0
  0
LINE
  5
1B6
330
1AE
100
AcDbEntity
  8
Screw
 62
     7
370
     9
100
AcDbLine
 10
0.0824999999987313
 20
-0.6125513640165537
 30
0.0
 11
0.0599999999988086
 21
-0.6255417450734058
 31
0.0
  0
LINE
  5
1B7
330
1AE
100
AcDbEntity
  8
Screw
 62
     7
370
     9
100
AcDbLine
 10
0.0824999999987313
 20
-0.6125513640165537
 30
0.0
 11
0.0599999999988086
 21
-0.5995609829599289
 31
0.0
  0
LINE
  5
1B8
330
1AE
100
AcDbEntity
  8
Screw
 62
     7
370
     9
100
AcDbLine
 10
0.0824999999987313
 20
-0.6125513640165537
 30
0.0
 11
-0.0825000000013461
 21
-0.641306984877474
 31
0.0
  0
LINE
  5
1B9
330
1AE
100
AcDbEntity
  8
Screw
 62
     7
370
     9
100
AcDbLine
 10
0.0550146141445112
 20
-1.400362443069752
 30
0.0
 11
-0.040994238129656
 21
-1.434210624998172
 31
0.0
  0
LINE
  5
1BA
330
1AE
100
AcDbEntity
  8
Screw
 62
     7
370
     9
100
AcDbLine
 10
0.082499999998845
 20
-1.336234489016646
 30
0.0
 11
-0.0718750000007731
 21
-1.36842124999805
 31
0.0
  0
LINE
  5
1BB
330
1AE
100
AcDbEntity
  8
Screw
 62
     7
370
     9
100
AcDbLine
 10
0.0439236020391718
 20
-1.393959044245207
 30
0.0
 11
0.0490410471671794
 21
-1.38160443881236
 31
0.0
  0
LINE
  5
1BC
330
1AE
100
AcDbEntity
  8
Screw
 62
     7
370
     9
100
AcDbLine
 10
0.029903226022725
 20
-1.427807226173513
 30
0.0
 11
0.0229311243443817
 21
-1.444639368603475
 31
0.0
  0
LINE
  5
1BD
330
1AE
100
AcDbEntity
  8
Screw
 62
     7
370
     9
100
AcDbLine
 10
0.0578546239828484
 20
-1.360326582130937
 30
0.0
 11
0.0490410471671794
 21
-1.38160443881236
 31
0.0
  0
LINE
  5
1BE
330
1AE
100
AcDbEntity
  8
Screw
 62
     7
370
     9
100
AcDbLine
 10
-0.0000000000006821
 20
-1.499999999998181
 30
0.0
 11
-0.0229311243459733
 21
-1.444639368603475
 31
0.0
  0
LINE
  5
1BF
330
1AE
100
AcDbEntity
  8
Screw
 62
     7
370
     9
100
AcDbLine
 10
-0.0718750000007731
 20
-1.36842124999805
 30
0.0
 11
-0.0600000000014234
 21
-1.361565215551877
 31
0.0
  0
LINE
  5
1C0
330
1AE
100
AcDbEntity
  8
Screw
 62
     7
370
     9
100
AcDbLine
 10
-0.0718750000007731
 20
-1.368421249998164
 30
0.0
 11
-0.0490410471686573
 21
-1.38160443881236
 31
0.0
  0
LINE
  5
1C1
330
1AE
100
AcDbEntity
  8
Screw
 62
     7
370
     9
100
AcDbLine
 10
-0.040994238129656
 20
-1.434210624998172
 30
0.0
 11
-0.0299032260242029
 21
-1.427807226173513
 31
0.0
  0
LINE
  5
1C2
330
1AE
100
AcDbEntity
  8
Screw
 62
     7
370
     9
100
AcDbLine
 10
-0.040994238129656
 20
-1.434210624998172
 30
0.0
 11
-0.0229311243459733
 21
-1.444639368603475
 31
0.0
  0
LINE
  5
1C3
330
1AE
100
AcDbEntity
  8
Screw
 62
     7
370
     9
100
AcDbLine
 10
-0.0299032260242029
 20
-1.427807226173513
 30
0.0
 11
-0.0490410471686573
 21
-1.38160443881236
 31
0.0
  0
LINE
  5
1C4
330
1AE
100
AcDbEntity
  8
Screw
 62
     7
370
     9
100
AcDbLine
 10
0.029903226022725
 20
-1.427807226173513
 30
0.0
 11
0.0369515003608285
 21
-1.410791186675169
 31
0.0
  0
LINE
  5
1C5
330
1AE
100
AcDbEntity
  8
Screw
 62
     7
370
     9
100
AcDbLine
 10
0.0578546239828484
 20
-1.360326582130937
 30
0.0
 11
0.0632241464040817
 21
-1.347363408278397
 31
0.0
  0
LINE
  5
1C6
330
1AE
100
AcDbEntity
  8
Screw
 62
     7
370
     9
100
AcDbLine
 10
0.0550146141445112
 20
-1.400362443069752
 30
0.0
 11
0.0369515003608285
 21
-1.410791186675169
 31
0.0
  0
LINE
  5
1C7
330
1AE
100
AcDbEntity
  8
Screw
 62
     7
370
     9
100
AcDbLine
 10
0.0550146141445112
 20
-1.400362443069752
 30
0.0
 11
0.0439236020391718
 21
-1.393959044245207
 31
0.0
  0
LINE
  5
1C8
330
1AE
100
AcDbEntity
  8
Screw
 62
     7
370
     9
100
AcDbLine
 10
0.0824999999986176
 20
-1.336234489016646
 30
0.0
 11
0.063224146403968
 21
-1.347363408278283
 31
0.0
  0
LINE
  5
1C9
330
1AE
100
AcDbEntity
  8
Screw
 62
     7
370
     9
100
AcDbLine
 10
0.0824999999986176
 20
-1.336234489016646
 30
0.0
 11
0.0684796239821708
 21
-1.32813982114942
 31
0.0
  0
LINE
  5
1CA
330
1AE
100
AcDbEntity
  8
Screw
 62
     7
370
     9
100
AcDbLine
 10
-0.0000000000006821
 20
-1.499999999998181
 30
0.0
 11
0.0229311243443817
 21
-1.444639368603475
 31
0.0
  0
LINE
  5
1CB
330
1AE
100
AcDbEntity
  8
Screw
 62
     7
370
     9
100
AcDbLine
 10
0.0599999999988086
 20
-1.151856745073359
 30
0.0
 11
0.0599999999988086
 21
-1.191665357960005
 31
0.0
  0
LINE
  5
1CC
330
1AE
100
AcDbEntity
  8
Screw
 62
     7
370
     9
100
AcDbLine
 10
0.0824999999987313
 20
-1.138866364016735
 30
0.0
 11
0.0599999999988086
 21
-1.151856745073359
 31
0.0
  0
LINE
  5
1CD
330
1AE
100
AcDbEntity
  8
Screw
 62
     7
370
     9
100
AcDbLine
 10
0.0599999999988086
 20
-1.217646120073482
 30
0.0
 11
0.0599999999988086
 21
-1.257454732959899
 31
0.0
  0
LINE
  5
1CE
330
1AE
100
AcDbEntity
  8
Screw
 62
     7
370
     9
100
AcDbLine
 10
0.0824999999987313
 20
-1.270445114016752
 30
0.0
 11
0.0599999999988086
 21
-1.28343549507349
 31
0.0
  0
LINE
  5
1CF
330
1AE
100
AcDbEntity
  8
Screw
 62
     7
370
     9
100
AcDbLine
 10
0.0824999999987313
 20
-1.270445114016752
 30
0.0
 11
0.0599999999986949
 21
-1.257454732959899
 31
0.0
  0
LINE
  5
1D0
330
1AE
100
AcDbEntity
  8
Screw
 62
     7
370
     9
100
AcDbLine
 10
0.0824999999987313
 20
-1.204655739016629
 30
0.0
 11
0.0599999999988086
 21
-1.217646120073482
 31
0.0
  0
LINE
  5
1D1
330
1AE
100
AcDbEntity
  8
Screw
 62
     7
370
     9
100
AcDbLine
 10
0.0824999999987313
 20
-1.204655739016629
 30
0.0
 11
0.0599999999988086
 21
-1.191665357960005
 31
0.0
  0
LINE
  5
1D2
330
1AE
100
AcDbEntity
  8
Screw
 62
     7
370
     9
100
AcDbLine
 10
0.0824999999987313
 20
-1.138866364016735
 30
0.0
 11
-0.0825000000013461
 21
-1.167621984877541
 31
0.0
  0
LINE
  5
1D3
330
1AE
100
AcDbEntity
  8
Screw
 62
     7
370
     9
100
AcDbLine
 10
0.0824999999987313
 20
-1.270445114016752
 30
0.0
 11
-0.0825000000013461
 21
-1.299200734877558
 31
0.0
  0
LINE
  5
1D4
330
1AE
100
AcDbEntity
  8
Screw
 62
     7
370
     9
100
AcDbLine
 10
0.0824999999987313
 20
-1.204655739016629
 30
0.0
 11
-0.0825000000013461
 21
-1.23341135987755
 31
0.0
  0
LINE
  5
1D5
330
1AE
100
AcDbEntity
  8
Screw
 62
     7
370
     9
100
AcDbLine
 10
0.0824999999987313
 20
-1.138866364016735
 30
0.0
 11
0.0599999999988086
 21
-1.125875982959996
 31
0.0
  0
LINE
  5
1D6
330
1AE
100
AcDbEntity
  8
Screw
 62
     7
370
     9
100
AcDbLine
 10
0.0824999999987313
 20
-1.33623448901676
 30
0.0
 11
0.0599999999986949
 21
-1.323244107959908
 31
0.0
  0
LINE
  5
1D7
330
1AE
100
AcDbEntity
  8
Screw
 62
     7
370
     9
100
AcDbLine
 10
0.0599999999988086
 20
-1.28343549507349
 30
0.0
 11
0.0599999999988086
 21
-1.323244107959908
 31
0.0
  0
LINE
  5
1D8
330
1AE
100
AcDbEntity
  8
Screw
 62
     7
370
     9
100
AcDbLine
 10
-0.0825000000012324
 20
-1.233411359877436
 30
0.0
 11
-0.0600000000013097
 21
-1.220420978820811
 31
0.0
  0
LINE
  5
1D9
330
1AE
100
AcDbEntity
  8
Screw
 62
     7
370
     9
100
AcDbLine
 10
-0.0825000000012324
 20
-1.233411359877663
 30
0.0
 11
-0.0600000000013097
 21
-1.246401740934288
 31
0.0
  0
LINE
  5
1DA
330
1AE
100
AcDbEntity
  8
Screw
 62
     7
370
     9
100
AcDbLine
 10
-0.0825000000012324
 20
-1.299200734877558
 30
0.0
 11
-0.0600000000013097
 21
-1.286210353820706
 31
0.0
  0
LINE
  5
1DB
330
1AE
100
AcDbEntity
  8
Screw
 62
     7
370
     9
100
AcDbLine
 10
-0.0825000000012324
 20
-1.299200734877558
 30
0.0
 11
-0.0600000000013097
 21
-1.312191115934297
 31
0.0
  0
LINE
  5
1DC
330
1AE
100
AcDbEntity
  8
Screw
 62
     7
370
     9
100
AcDbLine
 10
-0.0825000000012324
 20
-1.167621984877541
 30
0.0
 11
-0.0600000000013097
 21
-1.180612365934393
 31
0.0
  0
LINE
  5
1DD
330
1AE
100
AcDbEntity
  8
Screw
 62
     7
370
     9
100
AcDbLine
 10
-0.0825000000012324
 20
-1.167621984877541
 30
0.0
 11
-0.0600000000013097
 21
-1.154631603820803
 31
0.0
  0
LINE
  5
1DE
330
1AE
100
AcDbEntity
  8
Screw
 62
     7
370
     9
100
AcDbLine
 10
-0.0600000000013097
 20
-1.312191115934297
 30
0.0
 11
-0.0600000000013097
 21
-1.361565215551991
 31
0.0
  0
LINE
  5
1DF
330
1AE
100
AcDbEntity
  8
Screw
 62
     7
370
     9
100
AcDbLine
 10
-0.0600000000013097
 20
-1.246401740934174
 30
0.0
 11
-0.0600000000013097
 21
-1.286210353820592
 31
0.0
  0
LINE
  5
1E0
330
1AE
100
AcDbEntity
  8
Screw
 62
     7
370
     9
100
AcDbLine
 10
-0.0600000000013097
 20
-1.180612365934052
 30
0.0
 11
-0.0600000000013097
 21
-1.220420978820698
 31
0.0
  0
LINE
  5
1E1
330
1AE
100
AcDbEntity
  8
Screw
 62
     7
370
     9
100
AcDbLine
 10
0.0824999999987313
 20
-1.007287614016718
 30
0.0
 11
0.0599999999988086
 21
-0.9942972329599797
 31
0.0
  0
LINE
  5
1E2
330
1AE
100
AcDbEntity
  8
Screw
 62
     7
370
     9
100
AcDbLine
 10
0.0824999999987313
 20
-1.073076989016612
 30
0.0
 11
-0.0825000000013461
 21
-1.101832609877533
 31
0.0
  0
LINE
  5
1E3
330
1AE
100
AcDbEntity
  8
Screw
 62
     7
370
     9
100
AcDbLine
 10
0.0824999999987313
 20
-1.007287614016718
 30
0.0
 11
-0.0825000000013461
 21
-1.036043234877524
 31
0.0
  0
LINE
  5
1E4
330
1AE
100
AcDbEntity
  8
Screw
 62
     7
370
     9
100
AcDbLine
 10
0.0824999999987313
 20
-1.073076989016612
 30
0.0
 11
0.0599999999988086
 21
-1.060086607959988
 31
0.0
  0
LINE
  5
1E5
330
1AE
100
AcDbEntity
  8
Screw
 62
     7
370
     9
100
AcDbLine
 10
0.0824999999987313
 20
-1.073076989016612
 30
0.0
 11
0.0599999999988086
 21
-1.086067370073465
 31
0.0
  0
LINE
  5
1E6
330
1AE
100
AcDbEntity
  8
Screw
 62
     7
370
     9
100
AcDbLine
 10
0.0599999999988086
 20
-1.086067370073465
 30
0.0
 11
0.0599999999988086
 21
-1.125875982959883
 31
0.0
  0
LINE
  5
1E7
330
1AE
100
AcDbEntity
  8
Screw
 62
     7
370
     9
100
AcDbLine
 10
0.0824999999987313
 20
-1.007287614016718
 30
0.0
 11
0.0599999999988086
 21
-1.020277995073342
 31
0.0
  0
LINE
  5
1E8
330
1AE
100
AcDbEntity
  8
Screw
 62
     7
370
     9
100
AcDbLine
 10
0.0599999999988086
 20
-1.020277995073342
 30
0.0
 11
0.0599999999988086
 21
-1.060086607959988
 31
0.0
  0
LINE
  5
1E9
330
1AE
100
AcDbEntity
  8
Screw
 62
     7
370
     9
100
AcDbLine
 10
-0.0600000000013097
 20
-1.049033615934035
 30
0.0
 11
-0.0600000000013097
 21
-1.088842228820681
 31
0.0
  0
LINE
  5
1EA
330
1AE
100
AcDbEntity
  8
Screw
 62
     7
370
     9
100
AcDbLine
 10
-0.0600000000013097
 20
-1.114822990934158
 30
0.0
 11
-0.0600000000013097
 21
-1.154631603820575
 31
0.0
  0
LINE
  5
1EB
330
1AE
100
AcDbEntity
  8
Screw
 62
     7
370
     9
100
AcDbLine
 10
-0.0825000000012324
 20
-1.036043234877524
 30
0.0
 11
-0.0600000000013097
 21
-1.023052853820786
 31
0.0
  0
LINE
  5
1EC
330
1AE
100
AcDbEntity
  8
Screw
 62
     7
370
     9
100
AcDbLine
 10
-0.0825000000012324
 20
-1.036043234877524
 30
0.0
 11
-0.0600000000013097
 21
-1.049033615934376
 31
0.0
  0
LINE
  5
1ED
330
1AE
100
AcDbEntity
  8
Screw
 62
     7
370
     9
100
AcDbLine
 10
-0.0825000000012324
 20
-1.101832609877646
 30
0.0
 11
-0.0600000000013097
 21
-1.114822990934271
 31
0.0
  0
LINE
  5
1EE
330
1AE
100
AcDbEntity
  8
Screw
 62
     7
370
     9
100
AcDbLine
 10
-0.0825000000012324
 20
-1.101832609877419
 30
0.0
 11
-0.0600000000013097
 21
-1.088842228820794
 31
0.0
  0
LINE
  5
1EF
330
1AE
100
AcDbEntity
  8
Screw
 62
     7
370
     9
100
AcDbLine
 10
0.0599999999988086
 20
-0.9544886200734481
 30
0.0
 11
0.0599999999988086
 21
-0.994297232959866
 31
0.0
  0
LINE
  5
1F0
330
1AE
100
AcDbEntity
  8
Screw
 62
     7
370
     9
100
AcDbLine
 10
-0.0600000000013097
 20
-0.983244240934141
 30
0.0
 11
-0.0600000000013097
 21
-1.023052853820558
 31
0.0
  0
LINE
  5
1F1
330
1AE
100
AcDbEntity
  8
Screw
 62
     7
370
     9
100
AcDbLine
 10
-0.0825000000012324
 20
-0.8386751098773856
 30
0.0
 11
-0.0600000000013097
 21
-0.8256847288207609
 31
0.0
  0
LINE
  5
1F2
330
1AE
100
AcDbEntity
  8
Screw
 62
     7
370
     9
100
AcDbLine
 10
-0.0825000000012324
 20
-0.838675109877613
 30
0.0
 11
-0.0600000000013097
 21
-0.8516654909342378
 31
0.0
  0
LINE
  5
1F3
330
1AE
100
AcDbEntity
  8
Screw
 62
     7
370
     9
100
AcDbLine
 10
-0.0825000000012324
 20
-0.7728857348774909
 30
0.0
 11
-0.0600000000013097
 21
-0.7858761159343431
 31
0.0
  0
LINE
  5
1F4
330
1AE
100
AcDbEntity
  8
Screw
 62
     7
370
     9
100
AcDbLine
 10
-0.0825000000012324
 20
-0.7728857348774909
 30
0.0
 11
-0.0600000000013097
 21
-0.7598953538207525
 31
0.0
  0
LINE
  5
1F5
330
1AE
100
AcDbEntity
  8
Screw
 62
     7
370
     9
100
AcDbLine
 10
-0.0600000000013097
 20
-0.8516654909341241
 30
0.0
 11
-0.0600000000013097
 21
-0.891474103820542
 31
0.0
  0
LINE
  5
1F6
330
1AE
100
AcDbEntity
  8
Screw
 62
     7
370
     9
100
AcDbLine
 10
-0.0600000000013097
 20
-0.785876115934002
 30
0.0
 11
-0.0600000000013097
 21
-0.8256847288206472
 31
0.0
  0
LINE
  5
1F7
330
1AE
100
AcDbEntity
  8
Screw
 62
     7
370
     9
100
AcDbLine
 10
0.0599999999988086
 20
-0.7571204950733091
 30
0.0
 11
0.0599999999988086
 21
-0.7969291079599543
 31
0.0
  0
LINE
  5
1F8
330
1AE
100
AcDbEntity
  8
Screw
 62
     7
370
     9
100
AcDbLine
 10
0.0824999999987313
 20
-0.7441301140166843
 30
0.0
 11
0.0599999999988086
 21
-0.7571204950733091
 31
0.0
  0
LINE
  5
1F9
330
1AE
100
AcDbEntity
  8
Screw
 62
     7
370
     9
100
AcDbLine
 10
0.0599999999988086
 20
-0.8229098700734311
 30
0.0
 11
0.0599999999988086
 21
-0.862718482959849
 31
0.0
  0
LINE
  5
1FA
330
1AE
100
AcDbEntity
  8
Screw
 62
     7
370
     9
100
AcDbLine
 10
0.0824999999987313
 20
-0.809919489016579
 30
0.0
 11
0.0599999999988086
 21
-0.8229098700734311
 31
0.0
  0
LINE
  5
1FB
330
1AE
100
AcDbEntity
  8
Screw
 62
     7
370
     9
100
AcDbLine
 10
0.0824999999987313
 20
-0.809919489016579
 30
0.0
 11
0.0599999999988086
 21
-0.7969291079599543
 31
0.0
  0
LINE
  5
1FC
330
1AE
100
AcDbEntity
  8
Screw
 62
     7
370
     9
100
AcDbLine
 10
0.0824999999987313
 20
-0.7441301140166843
 30
0.0
 11
-0.0825000000013461
 21
-0.7728857348774909
 31
0.0
  0
LINE
  5
1FD
330
1AE
100
AcDbEntity
  8
Screw
 62
     7
370
     9
100
AcDbLine
 10
0.0824999999987313
 20
-0.809919489016579
 30
0.0
 11
-0.0825000000013461
 21
-0.8386751098774993
 31
0.0
  0
LINE
  5
1FE
330
1AE
100
AcDbEntity
  8
Screw
 62
     7
370
     9
100
AcDbLine
 10
0.0824999999987313
 20
-0.7441301140166843
 30
0.0
 11
0.0599999999988086
 21
-0.7311397329599459
 31
0.0
  0
LINE
  5
1FF
330
1AE
100
AcDbEntity
  8
Screw
 62
     7
370
     9
100
AcDbLine
 10
-0.0600000000013097
 20
-0.9174548659340189
 30
0.0
 11
-0.0600000000013097
 21
-0.9572634788206642
 31
0.0
  0
LINE
  5
200
330
1AE
100
AcDbEntity
  8
Screw
 62
     7
370
     9
100
AcDbLine
 10
-0.0825000000012324
 20
-0.9044644848775078
 30
0.0
 11
-0.0600000000013097
 21
-0.8914741038207694
 31
0.0
  0
LINE
  5
201
330
1AE
100
AcDbEntity
  8
Screw
 62
     7
370
     9
100
AcDbLine
 10
-0.0825000000012324
 20
-0.9044644848775078
 30
0.0
 11
-0.0600000000013097
 21
-0.9174548659343599
 31
0.0
  0
LINE
  5
202
330
1AE
100
AcDbEntity
  8
Screw
 62
     7
370
     9
100
AcDbLine
 10
-0.0825000000012324
 20
-0.97025385987763
 30
0.0
 11
-0.0600000000013097
 21
-0.9832442409342547
 31
0.0
  0
LINE
  5
203
330
1AE
100
AcDbEntity
  8
Screw
 62
     7
370
     9
100
AcDbLine
 10
-0.0825000000012324
 20
-0.9702538598774026
 30
0.0
 11
-0.0600000000013097
 21
-0.9572634788207778
 31
0.0
  0
LINE
  5
204
330
1AE
100
AcDbEntity
  8
Screw
 62
     7
370
     9
100
AcDbLine
 10
0.0824999999987313
 20
-0.8757088640167012
 30
0.0
 11
0.0599999999988086
 21
-0.8627184829599627
 31
0.0
  0
LINE
  5
205
330
1AE
100
AcDbEntity
  8
Screw
 62
     7
370
     9
100
AcDbLine
 10
0.0824999999987313
 20
-0.941498239016596
 30
0.0
 11
-0.0825000000013461
 21
-0.9702538598775163
 31
0.0
  0
LINE
  5
206
330
1AE
100
AcDbEntity
  8
Screw
 62
     7
370
     9
100
AcDbLine
 10
0.0824999999987313
 20
-0.8757088640167012
 30
0.0
 11
-0.0825000000013461
 21
-0.9044644848775078
 31
0.0
  0
LINE
  5
207
330
1AE
100
AcDbEntity
  8
Screw
 62
     7
370
     9
100
AcDbLine
 10
0.0824999999987313
 20
-0.941498239016596
 30
0.0
 11
0.0599999999988086
 21
-0.9285078579599712
 31
0.0
  0
LINE
  5
208
330
1AE
100
AcDbEntity
  8
Screw
 62
     7
370
     9
100
AcDbLine
 10
0.0824999999987313
 20
-0.941498239016596
 30
0.0
 11
0.0599999999988086
 21
-0.9544886200734481
 31
0.0
  0
LINE
  5
209
330
1AE
100
AcDbEntity
  8
Screw
 62
     7
370
     9
100
AcDbLine
 10
0.0824999999987313
 20
-0.8757088640167012
 30
0.0
 11
0.0599999999988086
 21
-0.8886992450733259
 31
0.0
  0
LINE
  5
20A
330
1AE
100
AcDbEntity
  8
Screw
 62
     7
370
     9
100
AcDbLine
 10
0.0599999999988086
 20
-0.8886992450733259
 30
0.0
 11
0.0599999999988086
 21
-0.9285078579599712
 31
0.0
  0
LINE
  5
20B
330
1AE
100
AcDbEntity
  8
Screw
 62
     7
370
     9
100
AcDbLine
 10
-0.1550000000002001
 20
0.0000000000001137
 30
0.0
 11
-0.1550000000020191
 21
-0.015999999999849
 31
0.0
  0
LINE
  5
20C
330
1AE
100
AcDbEntity
  8
Screw
 62
     7
370
     9
100
AcDbLine
 10
0.1549999999986085
 20
0.0
 30
0.0
 11
0.1549999999986085
 21
-0.0159999999999627
 31
0.0
  0
LINE
  5
20D
330
1AE
100
AcDbEntity
  8
Screw
 62
     7
370
     9
100
AcDbLine
 10
0.1549999999987222
 20
-0.0160000000006448
 30
0.0
 11
-0.155000000001337
 21
-0.0159999999999627
 31
0.0
  0
LINE
  5
20E
330
1AE
100
AcDbEntity
  8
Screw
 62
     7
370
     9
100
AcDbLine
 10
0.1549999999987222
 20
0.0
 30
0.0
 11
-0.155000000001337
 21
0.0
 31
0.0
  0
LINE
  5
20F
330
1AE
100
AcDbEntity
  8
Screw
 62
     7
370
     9
100
AcDbLine
 10
0.0599999999989223
 20
-0.1430000000000291
 30
0.0
 11
-0.0600000000013097
 21
-0.1430000000000291
 31
0.0
  0
LINE
  5
210
330
1AE
100
AcDbEntity
  8
Screw
 62
     7
370
     9
100
AcDbLine
 10
0.1549999999986085
 20
-0.0160000000006448
 30
0.0
 11
0.0599999999988086
 21
-0.1430000000001428
 31
0.0
  0
LINE
  5
211
330
1AE
100
AcDbEntity
  8
Screw
 62
     7
370
     9
100
AcDbLine
 10
-0.1550000000020191
 20
-0.0159999999999627
 30
0.0
 11
-0.0600000000013097
 21
-0.1430000000001428
 31
0.0
  0
LINE
  5
212
330
1AE
100
AcDbEntity
  8
Screw
 62
     7
370
     9
100
AcDbLine
 10
0.0824999999987313
 20
-0.6783407390166758
 30
0.0
 11
0.0599999999988086
 21
-0.6653503579599374
 31
0.0
  0
LINE
  5
213
330
1AE
100
AcDbEntity
  8
Screw
 62
     7
370
     9
100
AcDbLine
 10
0.0824999999987313
 20
-0.6783407390166758
 30
0.0
 11
-0.0825000000013461
 21
-0.7070963598774825
 31
0.0
  0
LINE
  5
214
330
1AE
100
AcDbEntity
  8
Screw
 62
     7
370
     9
100
AcDbLine
 10
0.0824999999987313
 20
-0.6783407390166758
 30
0.0
 11
0.0599999999988086
 21
-0.6913311200733006
 31
0.0
  0
LINE
  5
215
330
1AE
100
AcDbEntity
  8
Screw
 62
     7
370
     9
100
AcDbLine
 10
0.0599999999988086
 20
-0.6913311200733006
 30
0.0
 11
0.0599999999988086
 21
-0.7311397329599459
 31
0.0
  0
LINE
  5
216
330
1AE
100
AcDbEntity
  8
Screw
 62
     7
370
     9
100
AcDbLine
 10
-0.0600000000013097
 20
-0.7200867409339935
 30
0.0
 11
-0.0600000000013097
 21
-0.7598953538206388
 31
0.0
  0
LINE
  5
217
330
1AE
100
AcDbEntity
  8
Screw
 62
     7
370
     9
100
AcDbLine
 10
-0.0825000000012324
 20
-0.7070963598774825
 30
0.0
 11
-0.0600000000013097
 21
-0.694105978820744
 31
0.0
  0
LINE
  5
218
330
1AE
100
AcDbEntity
  8
Screw
 62
     7
370
     9
100
AcDbLine
 10
-0.0825000000012324
 20
-0.7070963598774825
 30
0.0
 11
-0.0600000000013097
 21
-0.7200867409343346
 31
0.0
  0
LINE
  5
219
330
1AE
100
AcDbEntity
  8
Screw
  6
CENTER
 62
     7
370
     9
100
AcDbLine
 10
0.0
 20
0.0516137131638743
 30
0.0
 11
0.0
 21
-1.551211668604537
 31
0.0
  0
ENDBLK
  5
21A
330
1AE
100
AcDbEntity
  8
0
 62
     5
100
AcDbBlockEnd
  0
BLOCK
  5
21F
330
21E
100
AcDbEntity
  8
0
100
AcDbBlockBegin
  2
*D4
 70
     1
 10
0.0
 20
0.0
 30
0.0
  3
*D4
  1

  0
LINE
  5
220
330
21E
100
AcDbEntity
  8
0
 62
     0
370
    -2
100
AcDbLine
 10
39.18249622295692
 20
82.19044509676175
 30
0.0
 11
39.18249622295692
 21
83.40443564978595
 31
0.0
  0
LINE
  5
221
330
21E
100
AcDbEntity
  8
0
 62
     0
370
    -2
100
AcDbLine
 10
32.68226636990069
 20
82.95644509676169
 30
0.0
 11
32.68226636990069
 21
83.40443564978595
 31
0.0
  0
LINE
  5
222
330
21E
100
AcDbEntity
  8
0
 62
     0
370
    -2
100
AcDbLine
 10
39.18249622295692
 20
83.37443564978595
 30
0.0
 11
36.44364060543565
 21
83.37443564978595
 31
0.0
  0
LINE
  5
223
330
21E
100
AcDbEntity
  8
0
 62
     0
370
    -2
100
AcDbLine
 10
32.68226636990069
 20
83.37443564978595
 30
0.0
 11
35.42112198742195
 21
83.37443564978595
 31
0.0
  0
INSERT
  5
224
330
21E
100
AcDbEntity
  8
0
 62
     0
370
    -2
100
AcDbBlockReference
  2
_ArchTick
 10
39.18249622295692
 20
83.37443564978595
 30
0.0
 41
0.156
 42
0.156
 43
0.156
  0
INSERT
  5
225
330
21E
100
AcDbEntity
  8
0
 62
     0
370
    -2
100
AcDbBlockReference
  2
_ArchTick
 10
32.68226636990069
 20
83.37443564978595
 30
0.0
 41
0.156
 42
0.156
 43
0.156
 50
180.0
  0
MTEXT
  5
226
330
21E
100
AcDbEntity
  8
0
 62
     0
100
AcDbMText
 10
35.9323812964288
 20
83.57678013532732
 30
0.0
 40
0.3125
 41
0.0
 71
     5
 72
     1
  1
\A1;6 1/2"
 73
     1
 44
1.0
1001
ACAD
1000
MTEXTBEGIN
1070
    73
1070
     1
1070
    44
1040
1.0
1070
    74
1070
     0
1000
MTEXTEND
  0
MTEXT
  5
227
330
21E
100
AcDbEntity
  8
0
 62
     0
100
AcDbMText
 10
35.9323812964288
 20
83.15454324897896
 30
0.0
 40
0.3125
 41
0.0
 71
     5
 72
     1
  1
\A1;[165mm]
 73
     1
 44
1.0
1001
ACAD
1000
MTEXTBEGIN
1070
    73
1070
     1
1070
    44
1040
1.0
1070
    74
1070
     0
1000
MTEXTEND
  0
POINT
  5
228
330
21E
100
AcDbEntity
  8
Defpoints
 62
     0
100
AcDbPoint
 10
39.18249622295692
 20
82.15044509676173
 30
0.0
  0
POINT
  5
22A
330
21E
100
AcDbEntity
  8
Defpoints
 62
     0
100
AcDbPoint
 10
32.68226636990069
 20
82.91644509676167
 30
0.0
  0
POINT
  5
22B
330
21E
100
AcDbEntity
  8
Defpoints
 62
     0
100
AcDbPoint
 10
32.68226636990069
 20
83.37443564978595
 30
0.0
  0
ENDBLK
  5
22C
330
21E
100
AcDbEntity
  8
0
100
AcDbBlockEnd
  0
BLOCK
  5
231
330
230
100
AcDbEntity
  8
0
100
AcDbBlockBegin
  2
*D5
 70
     1
 10
0.0
 20
0.0
 30
0.0
  3
*D5
  1

  0
LINE
  5
232
330
230
100
AcDbEntity
  8
0
 62
     0
370
    -2
100
AcDbLine
 10
38.04899622295696
 20
81.46243956425641
 30
0.0
 11
37.79983490560716
 21
81.46243956425641
 31
0.0
  0
LINE
  5
233
330
230
100
AcDbEntity
  8
0
 62
     0
370
    -2
100
AcDbLine
 10
38.04899622295696
 20
82.15044509676173
 30
0.0
 11
37.79983490560716
 21
82.15044509676173
 31
0.0
  0
LINE
  5
234
330
230
100
AcDbEntity
  8
0
 62
     0
370
    -2
100
AcDbLine
 10
37.82983490560716
 20
81.46243956425641
 30
0.0
 11
37.82983490560716
 21
82.15044509676173
 31
0.0
  0
LINE
  5
235
330
230
100
AcDbEntity
  8
0
 62
     0
370
    -2
100
AcDbLine
 10
37.82983490560716
 20
82.15044509676173
 30
0.0
 11
37.82983490560716
 21
82.68063609375168
 31
0.0
  0
LINE
  5
236
330
230
100
AcDbEntity
  8
0
 62
     0
370
    -2
100
AcDbLine
 10
37.82983490560716
 20
82.68063609375168
 30
0.0
 11
37.98583490560716
 21
82.68063609375168
 31
0.0
  0
INSERT
  5
237
330
230
100
AcDbEntity
  8
0
 62
     0
370
    -2
100
AcDbBlockReference
  2
_ArchTick
 10
37.82983490560716
 20
81.46243956425641
 30
0.0
 41
0.156
 42
0.156
 43
0.156
 50
270.0
  0
INSERT
  5
238
330
230
100
AcDbEntity
  8
0
 62
     0
370
    -2
100
AcDbBlockReference
  2
_ArchTick
 10
37.82983490560716
 20
82.15044509676173
 30
0.0
 41
0.156
 42
0.156
 43
0.156
 50
90.0
  0
MTEXT
  5
239
330
230
100
AcDbEntity
  8
0
 62
     0
100
AcDbMText
 10
38.51636035875544
 20
82.6806360937517
 30
0.0
 40
0.3125
 41
0.0
 71
     5
 72
     1
  1
\A1;11/16"\P [17mm]
 73
     1
 44
1.0
1001
ACAD
1000
MTEXTBEGIN
1070
    73
1070
     1
1070
    44
1040
1.0
1070
    74
1070
     0
1000
MTEXTEND
  0
POINT
  5
23A
330
230
100
AcDbEntity
  8
Defpoints
 62
     0
100
AcDbPoint
 10
38.08899622295697
 20
81.46243956425641
 30
0.0
  0
POINT
  5
23B
330
230
100
AcDbEntity
  8
Defpoints
 62
     0
100
AcDbPoint
 10
38.08899622295697
 20
82.15044509676173
 30
0.0
  0
POINT
  5
23C
330
230
100
AcDbEntity
  8
Defpoints
 62
     0
100
AcDbPoint
 10
37.82983490560716
 20
82.15044509676173
 30
0.0
  0
ENDBLK
  5
23D
330
230
100
AcDbEntity
  8
0
100
AcDbBlockEnd
  0
BLOCK
  5
242
330
241
100
AcDbEntity
  8
0
100
AcDbBlockBegin
  2
*D6
 70
     1
 10
0.0
 20
0.0
 30
0.0
  3
*D6
  1

  0
LINE
  5
243
330
241
100
AcDbEntity
  8
0
 62
     0
370
    -2
100
AcDbLine
 10
35.81543895002493
 20
82.15044509676173
 30
0.0
 11
35.97798842581166
 21
82.15044509676173
 31
0.0
  0
LINE
  5
244
330
241
100
AcDbEntity
  8
0
 62
     0
370
    -2
100
AcDbLine
 10
35.81543583326248
 20
80.96243723260394
 30
0.0
 11
35.97798842581166
 21
80.96243723260394
 31
0.0
  0
LINE
  5
245
330
241
100
AcDbEntity
  8
0
 62
     0
370
    -2
100
AcDbLine
 10
35.94798842581166
 20
82.15044509676173
 30
0.0
 11
35.94798842581166
 21
81.9786780510312
 31
0.0
  0
LINE
  5
246
330
241
100
AcDbEntity
  8
0
 62
     0
370
    -2
100
AcDbLine
 10
35.94798842581166
 20
80.96243723260394
 30
0.0
 11
35.94798842581166
 21
81.1342042783345
 31
0.0
  0
INSERT
  5
247
330
241
100
AcDbEntity
  8
0
 62
     0
370
    -2
100
AcDbBlockReference
  2
_ArchTick
 10
35.94798842581166
 20
82.15044509676173
 30
0.0
 41
0.156
 42
0.156
 43
0.156
 50
90.0
  0
INSERT
  5
248
330
241
100
AcDbEntity
  8
0
 62
     0
370
    -2
100
AcDbBlockReference
  2
_ArchTick
 10
35.94798842581166
 20
80.96243723260394
 30
0.0
 41
0.156
 42
0.156
 43
0.156
 50
270.0
  0
MTEXT
  5
249
330
241
100
AcDbEntity
  8
0
 62
     0
100
AcDbMText
 10
35.94798842581165
 20
81.75878565022422
 30
0.0
 40
0.3125
 41
0.0
 71
     5
 72
     1
  1
\A1;1 3/16"
 73
     1
 44
1.0
1001
ACAD
1000
MTEXTBEGIN
1070
    73
1070
     1
1070
    44
1040
1.0
1070
    74
1070
     0
1000
MTEXTEND
  0
MTEXT
  5
24A
330
241
100
AcDbEntity
  8
0
 62
     0
100
AcDbMText
 10
35.94798842581165
 20
81.33654876387586
 30
0.0
 40
0.3125
 41
0.0
 71
     5
 72
     1
  1
\A1;[30mm]
 73
     1
 44
1.0
1001
ACAD
1000
MTEXTBEGIN
1070
    73
1070
     1
1070
    44
1040
1.0
1070
    74
1070
     0
1000
MTEXTEND
  0
POINT
  5
24B
330
241
100
AcDbEntity
  8
Defpoints
 62
     0
100
AcDbPoint
 10
35.77543895002494
 20
82.15044509676173
 30
0.0
  0
POINT
  5
24C
330
241
100
AcDbEntity
  8
Defpoints
 62
     0
100
AcDbPoint
 10
35.77543583326248
 20
80.96243723260394
 30
0.0
  0
POINT
  5
24D
330
241
100
AcDbEntity
  8
Defpoints
 62
     0
100
AcDbPoint
 10
35.94798842581166
 20
80.96243723260394
 30
0.0
  0
ENDBLK
  5
24E
330
241
100
AcDbEntity
  8
0
100
AcDbBlockEnd
  0
BLOCK
  5
253
330
252
100
AcDbEntity
  8
0
100
AcDbBlockBegin
  2
*D7
 70
     1
 10
0.0
 20
0.0
 30
0.0
  3
*D7
  1

  0
LINE
  5
254
330
252
100
AcDbEntity
  8
0
 62
     0
370
    -2
100
AcDbLine
 10
39.16049622295697
 20
81.33743956425639
 30
0.0
 11
40.24017742955712
 21
81.33743956425639
 31
0.0
  0
LINE
  5
255
330
252
100
AcDbEntity
  8
0
 62
     0
370
    -2
100
AcDbLine
 10
38.9424572758387
 20
76.74543956425639
 30
0.0
 11
40.24017742955712
 21
76.74543956425639
 31
0.0
  0
LINE
  5
256
330
252
100
AcDbEntity
  8
0
 62
     0
370
    -2
100
AcDbLine
 10
40.21017742955712
 20
81.33743956425639
 30
0.0
 11
40.21017742955712
 21
79.46367645060475
 31
0.0
  0
LINE
  5
257
330
252
100
AcDbEntity
  8
0
 62
     0
370
    -2
100
AcDbLine
 10
40.21017742955712
 20
76.74543956425639
 30
0.0
 11
40.21017742955712
 21
78.61920267790804
 31
0.0
  0
INSERT
  5
258
330
252
100
AcDbEntity
  8
0
 62
     0
370
    -2
100
AcDbBlockReference
  2
_ArchTick
 10
40.21017742955712
 20
81.33743956425639
 30
0.0
 41
0.156
 42
0.156
 43
0.156
 50
90.0
  0
INSERT
  5
259
330
252
100
AcDbEntity
  8
0
 62
     0
370
    -2
100
AcDbBlockReference
  2
_ArchTick
 10
40.21017742955712
 20
76.74543956425639
 30
0.0
 41
0.156
 42
0.156
 43
0.156
 50
270.0
  0
MTEXT
  5
25A
330
252
100
AcDbEntity
  8
0
 62
     0
100
AcDbMText
 10
40.21017742955711
 20
79.24378404979776
 30
0.0
 40
0.3125
 41
0.0
 71
     5
 72
     1
  1
\A1;4 19/32"
 73
     1
 44
1.0
1001
ACAD
1000
MTEXTBEGIN
1070
    73
1070
     1
1070
    44
1040
1.0
1070
    74
1070
     0
1000
MTEXTEND
  0
MTEXT
  5
25B
330
252
100
AcDbEntity
  8
0
 62
     0
100
AcDbMText
 10
40.21017742955711
 20
78.82154716344941
 30
0.0
 40
0.3125
 41
0.0
 71
     5
 72
     1
  1
\A1;[117mm]
 73
     1
 44
1.0
1001
ACAD
1000
MTEXTBEGIN
1070
    73
1070
     1
1070
    44
1040
1.0
1070
    74
1070
     0
1000
MTEXTEND
  0
POINT
  5
25C
330
252
100
AcDbEntity
  8
Defpoints
 62
     0
100
AcDbPoint
 10
39.12049622295697
 20
81.33743956425639
 30
0.0
  0
POINT
  5
25D
330
252
100
AcDbEntity
  8
Defpoints
 62
     0
100
AcDbPoint
 10
38.9024572758387
 20
76.74543956425639
 30
0.0
  0
POINT
  5
25E
330
252
100
AcDbEntity
  8
Defpoints
 62
     0
100
AcDbPoint
 10
40.21017742955712
 20
76.74543956425639
 30
0.0
  0
ENDBLK
  5
25F
330
252
100
AcDbEntity
  8
0
100
AcDbBlockEnd
  0
BLOCK
  5
262
330
261
100
AcDbEntity
  8
0
100
AcDbBlockBegin
  2
*D8
 70
     1
 10
0.0
 20
0.0
 30
0.0
  3
*D8
  1

  0
LINE
  5
263
330
261
100
AcDbEntity
  8
0
 62
     0
370
    -2
100
AcDbLine
 10
37.43249622295691
 20
80.26085844403995
 30
0.0
 11
37.43249622295691
 21
79.95491133545247
 31
0.0
  0
LINE
  5
264
330
261
100
AcDbEntity
  8
0
 62
     0
370
    -2
100
AcDbLine
 10
39.18249622295692
 20
80.26085844403995
 30
0.0
 11
39.18249622295692
 21
79.95491133545247
 31
0.0
  0
LINE
  5
265
330
261
100
AcDbEntity
  8
0
 62
     0
370
    -2
100
AcDbLine
 10
37.43249622295691
 20
79.98491133545247
 30
0.0
 11
37.86455796493895
 21
79.98491133545247
 31
0.0
  0
LINE
  5
266
330
261
100
AcDbEntity
  8
0
 62
     0
370
    -2
100
AcDbLine
 10
39.18249622295692
 20
79.98491133545247
 30
0.0
 11
38.75043448097488
 21
79.98491133545247
 31
0.0
  0
INSERT
  5
267
330
261
100
AcDbEntity
  8
0
 62
     0
370
    -2
100
AcDbBlockReference
  2
_ArchTick
 10
37.43249622295691
 20
79.98491133545247
 30
0.0
 41
0.156
 42
0.156
 43
0.156
 50
180.0
  0
INSERT
  5
268
330
261
100
AcDbEntity
  8
0
 62
     0
370
    -2
100
AcDbBlockReference
  2
_ArchTick
 10
39.18249622295692
 20
79.98491133545247
 30
0.0
 41
0.156
 42
0.156
 43
0.156
  0
MTEXT
  5
269
330
261
100
AcDbEntity
  8
0
 62
     0
100
AcDbMText
 10
38.30749622295691
 20
80.18725582099383
 30
0.0
 40
0.3125
 41
0.0
 71
     5
 72
     1
  1
\A1;1 3/4"
 73
     1
 44
1.0
1001
ACAD
1000
MTEXTBEGIN
1070
    73
1070
     1
1070
    44
1040
1.0
1070
    74
1070
     0
1000
MTEXTEND
  0
MTEXT
  5
26A
330
261
100
AcDbEntity
  8
0
 62
     0
100
AcDbMText
 10
38.30749622295691
 20
79.76501893464547
 30
0.0
 40
0.3125
 41
0.0
 71
     5
 72
     1
  1
\A1;[44mm]
 73
     1
 44
1.0
1001
ACAD
1000
MTEXTBEGIN
1070
    73
1070
     1
1070
    44
1040
1.0
1070
    74
1070
     0
1000
MTEXTEND
  0
POINT
  5
26B
330
261
100
AcDbEntity
  8
Defpoints
 62
     0
100
AcDbPoint
 10
37.43249622295691
 20
80.30085844403997
 30
0.0
  0
POINT
  5
26C
330
261
100
AcDbEntity
  8
Defpoints
 62
     0
100
AcDbPoint
 10
39.18249622295692
 20
80.30085844403997
 30
0.0
  0
POINT
  5
26D
330
261
100
AcDbEntity
  8
Defpoints
 62
     0
100
AcDbPoint
 10
39.18249622295692
 20
79.98491133545247
 30
0.0
  0
ENDBLK
  5
26E
330
261
100
AcDbEntity
  8
0
100
AcDbBlockEnd
  0
BLOCK
  5
273
330
272
100
AcDbEntity
  8
0
100
AcDbBlockBegin
  2
*D9
 70
     1
 10
0.0
 20
0.0
 30
0.0
  3
*D9
  1

  0
LINE
  5
274
330
272
100
AcDbEntity
  8
0
 62
     0
370
    -2
100
AcDbLine
 10
32.62026636990079
 20
80.07369084558428
 30
0.0
 11
32.62026636990079
 21
79.95491133545247
 31
0.0
  0
LINE
  5
275
330
272
100
AcDbEntity
  8
0
 62
     0
370
    -2
100
AcDbLine
 10
33.87026636990079
 20
80.07369084558428
 30
0.0
 11
33.87026636990079
 21
79.95491133545247
 31
0.0
  0
LINE
  5
276
330
272
100
AcDbEntity
  8
0
 62
     0
370
    -2
100
AcDbLine
 10
32.62026636990079
 20
79.98491133545247
 30
0.0
 11
32.80232811188283
 21
79.98491133545247
 31
0.0
  0
LINE
  5
277
330
272
100
AcDbEntity
  8
0
 62
     0
370
    -2
100
AcDbLine
 10
33.87026636990079
 20
79.98491133545247
 30
0.0
 11
33.68820462791875
 21
79.98491133545247
 31
0.0
  0
INSERT
  5
278
330
272
100
AcDbEntity
  8
0
 62
     0
370
    -2
100
AcDbBlockReference
  2
_ArchTick
 10
32.62026636990079
 20
79.98491133545247
 30
0.0
 41
0.156
 42
0.156
 43
0.156
 50
180.0
  0
INSERT
  5
279
330
272
100
AcDbEntity
  8
0
 62
     0
370
    -2
100
AcDbBlockReference
  2
_ArchTick
 10
33.87026636990079
 20
79.98491133545247
 30
0.0
 41
0.156
 42
0.156
 43
0.156
  0
MTEXT
  5
27A
330
272
100
AcDbEntity
  8
0
 62
     0
100
AcDbMText
 10
33.24526636990079
 20
80.18725582099383
 30
0.0
 40
0.3125
 41
0.0
 71
     5
 72
     1
  1
\A1;1 1/4"
 73
     1
 44
1.0
1001
ACAD
1000
MTEXTBEGIN
1070
    73
1070
     1
1070
    44
1040
1.0
1070
    74
1070
     0
1000
MTEXTEND
  0
MTEXT
  5
27B
330
272
100
AcDbEntity
  8
0
 62
     0
100
AcDbMText
 10
33.24526636990079
 20
79.76501893464547
 30
0.0
 40
0.3125
 41
0.0
 71
     5
 72
     1
  1
\A1;[32mm]
 73
     1
 44
1.0
1001
ACAD
1000
MTEXTBEGIN
1070
    73
1070
     1
1070
    44
1040
1.0
1070
    74
1070
     0
1000
MTEXTEND
  0
POINT
  5
27C
330
272
100
AcDbEntity
  8
Defpoints
 62
     0
100
AcDbPoint
 10
32.62026636990079
 20
80.11369084558429
 30
0.0
  0
POINT
  5
27D
330
272
100
AcDbEntity
  8
Defpoints
 62
     0
100
AcDbPoint
 10
33.87026636990079
 20
80.11369084558429
 30
0.0
  0
POINT
  5
27E
330
272
100
AcDbEntity
  8
Defpoints
 62
     0
100
AcDbPoint
 10
33.87026636990079
 20
79.98491133545247
 30
0.0
  0
ENDBLK
  5
27F
330
272
100
AcDbEntity
  8
0
100
AcDbBlockEnd
  0
BLOCK
  5
284
330
283
100
AcDbEntity
  8
0
100
AcDbBlockBegin
  2
*D10
 70
     1
 10
0.0
 20
0.0
 30
0.0
  3
*D10
  1

  0
LINE
  5
285
330
283
100
AcDbEntity
  8
0
 62
     0
370
    -2
100
AcDbLine
 10
31.24912393406024
 20
76.74419509676012
 30
0.0
 11
29.88501574443445
 21
76.74419509676012
 31
0.0
  0
LINE
  5
286
330
283
100
AcDbEntity
  8
0
 62
     0
370
    -2
100
AcDbLine
 10
32.64276636990079
 20
81.33844509676206
 30
0.0
 11
29.88501574443445
 21
81.33844509676208
 31
0.0
  0
LINE
  5
287
330
283
100
AcDbEntity
  8
0
 62
     0
370
    -2
100
AcDbLine
 10
29.91501574443446
 20
76.74419509676012
 30
0.0
 11
29.91501574443446
 21
78.61908321041274
 31
0.0
  0
LINE
  5
288
330
283
100
AcDbEntity
  8
0
 62
     0
370
    -2
100
AcDbLine
 10
29.91501574443446
 20
81.33844509676208
 30
0.0
 11
29.91501574443446
 21
79.46355698310945
 31
0.0
  0
INSERT
  5
289
330
283
100
AcDbEntity
  8
0
 62
     0
370
    -2
100
AcDbBlockReference
  2
_ArchTick
 10
29.91501574443446
 20
76.74419509676012
 30
0.0
 41
0.156
 42
0.156
 43
0.156
 50
270.0
  0
INSERT
  5
28A
330
283
100
AcDbEntity
  8
0
 62
     0
370
    -2
100
AcDbBlockReference
  2
_ArchTick
 10
29.91501574443446
 20
81.33844509676208
 30
0.0
 41
0.156
 42
0.156
 43
0.156
 50
90.0
  0
MTEXT
  5
28B
330
283
100
AcDbEntity
  8
0
 62
     0
100
AcDbMText
 10
29.91501574443444
 20
79.24366458230245
 30
0.0
 40
0.3125
 41
0.0
 71
     5
 72
     1
  1
\A1;4 19/32"
 73
     1
 44
1.0
1001
ACAD
1000
MTEXTBEGIN
1070
    73
1070
     1
1070
    44
1040
1.0
1070
    74
1070
     0
1000
MTEXTEND
  0
MTEXT
  5
28C
330
283
100
AcDbEntity
  8
0
 62
     0
100
AcDbMText
 10
29.91501574443444
 20
78.8214276959541
 30
0.0
 40
0.3125
 41
0.0
 71
     5
 72
     1
  1
\A1;[117mm]
 73
     1
 44
1.0
1001
ACAD
1000
MTEXTBEGIN
1070
    73
1070
     1
1070
    44
1040
1.0
1070
    74
1070
     0
1000
MTEXTEND
  0
POINT
  5
28D
330
283
100
AcDbEntity
  8
Defpoints
 62
     0
100
AcDbPoint
 10
31.28912393406024
 20
76.74419509676012
 30
0.0
  0
POINT
  5
28E
330
283
100
AcDbEntity
  8
Defpoints
 62
     0
100
AcDbPoint
 10
32.68276636990079
 20
81.33844509676206
 30
0.0
  0
POINT
  5
28F
330
283
100
AcDbEntity
  8
Defpoints
 62
     0
100
AcDbPoint
 10
29.91501574443446
 20
81.33844509676208
 30
0.0
  0
ENDBLK
  5
290
330
283
100
AcDbEntity
  8
0
100
AcDbBlockEnd
  0
BLOCK
  5
295
330
294
100
AcDbEntity
  8
0
100
AcDbBlockBegin
  2
*D11
 70
     1
 10
0.0
 20
0.0
 30
0.0
  3
*D11
  1

  0
LINE
  5
296
330
294
100
AcDbEntity
  8
0
 62
     0
370
    -2
100
AcDbLine
 10
31.24912393406024
 20
75.1200885001068
 30
0.0
 11
29.88501574443445
 21
75.1200885001068
 31
0.0
  0
LINE
  5
297
330
294
100
AcDbEntity
  8
0
 62
     0
370
    -2
100
AcDbLine
 10
31.24912393406024
 20
72.99491850657457
 30
0.0
 11
29.88501574443445
 21
72.99491850657457
 31
0.0
  0
LINE
  5
298
330
294
100
AcDbEntity
  8
0
 62
     0
370
    -2
100
AcDbLine
 10
29.91501574443446
 20
75.1200885001068
 30
0.0
 11
29.91501574443446
 21
74.47974038968904
 31
0.0
  0
LINE
  5
299
330
294
100
AcDbEntity
  8
0
 62
     0
370
    -2
100
AcDbLine
 10
29.91501574443446
 20
72.99491850657457
 30
0.0
 11
29.91501574443446
 21
73.63526661699232
 31
0.0
  0
INSERT
  5
29A
330
294
100
AcDbEntity
  8
0
 62
     0
370
    -2
100
AcDbBlockReference
  2
_ArchTick
 10
29.91501574443446
 20
75.1200885001068
 30
0.0
 41
0.156
 42
0.156
 43
0.156
 50
90.0
  0
INSERT
  5
29B
330
294
100
AcDbEntity
  8
0
 62
     0
370
    -2
100
AcDbBlockReference
  2
_ArchTick
 10
29.91501574443446
 20
72.99491850657457
 30
0.0
 41
0.156
 42
0.156
 43
0.156
 50
270.0
  0
MTEXT
  5
29C
330
294
100
AcDbEntity
  8
0
 62
     0
100
AcDbMText
 10
29.91501574443444
 20
74.25984798888205
 30
0.0
 40
0.3125
 41
0.0
 71
     5
 72
     1
  1
\A1;2 1/8"
 73
     1
 44
1.0
1001
ACAD
1000
MTEXTBEGIN
1070
    73
1070
     1
1070
    44
1040
1.0
1070
    74
1070
     0
1000
MTEXTEND
  0
MTEXT
  5
29D
330
294
100
AcDbEntity
  8
0
 62
     0
100
AcDbMText
 10
29.91501574443444
 20
73.83761110253368
 30
0.0
 40
0.3125
 41
0.0
 71
     5
 72
     1
  1
\A1;[54mm]
 73
     1
 44
1.0
1001
ACAD
1000
MTEXTBEGIN
1070
    73
1070
     1
1070
    44
1040
1.0
1070
    74
1070
     0
1000
MTEXTEND
  0
POINT
  5
29E
330
294
100
AcDbEntity
  8
Defpoints
 62
     0
100
AcDbPoint
 10
31.28912393406024
 20
75.1200885001068
 30
0.0
  0
POINT
  5
29F
330
294
100
AcDbEntity
  8
Defpoints
 62
     0
100
AcDbPoint
 10
31.28912393406024
 20
72.99491850657457
 30
0.0
  0
POINT
  5
2A0
330
294
100
AcDbEntity
  8
Defpoints
 62
     0
100
AcDbPoint
 10
29.91501574443446
 20
72.99491850657457
 30
0.0
  0
ENDBLK
  5
2A1
330
294
100
AcDbEntity
  8
0
100
AcDbBlockEnd
  0
BLOCK
  5
2A6
330
2A5
100
AcDbEntity
  8
0
100
AcDbBlockBegin
  2
*D12
 70
     1
 10
0.0
 20
0.0
 30
0.0
  3
*D12
  1

  0
LINE
  5
2A7
330
2A5
100
AcDbEntity
  8
0
 62
     0
370
    -2
100
AcDbLine
 10
31.24912393406024
 20
71.37081190992127
 30
0.0
 11
29.88501574443445
 21
71.37081190992127
 31
0.0
  0
LINE
  5
2A8
330
2A5
100
AcDbEntity
  8
0
 62
     0
370
    -2
100
AcDbLine
 10
32.64276636990079
 20
62.807067442425
 30
0.0
 11
29.88501574443445
 21
62.807067442425
 31
0.0
  0
LINE
  5
2A9
330
2A5
100
AcDbEntity
  8
0
 62
     0
370
    -2
100
AcDbLine
 10
29.91501574443445
 20
71.37081190992127
 30
0.0
 11
29.91501574443445
 21
67.5111765625215
 31
0.0
  0
LINE
  5
2AA
330
2A5
100
AcDbEntity
  8
0
 62
     0
370
    -2
100
AcDbLine
 10
29.91501574443445
 20
62.807067442425
 30
0.0
 11
29.91501574443445
 21
66.66670278982478
 31
0.0
  0
INSERT
  5
2AB
330
2A5
100
AcDbEntity
  8
0
 62
     0
370
    -2
100
AcDbBlockReference
  2
_ArchTick
 10
29.91501574443445
 20
71.37081190992127
 30
0.0
 41
0.156
 42
0.156
 43
0.156
 50
90.0
  0
INSERT
  5
2AC
330
2A5
100
AcDbEntity
  8
0
 62
     0
370
    -2
100
AcDbBlockReference
  2
_ArchTick
 10
29.91501574443445
 20
62.807067442425
 30
0.0
 41
0.156
 42
0.156
 43
0.156
 50
270.0
  0
MTEXT
  5
2AD
330
2A5
100
AcDbEntity
  8
0
 62
     0
100
AcDbMText
 10
29.91501574443444
 20
67.2912841617145
 30
0.0
 40
0.3125
 41
0.0
 71
     5
 72
     1
  1
\A1;8 9/16"
 73
     1
 44
1.0
1001
ACAD
1000
MTEXTBEGIN
1070
    73
1070
     1
1070
    44
1040
1.0
1070
    74
1070
     0
1000
MTEXTEND
  0
MTEXT
  5
2AE
330
2A5
100
AcDbEntity
  8
0
 62
     0
100
AcDbMText
 10
29.91501574443444
 20
66.86904727536614
 30
0.0
 40
0.3125
 41
0.0
 71
     5
 72
     1
  1
\A1;[218mm]
 73
     1
 44
1.0
1001
ACAD
1000
MTEXTBEGIN
1070
    73
1070
     1
1070
    44
1040
1.0
1070
    74
1070
     0
1000
MTEXTEND
  0
POINT
  5
2AF
330
2A5
100
AcDbEntity
  8
Defpoints
 62
     0
100
AcDbPoint
 10
31.28912393406024
 20
71.37081190992127
 30
0.0
  0
POINT
  5
2B0
330
2A5
100
AcDbEntity
  8
Defpoints
 62
     0
100
AcDbPoint
 10
32.68276636990079
 20
62.807067442425
 30
0.0
  0
POINT
  5
2B1
330
2A5
100
AcDbEntity
  8
Defpoints
 62
     0
100
AcDbPoint
 10
29.91501574443445
 20
62.807067442425
 30
0.0
  0
ENDBLK
  5
2B2
330
2A5
100
AcDbEntity
  8
0
100
AcDbBlockEnd
  0
BLOCK
  5
2B7
330
2B6
100
AcDbEntity
  8
0
100
AcDbBlockBegin
  2
*D13
 70
     1
 10
0.0
 20
0.0
 30
0.0
  3
*D13
  1

  0
LINE
  5
2B8
330
2B6
100
AcDbEntity
  8
0
 62
     0
370
    -2
100
AcDbLine
 10
32.64276636990079
 20
62.807067442425
 30
0.0
 11
29.88501574443445
 21
62.807067442425
 31
0.0
  0
LINE
  5
2B9
330
2B6
100
AcDbEntity
  8
0
 62
     0
370
    -2
100
AcDbLine
 10
31.29174622294844
 20
61.62997433618677
 30
0.0
 11
29.88501574443445
 21
61.62997433618677
 31
0.0
  0
LINE
  5
2BA
330
2B6
100
AcDbEntity
  8
0
 62
     0
370
    -2
100
AcDbLine
 10
29.91501574443445
 20
62.807067442425
 30
0.0
 11
29.91501574443445
 21
62.64075777565424
 31
0.0
  0
LINE
  5
2BB
330
2B6
100
AcDbEntity
  8
0
 62
     0
370
    -2
100
AcDbLine
 10
29.91501574443445
 20
61.62997433618677
 30
0.0
 11
29.91501574443445
 21
61.79628400295754
 31
0.0
  0
INSERT
  5
2BC
330
2B6
100
AcDbEntity
  8
0
 62
     0
370
    -2
100
AcDbBlockReference
  2
_ArchTick
 10
29.91501574443445
 20
62.807067442425
 30
0.0
 41
0.156
 42
0.156
 43
0.156
 50
90.0
  0
INSERT
  5
2BD
330
2B6
100
AcDbEntity
  8
0
 62
     0
370
    -2
100
AcDbBlockReference
  2
_ArchTick
 10
29.91501574443445
 20
61.62997433618677
 30
0.0
 41
0.156
 42
0.156
 43
0.156
 50
270.0
  0
MTEXT
  5
2BE
330
2B6
100
AcDbEntity
  8
0
 62
     0
100
AcDbMText
 10
29.91501574443444
 20
62.42086537484726
 30
0.0
 40
0.3125
 41
0.0
 71
     5
 72
     1
  1
\A1;1 3/16"
 73
     1
 44
1.0
1001
ACAD
1000
MTEXTBEGIN
1070
    73
1070
     1
1070
    44
1040
1.0
1070
    74
1070
     0
1000
MTEXTEND
  0
MTEXT
  5
2BF
330
2B6
100
AcDbEntity
  8
0
 62
     0
100
AcDbMText
 10
29.91501574443444
 20
61.99862848849891
 30
0.0
 40
0.3125
 41
0.0
 71
     5
 72
     1
  1
\A1;[30mm]
 73
     1
 44
1.0
1001
ACAD
1000
MTEXTBEGIN
1070
    73
1070
     1
1070
    44
1040
1.0
1070
    74
1070
     0
1000
MTEXTEND
  0
POINT
  5
2C0
330
2B6
100
AcDbEntity
  8
Defpoints
 62
     0
100
AcDbPoint
 10
32.68276636990079
 20
62.807067442425
 30
0.0
  0
POINT
  5
2C1
330
2B6
100
AcDbEntity
  8
Defpoints
 62
     0
100
AcDbPoint
 10
31.33174622294844
 20
61.62997433618677
 30
0.0
  0
POINT
  5
2C2
330
2B6
100
AcDbEntity
  8
Defpoints
 62
     0
100
AcDbPoint
 10
29.91501574443445
 20
61.62997433618677
 30
0.0
  0
ENDBLK
  5
2C3
330
2B6
100
AcDbEntity
  8
0
100
AcDbBlockEnd
  0
BLOCK
  5
2C8
330
2C7
100
AcDbEntity
  8
0
100
AcDbBlockBegin
  2
*D14
 70
     1
 10
0.0
 20
0.0
 30
0.0
  3
*D14
  1

  0
LINE
  5
2C9
330
2C7
100
AcDbEntity
  8
0
 62
     0
370
    -2
100
AcDbLine
 10
39.47249622295703
 20
61.61956744243152
 30
0.0
 11
40.24017742955712
 21
61.61956744243152
 31
0.0
  0
LINE
  5
2CA
330
2C7
100
AcDbEntity
  8
0
 62
     0
370
    -2
100
AcDbLine
 10
39.22252839370139
 20
63.99456744242501
 30
0.0
 11
40.24017742955712
 21
63.99456744242501
 31
0.0
  0
LINE
  5
2CB
330
2C7
100
AcDbEntity
  8
0
 62
     0
370
    -2
100
AcDbLine
 10
40.21017742955712
 20
61.61956744243152
 30
0.0
 11
40.21017742955712
 21
62.38483055607991
 31
0.0
  0
LINE
  5
2CC
330
2C7
100
AcDbEntity
  8
0
 62
     0
370
    -2
100
AcDbLine
 10
40.21017742955712
 20
63.99456744242501
 30
0.0
 11
40.21017742955712
 21
63.22930432877662
 31
0.0
  0
INSERT
  5
2CD
330
2C7
100
AcDbEntity
  8
0
 62
     0
370
    -2
100
AcDbBlockReference
  2
_ArchTick
 10
40.21017742955712
 20
61.61956744243152
 30
0.0
 41
0.156
 42
0.156
 43
0.156
 50
270.0
  0
INSERT
  5
2CE
330
2C7
100
AcDbEntity
  8
0
 62
     0
370
    -2
100
AcDbBlockReference
  2
_ArchTick
 10
40.21017742955712
 20
63.99456744242501
 30
0.0
 41
0.156
 42
0.156
 43
0.156
 50
90.0
  0
MTEXT
  5
2CF
330
2C7
100
AcDbEntity
  8
0
 62
     0
100
AcDbMText
 10
40.21017742955711
 20
63.00941192796963
 30
0.0
 40
0.3125
 41
0.0
 71
     5
 72
     1
  1
\A1;2 3/8"
 73
     1
 44
1.0
1001
ACAD
1000
MTEXTBEGIN
1070
    73
1070
     1
1070
    44
1040
1.0
1070
    74
1070
     0
1000
MTEXTEND
  0
MTEXT
  5
2D0
330
2C7
100
AcDbEntity
  8
0
 62
     0
100
AcDbMText
 10
40.21017742955711
 20
62.58717504162127
 30
0.0
 40
0.3125
 41
0.0
 71
     5
 72
     1
  1
\A1;[60mm]
 73
     1
 44
1.0
1001
ACAD
1000
MTEXTBEGIN
1070
    73
1070
     1
1070
    44
1040
1.0
1070
    74
1070
     0
1000
MTEXTEND
  0
POINT
  5
2D1
330
2C7
100
AcDbEntity
  8
Defpoints
 62
     0
100
AcDbPoint
 10
39.43249622295703
 20
61.61956744243152
 30
0.0
  0
POINT
  5
2D2
330
2C7
100
AcDbEntity
  8
Defpoints
 62
     0
100
AcDbPoint
 10
39.18252839370139
 20
63.99456744242501
 30
0.0
  0
POINT
  5
2D3
330
2C7
100
AcDbEntity
  8
Defpoints
 62
     0
100
AcDbPoint
 10
40.21017742955712
 20
63.99456744242501
 30
0.0
  0
ENDBLK
  5
2D4
330
2C7
100
AcDbEntity
  8
0
100
AcDbBlockEnd
  0
BLOCK
  5
2D9
330
2D8
100
AcDbEntity
  8
0
100
AcDbBlockBegin
  2
*D15
 70
     1
 10
0.0
 20
0.0
 30
0.0
  3
*D15
  1

  0
LINE
  5
2DA
330
2D8
100
AcDbEntity
  8
0
 62
     0
370
    -2
100
AcDbLine
 10
39.22252839370139
 20
63.99456744242501
 30
0.0
 11
40.24017742955712
 21
63.99456744242501
 31
0.0
  0
LINE
  5
2DB
330
2D8
100
AcDbEntity
  8
0
 62
     0
370
    -2
100
AcDbLine
 10
38.9424572758387
 20
71.36956744242501
 30
0.0
 11
40.24017742955712
 21
71.36956744242501
 31
0.0
  0
LINE
  5
2DC
330
2D8
100
AcDbEntity
  8
0
 62
     0
370
    -2
100
AcDbLine
 10
40.21017742955712
 20
63.99456744242501
 30
0.0
 11
40.21017742955712
 21
67.25983055607665
 31
0.0
  0
LINE
  5
2DD
330
2D8
100
AcDbEntity
  8
0
 62
     0
370
    -2
100
AcDbLine
 10
40.21017742955712
 20
71.36956744242501
 30
0.0
 11
40.21017742955712
 21
68.10430432877336
 31
0.0
  0
INSERT
  5
2DE
330
2D8
100
AcDbEntity
  8
0
 62
     0
370
    -2
100
AcDbBlockReference
  2
_ArchTick
 10
40.21017742955712
 20
63.99456744242501
 30
0.0
 41
0.156
 42
0.156
 43
0.156
 50
270.0
  0
INSERT
  5
2DF
330
2D8
100
AcDbEntity
  8
0
 62
     0
370
    -2
100
AcDbBlockReference
  2
_ArchTick
 10
40.21017742955712
 20
71.36956744242501
 30
0.0
 41
0.156
 42
0.156
 43
0.156
 50
90.0
  0
MTEXT
  5
2E0
330
2D8
100
AcDbEntity
  8
0
 62
     0
100
AcDbMText
 10
40.21017742955711
 20
67.88441192796638
 30
0.0
 40
0.3125
 41
0.0
 71
     5
 72
     1
  1
\A1;7 3/8"
 73
     1
 44
1.0
1001
ACAD
1000
MTEXTBEGIN
1070
    73
1070
     1
1070
    44
1040
1.0
1070
    74
1070
     0
1000
MTEXTEND
  0
MTEXT
  5
2E1
330
2D8
100
AcDbEntity
  8
0
 62
     0
100
AcDbMText
 10
40.21017742955711
 20
67.46217504161802
 30
0.0
 40
0.3125
 41
0.0
 71
     5
 72
     1
  1
\A1;[187mm]
 73
     1
 44
1.0
1001
ACAD
1000
MTEXTBEGIN
1070
    73
1070
     1
1070
    44
1040
1.0
1070
    74
1070
     0
1000
MTEXTEND
  0
POINT
  5
2E2
330
2D8
100
AcDbEntity
  8
Defpoints
 62
     0
100
AcDbPoint
 10
39.18252839370139
 20
63.99456744242501
 30
0.0
  0
POINT
  5
2E3
330
2D8
100
AcDbEntity
  8
Defpoints
 62
     0
100
AcDbPoint
 10
38.9024572758387
 20
71.36956744242501
 30
0.0
  0
POINT
  5
2E4
330
2D8
100
AcDbEntity
  8
Defpoints
 62
     0
100
AcDbPoint
 10
40.21017742955712
 20
71.36956744242501
 30
0.0
  0
ENDBLK
  5
2E5
330
2D8
100
AcDbEntity
  8
0
100
AcDbBlockEnd
  0
BLOCK
  5
2E8
330
2E7
100
AcDbEntity
  8
0
100
AcDbBlockBegin
  2
*D16
 70
     1
 10
0.0
 20
0.0
 30
0.0
  3
*D16
  1

  0
LINE
  5
2E9
330
2E7
100
AcDbEntity
  8
0
 62
     0
370
    -2
100
AcDbLine
 10
39.47249622295703
 20
61.61956744243152
 30
0.0
 11
42.97089882299186
 21
61.61956744243152
 31
0.0
  0
LINE
  5
2EA
330
2E7
100
AcDbEntity
  8
0
 62
     0
370
    -2
100
AcDbLine
 10
39.22249622295691
 20
82.15044509676173
 30
0.0
 11
42.97089882299187
 21
82.15044509676173
 31
0.0
  0
LINE
  5
2EB
330
2E7
100
AcDbEntity
  8
0
 62
     0
370
    -2
100
AcDbLine
 10
42.94089882299186
 20
61.61956744243152
 30
0.0
 11
42.94089882299186
 21
72.0833155740356
 31
0.0
  0
LINE
  5
2EC
330
2E7
100
AcDbEntity
  8
0
 62
     0
370
    -2
100
AcDbLine
 10
42.94089882299187
 20
82.15044509676173
 30
0.0
 11
42.94089882299186
 21
72.48800454511833
 31
0.0
  0
INSERT
  5
2ED
330
2E7
100
AcDbEntity
  8
0
 62
     0
370
    -2
100
AcDbBlockReference
  2
_ArchTick
 10
42.94089882299186
 20
61.61956744243152
 30
0.0
 41
0.156
 42
0.156
 43
0.156
 50
270.0
  0
INSERT
  5
2EE
330
2E7
100
AcDbEntity
  8
0
 62
     0
370
    -2
100
AcDbBlockReference
  2
_ArchTick
 10
42.94089882299187
 20
82.15044509676173
 30
0.0
 41
0.156
 42
0.156
 43
0.156
 50
90.0
  0
MTEXT
  5
2EF
330
2E7
100
AcDbEntity
  8
0
 62
     0
100
AcDbMText
 10
42.94089882299185
 20
72.28566005957699
 30
0.0
 40
0.3125
 41
0.0
 71
     5
 72
     1
  1
\A1;BOX
 73
     1
 44
1.0
1001
ACAD
1000
MTEXTBEGIN
1070
    73
1070
     1
1070
    44
1040
1.0
1070
    74
1070
     0
1000
MTEXTEND
  0
POINT
  5
2F0
330
2E7
100
AcDbEntity
  8
Defpoints
 62
     0
100
AcDbPoint
 10
39.43249622295703
 20
61.61956744243152
 30
0.0
  0
POINT
  5
2F1
330
2E7
100
AcDbEntity
  8
Defpoints
 62
     0
100
AcDbPoint
 10
39.18249622295692
 20
82.15044509676173
 30
0.0
  0
POINT
  5
2F2
330
2E7
100
AcDbEntity
  8
Defpoints
 62
     0
100
AcDbPoint
 10
42.94089882299187
 20
82.15044509676173
 30
0.0
  0
ENDBLK
  5
2F3
330
2E7
100
AcDbEntity
  8
0
100
AcDbBlockEnd
  0
BLOCK
  5
2F6
330
2F5
100
AcDbEntity
  8
0
100
AcDbBlockBegin
  2
*D17
 70
     1
 10
0.0
 20
0.0
 30
0.0
  3
*D17
  1

  0
LINE
  5
2F7
330
2F5
100
AcDbEntity
  8
0
 62
     0
370
    -2
100
AcDbLine
 10
39.22249622295691
 20
82.15044509676173
 30
0.0
 11
42.97089882299187
 21
82.15044509676173
 31
0.0
  0
LINE
  5
2F8
330
2F5
100
AcDbEntity
  8
0
 62
     0
370
    -2
100
AcDbLine
 10
39.22249622295691
 20
82.90044509676175
 30
0.0
 11
42.97089882299187
 21
82.90044509676175
 31
0.0
  0
LINE
  5
2F9
330
2F5
100
AcDbEntity
  8
0
 62
     0
370
    -2
100
AcDbLine
 10
42.94089882299187
 20
82.15044509676173
 30
0.0
 11
42.94089882299187
 21
82.90044509676175
 31
0.0
  0
LINE
  5
2FA
330
2F5
100
AcDbEntity
  8
0
 62
     0
370
    -2
100
AcDbLine
 10
42.94089882299187
 20
82.90044509676175
 30
0.0
 11
42.94089882299187
 21
83.52989132575915
 31
0.0
  0
LINE
  5
2FB
330
2F5
100
AcDbEntity
  8
0
 62
     0
370
    -2
100
AcDbLine
 10
42.94089882299187
 20
83.52989132575915
 30
0.0
 11
43.09689882299187
 21
83.52989132575915
 31
0.0
  0
INSERT
  5
2FC
330
2F5
100
AcDbEntity
  8
0
 62
     0
370
    -2
100
AcDbBlockReference
  2
_ArchTick
 10
42.94089882299187
 20
82.15044509676173
 30
0.0
 41
0.156
 42
0.156
 43
0.156
 50
270.0
  0
INSERT
  5
2FD
330
2F5
100
AcDbEntity
  8
0
 62
     0
370
    -2
100
AcDbBlockReference
  2
_ArchTick
 10
42.94089882299187
 20
82.90044509676175
 30
0.0
 41
0.156
 42
0.156
 43
0.156
 50
90.0
  0
MTEXT
  5
2FE
330
2F5
100
AcDbEntity
  8
0
 62
     0
100
AcDbMText
 10
43.62742427614015
 20
83.52989132575917
 30
0.0
 40
0.3125
 41
0.0
 71
     5
 72
     1
  1
\A1;3/4"\P [19mm]
 73
     1
 44
1.0
1001
ACAD
1000
MTEXTBEGIN
1070
    73
1070
     1
1070
    44
1040
1.0
1070
    74
1070
     0
1000
MTEXTEND
  0
POINT
  5
2FF
330
2F5
100
AcDbEntity
  8
Defpoints
 62
     0
100
AcDbPoint
 10
39.18249622295692
 20
82.15044509676173
 30
0.0
  0
POINT
  5
300
330
2F5
100
AcDbEntity
  8
Defpoints
 62
     0
100
AcDbPoint
 10
39.18249622295692
 20
82.90044509676175
 30
0.0
  0
POINT
  5
301
330
2F5
100
AcDbEntity
  8
Defpoints
 62
     0
100
AcDbPoint
 10
42.94089882299187
 20
82.90044509676175
 30
0.0
  0
ENDBLK
  5
302
330
2F5
100
AcDbEntity
  8
0
100
AcDbBlockEnd
  0
BLOCK
  5
305
330
304
100
AcDbEntity
  8
0
100
AcDbBlockBegin
  2
*D18
 70
     1
 10
0.0
 20
0.0
 30
0.0
  3
*D18
  1

  0
LINE
  5
306
330
304
100
AcDbEntity
  8
0
 62
     0
370
    -2
100
AcDbLine
 10
39.22249622295691
 20
82.90044509676175
 30
0.0
 11
44.06933566186515
 21
82.90044509676175
 31
0.0
  0
LINE
  5
307
330
304
100
AcDbEntity
  8
0
 62
     0
370
    -2
100
AcDbLine
 10
39.47249622295703
 20
61.61956744243152
 30
0.0
 11
44.06933566186515
 21
61.61956744243152
 31
0.0
  0
LINE
  5
308
330
304
100
AcDbEntity
  8
0
 62
     0
370
    -2
100
AcDbLine
 10
44.03933566186515
 20
82.90044509676175
 30
0.0
 11
44.03933566186515
 21
72.72581466457534
 31
0.0
  0
LINE
  5
309
330
304
100
AcDbEntity
  8
0
 62
     0
370
    -2
100
AcDbLine
 10
44.03933566186515
 20
61.61956744243152
 30
0.0
 11
44.03933566186515
 21
71.79419787461792
 31
0.0
  0
INSERT
  5
30A
330
304
100
AcDbEntity
  8
0
 62
     0
370
    -2
100
AcDbBlockReference
  2
_ArchTick
 10
44.03933566186515
 20
82.90044509676175
 30
0.0
 41
0.156
 42
0.156
 43
0.156
 50
90.0
  0
INSERT
  5
30B
330
304
100
AcDbEntity
  8
0
 62
     0
370
    -2
100
AcDbBlockReference
  2
_ArchTick
 10
44.03933566186515
 20
61.61956744243152
 30
0.0
 41
0.156
 42
0.156
 43
0.156
 50
270.0
  0
MTEXT
  5
30C
330
304
100
AcDbEntity
  8
0
 62
     0
100
AcDbMText
 10
44.03933566186514
 20
72.26000626959664
 30
0.0
 40
0.3125
 41
0.0
 71
     5
 72
     1
  1
\A1;ROUGH\POPENING
 73
     1
 44
1.0
1001
ACAD
1000
MTEXTBEGIN
1070
    73
1070
     1
1070
    44
1040
1.0
1070
    74
1070
     0
1000
MTEXTEND
  0
POINT
  5
30D
330
304
100
AcDbEntity
  8
Defpoints
 62
     0
100
AcDbPoint
 10
39.18249622295692
 20
82.90044509676175
 30
0.0
  0
POINT
  5
30E
330
304
100
AcDbEntity
  8
Defpoints
 62
     0
100
AcDbPoint
 10
39.43249622295703
 20
61.61956744243152
 30
0.0
  0
POINT
  5
30F
330
304
100
AcDbEntity
  8
Defpoints
 62
     0
100
AcDbPoint
 10
44.03933566186515
 20
61.61956744243152
 30
0.0
  0
ENDBLK
  5
310
330
304
100
AcDbEntity
  8
0
100
AcDbBlockEnd
  0
BLOCK
  5
315
330
314
100
AcDbEntity
  8
0
100
AcDbBlockBegin
  2
*D19
 70
     1
 10
0.0
 20
0.0
 30
0.0
  3
*D19
  1

  0
LINE
  5
316
330
314
100
AcDbEntity
  8
0
 62
     0
370
    -2
100
AcDbLine
 10
38.9424572758387
 20
71.36956744242501
 30
0.0
 11
40.24017742955712
 21
71.36956744242501
 31
0.0
  0
LINE
  5
317
330
314
100
AcDbEntity
  8
0
 62
     0
370
    -2
100
AcDbLine
 10
38.9424572758403
 20
76.74543956425639
 30
0.0
 11
40.24017742955712
 21
76.74543956425639
 31
0.0
  0
LINE
  5
318
330
314
100
AcDbEntity
  8
0
 62
     0
370
    -2
100
AcDbLine
 10
40.21017742955712
 20
71.36956744242501
 30
0.0
 11
40.21017742955712
 21
73.59169510836199
 31
0.0
  0
LINE
  5
319
330
314
100
AcDbEntity
  8
0
 62
     0
370
    -2
100
AcDbLine
 10
40.21017742955712
 20
76.74543956425639
 30
0.0
 11
40.21017742955712
 21
74.52331189831941
 31
0.0
  0
INSERT
  5
31A
330
314
100
AcDbEntity
  8
0
 62
     0
370
    -2
100
AcDbBlockReference
  2
_ArchTick
 10
40.21017742955712
 20
71.36956744242501
 30
0.0
 41
0.156
 42
0.156
 43
0.156
 50
270.0
  0
INSERT
  5
31B
330
314
100
AcDbEntity
  8
0
 62
     0
370
    -2
100
AcDbBlockReference
  2
_ArchTick
 10
40.21017742955712
 20
76.74543956425639
 30
0.0
 41
0.156
 42
0.156
 43
0.156
 50
90.0
  0
MTEXT
  5
31C
330
314
100
AcDbEntity
  8
0
 62
     0
100
AcDbMText
 10
40.21017742955711
 20
74.05750350334071
 30
0.0
 40
0.3125
 41
0.0
 71
     5
 72
     1
  1
\A1;DAYLIGHT\POPENING
 73
     1
 44
1.0
1001
ACAD
1000
MTEXTBEGIN
1070
    73
1070
     1
1070
    44
1040
1.0
1070
    74
1070
     0
1000
MTEXTEND
  0
POINT
  5
31D
330
314
100
AcDbEntity
  8
Defpoints
 62
     0
100
AcDbPoint
 10
38.9024572758387
 20
71.36956744242501
 30
0.0
  0
POINT
  5
31E
330
314
100
AcDbEntity
  8
Defpoints
 62
     0
100
AcDbPoint
 10
38.9024572758403
 20
76.74543956425639
 30
0.0
  0
POINT
  5
31F
330
314
100
AcDbEntity
  8
Defpoints
 62
     0
100
AcDbPoint
 10
40.21017742955712
 20
76.74543956425639
 30
0.0
  0
ENDBLK
  5
320
330
314
100
AcDbEntity
  8
0
100
AcDbBlockEnd
  0
BLOCK
  5
325
330
324
100
AcDbEntity
  8
0
100
AcDbBlockBegin
  2
*D20
 70
     1
 10
0.0
 20
0.0
 30
0.0
  3
*D20
  1

  0
LINE
  5
326
330
324
100
AcDbEntity
  8
0
 62
     0
370
    -2
100
AcDbLine
 10
38.9424572758387
 20
71.36956744242501
 30
0.0
 11
41.75833657964814
 21
71.36956744242501
 31
0.0
  0
LINE
  5
327
330
324
100
AcDbEntity
  8
0
 62
     0
370
    -2
100
AcDbLine
 10
39.47249622295703
 20
61.61956744243152
 30
0.0
 11
41.75833657964814
 21
61.61956744243152
 31
0.0
  0
LINE
  5
328
330
324
100
AcDbEntity
  8
0
 62
     0
370
    -2
100
AcDbLine
 10
41.72833657964814
 20
71.36956744242501
 30
0.0
 11
41.72833657964814
 21
66.91680432877662
 31
0.0
  0
LINE
  5
329
330
324
100
AcDbEntity
  8
0
 62
     0
370
    -2
100
AcDbLine
 10
41.72833657964814
 20
61.61956744243152
 30
0.0
 11
41.72833657964814
 21
66.07233055607991
 31
0.0
  0
INSERT
  5
32A
330
324
100
AcDbEntity
  8
0
 62
     0
370
    -2
100
AcDbBlockReference
  2
_ArchTick
 10
41.72833657964814
 20
71.36956744242501
 30
0.0
 41
0.156
 42
0.156
 43
0.156
 50
90.0
  0
INSERT
  5
32B
330
324
100
AcDbEntity
  8
0
 62
     0
370
    -2
100
AcDbBlockReference
  2
_ArchTick
 10
41.72833657964814
 20
61.61956744243152
 30
0.0
 41
0.156
 42
0.156
 43
0.156
 50
270.0
  0
MTEXT
  5
32C
330
324
100
AcDbEntity
  8
0
 62
     0
100
AcDbMText
 10
41.72833657964814
 20
66.69691192796964
 30
0.0
 40
0.3125
 41
0.0
 71
     5
 72
     1
  1
\A1;9 3/4"
 73
     1
 44
1.0
1001
ACAD
1000
MTEXTBEGIN
1070
    73
1070
     1
1070
    44
1040
1.0
1070
    74
1070
     0
1000
MTEXTEND
  0
MTEXT
  5
32D
330
324
100
AcDbEntity
  8
0
 62
     0
100
AcDbMText
 10
41.72833657964814
 20
66.27467504162128
 30
0.0
 40
0.3125
 41
0.0
 71
     5
 72
     1
  1
\A1;[248mm]
 73
     1
 44
1.0
1001
ACAD
1000
MTEXTBEGIN
1070
    73
1070
     1
1070
    44
1040
1.0
1070
    74
1070
     0
1000
MTEXTEND
  0
POINT
  5
32E
330
324
100
AcDbEntity
  8
Defpoints
 62
     0
100
AcDbPoint
 10
38.9024572758387
 20
71.36956744242501
 30
0.0
  0
POINT
  5
32F
330
324
100
AcDbEntity
  8
Defpoints
 62
     0
100
AcDbPoint
 10
39.43249622295703
 20
61.61956744243152
 30
0.0
  0
POINT
  5
330
330
324
100
AcDbEntity
  8
Defpoints
 62
     0
100
AcDbPoint
 10
41.72833657964814
 20
61.61956744243152
 30
0.0
  0
ENDBLK
  5
331
330
324
100
AcDbEntity
  8
0
100
AcDbBlockEnd
  0
BLOCK
  5
334
330
333
100
AcDbEntity
  8
0
100
AcDbBlockBegin
  2
*D21
 70
     1
 10
0.0
 20
0.0
 30
0.0
  3
*D21
  1

  0
LINE
  5
335
330
333
100
AcDbEntity
  8
0
 62
     0
370
    -2
100
AcDbLine
 10
38.9424572758403
 20
76.74543956425639
 30
0.0
 11
41.75833657964815
 21
76.74543956425639
 31
0.0
  0
LINE
  5
336
330
333
100
AcDbEntity
  8
0
 62
     0
370
    -2
100
AcDbLine
 10
39.22249622295691
 20
82.15044509676173
 30
0.0
 11
41.75833657964816
 21
82.15044509676173
 31
0.0
  0
LINE
  5
337
330
333
100
AcDbEntity
  8
0
 62
     0
370
    -2
100
AcDbLine
 10
41.72833657964815
 20
76.74543956425639
 30
0.0
 11
41.72833657964815
 21
79.81786482401449
 31
0.0
  0
LINE
  5
338
330
333
100
AcDbEntity
  8
0
 62
     0
370
    -2
100
AcDbLine
 10
41.72833657964816
 20
82.15044509676173
 30
0.0
 11
41.72833657964816
 21
80.78457744450318
 31
0.0
  0
INSERT
  5
339
330
333
100
AcDbEntity
  8
0
 62
     0
370
    -2
100
AcDbBlockReference
  2
_ArchTick
 10
41.72833657964815
 20
76.74543956425639
 30
0.0
 41
0.156
 42
0.156
 43
0.156
 50
270.0
  0
INSERT
  5
33A
330
333
100
AcDbEntity
  8
0
 62
     0
370
    -2
100
AcDbBlockReference
  2
_ArchTick
 10
41.72833657964816
 20
82.15044509676173
 30
0.0
 41
0.156
 42
0.156
 43
0.156
 50
90.0
  0
MTEXT
  5
33B
330
333
100
AcDbEntity
  8
0
 62
     0
100
AcDbMText
 10
41.72833657964814
 20
80.30122113425885
 30
0.0
 40
0.3125
 41
0.0
 71
     5
 72
     1
  1
\A1;5 13/32"\P [137mm]
 73
     1
 44
1.0
1001
ACAD
1000
MTEXTBEGIN
1070
    73
1070
     1
1070
    44
1040
1.0
1070
    74
1070
     0
1000
MTEXTEND
  0
POINT
  5
33C
330
333
100
AcDbEntity
  8
Defpoints
 62
     0
100
AcDbPoint
 10
38.9024572758403
 20
76.74543956425639
 30
0.0
  0
POINT
  5
33D
330
333
100
AcDbEntity
  8
Defpoints
 62
     0
100
AcDbPoint
 10
39.18249622295692
 20
82.15044509676173
 30
0.0
  0
POINT
  5
33E
330
333
100
AcDbEntity
  8
Defpoints
 62
     0
100
AcDbPoint
 10
41.72833657964816
 20
82.15044509676173
 30
0.0
  0
ENDBLK
  5
33F
330
333
100
AcDbEntity
  8
0
100
AcDbBlockEnd
  0
ENDSEC
  0
SECTION
  2
ENTITIES
  0
LWPOLYLINE
  5
6A
102
{ACAD_REACTORS
330
251
330
313
102
}
330
2
100
AcDbEntity
  8
0
  6
Continuous
100
AcDbPolyline
 90
       19
 70
     1
 43
0.0
 10
38.80749622295703
 20
77.05793956425641
 10
38.80749622295703
 20
77.30760687148505
 10
38.62049622295702
 20
77.30760687148505
 10
38.62049622295702
 20
77.40743956425642
 42
1.045128398166766
 10
38.43390427220875
 20
77.39819807990937
 42
-0.4419056050544676
 10
38.3512676856695
 20
77.3074395642564
 10
37.49449622295704
 20
77.3074395642564
 10
37.43249622295691
 20
77.36943956425641
 10
37.43249622295691
 20
81.27543956425641
 42
-0.4142135623730951
 10
37.49449622295704
 20
81.33743956425639
 10
39.12049622295702
 20
81.33743956425639
 42
-0.4142135623730951
 10
39.18249622295692
 20
81.27543956425641
 10
39.18249622295692
 20
77.05821964135445
 10
39.12049622295702
 20
76.99621964135444
 10
39.08745727583876
 20
76.99621964135444
 42
-0.3899024490717814
 10
38.9024572758387
 20
76.79504679002729
 10
38.9024572758387
 20
76.74543956425639
 10
38.80749622295692
 20
76.74543956425641
 10
38.80749622295692
 20
76.87043956425641
 42
0.7066666666666829
  0
LWPOLYLINE
  5
6B
102
{ACAD_REACTORS
330
21D
330
22F
330
240
102
}
330
2
100
AcDbEntity
  8
0
  6
Continuous
100
AcDbPolyline
 90
       26
 70
     0
 43
0.0
 10
39.12049622295702
 20
81.46244509676176
 10
37.05749622295691
 20
81.46243403175104
 10
37.05749622295691
 20
81.40043403175104
 10
36.56552839370132
 20
81.40043403175104
 10
36.56552839370132
 20
81.27543403175103
 10
37.05749622295691
 20
81.27543403175103
 10
37.05749622295691
 20
81.02443403175103
 42
-0.4142135623730951
 10
36.9954962229569
 20
80.96243403175105
 10
34.68249606330103
 20
80.96244009995336
 42
-0.4142128141791537
 10
34.61999622295691
 20
81.02494009995313
 10
34.61999622295691
 20
81.80744510133756
 42
1.000000000000008
 10
34.61999622295691
 20
82.02544510133758
 10
34.61999622295691
 20
82.10044509676173
 10
35.30699622295693
 20
82.10044509676173
 10
35.30699622295693
 20
82.15044509676173
 10
35.52543895002493
 20
82.15044509676173
 42
0.9999999999999998
 10
35.77543895002494
 20
82.15044509676173
 10
36.18651230832923
 20
82.15044509676173
 42
0.9999999999999998
 10
36.43651230832923
 20
82.15044509676173
 10
36.68651230832923
 20
82.15044509676173
 42
0.9999999999999998
 10
36.93651230832923
 20
82.15044509676173
 10
38.43243771406886
 20
82.15044509676173
 42
0.9999999999999998
 10
38.68243771406886
 20
82.15044509676173
 10
39.18249622295692
 20
82.15044509676173
 10
39.18249622295692
 20
81.52494509676175
 42
-0.4142135623730951
 10
39.11999622295692
 20
81.46244509676176
  0
LWPOLYLINE
  5
6C
330
2
100
AcDbEntity
  8
0
100
AcDbPolyline
 90
       48
 70
     1
 43
0.0
 10
33.6194732530334
 20
62.43127866597287
 42
0.3099869661589099
 10
33.75787437581899
 20
62.50772240407322
 42
0.6346282874007124
 10
33.69901534631795
 20
62.52937504573573
 42
-0.2491068491705158
 10
33.62289211152388
 20
62.48894025809285
 10
33.58274622295581
 20
62.48894025809285
 42
-0.4142135623730951
 10
33.55149622294853
 20
62.52019025809286
 10
33.55149622294853
 20
62.5345233927227
 10
33.55149622294853
 20
62.585514005831
 42
-0.3892015183906261
 10
33.5798290282266
 20
62.61639905194191
 10
38.57424945621126
 20
63.04771107648448
 42
0.3892015181633394
 10
38.60349622295912
 20
63.07959241439006
 10
38.60349622295912
 20
63.15431744242314
 42
0.4142135623730951
 10
38.57224622294457
 20
63.18556744242314
 10
38.51949622294929
 20
63.18556744242314
 42
-0.4142135623731034
 10
38.48849622294661
 20
63.2165674424149
 42
-0.4142135623730867
 10
38.51949622294929
 20
63.24756744242485
 10
38.6342462229572
 20
63.24756744242485
 42
-0.4142135623730951
 10
38.6654962229572
 20
63.21631744241393
 10
38.6654962229572
 20
63.02271589485134
 42
-0.3892015181726193
 10
38.6362494562082
 20
62.99083455694553
 10
38.30149622295581
 20
62.96192567817105
 10
38.30149622295581
 20
62.71256744242499
 10
38.23949622295773
 20
62.71256744242499
 10
38.23949622295773
 20
62.95657143418465
 10
37.61449622292862
 20
62.9025972004846
 10
37.61449622292862
 20
62.71256744242499
 10
37.55249622296692
 20
62.71256744242499
 10
37.55249622296692
 20
62.89724295649138
 10
33.83463012232717
 20
62.57617259849336
 42
-0.4513779684185582
 10
33.61349622295389
 20
62.36956744243151
 10
33.61349622295389
 20
61.96356744243248
 10
33.67549622295924
 20
61.96356744243248
 42
-0.4142135623730951
 10
33.80049622293741
 20
61.83856744243247
 10
33.80049622293741
 20
61.68156744243323
 10
34.08249622295848
 20
61.68156744243323
 42
-0.9999999999999998
 10
34.08249622295848
 20
61.61956744243152
 10
33.58274622295581
 20
61.61956744243152
 42
-0.4142135623730951
 10
33.55149622294853
 20
61.65081744243152
 10
33.55149622294853
 20
61.74456744243151
 42
-0.9999999999999998
 10
33.61349622295389
 20
61.74456744243151
 10
33.61349622295389
 20
61.68256744242253
 10
33.73849622294661
 20
61.68256744242253
 10
33.73849622294661
 20
61.8390674424344
 42
0.4142135623730951
 10
33.67599622293933
 20
61.9015674424344
 10
33.58274622295581
 20
61.9015674424344
 42
-0.4142135623730951
 10
33.55149622294853
 20
61.9328174424344
 10
33.55149622294853
 20
62.40027866597746
 42
-0.4142135623730951
 10
33.58249622295848
 20
62.43127866597287
  0
LWPOLYLINE
  5
6D
102
{ACAD_REACTORS
330
2C6
102
}
330
2
100
AcDbEntity
  8
0
100
AcDbPolyline
 90
        6
 70
     1
 43
0.0
 10
39.18249622295703
 20
62.99525348894248
 10
39.27549622296506
 20
62.99525348894248
 10
39.40149622295435
 20
62.92250735502683
 42
-0.2679491924311338
 10
39.43249622295703
 20
62.86881377998078
 10
39.43249622295703
 20
61.61956744243152
 10
39.18249622295703
 20
61.61956744243152
  0
LWPOLYLINE
  5
6E
330
2
100
AcDbEntity
  8
0
100
AcDbPolyline
 90
       16
 70
     1
 43
0.0
 10
39.18249622295703
 20
62.50906744242492
 10
39.18249622295703
 20
61.72856744242825
 10
38.9954274023025
 20
61.72856744242825
 10
38.93249622295703
 20
61.61956744243152
 10
34.48049622297408
 20
61.61956744243152
 42
-0.414213562373095
 10
34.41849622295418
 20
61.68156744243323
 10
34.41849622295418
 20
61.90056744242328
 10
34.16849622295418
 20
61.90056744242328
 10
34.16849622295418
 20
61.76156744243134
 42
-0.4142135623730951
 10
34.10649622297065
 20
61.69956744242234
 10
33.83249622296576
 20
61.69956744242234
 10
33.83249622296576
 20
62.51256744243154
 10
36.33249622296576
 20
62.71256744242499
 10
38.87099622296428
 20
62.71256744242499
 42
-0.4142135623730951
 10
38.93299622296429
 20
62.6505674424251
 10
38.93299622296429
 20
62.50906744242492
  0
LWPOLYLINE
  5
6F
330
2
100
AcDbEntity
  8
0
  6
Continuous
100
AcDbPolyline
 90
       13
 70
     1
 43
0.0
 10
38.52549622295699
 20
63.30556744242499
 42
0.4142135623730951
 10
38.46349622295698
 20
63.24356744242497
 10
38.46349622295698
 20
63.043275922304
 10
37.4706808581977
 20
62.96513965853574
 42
-0.5289142198612735
 10
37.45451267301503
 20
62.9852847997616
 10
37.60597461463734
 20
63.48069448811781
 42
-0.329750547140315
 10
37.66526550950705
 20
63.52456744242498
 10
39.12049622295702
 20
63.52456744242498
 42
-0.4142135623730951
 10
39.18249622295703
 20
63.46256744242499
 10
39.18249622295703
 20
62.71256744242499
 10
38.68249622295703
 20
62.71256744242499
 10
38.68249622295703
 20
63.24356744242497
 42
0.4142135623730956
 10
38.62049622295702
 20
63.30556744242499
  0
LWPOLYLINE
  5
70
330
2
100
AcDbEntity
  8
0
  6
Continuous
100
AcDbPolyline
 90
        7
 70
     1
 43
0.0
 10
36.80749622295691
 20
63.7435674424258
 10
36.80749622295691
 20
64.67206857850927
 42
-0.3738846794848032
 10
36.91509958533727
 20
64.79585208710235
 10
37.43249622295691
 20
64.86856744242579
 10
37.43249622295691
 20
64.05656744242499
 10
37.27649622295697
 20
64.05656744242499
 10
36.96349622295687
 20
63.7435674424258
  0
LWPOLYLINE
  5
71
102
{ACAD_REACTORS
330
2D7
102
}
330
2
100
AcDbEntity
  8
0
  6
Continuous
100
AcDbPolyline
 90
       19
 70
     1
 43
0.0
 10
38.80749622295692
 20
71.05706744242498
 10
38.80749622295692
 20
70.80740013519634
 10
38.62049622295702
 20
70.80740013519634
 10
38.62049622295702
 20
70.70756744242498
 42
-1.045128398166766
 10
38.43390427220887
 20
70.71680892677203
 42
0.4419056050544676
 10
38.3512676856695
 20
70.80756744242499
 10
37.49449622295704
 20
70.80756744242499
 10
37.43249622295691
 20
70.74556744242499
 10
37.43249622295691
 20
64.05656744242499
 42
0.4142135623730951
 10
37.49449622295704
 20
63.99456744242501
 10
39.12049622295702
 20
63.99456744242501
 42
0.4142135623730951
 10
39.18249622295692
 20
64.05656744242499
 10
39.18249622295692
 20
71.05678736532694
 10
39.12049622295702
 20
71.11878736532695
 10
39.08745727583876
 20
71.11878736532695
 42
0.3899024490717814
 10
38.9024572758387
 20
71.31996021665411
 10
38.9024572758387
 20
71.36956744242501
 10
38.80749622295692
 20
71.36956744242498
 10
38.80749622295692
 20
71.24456744242498
 42
-0.7066666666666826
  0
LWPOLYLINE
  5
72
102
{ACAD_REACTORS
330
2C6
102
}
330
2
100
AcDbEntity
  8
0
  6
Continuous
100
AcDbPolyline
 90
       26
 70
     0
 43
0.0
 10
39.18252839370139
 20
63.99456744242501
 10
37.43249622295691
 20
63.99456744242501
 10
37.43249622295691
 20
63.88556744242499
 42
0.157771401281339
 10
37.18249622295692
 20
63.43456744242501
 10
37.22764777995083
 20
63.42577330227182
 42
-0.1709509127273156
 10
37.49449622295704
 20
63.8793203108966
 10
37.49449622295704
 20
63.43456744242501
 10
37.54049622295698
 20
63.43456744242501
 10
37.54049622295698
 20
63.88556744242499
 10
37.97749622295699
 20
63.88556744242499
 10
37.97749622295699
 20
63.42670145202958
 10
38.02349622295704
 20
63.42670145202958
 10
38.02349622295704
 20
63.88556744242499
 10
38.46049622295693
 20
63.88556744242499
 10
38.46049622295693
 20
63.42670145202958
 10
38.50649622295698
 20
63.42670145202958
 10
38.50649622295698
 20
63.88556744242499
 10
38.94349622295699
 20
63.88556744242499
 10
38.94349622295699
 20
63.42670145202958
 10
38.98949622295693
 20
63.42670145202958
 10
38.98949622295693
 20
63.88556744242499
 10
39.29149622295707
 20
63.88556744242499
 10
39.29149622295707
 20
64.182567442425
 42
0.4142135623730948
 10
39.22949622295694
 20
64.24456744242501
 10
39.18249622295692
 20
64.24456744242501
 10
39.18249622295692
 20
63.99456744242501
  0
HATCH
  5
73
330
2
100
AcDbEntity
  8
0
100
AcDbHatch
 10
0.0
 20
0.0
 30
0.0
210
0.0
220
0.0
230
1.0
  2
SOLID
 70
     1
 71
     0
 91
        1
 92
        7
 72
     1
 73
     1
 93
        2
 10
38.80749622295692
 20
76.87010687148505
 42
0.0
 10
38.80749622295703
 20
77.05760687148502
 42
-0.6666666666666311
 97
        0
 75
     1
 76
     1
 47
0.0010014887122476
 98
        1
 10
38.85355629930389
 20
76.98501206752919
1001
GradientColor1ACI
1070
     5
1001
GradientColor2ACI
1070
     2
1001
ACAD
1010
0.0
1020
0.0
1030
0.0
  0
HATCH
  5
76
330
2
100
AcDbEntity
  8
0
100
AcDbHatch
 10
0.0
 20
0.0
 30
0.0
210
0.0
220
0.0
230
1.0
  2
SOLID
 70
     1
 71
     0
 91
        1
 92
        7
 72
     1
 73
     1
 93
        2
 10
37.8982660654769
 20
76.87010687148505
 42
0.0
 10
37.8982660654769
 20
77.05760687148502
 42
0.6666666666666311
 97
        0
 75
     1
 76
     1
 47
0.0010014887122476
 98
        1
 10
37.85220598913004
 20
76.98501206752919
1001
GradientColor1ACI
1070
     5
1001
GradientColor2ACI
1070
     2
1001
ACAD
1010
0.0
1020
0.0
1030
0.0
  0
LWPOLYLINE
  5
77
330
2
100
AcDbEntity
  8
0
100
AcDbPolyline
 90
       11
 70
     1
 43
0.0
 10
37.8982660654769
 20
77.05760687148502
 10
37.8982660654769
 20
77.30760687148505
 10
37.52426606547688
 20
77.30760687148502
 10
37.52426606547688
 20
77.02610687148503
 42
0.4142135623731695
 10
37.55526606547683
 20
76.99510687148505
 10
37.60179083376336
 20
76.99510687148505
 42
-0.235730494161761
 10
37.62656702833938
 20
76.98273856980621
 10
37.7959651026144
 20
76.75747517316388
 42
0.235730494161718
 10
37.82074129719042
 20
76.74510687148504
 10
37.8982660654769
 20
76.74510687148504
 10
37.8982660654769
 20
76.87010687148505
 42
-0.6666666666666588
  0
LWPOLYLINE
  5
78
330
2
100
AcDbEntity
  8
0
100
AcDbPolyline
 90
        4
 70
     0
 43
0.0
 10
38.64975614421697
 20
76.1200035033407
 10
38.64975614421697
 20
77.19860687148467
 10
38.80749622295703
 20
77.19860687148467
 10
38.80749622295703
 20
76.1200035033407
  0
LWPOLYLINE
  5
79
330
2
100
AcDbEntity
  8
0
100
AcDbPolyline
 90
        4
 70
     0
 43
0.0
 10
38.05600614421697
 20
76.1200035033407
 10
38.05600614421697
 20
77.19860687148467
 10
37.8982660654769
 20
77.19860687148467
 10
37.8982660654769
 20
76.1200035033407
  0
LWPOLYLINE
  5
7A
330
2
100
AcDbEntity
  8
0
100
AcDbPolyline
 90
       14
 70
     1
 43
0.0
 10
38.16538114421696
 20
76.98878213053614
 42
-0.3359746306540741
 10
38.13287723446997
 20
76.96841937148438
 10
38.09700614421713
 20
76.99260687148454
 42
0.4142135623730951
 10
38.08138114421713
 20
76.97698187148453
 10
38.08138114421713
 20
76.79535687148437
 10
38.6243811442168
 20
76.79535687148437
 10
38.6243811442168
 20
76.97698187148453
 42
0.414213562373094
 10
38.6087561442168
 20
76.99260687148454
 10
38.57326835615864
 20
76.96841937148438
 42
-0.3208708054700532
 10
38.54038114421697
 20
76.98914503961678
 10
38.54038114421697
 20
77.04598187148495
 42
0.4142135623730951
 10
38.52475614421697
 20
77.06160687148496
 10
38.18100614421697
 20
77.06160687148496
 42
0.4142135623730951
 10
38.16538114421696
 20
77.04598187148495
  0
LWPOLYLINE
  5
7B
330
2
100
AcDbEntity
  8
0
100
AcDbPolyline
 90
       14
 70
     1
 43
0.0
 10
38.17238114421748
 20
76.98756373039178
 42
-0.3593608004949541
 10
38.1303812568935
 20
76.96165971451101
 10
38.0951623097812
 20
76.98540748122979
 42
0.3524310491054993
 10
38.08838114421674
 20
76.97698187148453
 10
38.08838114421674
 20
76.79535687148437
 10
38.61738114421719
 20
76.79535687148437
 10
38.61738114421719
 20
76.97698187148453
 42
0.3518693664465323
 10
38.61061681651559
 20
76.98540377884602
 10
38.5756924253496
 20
76.96160027466667
 42
-0.3446308864324803
 10
38.53338114421645
 20
76.9878391886683
 10
38.53338114421645
 20
77.04598187148495
 42
0.4142135623730946
 10
38.52475614421697
 20
77.05460687148444
 10
38.18100614421697
 20
77.05460687148444
 42
0.4142135623730946
 10
38.17238114421748
 20
77.04598187148495
  0
LWPOLYLINE
  5
7C
330
2
100
AcDbEntity
  8
0
100
AcDbPolyline
 90
       10
 70
     1
 43
0.0
 10
38.19663114421697
 20
76.98404437148439
 42
-0.3584554666094669
 10
38.13172729806361
 20
76.93716937148439
 10
38.11263114421713
 20
76.93716937148439
 10
38.11263114421713
 20
76.82660687148437
 10
38.5931311442168
 20
76.82660687148437
 10
38.5931311442168
 20
76.93716937148439
 10
38.57403499037032
 20
76.93716937148439
 42
-0.3467993108968364
 10
38.50913114421697
 20
76.98404437148439
 10
38.50913114421697
 20
77.03035687148496
 10
38.19663114421697
 20
77.03035687148496
  0
LWPOLYLINE
  5
7D
330
2
100
AcDbEntity
  8
0
100
AcDbPolyline
 90
        6
 70
     0
 43
0.0
 10
38.08138114421713
 20
76.82360687148467
 10
38.07163114421697
 20
76.82360687148467
 10
38.07163114421697
 20
76.7856068714842
 10
38.63413114421696
 20
76.7856068714842
 10
38.63413114421696
 20
76.82360687148467
 10
38.6243811442168
 20
76.82360687148467
  0
LINE
  5
7E
330
2
100
AcDbEntity
  8
0
100
AcDbLine
 10
38.6243811442168
 20
76.97698187148453
 30
0.0
 11
38.64975614421697
 21
76.97698187148453
 31
0.0
  0
LINE
  5
7F
330
2
100
AcDbEntity
  8
0
100
AcDbLine
 10
38.6243811442168
 20
76.82360687148467
 30
0.0
 11
38.64975614421697
 21
76.82360687148467
 31
0.0
  0
LINE
  5
80
330
2
100
AcDbEntity
  8
0
100
AcDbLine
 10
38.08138114421713
 20
76.97698187148453
 30
0.0
 11
38.05600614421697
 21
76.97698187148453
 31
0.0
  0
LINE
  5
81
330
2
100
AcDbEntity
  8
0
100
AcDbLine
 10
38.08138114421713
 20
76.82360687148467
 30
0.0
 11
38.05600614421697
 21
76.82360687148467
 31
0.0
  0
HATCH
  5
82
330
2
100
AcDbEntity
  8
0
  6
Continuous
100
AcDbHatch
 10
0.0
 20
0.0
 30
0.0
210
0.0
220
0.0
230
1.0
  2
DOTS
 70
     0
 71
     0
 91
        2
 92
        7
 72
     0
 73
     1
 93
        4
 10
38.08138114421713
 20
76.97698187148453
 10
38.05600614421697
 20
76.97698187148453
 10
38.05600614421697
 20
76.82360687148467
 10
38.08138114421713
 20
76.82360687148467
 97
        0
 92
        7
 72
     0
 73
     1
 93
        4
 10
38.64975614421697
 20
76.97698187148453
 10
38.6243811442168
 20
76.97698187148453
 10
38.6243811442168
 20
76.82360687148467
 10
38.64975614421697
 20
76.82360687148467
 97
        0
 75
     0
 76
     1
 52
360.0
 41
0.1
 77
     0
 78
     1
 53
360.0
 43
31.9625263986804
 44
79.27131161507133
 45
0.003125
 46
-0.00625
 79
     2
 49
0.0
 49
-0.00625
 47
0.0006001443632006
 98
        2
 10
38.06966085406971
 20
76.91939693143614
 10
38.63954578346552
 20
76.91579605763728
  0
HATCH
  5
83
330
2
100
AcDbEntity
  8
0
  6
Continuous
100
AcDbHatch
 10
0.0
 20
0.0
 30
0.0
210
0.0
220
0.0
230
1.0
  2
DASH
 70
     0
 71
     0
 91
        1
 92
        7
 72
     1
 73
     1
 93
       16
 10
38.52475614421697
 20
77.06160687148496
 42
-0.4142135623730951
 10
38.54038114421697
 20
77.04598187148495
 42
0.0
 10
38.54038114421697
 20
76.98914503961678
 42
0.3208708054700533
 10
38.57326835615864
 20
76.96841937148438
 42
0.0
 10
38.6087561442168
 20
76.99260687148454
 42
-0.414213562373094
 10
38.6243811442168
 20
76.97698187148453
 42
0.0
 10
38.64975614421787
 20
76.97698187148453
 42
0.0
 10
38.64975614421606
 20
77.19860687148376
 42
0.0
 10
38.05600614421697
 20
77.19860687148376
 42
0.0
 10
38.05600614421697
 20
76.97698187148453
 42
0.0
 10
38.08138114421713
 20
76.97698187148453
 42
-0.4142135623730951
 10
38.09700614421713
 20
76.99260687148454
 42
0.0
 10
38.13287723446997
 20
76.96841937148438
 42
0.3359746306540741
 10
38.16538114421696
 20
76.98878213053614
 42
0.0
 10
38.16538114421696
 20
77.04598187148495
 42
-0.4142135623730951
 10
38.18100614421697
 20
77.06160687148496
 42
0.0
 97
        0
 75
     0
 76
     1
 52
360.0
 41
0.1
 77
     0
 78
     1
 53
360.0
 43
31.9625263986804
 44
79.27131161507133
 45
0.0125
 46
-0.0125
 79
     2
 49
0.0125
 49
-0.0125
 47
0.0009600803746669
 98
        1
 10
38.40190262430174
 20
77.11244614367898
  0
LINE
  5
84
330
2
100
AcDbEntity
  8
0
100
AcDbLine
 10
37.8982660654769
 20
77.30760687148505
 30
0.0
 11
38.80749622295703
 21
77.19860687148467
 31
0.0
  0
LWPOLYLINE
  5
85
330
2
100
AcDbEntity
  8
0
100
AcDbPolyline
 90
        8
 70
     0
 43
0.0
 10
37.8982660654769
 20
77.30760687148505
 10
38.80749622295703
 20
77.30760687148505
 10
38.80749622295703
 20
77.19860687148467
 10
37.8982660654769
 20
77.19860687148467
 10
37.8982660654769
 20
77.30760687148505
 10
38.80749622295703
 20
77.19860687148467
 10
37.8982660654769
 20
77.19860687148467
 10
38.80749622295703
 20
77.30760687148505
  0
HATCH
  5
86
330
2
100
AcDbEntity
  8
0
100
AcDbHatch
 10
0.0
 20
0.0
 30
0.0
210
0.0
220
0.0
230
1.0
  2
SOLID
 70
     1
 71
     0
 91
        1
 92
        7
 72
     1
 73
     1
 93
        2
 10
38.80749622295692
 20
71.24490013519634
 42
0.0
 10
38.80749622295692
 20
71.05740013519637
 42
0.6666666666666311
 97
        0
 75
     1
 76
     1
 47
0.0010014887122476
 98
        1
 10
38.85355629930389
 20
71.12999493915221
1001
GradientColor1ACI
1070
     5
1001
GradientColor2ACI
1070
     2
1001
ACAD
1010
0.0
1020
0.0
1030
0.0
  0
HATCH
  5
87
330
2
100
AcDbEntity
  8
0
100
AcDbHatch
 10
0.0
 20
0.0
 30
0.0
210
0.0
220
0.0
230
1.0
  2
SOLID
 70
     1
 71
     0
 91
        1
 92
        7
 72
     1
 73
     1
 93
        2
 10
37.8982660654769
 20
71.24490013519634
 42
0.0
 10
37.89826606547679
 20
71.05740013519637
 42
-0.6666666666666311
 97
        0
 75
     1
 76
     1
 47
0.0010014887122476
 98
        1
 10
37.85220598913004
 20
71.12999493915221
1001
GradientColor1ACI
1070
     5
1001
GradientColor2ACI
1070
     2
1001
ACAD
1010
0.0
1020
0.0
1030
0.0
  0
LWPOLYLINE
  5
88
330
2
100
AcDbEntity
  8
0
100
AcDbPolyline
 90
       11
 70
     1
 43
0.0
 10
37.89826606547679
 20
71.05740013519637
 10
37.89826606547679
 20
70.80740013519634
 10
37.52426606547688
 20
70.80740013519637
 10
37.52426606547677
 20
71.08890013519637
 42
-0.4142135623731695
 10
37.55526606547683
 20
71.11990013519634
 10
37.60179083376336
 20
71.11990013519634
 42
0.235730494161761
 10
37.62656702833927
 20
71.13226843687518
 10
37.79596510261429
 20
71.35753183351751
 42
-0.235730494161718
 10
37.82074129719042
 20
71.36990013519635
 10
37.8982660654769
 20
71.36990013519635
 10
37.8982660654769
 20
71.24490013519634
 42
0.6666666666666588
  0
LWPOLYLINE
  5
89
330
2
100
AcDbEntity
  8
0
100
AcDbPolyline
 90
        4
 70
     0
 43
0.0
 10
38.64975614421685
 20
71.99500350334069
 10
38.64975614421685
 20
70.91640013519672
 10
38.80749622295692
 20
70.91640013519672
 10
38.80749622295692
 20
71.99500350334069
  0
LWPOLYLINE
  5
8A
330
2
100
AcDbEntity
  8
0
100
AcDbPolyline
 90
        4
 70
     0
 43
0.0
 10
38.05600614421685
 20
71.99500350334069
 10
38.05600614421685
 20
70.91640013519672
 10
37.89826606547679
 20
70.91640013519672
 10
37.89826606547679
 20
71.99500350334069
  0
LWPOLYLINE
  5
8B
330
2
100
AcDbEntity
  8
0
100
AcDbPolyline
 90
       14
 70
     1
 43
0.0
 10
38.16538114421685
 20
71.12622487614526
 42
0.3359746306540741
 10
38.13287723446986
 20
71.14658763519701
 10
38.09700614421702
 20
71.12240013519685
 42
-0.4142135623730951
 10
38.08138114421702
 20
71.13802513519686
 10
38.08138114421702
 20
71.31965013519702
 10
38.62438114421669
 20
71.31965013519702
 10
38.62438114421669
 20
71.13802513519686
 42
-0.414213562373094
 10
38.60875614421669
 20
71.12240013519685
 10
38.57326835615852
 20
71.14658763519701
 42
0.3208708054700532
 10
38.54038114421685
 20
71.12586196706461
 10
38.54038114421685
 20
71.06902513519644
 42
-0.4142135623730951
 10
38.52475614421685
 20
71.05340013519644
 10
38.18100614421685
 20
71.05340013519644
 42
-0.4142135623730951
 10
38.16538114421685
 20
71.06902513519644
  0
LWPOLYLINE
  5
8C
330
2
100
AcDbEntity
  8
0
100
AcDbPolyline
 90
       14
 70
     1
 43
0.0
 10
38.17238114421737
 20
71.12744327628961
 42
0.3593608004949541
 10
38.13038125689338
 20
71.15334729217038
 10
38.09516230978109
 20
71.12959952545161
 42
-0.3524310491054993
 10
38.08838114421663
 20
71.13802513519686
 10
38.08838114421663
 20
71.31965013519702
 10
38.61738114421708
 20
71.31965013519702
 10
38.61738114421708
 20
71.13802513519686
 42
-0.3518693664465323
 10
38.61061681651547
 20
71.12960322783537
 10
38.57569242534949
 20
71.15340673201472
 42
0.3446308864324803
 10
38.53338114421634
 20
71.12716781801309
 10
38.53338114421634
 20
71.06902513519644
 42
-0.4142135623730946
 10
38.52475614421685
 20
71.06040013519695
 10
38.18100614421685
 20
71.06040013519695
 42
-0.4142135623730946
 10
38.17238114421737
 20
71.06902513519644
  0
LWPOLYLINE
  5
8D
330
2
100
AcDbEntity
  8
0
100
AcDbPolyline
 90
       10
 70
     1
 43
0.0
 10
38.19663114421685
 20
71.130962635197
 42
0.3584554666094669
 10
38.1317272980635
 20
71.177837635197
 10
38.11263114421702
 20
71.177837635197
 10
38.11263114421702
 20
71.28840013519702
 10
38.59313114421669
 20
71.28840013519702
 10
38.59313114421669
 20
71.177837635197
 10
38.57403499037021
 20
71.177837635197
 42
0.3467993108968364
 10
38.50913114421685
 20
71.130962635197
 10
38.50913114421685
 20
71.08465013519644
 10
38.19663114421685
 20
71.08465013519644
  0
LWPOLYLINE
  5
8E
330
2
100
AcDbEntity
  8
0
100
AcDbPolyline
 90
        6
 70
     0
 43
0.0
 10
38.08138114421702
 20
71.29140013519672
 10
38.07163114421685
 20
71.29140013519672
 10
38.07163114421685
 20
71.32940013519719
 10
38.63413114421685
 20
71.32940013519719
 10
38.63413114421685
 20
71.29140013519672
 10
38.62438114421669
 20
71.29140013519672
  0
LINE
  5
8F
330
2
100
AcDbEntity
  8
0
100
AcDbLine
 10
38.62438114421669
 20
71.13802513519686
 30
0.0
 11
38.64975614421685
 21
71.13802513519686
 31
0.0
  0
LINE
  5
90
330
2
100
AcDbEntity
  8
0
100
AcDbLine
 10
38.62438114421669
 20
71.29140013519672
 30
0.0
 11
38.64975614421685
 21
71.29140013519672
 31
0.0
  0
LINE
  5
91
330
2
100
AcDbEntity
  8
0
100
AcDbLine
 10
38.08138114421702
 20
71.13802513519686
 30
0.0
 11
38.05600614421685
 21
71.13802513519686
 31
0.0
  0
LINE
  5
92
330
2
100
AcDbEntity
  8
0
100
AcDbLine
 10
38.08138114421702
 20
71.29140013519672
 30
0.0
 11
38.05600614421685
 21
71.29140013519672
 31
0.0
  0
HATCH
  5
93
330
2
100
AcDbEntity
  8
0
  6
Continuous
100
AcDbHatch
 10
0.0
 20
0.0
 30
0.0
210
0.0
220
0.0
230
1.0
  2
DOTS
 70
     0
 71
     0
 91
        2
 92
        7
 72
     0
 73
     1
 93
        4
 10
38.08138114421702
 20
71.13802513519686
 10
38.05600614421685
 20
71.13802513519686
 10
38.05600614421685
 20
71.29140013519672
 10
38.08138114421702
 20
71.29140013519672
 97
        0
 92
        7
 72
     0
 73
     1
 93
        4
 10
38.64975614421685
 20
71.13802513519686
 10
38.62438114421669
 20
71.13802513519686
 10
38.62438114421669
 20
71.29140013519672
 10
38.64975614421685
 20
71.29140013519672
 97
        0
 75
     0
 76
     1
 52
360.0
 41
0.1
 77
     0
 78
     1
 53
360.0
 43
31.96252639868028
 44
74.39631161507133
 45
0.003125
 46
-0.00625
 79
     2
 49
0.0
 49
-0.00625
 47
0.0006001443632006
 98
        2
 10
38.0696608540696
 20
71.19561007524525
 10
38.63954578346541
 20
71.19921094904412
  0
HATCH
  5
94
330
2
100
AcDbEntity
  8
0
  6
Continuous
100
AcDbHatch
 10
0.0
 20
0.0
 30
0.0
210
0.0
220
0.0
230
1.0
  2
DASH
 70
     0
 71
     0
 91
        1
 92
        7
 72
     1
 73
     1
 93
       16
 10
38.52475614421685
 20
71.05340013519644
 42
0.4142135623730951
 10
38.54038114421685
 20
71.06902513519644
 42
0.0
 10
38.54038114421685
 20
71.12586196706461
 42
-0.3208708054700533
 10
38.57326835615852
 20
71.14658763519701
 42
0.0
 10
38.60875614421669
 20
71.12240013519685
 42
0.414213562373094
 10
38.62438114421669
 20
71.13802513519686
 42
0.0
 10
38.64975614421776
 20
71.13802513519686
 42
0.0
 10
38.64975614421594
 20
70.91640013519763
 42
0.0
 10
38.05600614421685
 20
70.91640013519763
 42
0.0
 10
38.05600614421685
 20
71.13802513519686
 42
0.0
 10
38.08138114421702
 20
71.13802513519686
 42
0.4142135623730951
 10
38.09700614421702
 20
71.12240013519685
 42
0.0
 10
38.13287723446986
 20
71.14658763519701
 42
-0.3359746306540741
 10
38.16538114421685
 20
71.12622487614526
 42
0.0
 10
38.16538114421685
 20
71.06902513519644
 42
0.4142135623730951
 10
38.18100614421685
 20
71.05340013519644
 42
0.0
 97
        0
 75
     0
 76
     1
 52
360.0
 41
0.1
 77
     0
 78
     1
 53
360.0
 43
31.96252639868028
 44
74.39631161507133
 45
0.0125
 46
-0.0125
 79
     2
 49
0.0125
 49
-0.0125
 47
0.0009600803746669
 98
        1
 10
38.40190262430163
 20
71.00256086300241
  0
LINE
  5
95
330
2
100
AcDbEntity
  8
0
100
AcDbLine
 10
37.89826606547679
 20
70.80740013519634
 30
0.0
 11
38.80749622295692
 21
70.91640013519672
 31
0.0
  0
LWPOLYLINE
  5
96
330
2
100
AcDbEntity
  8
0
100
AcDbPolyline
 90
        8
 70
     0
 43
0.0
 10
37.89826606547679
 20
70.80740013519634
 10
38.80749622295692
 20
70.80740013519634
 10
38.80749622295692
 20
70.91640013519672
 10
37.89826606547679
 20
70.91640013519672
 10
37.89826606547679
 20
70.80740013519634
 10
38.80749622295692
 20
70.91640013519672
 10
37.89826606547679
 20
70.91640013519672
 10
38.80749622295692
 20
70.80740013519634
  0
LINE
  5
97
330
2
100
AcDbEntity
  8
0
  6
HIDDEN2
100
AcDbLine
 10
31.36664870234661
 20
76.12000350334061
 30
0.0
 11
38.80749622295692
 21
76.1200035033407
 31
0.0
  0
HATCH
  5
99
330
2
100
AcDbEntity
  8
0
100
AcDbHatch
 10
0.0
 20
0.0
 30
0.0
210
0.0
220
0.0
230
1.0
  2
HONEY
 70
     0
 71
     0
 91
        2
 92
       16
 93
        9
 72
     1
 10
36.714353819436
 20
81.36997663380073
 11
36.714353819436
 21
81.39965332418022
 72
     1
 10
36.714353819436
 20
81.3996533241802
 11
37.09175120582343
 21
81.39949766510973
 72
     1
 10
37.09175120582332
 20
81.39949766510973
 11
37.09161907676942
 21
81.07914910181612
 72
     1
 10
37.09161907676942
 20
81.07914910181616
 11
37.05811752375992
 21
81.07916291966647
 72
     1
 10
37.05811752375992
 20
81.07916291966647
 11
37.05823807192754
 21
81.37143347768704
 72
     1
 10
37.05823807192754
 20
81.37143347768704
 11
36.7448115390858
 21
81.37156275172156
 72
     1
 10
36.7448115390858
 20
81.37156275172156
 11
36.83971817890002
 21
81.27657779035244
 72
     1
 10
36.83971817890013
 20
81.27657779035244
 11
36.80767564919138
 21
81.27657779035244
 72
     1
 10
36.80767564919127
 20
81.27657779035244
 11
36.714353819436
 21
81.36997663380073
 97
        0
 92
        1
 93
       11
 72
     1
 10
37.16141960538228
 20
81.07039764634732
 11
37.1615320913249
 21
81.34312123794156
 72
     2
 10
37.10440408021244
 20
81.34314480061958
 40
0.0571280159716573
 50
359.9763681265573
 51
449.9763681265644
 73
     1
 72
     1
 10
37.10442764289048
 20
81.400272811732
 11
36.71357344449901
 21
81.40043402111869
 72
     1
 10
36.71357344449901
 20
81.40043402111869
 11
36.71352188775048
 21
81.27543403175108
 72
     1
 10
36.71352188775048
 20
81.27543403175108
 11
37.05749622295703
 21
81.27529215815256
 72
     1
 10
37.05749622295691
 20
81.27529215815256
 11
37.05737951702402
 21
80.99233714665599
 72
     2
 10
37.24488854278396
 20
81.0141815481184
 40
0.1887771506741734
 50
186.6448831998169
 51
353.3078530532888
 73
     1
 72
     1
 10
37.4323794851269
 20
80.99218247641035
 11
37.43250817412714
 21
81.30419058621358
 72
     2
 10
37.34370605137936
 20
81.298101069719
 40
0.0890106691113012
 50
3.922859359099021
 51
176.0298768940037
 73
     1
 72
     1
 10
37.25490898213566
 20
81.30426383771489
 11
37.31899589461848
 21
81.09382677759247
 72
     2
 10
37.24195446164397
 20
81.07036442942185
 40
0.0805348631119007
 50
343.0623079543601
 51
540.0236318734479
 73
     0
 97
        0
 75
     1
 76
     1
 52
0.0
 41
0.2
 77
     0
 78
     3
 53
0.0
 43
-68.59340292865799
 44
30.1540901740451
 45
0.0375
 46
0.021650635094611
 79
     2
 49
0.025
 49
-0.05
 53
120.0
 43
-68.59340292865799
 44
30.1540901740451
 45
-0.0375
 46
0.021650635094611
 79
     2
 49
0.0249999999999999
 49
-0.0499999999999998
 53
60.0
 43
-68.59340292865799
 44
30.1540901740451
 45
0.0
 46
0.043301270189222
 79
     2
 49
-0.05
 49
0.025
 98
        1
 10
-68.59340292865799
 20
30.1540901740451
1001
GradientColor1ACI
1070
     5
1001
GradientColor2ACI
1070
     2
1001
ACAD
1010
0.0
1020
0.0
1030
0.0
  0
LWPOLYLINE
  5
9A
330
2
100
AcDbEntity
  8
0
100
AcDbPolyline
 90
       11
 70
     1
 43
0.0
 10
37.16141960538228
 20
81.07039764634732
 10
37.1615320913249
 20
81.34312123794156
 42
0.4142135623731042
 10
37.10442764289048
 20
81.400272811732
 10
36.71357344449901
 20
81.40043402111869
 10
36.71352188775048
 20
81.27543403175108
 10
37.05749622295691
 20
81.27529215815256
 10
37.05737951702402
 20
80.99233714665599
 42
0.8898955318630001
 10
37.4323794851269
 20
80.99218247641035
 10
37.43250817412703
 20
81.30419058621358
 42
0.9333884728362816
 10
37.25490898213566
 20
81.30426383771489
 10
37.31899589461848
 20
81.09382677759247
 42
-1.16016115395227
  0
LWPOLYLINE
  5
9B
330
2
100
AcDbEntity
  8
0
  6
Continuous
100
AcDbPolyline
 90
        9
 70
     1
 43
0.0
 10
36.714353819436
 20
81.36997663380073
 10
36.714353819436
 20
81.3996533241802
 10
37.09175120582332
 20
81.39949766510973
 10
37.09161907676942
 20
81.07914910181616
 10
37.05811752375992
 20
81.07916291966647
 10
37.05823807192754
 20
81.37143347768704
 10
36.7448115390858
 20
81.37156275172156
 10
36.83971817890013
 20
81.27657779035244
 10
36.80767564919127
 20
81.27657779035244
  0
LINE
  5
9C
330
2
100
AcDbEntity
  8
0
  6
HIDDEN
100
AcDbLine
 10
36.86999622295703
 20
63.65156744242499
 30
0.0
 11
36.86999622295703
 21
63.7435674424258
 31
0.0
  0
LINE
  5
9E
330
2
100
AcDbEntity
  8
0
  6
HIDDEN
100
AcDbLine
 10
36.86999622295703
 20
64.78032175398256
 30
0.0
 11
36.86999622295692
 21
71.99500350334069
 31
0.0
  0
LINE
  5
9F
330
2
100
AcDbEntity
  8
0
  6
HIDDEN
100
AcDbLine
 10
36.86999622295692
 20
76.12000350334067
 30
0.0
 11
36.86999622295692
 21
80.80643956425639
 31
0.0
  0
LINE
  5
A0
330
2
100
AcDbEntity
  8
0
100
AcDbLine
 10
37.05618642551242
 20
80.80643956425639
 30
0.0
 11
37.05618642551242
 21
76.12000350334067
 31
0.0
  0
LINE
  5
A1
330
2
100
AcDbEntity
  8
0
100
AcDbLine
 10
37.05618642551242
 20
71.99500350334069
 30
0.0
 11
37.05618642551231
 21
64.81568054938612
 31
0.0
  0
LINE
  5
A2
330
2
100
AcDbEntity
  8
0
100
AcDbLine
 10
37.05618642551231
 20
63.83625764498096
 30
0.0
 11
37.05618642551231
 21
63.65156744242499
 31
0.0
  0
LINE
  5
A3
330
2
100
AcDbEntity
  8
0
100
AcDbLine
 10
35.99318642551244
 20
80.80643956425639
 30
0.0
 11
35.99318642551244
 21
76.12000350334064
 31
0.0
  0
LINE
  5
A4
330
2
100
AcDbEntity
  8
0
100
AcDbLine
 10
36.05568642551244
 20
80.80643956425639
 30
0.0
 11
36.05568642551244
 21
76.12000350334064
 31
0.0
  0
LINE
  5
A5
330
2
100
AcDbEntity
  8
0
100
AcDbLine
 10
36.11818642551244
 20
80.80643956425639
 30
0.0
 11
36.11818642551244
 21
76.12000350334064
 31
0.0
  0
LINE
  5
A6
330
2
100
AcDbEntity
  8
0
100
AcDbLine
 10
35.99318642551244
 20
71.99500350334069
 30
0.0
 11
35.99318642551244
 21
63.65156744242499
 31
0.0
  0
LINE
  5
A7
330
2
100
AcDbEntity
  8
0
100
AcDbLine
 10
36.05568642551244
 20
71.99500350334069
 30
0.0
 11
36.05568642551244
 21
63.65156744242499
 31
0.0
  0
LINE
  5
A8
330
2
100
AcDbEntity
  8
0
100
AcDbLine
 10
36.11818642551244
 20
71.99500350334069
 30
0.0
 11
36.11818642551244
 21
63.65156744242499
 31
0.0
  0
LINE
  5
A9
330
2
100
AcDbEntity
  8
0
100
AcDbLine
 10
37.43249622295691
 20
80.80643956425639
 30
0.0
 11
35.99318642551244
 21
80.80643956425639
 31
0.0
  0
LINE
  5
AA
330
2
100
AcDbEntity
  8
0
100
AcDbLine
 10
37.05618642551231
 20
63.65156744242502
 30
0.0
 11
35.99318642551244
 21
63.65156744242502
 31
0.0
  0
LINE
  5
AB
330
2
100
AcDbEntity
  8
0
100
AcDbLine
 10
37.49449622295704
 20
63.99456744242501
 30
0.0
 11
37.21449622295684
 21
63.99456744242501
 31
0.0
  0
LWPOLYLINE
  5
AC
330
2
100
AcDbEntity
  8
0
100
AcDbPolyline
 90
       40
 70
     1
 43
0.0
 10
31.33174622294844
 20
61.62997433618677
 10
31.52174622295077
 20
61.62997433618677
 42
0.4142135623730951
 10
31.55174622294961
 20
61.65997433618561
 10
31.55174622294961
 20
61.66197433618602
 42
0.4142135623730951
 10
31.52174622295077
 20
61.69197433618485
 10
31.39574622294693
 20
61.69197433618485
 42
-0.4142135623730951
 10
31.36574622294809
 20
61.72197433618733
 10
31.36574622294809
 20
62.37396589956354
 42
-0.394234366758333
 10
31.39368709058415
 20
62.40389514903457
 10
32.48774622295112
 20
62.47916641734066
 10
32.48774622295112
 20
61.74450940493064
 42
-0.4240125356246272
 10
32.45674622295572
 20
61.71452607622798
 42
0.4240125356240014
 10
32.42574622295304
 20
61.68454274752896
 10
32.42574622295304
 20
61.65870882542169
 42
0.4142135623730951
 10
32.45574622295187
 20
61.62870882542286
 10
32.61174622294728
 20
61.62870882541558
 42
0.4142135623730951
 10
32.64174622294611
 20
61.65870882542169
 10
33.09397217726889
 20
61.77562913563618
 10
33.58274622295228
 20
61.77562913563618
 42
-0.4142135623730951
 10
33.61374622295496
 20
61.74462913563714
 10
33.65741056361965
 20
61.78580247821976
 42
0.6788458185327744
 10
33.6368290907363
 20
61.83762913563789
 10
33.08608695359233
 20
61.83762913563789
 10
32.6331083887804
 20
61.72051424248805
 10
32.57974622294803
 20
61.72051424248805
 42
-0.4142135623730951
 10
32.5497462229492
 20
61.75051424248689
 10
32.5497462229492
 20
62.48343201734117
 10
33.49412966360485
 20
62.54840559805764
 42
0.5362472625152441
 10
33.58274622294864
 20
62.43134035918122
 10
33.61972325303812
 20
62.43134035918122
 42
0.3101477582223153
 10
33.75812437583461
 20
62.50778409728248
 42
0.6346282873960475
 10
33.69926534631175
 20
62.52943673894136
 42
-0.2527834310194633
 10
33.63512565339132
 20
62.49271328964262
 10
33.58486946556748
 20
62.48926305581502
 42
-0.4344355510162874
 10
33.5517462229496
 20
62.52019025809371
 10
33.5517462229496
 20
62.53458508593197
 10
33.5517462229496
 20
62.61451618074882
 10
31.32968709058566
 20
62.46163851243984
 42
0.3942343667588095
 10
31.30174622294961
 20
62.43170926296882
 10
31.30174622294961
 20
61.65997433618561
 42
0.4142135623730951
  0
LINE
  5
AD
330
2
100
AcDbEntity
  8
0
  6
HIDDEN
100
AcDbLine
 10
36.86999622295737
 20
63.65156744253674
 30
0.0
 11
36.86999622295737
 21
63.74356744253756
 31
0.0
  0
LINE
  5
AE
330
2
100
AcDbEntity
  8
0
100
AcDbLine
 10
37.05618642551265
 20
63.83625764509272
 30
0.0
 11
37.05618642551265
 21
63.65156744253674
 31
0.0
  0
LWPOLYLINE
  5
AF
102
{ACAD_REACTORS
330
21D
102
}
330
2
100
AcDbEntity
  8
0
100
AcDbPolyline
 90
       15
 70
     0
 43
0.0
 10
31.6812663699006
 20
81.72844509676165
 42
0.4142135623730951
 10
31.74326636990061
 20
81.66644509676167
 10
32.62026636990056
 20
81.66644509676167
 10
32.62026636990068
 20
82.91644509676167
 10
32.68226636990069
 20
82.91644509676167
 10
32.68226636990069
 20
83.54144509676165
 10
31.61926636990059
 20
83.54144509676165
 42
0.4142135623731003
 10
31.55726636990069
 20
83.47944509676166
 10
31.55726636990069
 20
82.94744509676165
 42
0.4142135623730951
 10
31.58826636990064
 20
82.91644509676167
 10
31.61926636990059
 20
82.91644509676167
 10
31.61926636990059
 20
82.69744509676165
 42
0.4142135623730951
 10
31.65026636990065
 20
82.66644509676165
 10
31.6812663699006
 20
82.66644509676165
 10
31.6812663699006
 20
81.72844510623098
  0
HATCH
  5
B0
330
2
100
AcDbEntity
  8
0
  6
Continuous
100
AcDbHatch
 10
0.0
 20
0.0
 30
0.0
210
0.0
220
0.0
230
1.0
  2
STEEL
 70
     0
 71
     0
 91
        1
 92
        7
 72
     0
 73
     1
 93
        6
 10
32.68226636990057
 20
82.16244509676165
 10
32.68226636990069
 20
82.88226336069733
 10
32.62026636990068
 20
82.88226336069733
 10
32.62026636990056
 20
82.10044509676164
 10
33.27739776417532
 20
82.10044509676164
 10
33.27739776417532
 20
82.16244509676165
 97
        0
 75
     0
 76
     1
 52
-0.0000000000000127
 41
1.0
 77
     0
 78
     2
 53
44.99999999999999
 43
130.5756512054264
 44
38.89639261575455
 45
-0.0883883476483184
 46
0.0883883476483185
 79
     0
 53
44.99999999999999
 43
130.5756512054264
 44
38.95889261575455
 45
-0.0883883476483184
 46
0.0883883476483185
 79
     0
 47
0.003572857848563
 98
        1
 10
32.79084193504498
 20
82.1348270098054
  0
LINE
  5
B1
330
2
100
AcDbEntity
  8
0
100
AcDbLine
 10
32.62026636990068
 20
82.88226336069733
 30
0.0
 11
32.62026636990056
 21
82.10044509676164
 31
0.0
  0
LINE
  5
B2
330
2
100
AcDbEntity
  8
0
  6
Continuous
100
AcDbLine
 10
32.62026636990056
 20
82.10044509676164
 30
0.0
 11
33.27739776417532
 21
82.10044509676164
 31
0.0
  0
LINE
  5
B3
330
2
100
AcDbEntity
  8
0
  6
Continuous
100
AcDbLine
 10
32.68226636990057
 20
82.16244509676165
 30
0.0
 11
33.27739776417532
 21
82.16244509676165
 31
0.0
  0
LINE
  5
B4
330
2
100
AcDbEntity
  8
0
  6
Continuous
100
AcDbLine
 10
33.27739776417532
 20
82.16244509676165
 30
0.0
 11
33.27739776417532
 21
82.10044509676164
 31
0.0
  0
LINE
  5
B5
330
2
100
AcDbEntity
  8
0
100
AcDbLine
 10
32.68226636990069
 20
82.88226336069733
 30
0.0
 11
32.68226636990057
 21
82.16244509676165
 31
0.0
  0
INSERT
  5
B6
330
2
100
AcDbEntity
  8
0
100
AcDbBlockReference
  2
8 x .75 FH
 10
32.68226636990069
 20
82.52235422872949
 30
0.0
 50
270.0
  0
INSERT
  5
104
330
2
100
AcDbEntity
  8
0
100
AcDbBlockReference
  2
8 X .625 PH
 10
32.97983206703801
 20
82.16244509676165
 30
0.0
  0
LINE
  5
159
330
2
100
AcDbEntity
  8
0
100
AcDbLine
 10
32.68226636990069
 20
82.88226336069733
 30
0.0
 11
32.62026636990068
 21
82.88226336069737
 31
0.0
  0
LWPOLYLINE
  5
15A
330
2
100
AcDbEntity
  8
0
100
AcDbPolyline
 90
       19
 70
     1
 43
0.0
 10
34.05776636990079
 20
81.3524450967621
 10
34.05776636990079
 20
81.14994509676209
 42
0.4142135623730818
 10
34.11976636990092
 20
81.08794509676208
 10
34.61999622295691
 20
81.08794509676208
 10
34.61999622295691
 20
81.25894509218626
 42
-0.3200000000033261
 10
34.61999622295691
 20
81.38394509218789
 10
34.61999622295691
 20
81.82344510133789
 42
1.0
 10
34.61999622295691
 20
82.00944510133725
 10
34.61999622295691
 20
82.10044509676206
 10
33.99499622295691
 20
82.10044509676206
 10
33.86996380158946
 20
81.85048834083183
 10
33.37026636990079
 20
82.10044509676206
 10
32.62026636990079
 20
82.10044509676205
 10
32.62026636990079
 20
81.52544509676205
 42
0.4142135623730959
 10
32.68226636990092
 20
81.46344509676207
 10
34.05776636990079
 20
81.46344509676209
 10
34.05776636990079
 20
81.45884999954169
 10
34.29757653569261
 20
81.47983067044675
 10
34.3068150444238
 20
81.37423403244902
  0
HATCH
  5
15B
330
2
100
AcDbEntity
  8
0
100
AcDbHatch
 10
0.0
 20
0.0
 30
0.0
210
0.0
220
0.0
230
1.0
  2
HONEY
 70
     0
 71
     0
 91
        1
 92
        1
 93
       16
 72
     1
 10
34.17176636990082
 20
81.35944509676212
 11
34.16676636990083
 21
81.40144509676211
 72
     1
 10
34.16676636990094
 20
81.40144509676209
 11
34.05776636990102
 21
81.40144509676209
 72
     1
 10
34.05776636990079
 20
81.40144509676209
 11
34.05776636990079
 21
81.14844509676208
 72
     2
 10
33.99576636990089
 20
81.1484450967621
 40
0.0620000000000118
 50
0.0
 51
90.0
 73
     0
 72
     1
 10
33.99576636990089
 20
81.08644509676208
 11
33.94854016858797
 21
81.08644509676215
 72
     2
 10
33.94854016858797
 20
81.10144509676214
 40
0.0149999999999864
 50
90.0
 51
160.149945478262
 73
     0
 72
     1
 10
33.93443140134271
 20
81.0963517003686
 11
33.81454535466794
 21
81.428437443908
 72
     2
 10
33.8286541219132
 20
81.43353084030151
 40
0.0149999999999975
 50
160.1499454783641
 51
249.5218661953308
 73
     0
 72
     1
 10
33.82340637360956
 20
81.44758292689898
 11
33.85338595960487
 21
81.45877879595778
 72
     2
 10
33.85863370790828
 20
81.4447267093603
 40
0.0149999999999873
 50
249.5218661952929
 51
340.1499454783642
 73
     0
 72
     1
 10
33.87274247515354
 20
81.44982010575382
 11
33.96565760265567
 21
81.19244412198916
 72
     2
 10
33.97976636990082
 20
81.19753751838267
 40
0.0149999999999804
 50
199.8500545217748
 51
359.9999999998914
 73
     1
 72
     1
 10
33.99476636990092
 20
81.19753751838267
 11
33.99476636990092
 21
81.43244509676209
 72
     2
 10
34.02576636990087
 20
81.43244509676209
 40
0.0310000000000059
 50
180.0
 51
270.0
 73
     0
 72
     1
 10
34.02576636990087
 20
81.46344509676209
 11
34.27576636990087
 21
81.46344509676209
 72
     1
 10
34.27576636990087
 20
81.46344509676209
 11
34.17176636990082
 21
81.35944509676212
 97
        0
 75
     1
 76
     1
 52
360.0
 41
0.15
 77
     0
 78
     3
 53
360.0
 43
199.4582295361502
 44
-76.34130246678295
 45
0.028125
 46
0.0162379763209582
 79
     2
 49
0.01875
 49
-0.0375
 53
119.9999999999999
 43
199.4582295361502
 44
-76.34130246678295
 45
-0.028125
 46
0.0162379763209582
 79
     2
 49
0.01875
 49
-0.0374999999999999
 53
59.99999999999997
 43
199.4582295361502
 44
-76.34130246678295
 45
0.0
 46
0.0324759526419165
 79
     2
 49
-0.0375
 49
0.01875
 98
        1
 10
199.4582295361502
 20
-76.34130246678295
1001
GradientColor1ACI
1070
     5
1001
GradientColor2ACI
1070
     2
1001
ACAD
1010
0.0
1020
0.0
1030
0.0
  0
LWPOLYLINE
  5
15C
330
2
100
AcDbEntity
  8
0
100
AcDbPolyline
 90
       16
 70
     1
 43
0.0
 10
34.17176636990082
 20
81.35944509676212
 10
34.16676636990094
 20
81.40144509676209
 10
34.05776636990079
 20
81.40144509676209
 10
34.05776636990079
 20
81.1484450967621
 42
-0.4142135623730951
 10
33.99576636990089
 20
81.08644509676208
 10
33.94854016858797
 20
81.08644509676215
 42
-0.3160182401893135
 10
33.93443140134271
 20
81.0963517003686
 10
33.81454535466794
 20
81.42843744390798
 42
-0.4110064843483962
 10
33.82340637360956
 20
81.44758292689898
 10
33.85338595960487
 20
81.45877879595778
 42
-0.4174279297685614
 10
33.87274247515354
 20
81.44982010575382
 10
33.96565760265567
 20
81.19244412198915
 42
0.840215161469082
 10
33.99476636990092
 20
81.19753751838267
 10
33.99476636990092
 20
81.43244509676209
 42
-0.4142135623730951
 10
34.02576636990087
 20
81.46344509676209
 10
34.27576636990087
 20
81.46344509676209
  0
LWPOLYLINE
  5
15D
102
{ACAD_REACTORS
330
271
330
282
102
}
330
2
100
AcDbEntity
  8
0
100
AcDbPolyline
 90
       12
 70
     1
 43
0.0
 10
33.80776636990079
 20
81.33844509676206
 42
-0.4142135623730943
 10
33.87026636990079
 20
81.27594509676207
 10
33.87026636990079
 20
78.35612834558428
 10
33.80800420127009
 20
78.28818111166255
 10
33.49526636990079
 20
78.26082009676206
 10
33.49526636990079
 20
78.94832009676206
 10
33.38120245284161
 20
78.94832009676206
 10
33.37026636990079
 20
78.82332009676206
 10
32.6825285385316
 20
78.88348936048477
 10
32.62026636990079
 20
78.9514365944065
 10
32.62026636990079
 20
81.27594509676207
 42
-0.4142135623730951
 10
32.68276636990079
 20
81.33844509676206
  0
LWPOLYLINE
  5
15E
330
2
100
AcDbEntity
  8
0
  6
Continuous
100
AcDbPolyline
 90
       25
 70
     0
 43
0.0
 10
33.52651636990079
 20
77.11919509676018
 10
33.65151636990079
 20
77.11919509676015
 10
33.65151636990079
 20
76.99419509676015
 10
33.52651636990079
 20
76.99419509676015
 10
33.52651636990079
 20
76.74469509676207
 10
33.62147742277769
 20
76.74469509676207
 10
33.62147742277769
 20
76.79430232253587
 42
0.3899024490719342
 10
33.80647742278263
 20
76.99547517386024
 10
33.90151636990079
 20
76.99547517386567
 10
33.90151636990079
 20
78.16619509676418
 42
0.4142135623730951
 10
33.87051636990539
 20
78.19719509675959
 10
33.49526636990079
 20
78.19719509675959
 10
33.49526636990079
 20
78.66594509676149
 42
0.4142135623730951
 10
33.46401636990079
 20
78.69719509676149
 10
33.46401636990079
 20
78.69719509676149
 10
33.46401636990079
 20
78.69719509676149
 10
33.46401636990079
 20
78.69719509676149
 10
33.46401636990079
 20
78.69719509676149
 10
33.46401636990079
 20
78.69719509676149
 10
32.71351636990615
 20
78.69719509676149
 10
32.65101636989887
 20
78.63469509676149
 10
32.6510163698916
 20
77.33769509676283
 42
0.4142135623730951
 10
32.68201636990155
 20
77.30669509676015
 10
33.52651636990079
 20
77.30669509676015
 10
33.52651636990079
 20
77.11919509676018
  0
LWPOLYLINE
  5
15F
330
2
100
AcDbEntity
  8
0
  6
Continuous
100
AcDbPolyline
 90
       12
 70
     1
 43
0.0
 10
33.50513082609867
 20
77.05669509676012
 10
33.50513082609867
 20
77.30669509676015
 10
32.94311808139362
 20
77.30669509676009
 10
32.94311808139362
 20
77.24922270321006
 42
0.1626057889287369
 10
32.94612960014713
 20
77.24020736531274
 10
33.12182986323622
 20
77.00656339843895
 42
0.235730494161713
 10
33.14660605781212
 20
76.99419509676012
 10
33.22413082609872
 20
76.99419509676012
 10
33.40282986323617
 20
76.75656339843896
 42
0.2357304941617225
 10
33.4276060578123
 20
76.74419509676012
 10
33.50513082609867
 20
76.74419509676012
 10
33.50513082609867
 20
76.86919509676013
 42
-0.6666666666666675
  0
LWPOLYLINE
  5
160
330
2
100
AcDbEntity
  8
0
  6
HIDDEN2
100
AcDbPolyline
 90
        4
 70
     0
 43
0.02
 10
33.65151636990079
 20
77.05669509676015
 10
33.56244791451748
 20
77.05669509676015
 42
0.4142135623730951
 10
33.51594791451756
 20
77.01019509676017
 10
33.51594791451756
 20
76.1200035033407
  0
LWPOLYLINE
  5
161
330
2
100
AcDbEntity
  8
0
100
AcDbPolyline
 90
        2
 70
     1
 43
0.05859375
 10
33.59288342225257
 20
77.08599197176015
 42
1.0
 10
33.59288342225257
 20
77.02739822176015
 42
1.0
  0
LWPOLYLINE
  5
162
102
{ACAD_REACTORS
330
2A4
330
2B5
102
}
330
2
100
AcDbEntity
  8
0
100
AcDbPolyline
 90
       12
 70
     1
 43
0.0
 10
33.80776636990079
 20
62.807067442425
 42
0.4142135623730943
 10
33.87026636990079
 20
62.86956744242501
 10
33.87026636990079
 20
69.75887866109712
 10
33.80800420127009
 20
69.82682589501884
 10
33.49526636990079
 20
69.85418690991934
 10
33.49526636990079
 20
69.16668690991933
 10
33.38120245284161
 20
69.16668690991933
 10
33.37026636990079
 20
69.29168690991933
 10
32.6825285385316
 20
69.23151764619662
 10
32.62026636990079
 20
69.16357041227489
 10
32.62026636990079
 20
62.86956744242501
 42
0.4142135623730951
 10
32.68276636990079
 20
62.807067442425
  0
LWPOLYLINE
  5
163
330
2
100
AcDbEntity
  8
0
  6
Continuous
100
AcDbPolyline
 90
       25
 70
     0
 43
0.0
 10
33.52651636990079
 20
70.99581190992122
 10
33.65151636990079
 20
70.99581190992124
 10
33.65151636990079
 20
71.12081190992125
 10
33.52651636990079
 20
71.12081190992125
 10
33.52651636990079
 20
71.37031190991932
 10
33.62147742277769
 20
71.37031190991932
 10
33.62147742277769
 20
71.32070468414553
 42
-0.3899024490719342
 10
33.80647742278263
 20
71.11953183282115
 10
33.90151636990079
 20
71.11953183281572
 10
33.90151636990079
 20
69.94881190991721
 42
-0.4142135623730951
 10
33.87051636990539
 20
69.91781190992181
 10
33.49526636990079
 20
69.91781190992181
 10
33.49526636990079
 20
69.4490619099199
 42
-0.4142135623730951
 10
33.46401636990079
 20
69.4178119099199
 10
33.46401636990079
 20
69.4178119099199
 10
33.46401636990079
 20
69.4178119099199
 10
33.46401636990079
 20
69.4178119099199
 10
33.46401636990079
 20
69.4178119099199
 10
33.46401636990079
 20
69.4178119099199
 10
32.71351636990615
 20
69.4178119099199
 10
32.65101636989887
 20
69.4803119099199
 10
32.6510163698916
 20
70.77731190991856
 42
-0.4142135623730951
 10
32.68201636990155
 20
70.80831190992125
 10
33.52651636990079
 20
70.80831190992125
 10
33.52651636990079
 20
70.99581190992122
  0
LWPOLYLINE
  5
164
330
2
100
AcDbEntity
  8
0
  6
Continuous
100
AcDbPolyline
 90
       12
 70
     1
 43
0.0
 10
33.50513082609867
 20
71.05831190992127
 10
33.50513082609867
 20
70.80831190992125
 10
32.94311808139362
 20
70.8083119099213
 10
32.94311808139362
 20
70.86578430347133
 42
-0.1626057889287369
 10
32.94612960014713
 20
70.87479964136865
 10
33.12182986323622
 20
71.10844360824244
 42
-0.235730494161713
 10
33.14660605781212
 20
71.12081190992127
 10
33.22413082609872
 20
71.12081190992127
 10
33.40282986323617
 20
71.35844360824243
 42
-0.2357304941617225
 10
33.4276060578123
 20
71.37081190992127
 10
33.50513082609867
 20
71.37081190992127
 10
33.50513082609867
 20
71.24581190992127
 42
0.6666666666666675
  0
LWPOLYLINE
  5
165
330
2
100
AcDbEntity
  8
0
  6
HIDDEN2
100
AcDbPolyline
 90
        4
 70
     0
 43
0.02
 10
33.65151636990079
 20
71.05831190992124
 10
33.56244791451748
 20
71.05831190992124
 42
-0.4142135623730951
 10
33.51594791451756
 20
71.10481190992122
 10
33.51594791451756
 20
71.99500350334069
  0
LWPOLYLINE
  5
166
330
2
100
AcDbEntity
  8
0
100
AcDbPolyline
 90
        2
 70
     1
 43
0.05859375
 10
33.59288342225257
 20
71.02901503492124
 42
-1.0
 10
33.59288342225257
 20
71.08760878492124
 42
-1.0
  0
HATCH
  5
167
330
2
100
AcDbEntity
  8
0
100
AcDbHatch
 10
0.0
 20
0.0
 30
0.0
210
0.0
220
0.0
230
1.0
  2
SOLID
 70
     1
 71
     0
 91
        1
 92
        7
 72
     0
 73
     1
 93
        4
 10
31.64938878108667
 20
77.11919509676015
 10
31.52438878108667
 20
77.11919509676018
 10
31.52438878108667
 20
76.99419509676015
 10
31.64938878108667
 20
76.99419509676015
 97
        0
 75
     1
 76
     1
 47
0.0019978748433788
 98
        1
 10
31.56248993594734
 20
77.07253637447074
1001
GradientColor1ACI
1070
     5
1001
GradientColor2ACI
1070
     2
1001
ACAD
1010
0.0
1020
0.0
1030
0.0
  0
LWPOLYLINE
  5
168
330
2
100
AcDbEntity
  8
0
  6
Continuous
100
AcDbPolyline
 90
       25
 70
     0
 43
0.0
 10
31.52438878108667
 20
77.11919509676018
 10
31.64938878108667
 20
77.11919509676015
 10
31.64938878108667
 20
76.99419509676015
 10
31.52438878108667
 20
76.99419509676015
 10
31.52438878108667
 20
76.74469509676207
 10
31.61934983396357
 20
76.74469509676207
 10
31.61934983396357
 20
76.79430232253587
 42
0.3899024490719342
 10
31.80434983396852
 20
76.99547517386024
 10
31.89938878108667
 20
76.99547517386567
 10
31.89938878108667
 20
78.16619509676418
 42
0.4142135623730951
 10
31.86838878109127
 20
78.19719509675959
 10
31.49313878108667
 20
78.19719509675959
 10
31.49313878108667
 20
78.66594509676149
 42
0.4142135623730951
 10
31.46188878108667
 20
78.69719509676149
 10
31.46188878108667
 20
78.69719509676149
 10
31.46188878108667
 20
78.69719509676149
 10
31.46188878108667
 20
78.69719509676149
 10
31.46188878108667
 20
78.69719509676149
 10
31.46188878108667
 20
78.69719509676149
 10
30.71138878109203
 20
78.69719509676149
 10
30.64888878108475
 20
78.63469509676149
 10
30.64888878107748
 20
77.33769509676283
 42
0.4142135623730951
 10
30.67988878108743
 20
77.30669509676015
 10
31.52438878108667
 20
77.30669509676015
 10
31.52438878108667
 20
77.11919509676018
  0
LWPOLYLINE
  5
169
102
{ACAD_REACTORS
330
282
102
}
330
2
100
AcDbEntity
  8
0
  6
Continuous
100
AcDbPolyline
 90
       12
 70
     1
 43
0.0
 10
31.36664870234661
 20
77.05669509676012
 10
31.36664870234661
 20
77.30669509676015
 10
30.80463595764157
 20
77.30669509676009
 10
30.80463595764157
 20
77.24922270321006
 42
0.1626057889287369
 10
30.80764747639508
 20
77.24020736531274
 10
30.98334773948416
 20
77.00656339843895
 42
0.235730494161713
 10
31.00812393406007
 20
76.99419509676012
 10
31.08564870234666
 20
76.99419509676012
 10
31.26434773948411
 20
76.75656339843896
 42
0.2357304941617225
 10
31.28912393406024
 20
76.74419509676012
 10
31.36664870234661
 20
76.74419509676012
 10
31.36664870234661
 20
76.86919509676013
 42
-0.6666666666666675
  0
LWPOLYLINE
  5
16A
330
2
100
AcDbEntity
  8
0
  6
Continuous
100
AcDbPolyline
 90
       25
 70
     0
 43
0.0
 10
31.52438878108667
 20
70.99581190992122
 10
31.64938878108667
 20
70.99581190992124
 10
31.64938878108667
 20
71.12081190992125
 10
31.52438878108667
 20
71.12081190992125
 10
31.52438878108667
 20
71.37031190991932
 10
31.61934983396357
 20
71.37031190991932
 10
31.61934983396357
 20
71.32070468414553
 42
-0.3899024490719342
 10
31.80434983396852
 20
71.11953183282115
 10
31.89938878108667
 20
71.11953183281572
 10
31.89938878108667
 20
69.94881190991721
 42
-0.4142135623730951
 10
31.86838878109127
 20
69.91781190992181
 10
31.49313878108667
 20
69.91781190992181
 10
31.49313878108667
 20
69.4490619099199
 42
-0.4142135623730951
 10
31.46188878108667
 20
69.4178119099199
 10
31.46188878108667
 20
69.4178119099199
 10
31.46188878108667
 20
69.4178119099199
 10
31.46188878108667
 20
69.4178119099199
 10
31.46188878108667
 20
69.4178119099199
 10
31.46188878108667
 20
69.4178119099199
 10
30.71138878109203
 20
69.4178119099199
 10
30.64888878108475
 20
69.4803119099199
 10
30.64888878107748
 20
70.77731190991856
 42
-0.4142135623730951
 10
30.67988878108743
 20
70.80831190992125
 10
31.52438878108667
 20
70.80831190992125
 10
31.52438878108667
 20
70.99581190992122
  0
HATCH
  5
16B
330
2
100
AcDbEntity
  8
0
100
AcDbHatch
 10
0.0
 20
0.0
 30
0.0
210
0.0
220
0.0
230
1.0
  2
SOLID
 70
     1
 71
     0
 91
        1
 92
        7
 72
     1
 73
     1
 93
        2
 10
31.36664870234684
 20
76.86919509676015
 42
0.0
 10
31.36664870234661
 20
77.05669509676012
 42
0.6666666666666311
 97
        0
 75
     1
 76
     1
 47
0.0010014887122476
 98
        1
 10
31.32058862599986
 20
76.98410029280428
1001
GradientColor1ACI
1070
     5
1001
GradientColor2ACI
1070
     2
1001
ACAD
1010
0.0
1020
0.0
1030
0.0
  0
LWPOLYLINE
  5
16C
330
2
100
AcDbEntity
  8
0
100
AcDbPolyline
 90
        4
 70
     0
 43
0.0
 10
31.52438878108667
 20
76.11909172861579
 10
31.52438878108667
 20
77.19769509675977
 10
31.36664870234661
 20
77.19769509675977
 10
31.36664870234661
 20
76.11909172861579
  0
LWPOLYLINE
  5
16D
330
2
100
AcDbEntity
  8
0
100
AcDbPolyline
 90
        8
 70
     0
 43
0.0
 10
31.36664870234661
 20
77.30669509676015
 10
31.52438878108667
 20
77.30669509676015
 10
31.52438878108667
 20
77.19769509675977
 10
31.36664870234661
 20
77.19769509675977
 10
31.36664870234661
 20
77.30669509676015
 10
31.52438878108667
 20
77.19769509675977
 10
31.36664870234661
 20
77.19769509675977
 10
31.52438878108667
 20
77.30669509676015
  0
HATCH
  5
16E
330
2
100
AcDbEntity
  8
0
100
AcDbHatch
 10
0.0
 20
0.0
 30
0.0
210
0.0
220
0.0
230
1.0
  2
SOLID
 70
     1
 71
     0
 91
        1
 92
        7
 72
     0
 73
     1
 93
        4
 10
31.64938878108667
 20
70.99581190992124
 10
31.52438878108667
 20
70.99581190992122
 10
31.52438878108667
 20
71.12081190992125
 10
31.64938878108667
 20
71.12081190992125
 97
        0
 75
     1
 76
     1
 47
0.0019978748433788
 98
        1
 10
31.56248993594734
 20
71.04247063221065
1001
GradientColor1ACI
1070
     5
1001
GradientColor2ACI
1070
     2
1001
ACAD
1010
0.0
1020
0.0
1030
0.0
  0
LWPOLYLINE
  5
16F
102
{ACAD_REACTORS
330
2A4
102
}
330
2
100
AcDbEntity
  8
0
  6
Continuous
100
AcDbPolyline
 90
       12
 70
     1
 43
0.0
 10
31.36664870234661
 20
71.05831190992127
 10
31.36664870234661
 20
70.80831190992125
 10
30.80463595764157
 20
70.8083119099213
 10
30.80463595764157
 20
70.86578430347133
 42
-0.1626057889287369
 10
30.80764747639508
 20
70.87479964136865
 10
30.98334773948416
 20
71.10844360824244
 42
-0.235730494161713
 10
31.00812393406007
 20
71.12081190992127
 10
31.08564870234666
 20
71.12081190992127
 10
31.26434773948411
 20
71.35844360824243
 42
-0.2357304941617225
 10
31.28912393406024
 20
71.37081190992127
 10
31.36664870234661
 20
71.37081190992127
 10
31.36664870234661
 20
71.24581190992127
 42
0.6666666666666675
  0
HATCH
  5
170
330
2
100
AcDbEntity
  8
0
100
AcDbHatch
 10
0.0
 20
0.0
 30
0.0
210
0.0
220
0.0
230
1.0
  2
SOLID
 70
     1
 71
     0
 91
        1
 92
        7
 72
     1
 73
     1
 93
        2
 10
31.36664870234684
 20
71.24581190992124
 42
0.0
 10
31.36664870234661
 20
71.05831190992127
 42
-0.6666666666666311
 97
        0
 75
     1
 76
     1
 47
0.0010014887122476
 98
        1
 10
31.32058862599986
 20
71.13090671387711
1001
GradientColor1ACI
1070
     5
1001
GradientColor2ACI
1070
     2
1001
ACAD
1010
0.0
1020
0.0
1030
0.0
  0
LWPOLYLINE
  5
171
330
2
100
AcDbEntity
  8
0
100
AcDbPolyline
 90
        4
 70
     0
 43
0.0
 10
31.52438878108667
 20
71.9959152780656
 10
31.52438878108667
 20
70.91731190992162
 10
31.36664870234661
 20
70.91731190992162
 10
31.36664870234661
 20
71.9959152780656
  0
LWPOLYLINE
  5
172
330
2
100
AcDbEntity
  8
0
100
AcDbPolyline
 90
        8
 70
     0
 43
0.0
 10
31.36664870234661
 20
70.80831190992125
 10
31.52438878108667
 20
70.80831190992125
 10
31.52438878108667
 20
70.91731190992162
 10
31.36664870234661
 20
70.91731190992162
 10
31.36664870234661
 20
70.80831190992125
 10
31.52438878108667
 20
70.91731190992162
 10
31.36664870234661
 20
70.91731190992162
 10
31.52438878108667
 20
70.80831190992125
  0
LWPOLYLINE
  5
173
330
2
100
AcDbEntity
  8
0
  6
Continuous
100
AcDbPolyline
 90
       16
 70
     1
 43
0.0
 10
33.93226636988432
 20
63.71356744241869
 10
33.93226636989159
 20
63.24756744242562
 42
0.4142135623730951
 10
34.0572663698916
 20
63.12256744242562
 10
34.12026636990079
 20
63.12256744242562
 10
34.12026636990079
 20
62.86956744242501
 10
34.02726636991459
 20
62.86956744242501
 10
34.02726636991459
 20
62.93456744242369
 10
34.05826636989544
 20
62.93456744242369
 10
34.05826636989544
 20
63.06056744240935
 10
33.93226636988432
 20
63.06056744240935
 10
33.93226636988432
 20
62.93456744242369
 10
33.9632663699161
 20
62.93456744242369
 10
33.9632663699161
 20
62.86956744242501
 10
33.87026636990079
 20
62.86956744242501
 10
33.87026636990079
 20
63.744567442425
 10
33.90126636989619
 20
63.7445674424187
 42
-0.4142135623730951
  0
LWPOLYLINE
  5
174
330
2
100
AcDbEntity
  8
0
  6
Continuous
100
AcDbPolyline
 90
        2
 70
     0
 43
0.0
 10
33.928689420146
 20
62.57039268184072
 10
33.96526636988991
 20
62.93456744242369
  0
LWPOLYLINE
  5
175
330
2
100
AcDbEntity
  8
0
  6
Continuous
100
AcDbPolyline
 90
        2
 70
     0
 43
0.0
 10
33.99776636988993
 20
62.57039268184072
 10
33.99776636988993
 20
62.95956744242367
  0
LWPOLYLINE
  5
176
330
2
100
AcDbEntity
  8
0
  6
Continuous
100
AcDbPolyline
 90
        2
 70
     0
 43
0.0
 10
33.99276636989005
 20
62.57039268184072
 10
33.99276636989005
 20
62.95956744242367
  0
LWPOLYLINE
  5
177
330
2
100
AcDbEntity
  8
0
  6
Continuous
100
AcDbPolyline
 90
        3
 70
     0
 43
0.0
 10
33.98859970322322
 20
62.95956744242367
 10
33.98859970322322
 20
62.93456744242369
 10
33.98385740903389
 20
62.57039268184072
  0
LWPOLYLINE
  5
178
330
2
100
AcDbEntity
  8
0
  6
Continuous
100
AcDbPolyline
 90
        3
 70
     0
 43
0.0
 10
33.98526636988989
 20
62.95956744242367
 10
33.98526636988989
 20
62.93456744242369
 10
33.97584430986406
 20
62.57039268184072
  0
LWPOLYLINE
  5
179
330
2
100
AcDbEntity
  8
0
  6
Continuous
100
AcDbPolyline
 90
        3
 70
     0
 43
0.0
 10
33.98193303655656
 20
62.95956744242367
 10
33.98193303655656
 20
62.93456744242369
 10
33.96787625511259
 20
62.57039268184072
  0
LWPOLYLINE
  5
17A
330
2
100
AcDbEntity
  8
0
  6
Continuous
100
AcDbPolyline
 90
        3
 70
     0
 43
0.0
 10
33.97859970322322
 20
62.95956744242367
 10
33.97859970322322
 20
62.93456744242369
 10
33.95995259754143
 20
62.57039268184072
  0
LWPOLYLINE
  5
17B
330
2
100
AcDbEntity
  8
0
  6
Continuous
100
AcDbPolyline
 90
        3
 70
     0
 43
0.0
 10
33.9752663698899
 20
62.95956744242367
 10
33.9752663698899
 20
62.93456744242369
 10
33.95207270225372
 20
62.57039268184072
  0
LWPOLYLINE
  5
17C
330
2
100
AcDbEntity
  8
0
  6
Continuous
100
AcDbPolyline
 90
        3
 70
     0
 43
0.0
 10
33.97193303655657
 20
62.95956744242367
 10
33.97193303655657
 20
62.93456744242369
 10
33.94423594640064
 20
62.57039268184072
  0
LWPOLYLINE
  5
17D
330
2
100
AcDbEntity
  8
0
  6
Continuous
100
AcDbPolyline
 90
        3
 70
     0
 43
0.0
 10
33.96859970322323
 20
62.95956744242367
 10
33.96859970322323
 20
62.93456744242369
 10
33.93644171889726
 20
62.57039268184072
  0
LWPOLYLINE
  5
17E
330
2
100
AcDbEntity
  8
0
  6
Continuous
100
AcDbPolyline
 90
        3
 70
     0
 43
0.0
 10
34.00667533074609
 20
62.57039268184072
 10
34.00193303655654
 20
62.93456744242369
 10
34.00193303655654
 20
62.95956744242367
  0
LWPOLYLINE
  5
17F
330
2
100
AcDbEntity
  8
0
  6
Continuous
100
AcDbPolyline
 90
        3
 70
     0
 43
0.0
 10
34.01468842991592
 20
62.57039268184072
 10
34.0052663698901
 20
62.93456744242369
 10
34.0052663698901
 20
62.95956744242367
  0
LWPOLYLINE
  5
180
330
2
100
AcDbEntity
  8
0
  6
Continuous
100
AcDbPolyline
 90
        3
 70
     0
 43
0.0
 10
34.02265648466717
 20
62.57039268184072
 10
34.00859970322342
 20
62.93456744242369
 10
34.00859970322342
 20
62.95956744242367
  0
LWPOLYLINE
  5
181
330
2
100
AcDbEntity
  8
0
  6
Continuous
100
AcDbPolyline
 90
        3
 70
     0
 43
0.0
 10
34.03058014223832
 20
62.57039268184072
 10
34.01193303655676
 20
62.93456744242369
 10
34.01193303655676
 20
62.95956744242367
  0
LWPOLYLINE
  5
182
330
2
100
AcDbEntity
  8
0
  6
Continuous
100
AcDbPolyline
 90
        3
 70
     0
 43
0.0
 10
34.03846003752626
 20
62.57039268184072
 10
34.01526636989009
 20
62.93456744242369
 10
34.01526636989009
 20
62.95956744242367
  0
LWPOLYLINE
  5
183
330
2
100
AcDbEntity
  8
0
  6
Continuous
100
AcDbPolyline
 90
        3
 70
     0
 43
0.0
 10
34.04629679337934
 20
62.57039268184072
 10
34.01859970322341
 20
62.93456744242369
 10
34.01859970322341
 20
62.95956744242367
  0
LWPOLYLINE
  5
184
330
2
100
AcDbEntity
  8
0
  6
Continuous
100
AcDbPolyline
 90
        3
 70
     0
 43
0.0
 10
34.05409102088273
 20
62.57039268184072
 10
34.02193303655675
 20
62.93456744242369
 10
34.02193303655675
 20
62.95956744242367
  0
LWPOLYLINE
  5
185
330
2
100
AcDbEntity
  8
0
  6
Continuous
100
AcDbPolyline
 90
       10
 70
     0
 43
0.0
 10
34.09104448878732
 20
62.57039268184072
 10
34.02526636989008
 20
62.93456744242369
 10
34.05764136989008
 20
62.93456744242369
 10
34.05764136989008
 20
63.05894546553266
 10
33.9328913698899
 20
63.05894546553266
 10
33.9328913698899
 20
62.93456744242369
 10
33.96526636988991
 20
62.93456744242369
 10
33.96526636988991
 20
62.95956744242367
 10
34.02526636989008
 20
62.95956744242367
 10
34.02526636989008
 20
62.93456744242369
  0
LWPOLYLINE
  5
186
330
2
100
AcDbEntity
  8
0
  6
Continuous
100
AcDbPolyline
 90
        3
 70
     0
 43
0.0
 10
34.07458751286716
 20
62.57039268184072
 10
34.02526636989008
 20
62.93456744242369
 10
34.06184331963398
 20
62.57039268184072
  0
LWPOLYLINE
  5
187
330
2
100
AcDbEntity
  8
0
  6
Continuous
100
AcDbPolyline
 90
        2
 70
     0
 43
0.0
 10
34.08209984223716
 20
62.57039268184072
 10
34.02619685536623
 20
62.9312094783583
  0
LWPOLYLINE
  5
188
330
2
100
AcDbEntity
  8
0
  6
Continuous
100
AcDbPolyline
 90
        3
 70
     0
 43
0.0
 10
33.89948825099266
 20
62.57039268184072
 10
33.96526636988991
 20
62.93456744242369
 10
33.91594522691283
 20
62.57039268184072
  0
LWPOLYLINE
  5
189
330
2
100
AcDbEntity
  8
0
  6
Continuous
100
AcDbPolyline
 90
        2
 70
     0
 43
0.0
 10
33.90843289754283
 20
62.57039268184072
 10
33.96433588441376
 20
62.9312094783583
  0
LWPOLYLINE
  5
18A
330
2
100
AcDbEntity
  8
0
  6
Continuous
100
AcDbPolyline
 90
       24
 70
     1
 43
0.0
 10
33.90151636990079
 20
73.24569858368009
 10
33.90151636990079
 20
74.86930842300127
 10
33.80647742278263
 20
74.8693084230067
 42
0.389902449071936
 10
33.62147742277769
 20
75.07048127433107
 10
33.62147742277769
 20
75.12008850010487
 10
33.52651636990079
 20
75.12008850010487
 10
33.52651636990079
 20
74.87058850010679
 10
33.65151636990079
 20
74.87058850010679
 10
33.65151636990079
 20
74.74558850010679
 10
33.52651636990079
 20
74.74558850010679
 10
33.52651636990079
 20
74.55758850010678
 10
32.6827663698917
 20
74.55758850010678
 42
0.4142135623747382
 10
32.65151636989715
 20
74.52633850010657
 10
32.6515163698917
 20
73.58866850657476
 42
0.4142135623747382
 10
32.6827663698917
 20
73.55741850657459
 10
33.52651636990079
 20
73.55741850657459
 10
33.52651636990079
 20
73.3694185065746
 10
33.65151636990079
 20
73.36941850657457
 10
33.65151636990079
 20
73.24441850657457
 10
33.52651636990079
 20
73.24441850657457
 10
33.52651636990079
 20
72.99491850657649
 10
33.62147742277769
 20
72.99491850657649
 10
33.62147742277769
 20
73.04452573235029
 42
0.3899024490719359
 10
33.80647742278263
 20
73.24569858367467
  0
LWPOLYLINE
  5
18B
330
2
100
AcDbEntity
  8
0
  6
Continuous
100
AcDbPolyline
 90
       12
 70
     1
 43
0.0
 10
33.50513082609867
 20
73.30741850657457
 10
33.50513082609867
 20
73.55741850657459
 10
32.94311808139362
 20
73.55741850657453
 10
32.94311808139362
 20
73.49994611302451
 42
0.1626057889287369
 10
32.94612960014713
 20
73.49093077512718
 10
33.12182986323622
 20
73.25728680825339
 42
0.235730494161713
 10
33.14660605781212
 20
73.24491850657456
 10
33.22413082609872
 20
73.24491850657456
 10
33.40282986323617
 20
73.0072868082534
 42
0.2357304941617225
 10
33.4276060578123
 20
72.99491850657457
 10
33.50513082609867
 20
72.99491850657457
 10
33.50513082609867
 20
73.11991850657456
 42
-0.6666666666666675
  0
LWPOLYLINE
  5
18C
330
2
100
AcDbEntity
  8
0
  6
HIDDEN2
100
AcDbPolyline
 90
        4
 70
     0
 43
0.02
 10
33.65151636990079
 20
73.30741850657459
 10
33.56244791451748
 20
73.30741850657459
 42
0.4142135623730951
 10
33.51594791451756
 20
73.26091850657461
 10
33.51594791451756
 20
72.36981513843024
  0
LWPOLYLINE
  5
18D
330
2
100
AcDbEntity
  8
0
100
AcDbPolyline
 90
        2
 70
     1
 43
0.05859375
 10
33.59288342225257
 20
73.33671538157459
 42
1.0
 10
33.59288342225257
 20
73.27812163157459
 42
1.0
  0
LWPOLYLINE
  5
18E
330
2
100
AcDbEntity
  8
0
  6
Continuous
100
AcDbPolyline
 90
       12
 70
     1
 43
0.0
 10
33.50513082609867
 20
74.8075885001068
 10
33.50513082609867
 20
74.55758850010678
 10
32.94311808139362
 20
74.55758850010683
 10
32.94311808139362
 20
74.61506089365686
 42
-0.1626057889287369
 10
32.94612960014713
 20
74.62407623155418
 10
33.12182986323622
 20
74.85772019842797
 42
-0.235730494161713
 10
33.14660605781212
 20
74.8700885001068
 10
33.22413082609872
 20
74.8700885001068
 10
33.40282986323617
 20
75.10772019842796
 42
-0.2357304941617225
 10
33.4276060578123
 20
75.1200885001068
 10
33.50513082609867
 20
75.1200885001068
 10
33.50513082609867
 20
74.99508850010681
 42
0.6666666666666675
  0
LWPOLYLINE
  5
18F
330
2
100
AcDbEntity
  8
0
  6
HIDDEN2
100
AcDbPolyline
 90
        4
 70
     0
 43
0.02
 10
33.65151636990079
 20
74.80758850010677
 10
33.56244791451748
 20
74.80758850010677
 42
-0.4142135623730951
 10
33.51594791451756
 20
74.85408850010675
 10
33.51594791451756
 20
75.74519186825113
  0
LWPOLYLINE
  5
190
330
2
100
AcDbEntity
  8
0
100
AcDbPolyline
 90
        2
 70
     1
 43
0.05859375
 10
33.59288342225257
 20
74.77829162510677
 42
-1.0
 10
33.59288342225257
 20
74.83688537510677
 42
-1.0
  0
LWPOLYLINE
  5
191
330
2
100
AcDbEntity
  8
0
  6
Continuous
100
AcDbPolyline
 90
       24
 70
     1
 43
0.0
 10
31.89938878108667
 20
73.24569858368009
 10
31.89938878108667
 20
74.86930842300127
 10
31.80434983396852
 20
74.8693084230067
 42
0.389902449071936
 10
31.61934983396357
 20
75.07048127433107
 10
31.61934983396357
 20
75.12008850010487
 10
31.52438878108667
 20
75.12008850010487
 10
31.52438878108667
 20
74.87058850010679
 10
31.64938878108667
 20
74.87058850010679
 10
31.64938878108667
 20
74.74558850010679
 10
31.52438878108667
 20
74.74558850010679
 10
31.52438878108667
 20
74.55758850010678
 10
30.68063878107758
 20
74.55758850010678
 42
0.4142135623747382
 10
30.64938878108304
 20
74.52633850010657
 10
30.64938878107758
 20
73.58866850657476
 42
0.4142135623747382
 10
30.68063878107758
 20
73.55741850657459
 10
31.52438878108667
 20
73.55741850657459
 10
31.52438878108667
 20
73.3694185065746
 10
31.64938878108667
 20
73.36941850657457
 10
31.64938878108667
 20
73.24441850657457
 10
31.52438878108667
 20
73.24441850657457
 10
31.52438878108667
 20
72.99491850657649
 10
31.61934983396357
 20
72.99491850657649
 10
31.61934983396357
 20
73.04452573235029
 42
0.3899024490719359
 10
31.80434983396852
 20
73.24569858367467
  0
HATCH
  5
192
330
2
100
AcDbEntity
  8
0
100
AcDbHatch
 10
0.0
 20
0.0
 30
0.0
210
0.0
220
0.0
230
1.0
  2
SOLID
 70
     1
 71
     0
 91
        1
 92
        7
 72
     0
 73
     1
 93
        4
 10
31.64938878108667
 20
74.74508850010677
 10
31.52438878108667
 20
74.74508850010675
 10
31.52438878108667
 20
74.87008850010678
 10
31.64938878108667
 20
74.87008850010678
 97
        0
 75
     1
 76
     1
 47
0.0019978748433788
 98
        1
 10
31.56248993594734
 20
74.79174722239618
1001
GradientColor1ACI
1070
     5
1001
GradientColor2ACI
1070
     2
1001
ACAD
1010
0.0
1020
0.0
1030
0.0
  0
LWPOLYLINE
  5
193
102
{ACAD_REACTORS
330
293
102
}
330
2
100
AcDbEntity
  8
0
  6
Continuous
100
AcDbPolyline
 90
       12
 70
     1
 43
0.0
 10
31.36664870234661
 20
74.8075885001068
 10
31.36664870234661
 20
74.55758850010678
 10
30.80463595764157
 20
74.55758850010683
 10
30.80463595764157
 20
74.61506089365686
 42
-0.1626057889287369
 10
30.80764747639508
 20
74.62407623155418
 10
30.98334773948416
 20
74.85772019842797
 42
-0.235730494161713
 10
31.00812393406007
 20
74.8700885001068
 10
31.08564870234666
 20
74.8700885001068
 10
31.26434773948411
 20
75.10772019842796
 42
-0.2357304941617225
 10
31.28912393406024
 20
75.1200885001068
 10
31.36664870234661
 20
75.1200885001068
 10
31.36664870234661
 20
74.99508850010681
 42
0.6666666666666675
  0
HATCH
  5
194
330
2
100
AcDbEntity
  8
0
100
AcDbHatch
 10
0.0
 20
0.0
 30
0.0
210
0.0
220
0.0
230
1.0
  2
SOLID
 70
     1
 71
     0
 91
        1
 92
        7
 72
     1
 73
     1
 93
        2
 10
31.36664870234684
 20
74.99508850010677
 42
0.0
 10
31.36664870234661
 20
74.8075885001068
 42
-0.6666666666666311
 97
        0
 75
     1
 76
     1
 47
0.0010014887122476
 98
        1
 10
31.32058862599986
 20
74.88018330406264
1001
GradientColor1ACI
1070
     5
1001
GradientColor2ACI
1070
     2
1001
ACAD
1010
0.0
1020
0.0
1030
0.0
  0
LWPOLYLINE
  5
195
330
2
100
AcDbEntity
  8
0
100
AcDbPolyline
 90
        4
 70
     0
 43
0.0
 10
31.52438878108667
 20
75.74519186825113
 10
31.52438878108667
 20
74.66658850010715
 10
31.36664870234661
 20
74.66658850010715
 10
31.36664870234661
 20
75.74519186825113
  0
LWPOLYLINE
  5
196
330
2
100
AcDbEntity
  8
0
100
AcDbPolyline
 90
        8
 70
     0
 43
0.0
 10
31.36664870234661
 20
74.55758850010678
 10
31.52438878108667
 20
74.55758850010678
 10
31.52438878108667
 20
74.66658850010715
 10
31.36664870234661
 20
74.66658850010715
 10
31.36664870234661
 20
74.55758850010678
 10
31.52438878108667
 20
74.66658850010715
 10
31.36664870234661
 20
74.66658850010715
 10
31.52438878108667
 20
74.55758850010678
  0
HATCH
  5
197
330
2
100
AcDbEntity
  8
0
100
AcDbHatch
 10
0.0
 20
0.0
 30
0.0
210
0.0
220
0.0
230
1.0
  2
SOLID
 70
     1
 71
     0
 91
        1
 92
        7
 72
     0
 73
     1
 93
        4
 10
31.64938878108667
 20
73.36991850657459
 10
31.52438878108667
 20
73.36991850657462
 10
31.52438878108667
 20
73.24491850657459
 10
31.64938878108667
 20
73.24491850657459
 97
        0
 75
     1
 76
     1
 47
0.0019978748433788
 98
        1
 10
31.56248993594734
 20
73.32325978428518
1001
GradientColor1ACI
1070
     5
1001
GradientColor2ACI
1070
     2
1001
ACAD
1010
0.0
1020
0.0
1030
0.0
  0
LWPOLYLINE
  5
198
102
{ACAD_REACTORS
330
293
102
}
330
2
100
AcDbEntity
  8
0
  6
Continuous
100
AcDbPolyline
 90
       12
 70
     1
 43
0.0
 10
31.36664870234661
 20
73.30741850657457
 10
31.36664870234661
 20
73.55741850657459
 10
30.80463595764157
 20
73.55741850657453
 10
30.80463595764157
 20
73.49994611302451
 42
0.1626057889287369
 10
30.80764747639508
 20
73.49093077512718
 10
30.98334773948416
 20
73.25728680825339
 42
0.235730494161713
 10
31.00812393406007
 20
73.24491850657456
 10
31.08564870234666
 20
73.24491850657456
 10
31.26434773948411
 20
73.0072868082534
 42
0.2357304941617225
 10
31.28912393406024
 20
72.99491850657457
 10
31.36664870234661
 20
72.99491850657457
 10
31.36664870234661
 20
73.11991850657456
 42
-0.6666666666666675
  0
HATCH
  5
199
330
2
100
AcDbEntity
  8
0
100
AcDbHatch
 10
0.0
 20
0.0
 30
0.0
210
0.0
220
0.0
230
1.0
  2
SOLID
 70
     1
 71
     0
 91
        1
 92
        7
 72
     1
 73
     1
 93
        2
 10
31.36664870234684
 20
73.11991850657459
 42
0.0
 10
31.36664870234661
 20
73.30741850657457
 42
0.6666666666666311
 97
        0
 75
     1
 76
     1
 47
0.0010014887122476
 98
        1
 10
31.32058862599986
 20
73.23482370261872
1001
GradientColor1ACI
1070
     5
1001
GradientColor2ACI
1070
     2
1001
ACAD
1010
0.0
1020
0.0
1030
0.0
  0
LWPOLYLINE
  5
19A
330
2
100
AcDbEntity
  8
0
100
AcDbPolyline
 90
        4
 70
     0
 43
0.0
 10
31.52438878108667
 20
72.36981513843024
 10
31.52438878108667
 20
73.44841850657421
 10
31.36664870234661
 20
73.44841850657421
 10
31.36664870234661
 20
72.36981513843024
  0
LWPOLYLINE
  5
19B
330
2
100
AcDbEntity
  8
0
100
AcDbPolyline
 90
        8
 70
     0
 43
0.0
 10
31.36664870234661
 20
73.55741850657459
 10
31.52438878108667
 20
73.55741850657459
 10
31.52438878108667
 20
73.44841850657421
 10
31.36664870234661
 20
73.44841850657421
 10
31.36664870234661
 20
73.55741850657459
 10
31.52438878108667
 20
73.44841850657421
 10
31.36664870234661
 20
73.44841850657421
 10
31.52438878108667
 20
73.55741850657459
  0
LINE
  5
19C
330
2
100
AcDbEntity
  8
0
  6
HIDDEN2
100
AcDbLine
 10
31.36664870234661
 20
75.74519186825113
 30
0.0
 11
33.51594791451756
 21
75.74519186825113
 31
0.0
  0
LINE
  5
19D
330
2
100
AcDbEntity
  8
0
  6
HIDDEN2
100
AcDbLine
 10
31.36664870234661
 20
72.36981513843024
 30
0.0
 11
33.51594791451756
 21
72.36981513843024
 31
0.0
  0
LINE
  5
19E
330
2
100
AcDbEntity
  8
0
  6
HIDDEN2
100
AcDbLine
 10
31.36664870234661
 20
71.99682705279041
 30
0.0
 11
38.80749622295692
 21
71.99682705279049
 31
0.0
  0
LINE
  5
19F
330
2
100
AcDbEntity
  8
0
  6
HIDDEN
100
AcDbLine
 10
34.24526636990091
 20
80.80643956425639
 30
0.0
 11
34.24526636990079
 21
76.12000350334067
 31
0.0
  0
LINE
  5
1A0
330
2
100
AcDbEntity
  8
0
  6
HIDDEN
100
AcDbLine
 10
34.24526636990056
 20
71.99682705279046
 30
0.0
 11
34.24526636990045
 21
62.807067442425
 31
0.0
  0
LINE
  5
1A1
330
2
100
AcDbEntity
  8
0
100
AcDbLine
 10
34.05907616734551
 20
80.80643956425642
 30
0.0
 11
34.05907616734551
 21
76.12000350334067
 31
0.0
  0
LINE
  5
1A2
330
2
100
AcDbEntity
  8
0
100
AcDbLine
 10
34.05907616734551
 20
71.99682705279046
 30
0.0
 11
34.05907616734551
 21
63.12256744242562
 31
0.0
  0
LINE
  5
1A3
330
2
100
AcDbEntity
  8
0
100
AcDbLine
 10
34.05907616734551
 20
62.86956744242501
 30
0.0
 11
34.05907616734551
 21
62.807067442425
 31
0.0
  0
LINE
  5
1A4
330
2
100
AcDbEntity
  8
0
100
AcDbLine
 10
34.99807616734536
 20
80.80643956425642
 30
0.0
 11
34.99807616734559
 21
76.12000350334067
 31
0.0
  0
LINE
  5
1A5
330
2
100
AcDbEntity
  8
0
100
AcDbLine
 10
34.9980761673457
 20
71.99682705279046
 30
0.0
 11
34.99807616734582
 21
62.807067442425
 31
0.0
  0
LINE
  5
1A6
330
2
100
AcDbEntity
  8
0
100
AcDbLine
 10
35.06007616734549
 20
80.80643956425642
 30
0.0
 11
35.06007616734549
 21
76.12000350334067
 31
0.0
  0
LINE
  5
1A7
330
2
100
AcDbEntity
  8
0
100
AcDbLine
 10
35.06007616734549
 20
71.99682705279046
 30
0.0
 11
35.0600761673456
 21
62.80706744242504
 31
0.0
  0
LINE
  5
1A8
330
2
100
AcDbEntity
  8
0
100
AcDbLine
 10
35.12207616734539
 20
80.80643956425639
 30
0.0
 11
35.1220761673455
 21
76.12000350334067
 31
0.0
  0
LINE
  5
1A9
330
2
100
AcDbEntity
  8
0
100
AcDbLine
 10
35.1220761673455
 20
71.99682705279046
 30
0.0
 11
35.1220761673455
 21
62.807067442425
 31
0.0
  0
LINE
  5
1AA
330
2
100
AcDbEntity
  8
0
100
AcDbLine
 10
35.12207616734539
 20
80.80643956425639
 30
0.0
 11
33.87026636990079
 21
80.80643956425639
 31
0.0
  0
LINE
  5
1AB
330
2
100
AcDbEntity
  8
0
100
AcDbLine
 10
33.87026636990079
 20
62.807067442425
 30
0.0
 11
35.1220761673455
 21
62.807067442425
 31
0.0
  0
LINE
  5
1AC
330
2
100
AcDbEntity
  8
0
100
AcDbLine
 10
33.87026636990079
 20
62.86956744242501
 30
0.0
 11
33.87026636990079
 21
62.807067442425
 31
0.0
  0
INSERT
  5
1AD
330
2
100
AcDbEntity
  8
0
100
AcDbBlockReference
  2
8 X 1.5 FH
 10
33.93248001227376
 20
81.97546671879813
 30
0.0
 50
63.4250392974013
  0
DIMENSION
  5
21B
102
{ACAD_XDICTIONARY
360
21C
102
}
102
{ACAD_REACTORS
330
21D
102
}
330
2
100
AcDbEntity
  8
0
100
AcDbDimension
  2
*D4
 10
32.68226636990069
 20
83.37443564978595
 30
0.0
 11
35.9323812964288
 21
83.37443564978595
 31
0.0
 71
     5
 42
6.500229853056225
  3
Knife
100
AcDbAlignedDimension
 13
39.18249622295692
 23
82.15044509676173
 33
0.0
 14
32.68226636990069
 24
82.91644509676167
 34
0.0
100
AcDbRotatedDimension
1001
ACAD
1000
DSTYLE
1002
{
1070
    40
1040
1.0
1002
}
  0
DIMENSION
  5
22D
102
{ACAD_XDICTIONARY
360
22E
102
}
102
{ACAD_REACTORS
330
22F
102
}
330
2
100
AcDbEntity
  8
0
100
AcDbDimension
  2
*D5
 10
37.82983490560716
 20
82.15044509676173
 30
0.0
 11
38.51636035875544
 21
82.6806360937517
 31
0.0
 70
   128
 71
     5
 42
0.6880055325053434
  3
Knife
100
AcDbAlignedDimension
 13
38.08899622295697
 23
81.46243956425641
 33
0.0
 14
38.08899622295697
 24
82.15044509676173
 34
0.0
 50
90.0
100
AcDbRotatedDimension
1001
ACAD
1000
DSTYLE
1002
{
1070
    40
1040
1.0
1002
}
  0
DIMENSION
  5
23E
102
{ACAD_XDICTIONARY
360
23F
102
}
102
{ACAD_REACTORS
330
240
102
}
330
2
100
AcDbEntity
  8
0
100
AcDbDimension
  2
*D6
 10
35.94798842581166
 20
80.96243723260394
 30
0.0
 11
35.94798842581165
 21
81.55644116468286
 31
0.0
 71
     5
 42
1.188007864157796
  3
Knife
100
AcDbAlignedDimension
 13
35.77543895002494
 23
82.15044509676173
 33
0.0
 14
35.77543583326248
 24
80.96243723260394
 34
0.0
 50
90.0
100
AcDbRotatedDimension
1001
ACAD
1000
DSTYLE
1002
{
1070
    40
1040
1.0
1002
}
  0
DIMENSION
  5
24F
102
{ACAD_XDICTIONARY
360
250
102
}
102
{ACAD_REACTORS
330
251
102
}
330
2
100
AcDbEntity
  8
0
100
AcDbDimension
  2
*D7
 10
40.21017742955712
 20
76.74543956425639
 30
0.0
 11
40.21017742955711
 21
79.04143956425641
 31
0.0
 71
     5
 42
4.592000000000012
  3
Knife
100
AcDbAlignedDimension
 13
39.12049622295697
 23
81.33743956425639
 33
0.0
 14
38.9024572758387
 24
76.74543956425639
 34
0.0
 50
90.0
100
AcDbRotatedDimension
1001
ACAD
1000
DSTYLE
1002
{
1070
    40
1040
1.0
1002
}
  0
DIMENSION
  5
260
330
2
100
AcDbEntity
  8
0
100
AcDbDimension
  2
*D8
 10
39.18249622295692
 20
79.98491133545247
 30
0.0
 11
38.30749622295691
 21
79.98491133545247
 31
0.0
 71
     5
 42
1.75
  3
Knife
100
AcDbAlignedDimension
 13
37.43249622295691
 23
80.30085844403997
 33
0.0
 14
39.18249622295692
 24
80.30085844403997
 34
0.0
100
AcDbRotatedDimension
1001
ACAD
1000
DSTYLE
1002
{
1070
    40
1040
1.0
1002
}
  0
DIMENSION
  5
26F
102
{ACAD_XDICTIONARY
360
270
102
}
102
{ACAD_REACTORS
330
271
102
}
330
2
100
AcDbEntity
  8
0
100
AcDbDimension
  2
*D9
 10
33.87026636990079
 20
79.98491133545247
 30
0.0
 11
33.24526636990079
 21
79.98491133545247
 31
0.0
 71
     5
 42
1.25
  3
Knife
100
AcDbAlignedDimension
 13
32.62026636990079
 23
80.11369084558429
 33
0.0
 14
33.87026636990079
 24
80.11369084558429
 34
0.0
100
AcDbRotatedDimension
1001
ACAD
1000
DSTYLE
1002
{
1070
    40
1040
1.0
1002
}
  0
DIMENSION
  5
280
102
{ACAD_XDICTIONARY
360
281
102
}
102
{ACAD_REACTORS
330
282
102
}
330
2
100
AcDbEntity
  8
0
100
AcDbDimension
  2
*D10
 10
29.91501574443446
 20
81.33844509676208
 30
0.0
 11
29.91501574443444
 21
79.0413200967611
 31
0.0
 71
     5
 42
4.594250000001963
  3
Knife
100
AcDbAlignedDimension
 13
31.28912393406024
 23
76.74419509676012
 33
0.0
 14
32.68276636990079
 24
81.33844509676206
 34
0.0
 50
90.0
100
AcDbRotatedDimension
1001
ACAD
1000
DSTYLE
1002
{
1070
    40
1040
1.0
1002
}
  0
DIMENSION
  5
291
102
{ACAD_XDICTIONARY
360
292
102
}
102
{ACAD_REACTORS
330
293
102
}
330
2
100
AcDbEntity
  8
0
100
AcDbDimension
  2
*D11
 10
29.91501574443446
 20
72.99491850657457
 30
0.0
 11
29.91501574443444
 21
74.05750350334068
 31
0.0
 71
     5
 42
2.125169993532239
  3
Knife
100
AcDbAlignedDimension
 13
31.28912393406024
 23
75.1200885001068
 33
0.0
 14
31.28912393406024
 24
72.99491850657457
 34
0.0
 50
90.0
100
AcDbRotatedDimension
1001
ACAD
1000
DSTYLE
1002
{
1070
    40
1040
1.0
1002
}
  0
DIMENSION
  5
2A2
102
{ACAD_XDICTIONARY
360
2A3
102
}
102
{ACAD_REACTORS
330
2A4
102
}
330
2
100
AcDbEntity
  8
0
100
AcDbDimension
  2
*D12
 10
29.91501574443445
 20
62.807067442425
 30
0.0
 11
29.91501574443444
 21
67.08893967617314
 31
0.0
 71
     5
 42
8.563744467496256
  3
Knife
100
AcDbAlignedDimension
 13
31.28912393406024
 23
71.37081190992127
 33
0.0
 14
32.68276636990079
 24
62.807067442425
 34
0.0
 50
90.0
100
AcDbRotatedDimension
1001
ACAD
1000
DSTYLE
1002
{
1070
    40
1040
1.0
1002
}
  0
DIMENSION
  5
2B3
102
{ACAD_XDICTIONARY
360
2B4
102
}
102
{ACAD_REACTORS
330
2B5
102
}
330
2
100
AcDbEntity
  8
0
100
AcDbDimension
  2
*D13
 10
29.91501574443445
 20
61.62997433618677
 30
0.0
 11
29.91501574443444
 21
62.2185208893059
 31
0.0
 71
     5
 42
1.177093106238231
  3
Knife
100
AcDbAlignedDimension
 13
32.68276636990079
 23
62.807067442425
 33
0.0
 14
31.33174622294844
 24
61.62997433618677
 34
0.0
 50
90.0
100
AcDbRotatedDimension
1001
ACAD
1000
DSTYLE
1002
{
1070
    40
1040
1.0
1002
}
  0
DIMENSION
  5
2C4
102
{ACAD_XDICTIONARY
360
2C5
102
}
102
{ACAD_REACTORS
330
2C6
102
}
330
2
100
AcDbEntity
  8
0
100
AcDbDimension
  2
*D14
 10
40.21017742955712
 20
63.99456744242501
 30
0.0
 11
40.21017742955711
 21
62.80706744242827
 31
0.0
 71
     5
 42
2.374999999993491
  3
Knife
100
AcDbAlignedDimension
 13
39.43249622295703
 23
61.61956744243152
 33
0.0
 14
39.18252839370139
 24
63.99456744242501
 34
0.0
 50
90.0
100
AcDbRotatedDimension
1001
ACAD
1000
DSTYLE
1002
{
1070
    40
1040
1.0
1002
}
  0
DIMENSION
  5
2D5
102
{ACAD_XDICTIONARY
360
2D6
102
}
102
{ACAD_REACTORS
330
2D7
102
}
330
2
100
AcDbEntity
  8
0
100
AcDbDimension
  2
*D15
 10
40.21017742955712
 20
71.36956744242501
 30
0.0
 11
40.21017742955711
 21
67.68206744242502
 31
0.0
 71
     5
 42
7.375000000000007
  3
Knife
100
AcDbAlignedDimension
 13
39.18252839370139
 23
63.99456744242501
 33
0.0
 14
38.9024572758387
 24
71.36956744242501
 34
0.0
 50
90.0
100
AcDbRotatedDimension
1001
ACAD
1000
DSTYLE
1002
{
1070
    40
1040
1.0
1002
}
  0
DIMENSION
  5
2E6
330
2
100
AcDbEntity
  8
0
100
AcDbDimension
  2
*D16
 10
42.94089882299187
 20
82.15044509676173
 30
0.0
 11
42.94089882299185
 21
72.28566005957699
 31
0.0
 70
   128
  1
BOX
 71
     5
 42
20.53087765433023
  3
Knife
100
AcDbAlignedDimension
 13
39.43249622295703
 23
61.61956744243152
 33
0.0
 14
39.18249622295692
 24
82.15044509676173
 34
0.0
 50
90.0
100
AcDbRotatedDimension
1001
ACAD
1000
DSTYLE
1002
{
1070
    40
1040
1.0
1002
}
  0
DIMENSION
  5
2F4
330
2
100
AcDbEntity
  8
0
100
AcDbDimension
  2
*D17
 10
42.94089882299187
 20
82.90044509676175
 30
0.0
 11
43.62742427614015
 21
83.52989132575917
 31
0.0
 70
   128
 71
     5
 42
0.75
  3
Knife
100
AcDbAlignedDimension
 13
39.18249622295692
 23
82.15044509676173
 33
0.0
 14
39.18249622295692
 24
82.90044509676175
 34
0.0
 50
90.0
100
AcDbRotatedDimension
1001
ACAD
1000
DSTYLE
1002
{
1070
    40
1040
1.0
1002
}
  0
DIMENSION
  5
303
330
2
100
AcDbEntity
  8
0
100
AcDbDimension
  2
*D18
 10
44.03933566186515
 20
61.61956744243152
 30
0.0
 11
44.03933566186514
 21
72.26000626959664
 31
0.0
  1
ROUGH\POPENING
 71
     5
 42
21.28087765433023
  3
Knife
100
AcDbAlignedDimension
 13
39.18249622295692
 23
82.90044509676175
 33
0.0
 14
39.43249622295703
 24
61.61956744243152
 34
0.0
 50
90.0
100
AcDbRotatedDimension
1001
ACAD
1000
DSTYLE
1002
{
1070
    40
1040
1.0
1002
}
  0
DIMENSION
  5
311
102
{ACAD_XDICTIONARY
360
312
102
}
102
{ACAD_REACTORS
330
313
102
}
330
2
100
AcDbEntity
  8
0
100
AcDbDimension
  2
*D19
 10
40.21017742955712
 20
76.74543956425639
 30
0.0
 11
40.21017742955711
 21
74.05750350334071
 31
0.0
  1
DAYLIGHT\POPENING
 71
     5
 42
5.375872121831378
  3
Knife
100
AcDbAlignedDimension
 13
38.9024572758387
 23
71.36956744242501
 33
0.0
 14
38.9024572758403
 24
76.74543956425639
 34
0.0
 50
90.0
100
AcDbRotatedDimension
1001
ACAD
1000
DSTYLE
1002
{
1070
    40
1040
1.0
1002
}
  0
TEXT
  5
321
330
2
100
AcDbEntity
  8
0
100
AcDbText
 10
27.73540291470764
 20
74.01690688321808
 30
0.0
 40
0.25
  1
%%USTORM INSERT
 41
0.55
 51
5.0
 72
     1
 11
28.41726236326178
 21
74.01690688321808
 31
0.0
100
AcDbText
  0
TEXT
  5
322
330
2
100
AcDbEntity
  8
0
100
AcDbText
 10
34.57088546275804
 20
73.99904052842109
 30
0.0
 40
0.25
  1
%%USCREEN INSERT
 41
0.55
 51
5.0
 72
     1
 11
35.30956653202502
 21
73.99904052842109
 31
0.0
100
AcDbText
  0
DIMENSION
  5
323
330
2
100
AcDbEntity
  8
0
100
AcDbDimension
  2
*D20
 10
41.72833657964814
 20
61.61956744243152
 30
0.0
 11
41.72833657964814
 21
66.49456744242828
 31
0.0
 71
     5
 42
9.749999999993498
  3
Knife
100
AcDbAlignedDimension
 13
38.9024572758387
 23
71.36956744242501
 33
0.0
 14
39.43249622295703
 24
61.61956744243152
 34
0.0
 50
90.0
100
AcDbRotatedDimension
1001
ACAD
1000
DSTYLE
1002
{
1070
    40
1040
1.0
1002
}
  0
DIMENSION
  5
332
330
2
100
AcDbEntity
  8
0
100
AcDbDimension
  2
*D21
 10
41.72833657964816
 20
82.15044509676173
 30
0.0
 11
41.72833657964814
 21
80.30122113425885
 31
0.0
 70
   128
 71
     5
 42
5.405005532505356
  3
Knife
100
AcDbAlignedDimension
 13
38.9024572758403
 23
76.74543956425639
 33
0.0
 14
39.18249622295692
 24
82.15044509676173
 34
0.0
 50
90.0
100
AcDbRotatedDimension
1001
ACAD
1000
DSTYLE
1002
{
1070
    40
1040
1.0
1002
}
  0
ENDSEC
  0
SECTION
  2
OBJECTS
  0
DICTIONARY
  5
B
330
0
100
AcDbDictionary
281
     1
  3
ACAD_COLOR
350
50
  3
ACAD_GROUP
350
3D
  3
ACAD_LAYOUT
350
18
  3
ACAD_MATERIAL
350
D
  3
ACAD_MLEADERSTYLE
350
53
  3
ACAD_MLINESTYLE
350
3E
  3
ACAD_PLOTSETTINGS
350
3F
  3
ACAD_PLOTSTYLENAME
350
A
  3
ACAD_SCALELIST
350
51
  3
ACAD_TABLESTYLE
350
52
  3
ACAD_VISUALSTYLE
350
31
  3
ACDB_RECOMPOSE_DATA
350
34D
  3
AcDbVariableDictionary
350
343
  0
DICTIONARY
  5
33
330
2E
100
AcDbDictionary
280
     1
281
     1
  0
DICTIONARY
  5
23
330
22
100
AcDbDictionary
280
     1
281
     1
  3
ACAD_LAYERSTATES
360
24
  0
DICTIONARY
  5
7
330
6
100
AcDbDictionary
280
     1
281
     1
  3
ADSK_XREC_LAYER_RECONCILED
360
8
  0
DICTIONARY
  5
BB
330
BA
100
AcDbDictionary
280
     1
281
     1
  0
DICTIONARY
  5
3
330
2
100
AcDbDictionary
280
     1
281
     1
  3
ACAD_SORTENTS
360
340
  0
DICTIONARY
  5
21C
330
21B
100
AcDbDictionary
280
     1
281
     1
  3
ACAD_DIMASSOC
360
21D
  0
DICTIONARY
  5
22E
330
22D
100
AcDbDictionary
280
     1
281
     1
  3
ACAD_DIMASSOC
360
22F
  0
DICTIONARY
  5
23F
330
23E
100
AcDbDictionary
280
     1
281
     1
  3
ACAD_DIMASSOC
360
240
  0
DICTIONARY
  5
250
330
24F
100
AcDbDictionary
280
     1
281
     1
  3
ACAD_DIMASSOC
360
251
  0
DICTIONARY
  5
270
330
26F
100
AcDbDictionary
280
     1
281
     1
  3
ACAD_DIMASSOC
360
271
  0
DICTIONARY
  5
281
330
280
100
AcDbDictionary
280
     1
281
     1
  3
ACAD_DIMASSOC
360
282
  0
DICTIONARY
  5
292
330
291
100
AcDbDictionary
280
     1
281
     1
  3
ACAD_DIMASSOC
360
293
  0
DICTIONARY
  5
2A3
330
2A2
100
AcDbDictionary
280
     1
281
     1
  3
ACAD_DIMASSOC
360
2A4
  0
DICTIONARY
  5
2B4
330
2B3
100
AcDbDictionary
280
     1
281
     1
  3
ACAD_DIMASSOC
360
2B5
  0
DICTIONARY
  5
2C5
330
2C4
100
AcDbDictionary
280
     1
281
     1
  3
ACAD_DIMASSOC
360
2C6
  0
DICTIONARY
  5
2D6
330
2D5
100
AcDbDictionary
280
     1
281
     1
  3
ACAD_DIMASSOC
360
2D7
  0
DICTIONARY
  5
312
330
311
100
AcDbDictionary
280
     1
281
     1
  3
ACAD_DIMASSOC
360
313
  0
DICTIONARY
  5
50
102
{ACAD_REACTORS
330
B
102
}
330
B
100
AcDbDictionary
281
     1
  0
DICTIONARY
  5
3D
102
{ACAD_REACTORS
330
B
102
}
330
B
100
AcDbDictionary
281
     1
  0
DICTIONARY
  5
18
102
{ACAD_REACTORS
330
B
102
}
330
B
100
AcDbDictionary
281
     1
  3
Layout1
350
1F
  3
Model
350
17
  0
DICTIONARY
  5
D
102
{ACAD_REACTORS
330
B
102
}
330
B
100
AcDbDictionary
281
     1
  3
ByBlock
350
48
  3
ByLayer
350
40
  3
Global
350
C
  0
DICTIONARY
  5
53
102
{ACAD_REACTORS
330
B
102
}
330
B
100
AcDbDictionary
281
     1
  0
DICTIONARY
  5
3E
102
{ACAD_REACTORS
330
B
102
}
330
B
100
AcDbDictionary
281
     1
  3
Standard
350
54
  0
DICTIONARY
  5
3F
102
{ACAD_REACTORS
330
B
102
}
330
B
100
AcDbDictionary
281
     1
  0
ACDBDICTIONARYWDFLT
  5
A
102
{ACAD_REACTORS
330
B
102
}
330
B
100
AcDbDictionary
281
     1
  3
Normal
350
9
100
AcDbDictionaryWithDefault
340
9
  0
DICTIONARY
  5
51
102
{ACAD_REACTORS
330
B
102
}
330
B
100
AcDbDictionary
281
     1
  3
A0
350
59
  3
A1
350
5A
  3
A2
350
5B
  3
A3
350
5C
  3
A4
350
5D
  3
A5
350
5E
  3
A6
350
5F
  3
A7
350
60
  3
A8
350
61
  3
A9
350
62
  3
B0
350
63
  3
B1
350
64
  3
B2
350
65
  3
B3
350
66
  3
B4
350
67
  3
B5
350
68
  3
B6
350
69
  0
DICTIONARY
  5
52
102
{ACAD_REACTORS
330
B
102
}
330
B
100
AcDbDictionary
281
     1
  3
Standard
350
55
  0
DICTIONARY
  5
31
102
{ACAD_REACTORS
330
B
102
}
330
B
100
AcDbDictionary
281
     1
  3
2dWireframe
350
30
  3
Realistic
350
57
  3
Wireframe
350
58
  0
XRECORD
  5
34D
102
{ACAD_REACTORS
330
B
102
}
330
B
100
AcDbXrecord
280
     1
 90
        1
330
55
  0
DICTIONARY
  5
343
102
{ACAD_REACTORS
330
B
102
}
330
B
100
AcDbDictionary
281
     1
  3
CANNOSCALE
350
346
  3
CMLEADERSTYLE
350
345
  3
CTABLESTYLE
350
344
  3
DIMASSOC
350
34B
  3
HIDETEXT
350
349
  3
INDEXCTL
350
348
  3
SORTENTS
350
347
  3
XCLIPFRAME
350
34A
  0
DICTIONARY
  5
24
102
{ACAD_REACTORS
330
23
102
}
330
23
100
AcDbDictionary
281
     1
  0
XRECORD
  5
8
102
{ACAD_REACTORS
330
7
102
}
330
7
100
AcDbXrecord
280
     1
290
     1
  0
SORTENTSTABLE
  5
340
102
{ACAD_REACTORS
330
3
102
}
330
3
100
AcDbSortentsTable
330
2
  0
DIMASSOC
  5
21D
102
{ACAD_REACTORS
330
21C
102
}
330
21C
100
AcDbDimAssoc
330
21B
 90
        3
 70
     0
 71
     0
  1
AcDbOsnapPointRef
 72
     1
331
6B
 73
     2
 91
       23
 40
1.0
 10
0.0
 20
0.0
 30
2.000000000000000E+50
 75
     0
  1
AcDbOsnapPointRef
 72
     1
331
AF
 73
     2
 91
        4
 40
1.0
 10
0.0
 20
0.0
 30
2.000000000000000E+50
 75
     0
  0
DIMASSOC
  5
22F
102
{ACAD_REACTORS
330
22E
102
}
330
22E
100
AcDbDimAssoc
330
22D
 90
        3
 70
     0
 71
     0
  1
AcDbOsnapPointRef
 72
     2
331
6B
 73
     2
 91
        1
 40
0.5
 10
0.0
 20
0.0
 30
0.0
 75
     0
  1
AcDbOsnapPointRef
 72
     8
331
6B
 73
     2
 91
       21
 40
0.7704153630962085
 10
0.0
 20
0.0
 30
0.0
 75
     1
  1
AcDbOsnapPointRef
 72
     2
331
6B
 73
     2
 91
        1
 40
0.5
 10
0.0
 20
0.0
 30
0.0
 75
     0
  0
DIMASSOC
  5
240
102
{ACAD_REACTORS
330
23F
102
}
330
23F
100
AcDbDimAssoc
330
23E
 90
        3
 70
     0
 71
     0
  1
AcDbOsnapPointRef
 72
     1
331
6B
 73
     2
 91
       16
 40
6.283185307179586
 10
0.0
 20
0.0
 30
2.000000000000000E+50
 75
     0
  1
AcDbOsnapPointRef
 72
     8
331
6B
 73
     2
 91
        8
 40
0.5274795959702595
 10
0.0
 20
0.0
 30
0.0
 75
     1
  1
AcDbOsnapPointRef
 72
     1
331
6B
 73
     2
 91
       16
 40
6.283185307179586
 10
0.0
 20
0.0
 30
2.000000000000000E+50
 75
     0
  0
DIMASSOC
  5
251
102
{ACAD_REACTORS
330
250
102
}
330
250
100
AcDbDimAssoc
330
24F
 90
        3
 70
     0
 71
     0
  1
AcDbOsnapPointRef
 72
     5
331
6A
 73
     2
 91
       11
 40
7.853981633974482
 10
0.0
 20
0.0
 30
0.0
 75
     0
  1
AcDbOsnapPointRef
 72
     1
331
6A
 73
     2
 91
       16
 40
1.0
 10
0.0
 20
0.0
 30
2.000000000000000E+50
 75
     0
  0
DIMASSOC
  5
271
102
{ACAD_REACTORS
330
270
102
}
330
270
100
AcDbDimAssoc
330
26F
 90
        3
 70
     0
 71
     0
  1
AcDbOsnapPointRef
 72
     2
331
15D
 73
     2
 91
       10
 40
0.5
 10
0.0
 20
0.0
 30
0.0
 75
     0
  1
AcDbOsnapPointRef
 72
     8
331
15D
 73
     2
 91
        2
 40
0.3980572584594416
 10
0.0
 20
0.0
 30
0.0
 75
     1
  1
AcDbOsnapPointRef
 72
     2
331
15D
 73
     2
 91
       10
 40
0.5
 10
0.0
 20
0.0
 30
0.0
 75
     0
  0
DIMASSOC
  5
282
102
{ACAD_REACTORS
330
281
102
}
330
281
100
AcDbDimAssoc
330
280
 90
        3
 70
     0
 71
     0
  1
AcDbOsnapPointRef
 72
     1
331
169
 73
     2
 91
        9
 40
4.712388980386409
 10
0.0
 20
0.0
 30
2.000000000000000E+50
 75
     0
  1
AcDbOsnapPointRef
 72
     6
331
15D
 73
     2
 91
       12
 40
-0.0000000000000063
 10
0.0
 20
0.0
 30
0.0
332
15D
 74
     2
 92
       11
 75
     0
  0
DIMASSOC
  5
293
102
{ACAD_REACTORS
330
292
102
}
330
292
100
AcDbDimAssoc
330
291
 90
        3
 70
     0
 71
     0
  1
AcDbOsnapPointRef
 72
     1
331
193
 73
     2
 91
        9
 40
1.570796326793177
 10
0.0
 20
0.0
 30
2.000000000000000E+50
 75
     0
  1
AcDbOsnapPointRef
 72
     1
331
198
 73
     2
 91
        9
 40
4.712388980386409
 10
0.0
 20
0.0
 30
2.000000000000000E+50
 75
     0
  0
DIMASSOC
  5
2A4
102
{ACAD_REACTORS
330
2A3
102
}
330
2A3
100
AcDbDimAssoc
330
2A2
 90
        3
 70
     0
 71
     0
  1
AcDbOsnapPointRef
 72
     1
331
16F
 73
     2
 91
        9
 40
1.570796326793177
 10
0.0
 20
0.0
 30
2.000000000000000E+50
 75
     0
  1
AcDbOsnapPointRef
 72
    13
331
162
 73
     2
 91
       12
 40
0.0
 10
0.0
 20
0.0
 30
2.000000000000000E+50
 75
     0
  0
DIMASSOC
  5
2B5
102
{ACAD_REACTORS
330
2B4
102
}
330
2B4
100
AcDbDimAssoc
330
2B3
 90
        1
 70
     0
 71
     0
  1
AcDbOsnapPointRef
 72
    13
331
162
 73
     2
 91
       12
 40
0.0
 10
0.0
 20
0.0
 30
2.000000000000000E+50
 75
     0
  0
DIMASSOC
  5
2C6
102
{ACAD_REACTORS
330
2C5
102
}
330
2C5
100
AcDbDimAssoc
330
2C4
 90
        3
 70
     0
 71
     0
  1
AcDbOsnapPointRef
 72
     1
331
6D
 73
     2
 91
        4
 40
1.0
 10
0.0
 20
0.0
 30
2.000000000000000E+50
 75
     0
  1
AcDbOsnapPointRef
 72
    13
331
72
 73
     2
 91
        1
 40
0.0
 10
0.0
 20
0.0
 30
2.000000000000000E+50
 75
     0
  0
DIMASSOC
  5
2D7
102
{ACAD_REACTORS
330
2D6
102
}
330
2D6
100
AcDbDimAssoc
330
2D5
 90
        2
 70
     0
 71
     0
  1
AcDbOsnapPointRef
 72
     1
331
71
 73
     2
 91
       16
 40
1.0
 10
0.0
 20
0.0
 30
2.000000000000000E+50
 75
     0
  0
DIMASSOC
  5
313
102
{ACAD_REACTORS
330
312
102
}
330
312
100
AcDbDimAssoc
330
311
 90
        2
 70
     0
 71
     0
  1
AcDbOsnapPointRef
 72
     8
331
6A
 73
     2
 91
       17
 40
-0.0000000000169104
 10
0.0
 20
0.0
 30
0.0
 75
     1
  1
AcDbOsnapPointRef
 72
     0
 40
0.0
 10
38.9024572758387
 20
71.36956744242501
 30
0.0
 75
     0
  0
LAYOUT
  5
1F
102
{ACAD_XDICTIONARY
360
20
102
}
102
{ACAD_REACTORS
330
18
102
}
330
18
100
AcDbPlotSettings
  1

  2
Default Windows System Printer.pc3
  4
Letter
  6

 40
4.857749938964843
 41
4.857737064361572
 42
4.85772705078125
 43
4.011077880859375
 44
279.3999938964844
 45
215.8999938964844
 46
-0.730858697408237
 47
-3.856245104248928
 48
0.0
 49
0.0
140
0.0
141
0.0
142
1.0
143
1.0
 70
   692
 72
     0
 73
     1
 74
     1
  7
monochrome.ctb
 75
    16
147
1.0
148
0.0083604749971762
149
0.0163435974585369
100
AcDbLayout
  1
Layout1
 70
     1
 71
     1
 10
-0.0064249311656545
 20
-0.1631194818509899
 11
8.493574828538456
 21
10.83688027785312
 12
0.0
 22
0.0
 32
0.0
 14
-0.0001993256062995
 24
-0.0006438736622698
 34
-0.0000000000000058
 15
8.45427583816383
 25
10.67440472088713
 35
0.0000000000000104
146
0.0
 13
0.0
 23
0.0
 33
0.0
 16
1.0
 26
0.0
 36
0.0
 17
0.0
 27
1.0
 37
0.0
 76
     0
330
1C
1001
ACAD_PSEXT
1000
Default Windows System Printer.pc3
1000
HP LaserJet Professional M1212nf MFP
1000
USB001
1000

1070
     0
  0
LAYOUT
  5
17
102
{ACAD_XDICTIONARY
360
19
102
}
102
{ACAD_REACTORS
330
18
102
}
330
18
100
AcDbPlotSettings
  1

  2
hp LaserJet 1000
  4
Letter
  6

 40
5.111750125885009
 41
5.11176061630249
 42
5.111740112304687
 43
5.11175537109375
 44
215.8999938964844
 45
279.3999938964844
 46
-1737.727141600119
 47
-1443.590822120185
 48
0.0
 49
0.0
140
0.0
141
0.0
142
1.0
143
1.0
 70
 11956
 72
     0
 73
     1
 74
     1
  7
monochrome.ctb
 75
    16
147
1.0
148
-1178909.293504616
149
-716480.0773740626
100
AcDbLayout
  1
Model
 70
     1
 71
     0
 10
0.0
 20
0.0
 11
12.0
 21
9.0
 12
0.0
 22
0.0
 32
0.0
 14
0.0
 24
0.0
 34
0.0
 15
0.0
 25
0.0
 35
0.0
146
0.0
 13
0.0
 23
0.0
 33
0.0
 16
1.0
 26
0.0
 36
0.0
 17
0.0
 27
1.0
 37
0.0
 76
     0
330
2
1001
ACAD_PSEXT
1000
hp LaserJet 1000
1000
hp LaserJet 1000
1000
USB001
1000

1070
     0
  0
MATERIAL
  5
48
102
{ACAD_XDICTIONARY
360
49
102
}
102
{ACAD_REACTORS
330
D
102
}
330
D
100
AcDbMaterial
  1
ByBlock
 72
     0
 43
0.0208333333333333
 43
0.0
 43
0.0
 43
0.0
 43
0.0
 43
0.0208333333333333
 43
0.0
 43
0.0
 43
0.0
 43
0.0
 43
1.0
 43
0.0
 43
0.0
 43
0.0
 43
0.0
 43
1.0
 77
     0
 47
0.0208333333333333
 47
0.0
 47
0.0
 47
0.0
 47
0.0
 47
0.0208333333333333
 47
0.0
 47
0.0
 47
0.0
 47
0.0
 47
1.0
 47
0.0
 47
0.0
 47
0.0
 47
0.0
 47
1.0
171
     0
 49
0.0208333333333333
 49
0.0
 49
0.0
 49
0.0
 49
0.0
 49
0.0208333333333333
 49
0.0
 49
0.0
 49
0.0
 49
0.0
 49
1.0
 49
0.0
 49
0.0
 49
0.0
 49
0.0
 49
1.0
175
     0
142
0.0208333333333333
142
0.0
142
0.0
142
0.0
142
0.0
142
0.0208333333333333
142
0.0
142
0.0
142
0.0
142
0.0
142
1.0
142
0.0
142
0.0
142
0.0
142
0.0
142
1.0
179
     0
144
0.0208333333333333
144
0.0
144
0.0
144
0.0
144
0.0
144
0.0208333333333333
144
0.0
144
0.0
144
0.0
144
0.0
144
1.0
144
0.0
144
0.0
144
0.0
144
0.0
144
1.0
147
0.0208333333333333
147
0.0
147
0.0
147
0.0
147
0.0
147
0.0208333333333333
147
0.0
147
0.0
147
0.0
147
0.0
147
1.0
147
0.0
147
0.0
147
0.0
147
0.0
147
1.0
  0
MATERIAL
  5
40
102
{ACAD_XDICTIONARY
360
41
102
}
102
{ACAD_REACTORS
330
D
102
}
330
D
100
AcDbMaterial
  1
ByLayer
 72
     0
 43
0.0208333333333333
 43
0.0
 43
0.0
 43
0.0
 43
0.0
 43
0.0208333333333333
 43
0.0
 43
0.0
 43
0.0
 43
0.0
 43
1.0
 43
0.0
 43
0.0
 43
0.0
 43
0.0
 43
1.0
 77
     0
 47
0.0208333333333333
 47
0.0
 47
0.0
 47
0.0
 47
0.0
 47
0.0208333333333333
 47
0.0
 47
0.0
 47
0.0
 47
0.0
 47
1.0
 47
0.0
 47
0.0
 47
0.0
 47
0.0
 47
1.0
171
     0
 49
0.0208333333333333
 49
0.0
 49
0.0
 49
0.0
 49
0.0
 49
0.0208333333333333
 49
0.0
 49
0.0
 49
0.0
 49
0.0
 49
1.0
 49
0.0
 49
0.0
 49
0.0
 49
0.0
 49
1.0
175
     0
142
0.0208333333333333
142
0.0
142
0.0
142
0.0
142
0.0
142
0.0208333333333333
142
0.0
142
0.0
142
0.0
142
0.0
142
1.0
142
0.0
142
0.0
142
0.0
142
0.0
142
1.0
179
     0
144
0.0208333333333333
144
0.0
144
0.0
144
0.0
144
0.0
144
0.0208333333333333
144
0.0
144
0.0
144
0.0
144
0.0
144
1.0
144
0.0
144
0.0
144
0.0
144
0.0
144
1.0
147
0.0208333333333333
147
0.0
147
0.0
147
0.0
147
0.0
147
0.0208333333333333
147
0.0
147
0.0
147
0.0
147
0.0
147
1.0
147
0.0
147
0.0
147
0.0
147
0.0
147
1.0
  0
MATERIAL
  5
C
102
{ACAD_XDICTIONARY
360
E
102
}
102
{ACAD_REACTORS
330
D
102
}
330
D
100
AcDbMaterial
  1
Global
 72
     0
 43
0.0208333333333333
 43
0.0
 43
0.0
 43
0.0
 43
0.0
 43
0.0208333333333333
 43
0.0
 43
0.0
 43
0.0
 43
0.0
 43
1.0
 43
0.0
 43
0.0
 43
0.0
 43
0.0
 43
1.0
 77
     0
 47
0.0208333333333333
 47
0.0
 47
0.0
 47
0.0
 47
0.0
 47
0.0208333333333333
 47
0.0
 47
0.0
 47
0.0
 47
0.0
 47
1.0
 47
0.0
 47
0.0
 47
0.0
 47
0.0
 47
1.0
171
     0
 49
0.0208333333333333
 49
0.0
 49
0.0
 49
0.0
 49
0.0
 49
0.0208333333333333
 49
0.0
 49
0.0
 49
0.0
 49
0.0
 49
1.0
 49
0.0
 49
0.0
 49
0.0
 49
0.0
 49
1.0
175
     0
142
0.0208333333333333
142
0.0
142
0.0
142
0.0
142
0.0
142
0.0208333333333333
142
0.0
142
0.0
142
0.0
142
0.0
142
1.0
142
0.0
142
0.0
142
0.0
142
0.0
142
1.0
179
     0
144
0.0208333333333333
144
0.0
144
0.0
144
0.0
144
0.0
144
0.0208333333333333
144
0.0
144
0.0
144
0.0
144
0.0
144
1.0
144
0.0
144
0.0
144
0.0
144
0.0
144
1.0
147
0.0208333333333333
147
0.0
147
0.0
147
0.0
147
0.0
147
0.0208333333333333
147
0.0
147
0.0
147
0.0
147
0.0
147
1.0
147
0.0
147
0.0
147
0.0
147
0.0
147
1.0
  0
MLINESTYLE
  5
54
102
{ACAD_REACTORS
330
3E
102
}
330
3E
100
AcDbMlineStyle
  2
STANDARD
 70
     0
  3

 62
   256
 51
90.0
 52
90.0
 71
     2
 49
0.5
 62
   256
  6
BYLAYER
 49
-0.5
 62
   256
  6
BYLAYER
  0
ACDBPLACEHOLDER
  5
9
102
{ACAD_REACTORS
330
A
102
}
330
A
  0
SCALE
  5
59
102
{ACAD_REACTORS
330
51
102
}
330
51
100
AcDbScale
 70
     0
300
1:1
140
1.0
141
1.0
290
     1
  0
SCALE
  5
5A
102
{ACAD_REACTORS
330
51
102
}
330
51
100
AcDbScale
 70
     0
300
1/128" = 1'-0"
140
0.0078125
141
12.0
290
     0
  0
SCALE
  5
5B
102
{ACAD_REACTORS
330
51
102
}
330
51
100
AcDbScale
 70
     0
300
1/64" = 1'-0"
140
0.015625
141
12.0
290
     0
  0
SCALE
  5
5C
102
{ACAD_REACTORS
330
51
102
}
330
51
100
AcDbScale
 70
     0
300
1/32" = 1'-0"
140
0.03125
141
12.0
290
     0
  0
SCALE
  5
5D
102
{ACAD_REACTORS
330
51
102
}
330
51
100
AcDbScale
 70
     0
300
1/16" = 1'-0"
140
0.0625
141
12.0
290
     0
  0
SCALE
  5
5E
102
{ACAD_REACTORS
330
51
102
}
330
51
100
AcDbScale
 70
     0
300
3/32" = 1'-0"
140
0.09375
141
12.0
290
     0
  0
SCALE
  5
5F
102
{ACAD_REACTORS
330
51
102
}
330
51
100
AcDbScale
 70
     0
300
1/8" = 1'-0"
140
0.125
141
12.0
290
     0
  0
SCALE
  5
60
102
{ACAD_REACTORS
330
51
102
}
330
51
100
AcDbScale
 70
     0
300
3/16" = 1'-0"
140
0.1875
141
12.0
290
     0
  0
SCALE
  5
61
102
{ACAD_REACTORS
330
51
102
}
330
51
100
AcDbScale
 70
     0
300
1/4" = 1'-0"
140
0.25
141
12.0
290
     0
  0
SCALE
  5
62
102
{ACAD_REACTORS
330
51
102
}
330
51
100
AcDbScale
 70
     0
300
3/8" = 1'-0"
140
0.375
141
12.0
290
     0
  0
SCALE
  5
63
102
{ACAD_REACTORS
330
51
102
}
330
51
100
AcDbScale
 70
     0
300
1/2" = 1'-0"
140
0.5
141
12.0
290
     0
  0
SCALE
  5
64
102
{ACAD_REACTORS
330
51
102
}
330
51
100
AcDbScale
 70
     0
300
3/4" = 1'-0"
140
0.75
141
12.0
290
     0
  0
SCALE
  5
65
102
{ACAD_REACTORS
330
51
102
}
330
51
100
AcDbScale
 70
     0
300
1" = 1'-0"
140
1.0
141
12.0
290
     0
  0
SCALE
  5
66
102
{ACAD_REACTORS
330
51
102
}
330
51
100
AcDbScale
 70
     0
300
1-1/2" = 1'-0"
140
1.5
141
12.0
290
     0
  0
SCALE
  5
67
102
{ACAD_REACTORS
330
51
102
}
330
51
100
AcDbScale
 70
     0
300
3" = 1'-0"
140
3.0
141
12.0
290
     0
  0
SCALE
  5
68
102
{ACAD_REACTORS
330
51
102
}
330
51
100
AcDbScale
 70
     0
300
6" = 1'-0"
140
6.0
141
12.0
290
     0
  0
SCALE
  5
69
102
{ACAD_REACTORS
330
51
102
}
330
51
100
AcDbScale
 70
     0
300
1'-0" = 1'-0"
140
12.0
141
12.0
290
     0
  0
TABLESTYLE
  5
55
102
{ACAD_XDICTIONARY
360
56
102
}
102
{ACAD_REACTORS
330
52
102
}
330
52
100
AcDbTableStyle
  3
Standard
 70
     0
 71
     0
 40
0.06
 41
0.06
280
     0
281
     0
  7
Standard
140
0.18
170
     2
 62
     0
 63
     7
283
     0
274
    -2
284
     1
 64
     0
275
    -2
285
     1
 65
     0
276
    -2
286
     1
 66
     0
277
    -2
287
     1
 67
     0
278
    -2
288
     1
 68
     0
279
    -2
289
     1
 69
     0
  7
Standard
140
0.25
170
     5
 62
     0
 63
     7
283
     0
274
    -2
284
     1
 64
     0
275
    -2
285
     1
 65
     0
276
    -2
286
     1
 66
     0
277
    -2
287
     1
 67
     0
278
    -2
288
     1
 68
     0
279
    -2
289
     1
 69
     0
  7
Standard
140
0.18
170
     5
 62
     0
 63
     7
283
     0
274
    -2
284
     1
 64
     0
275
    -2
285
     1
 65
     0
276
    -2
286
     1
 66
     0
277
    -2
287
     1
 67
     0
278
    -2
288
     1
 68
     0
279
    -2
289
     1
 69
     0
  0
VISUALSTYLE
  5
30
102
{ACAD_XDICTIONARY
360
351
102
}
102
{ACAD_REACTORS
330
31
102
}
330
31
100
AcDbVisualStyle
  2
2dWireframe
 70
     4
 71
     0
 72
     2
 73
     0
 90
        0
 40
-0.6
 41
-30.0
 62
     5
 63
     7
 74
     1
 91
        4
 64
     7
 65
   257
 75
     1
175
     1
 42
1.0
 92
        0
 66
   257
 43
1.0
 76
     1
 77
     6
 78
     2
 67
     7
 79
     5
170
     0
171
     0
290
     0
174
     0
 93
        1
 44
0.0
173
     0
291
     0
 45
0.0
1001
ACAD
1000
AcDbSavedByObjectVersion
1070
     0
  0
VISUALSTYLE
  5
57
102
{ACAD_XDICTIONARY
360
356
102
}
102
{ACAD_REACTORS
330
31
102
}
330
31
100
AcDbVisualStyle
  2
Realistic
 70
     8
 71
     2
 72
     2
 73
     0
 90
        2
 40
-0.6
 41
30.0
 62
     5
 63
     7
 74
     0
 91
        0
 64
     7
 65
   257
 75
     1
175
     1
 42
1.0
 92
        8
 66
   257
 43
1.0
 76
     1
 77
     6
 78
     2
 67
     7
 79
     3
170
     0
171
     0
290
     0
174
     0
 93
       13
 44
0.0
173
     0
291
     0
 45
0.0
1001
ACAD
1000
AcDbSavedByObjectVersion
1070
     0
  0
VISUALSTYLE
  5
58
102
{ACAD_XDICTIONARY
360
358
102
}
102
{ACAD_REACTORS
330
31
102
}
330
31
100
AcDbVisualStyle
  2
Wireframe
 70
     5
 71
     0
 72
     2
 73
     0
 90
        0
 40
-0.6
 41
-30.0
 62
     5
 63
     7
 74
     1
 91
        4
 64
     7
 65
   257
 75
     1
175
     1
 42
1.0
 92
        0
 66
   257
 43
1.0
 76
     1
 77
     6
 78
     2
 67
     7
 79
     3
170
     0
171
     0
290
     0
174
     0
 93
        1
 44
0.0
173
     0
291
     0
 45
0.0
1001
ACAD
1000
AcDbSavedByObjectVersion
1070
     0
  0
DICTIONARYVAR
  5
346
102
{ACAD_REACTORS
330
343
102
}
330
343
100
DictionaryVariables
280
     0
  1
1:1
  0
DICTIONARYVAR
  5
345
102
{ACAD_REACTORS
330
343
102
}
330
343
100
DictionaryVariables
280
     0
  1
STANDARD
  0
DICTIONARYVAR
  5
344
102
{ACAD_REACTORS
330
343
102
}
330
343
100
DictionaryVariables
280
     0
  1
STANDARD
  0
DICTIONARYVAR
  5
34B
102
{ACAD_REACTORS
330
343
102
}
330
343
100
DictionaryVariables
280
     0
  1
2
  0
DICTIONARYVAR
  5
349
102
{ACAD_REACTORS
330
343
102
}
330
343
100
DictionaryVariables
280
     0
  1
1
  0
DICTIONARYVAR
  5
348
102
{ACAD_REACTORS
330
343
102
}
330
343
100
DictionaryVariables
280
     0
  1
0
  0
DICTIONARYVAR
  5
347
102
{ACAD_REACTORS
330
343
102
}
330
343
100
DictionaryVariables
280
     0
  1
127
  0
DICTIONARYVAR
  5
34A
102
{ACAD_REACTORS
330
343
102
}
330
343
100
DictionaryVariables
280
     0
  1
0
  0
DICTIONARY
  5
20
330
1F
100
AcDbDictionary
280
     1
281
     1
  3
ACAD_XREC_ROUNDTRIP
360
350
  3
ADSK_XREC_LAYOUTTHUMBNAIL
360
21
  0
DICTIONARY
  5
19
330
17
100
AcDbDictionary
280
     1
281
     1
  3
ACAD_XREC_ROUNDTRIP
360
34F
  3
ADSK_XREC_LAYOUTTHUMBNAIL
360
1A
  0
DICTIONARY
  5
49
330
48
100
AcDbDictionary
280
     1
281
     1
  3
ACAD_XREC_ROUNDTRIP
360
354
  3
BUMPTILE
360
4A
  3
DIFFUSETILE
360
4B
  3
OPACITYTILE
360
4C
  3
REFLECTIONTILE
360
4D
  3
REFRACTIONTILE
360
4E
  3
SPECULARTILE
360
4F
  0
DICTIONARY
  5
41
330
40
100
AcDbDictionary
280
     1
281
     1
  3
ACAD_XREC_ROUNDTRIP
360
353
  3
BUMPTILE
360
42
  3
DIFFUSETILE
360
43
  3
OPACITYTILE
360
44
  3
REFLECTIONTILE
360
45
  3
REFRACTIONTILE
360
46
  3
SPECULARTILE
360
47
  0
DICTIONARY
  5
E
330
C
100
AcDbDictionary
280
     1
281
     1
  3
ACAD_XREC_ROUNDTRIP
360
34E
  3
BUMPTILE
360
F
  3
DIFFUSETILE
360
10
  3
OPACITYTILE
360
11
  3
REFLECTIONTILE
360
12
  3
REFRACTIONTILE
360
13
  3
SPECULARTILE
360
14
  0
DICTIONARY
  5
56
330
55
100
AcDbDictionary
280
     1
281
     1
  3
ACAD_ROUNDTRIP_2008_TABLESTYLE_CELLSTYLEMAP
360
34C
  3
ACAD_XREC_ROUNDTRIP
360
355
  0
DICTIONARY
  5
351
330
30
100
AcDbDictionary
280
     1
281
     1
  3
ACAD_XREC_ROUNDTRIP
360
352
  0
DICTIONARY
  5
356
330
57
100
AcDbDictionary
280
     1
281
     1
  3
ACAD_XREC_ROUNDTRIP
360
357
  0
DICTIONARY
  5
358
330
58
100
AcDbDictionary
280
     1
281
     1
  3
ACAD_XREC_ROUNDTRIP
360
359
  0
XRECORD
  5
350
102
{ACAD_REACTORS
330
20
102
}
330
20
100
AcDbXrecord
280
     1
102
SHADEPLOT
 70
     1
102
SHADEPLOTRESLEVEL
 70
     4
102
SHADEPLOTCUSTOMDPI
 70
   300
  0
XRECORD
  5
21
102
{ACAD_REACTORS
330
20
102
}
330
20
100
AcDbXrecord
280
     1
310
280000006B0000008C0000000100080000000000103B000000000000000000000001000000000000FFFFFF0000000000C8C8C8000000000000000000000000000000000000000000000000000000000000000000330000006600000099000000CC000000FF00000000330000333300006633000099330000CC330000FF3300
310
0000660000336600006666000099660000CC660000FF66000000990000339900006699000099990000CC990000FF99000000CC000033CC000066CC000099CC0000CCCC0000FFCC000000FF000033FF000066FF000099FF0000CCFF0000FFFF000000003300330033006600330099003300CC003300FF003300003333003333
310
33006633330099333300CC333300FF33330000663300336633006666330099663300CC663300FF66330000993300339933006699330099993300CC993300FF99330000CC330033CC330066CC330099CC3300CCCC3300FFCC330000FF330033FF330066FF330099FF3300CCFF3300FFFF330000006600330066006600660099
310
006600CC006600FF00660000336600333366006633660099336600CC336600FF33660000666600336666006666660099666600CC666600FF66660000996600339966006699660099996600CC996600FF99660000CC660033CC660066CC660099CC6600CCCC6600FFCC660000FF660033FF660066FF660099FF6600CCFF6600
310
FFFF660000009900330099006600990099009900CC009900FF00990000339900333399006633990099339900CC339900FF33990000669900336699006666990099669900CC669900FF66990000999900339999006699990099999900CC999900FF99990000CC990033CC990066CC990099CC9900CCCC9900FFCC990000FF99
310
0033FF990066FF990099FF9900CCFF9900FFFF99000000CC003300CC006600CC009900CC00CC00CC00FF00CC000033CC003333CC006633CC009933CC00CC33CC00FF33CC000066CC003366CC006666CC009966CC00CC66CC00FF66CC000099CC003399CC006699CC009999CC00CC99CC00FF99CC0000CCCC0033CCCC0066CC
310
CC0099CCCC00CCCCCC00FFCCCC0000FFCC0033FFCC0066FFCC0099FFCC00CCFFCC00FFFFCC000000FF003300FF006600FF009900FF00CC00FF00FF00FF000033FF003333FF006633FF009933FF00CC33FF00FF33FF000066FF003366FF006666FF009966FF00CC66FF00FF66FF000099FF003399FF006699FF009999FF00CC
310
99FF00FF99FF0000CCFF0033CCFF0066CCFF0099CCFF00CCCCFF00FFCCFF0000FFFF0033FFFF0066FFFF0099FFFF00CCFFFF00FFFFFF00000000000D0D0D001A1A1A00282828003535350043434300505050005D5D5D006B6B6B00787878008686860093939300A1A1A100AEAEAE00BBBBBB00C9C9C900D6D6D600E4E4E400
310
F1F1F100FFFFFF0000000000000000000000000000000000000000000000000000000000000000000000000000000000E2E2E2E2E2E2E2E2E2E2E2E2E2E2E2E2E2E2E2E2E2E2E2E2E2E2E2E2E2E2E2E2E2E2E2E2E2E2E2E2E2E2E2E2E2E2E2E2E2E2E2E2E2E2E2E2E2E2E2E2E2E2E2E2E2E2E2E2E2E2E2E2E2E2E2E2E2E2E2
310
E2E2E2E2E2E2E2E2E2E2E2E2E2E2E2E2E2E2E2E2E2E2E2E2E2E2E2E240E200000000000000000000000000000000000000000000000000000000000000000000000000000000000000000000000000000000000000000000000000000000000000000000000000000000000000000000000000000000000000000000000000
310
000000000000000000B8E20000000000000000000000000000000000000000000000000000000000000000000000000000000000000000000000000000000000000000000000000000000000000000000000000000000000000000000000000000000000000000000000000000000000000000000030E2E2E2E2E2E2E2E2E2
310
E2E2000000000000000000E2E2E2E2E2E2E2E2E2E2E2E2E2E2E2E200000000000000000000E2E2E2E2E2E2E2E2E2E2E2E2E2E2E2E200000000000000000000E2E2E2E2E2E2E2E2E2E2E2E2E2E2E2E2000000000000000000E2E2E2E2E2E2E2E2E2007EE200E200000000000000000000000000000000000000000000000000
310
0000000000000000000000000000000000000000000000000000000000000000000000000000000000000000000000000000000000000000000000000000000000000000000000000000000000E20000E200E20000000000000000000000000000000000000000000000000000000000000000000000000000000000000000
310
0000000000E2E2E20000000000000000000000000000000000000000000000000000000000000000000000000000000000000000000000000000E20001E200E200000000000000000000000000000000000000000000000000000000000000000000000000000000000000000000000000E2E2E20000000000000000000000
310
000000000000000000000000000000000000000000000000000000000000000000000000000000E20019E200E200000000000000000000000000000000000000000000000000000000000000000000000000000000000000000000000000000000000000000000000000000000000000000000000000000000000000000000
310
0000000000000000000000000000000000000000E20001E200E2000000000000000000000000000000000000000000000000000000000000000000000000000000000000000000000000E2E2E2E2E2000000000000000000000000000000000000000000000000000000000000000000000000000000000000000000000000
310
00E20000E200E2000000000000000000000000000000000000000000000000000000000000000000000000000000000000000000000000E2E2E2E2E200000000000000000000000000000000000000000000000000000000000000000000000000000000000000000000000000E20000E200E2000000000000000000000000
310
000000000000000000000000000000000000000000000000000000000000000000000000000000000000000000000000000000000000000000000000000000000000000000000000000000000000000000000000000000000000E20001E200E200000000000000000000000000000000000000000000000000000000000000
310
0000000000000000000000000000000000000000000000000000000000000000000000000000000000000000000000000000000000000000000000000000000000000000000000E20000E200000000000000000000000000000000000000000000000000000000000000000000000000000000000000000000000000000000
310
00000000000000000000000000000000000000000000000000000000000000000000000000000000000000000000000000000000000000E20000000000000000000000000000000000000000000000000000000000000000000000000000000000000000000000000000000000000000000000000000000000000000000000
310
000000000000000000000000000000000000000000000000000000000000000000000000E2000000000000000000000000000000000000000000000000000000000000000000000000000000000000000000000000000000000000000000000000000000000000000000000000000000000000000000000000000000000000
310
0000000000000000000000000000000000E20000000000000000000000000000000000000000000000000000000000000000000000000000000000000000000000000000000000000000000000000000000000000000000000000000000000000000000000000000000000000000000000000000000000000000000000E200
310
00000000000000000000000000000000000000000000000000000000000000000000000000000000000000000000000000000000000000000000000000000000000000000000000000000000000000000000000000000000000000000000000000000000000000000000E20000000000000000000000000000000000000000
310
000000000000000000000000000000000000000000000000000000000000000000000000000000000000000000000000000000000000000000000000000000000000000000000000000000000000000000000000000002E2000000000000000000000000000000000000000000000000000000000000000000000000000000
310
0000000000000000000000000000000000000000000000000000000000000000000000000000000000000000000000000000000000000000000000000000000000000002E200000000000000000000000000000000000000000000000000000000000000000000000000000000000000000000000000000000000000000000
310
000000000000000000000000000000000000000000000000000000000000000000000000000000000000000000000000FFE20000000000000000000000000000000000000000000000000000000000000000000000000000000000000000000000000000000000000000000000000000000000000000000000000000000000
310
000000000000000000000000000000000000000000000000000000000000E2000000000000000000000000000000000000000000000000000000000000000000000000000000000000000000000000000000000000000000000000000000000000000000000000000000000000000000000000000000000000000000000000
310
0000000000000000000099E200E2000000000000000000000000000000000000000000000000000000000000000000000000000000000000000000000000000000000000000000000000000000000000000000000000000000000000000000000000000000000000000000000000000000000000E20066E200E20000000000
310
00000000000000000000000000000000000000000000000000000000000000000000000000000000000000000000000000000000000000000000000000000000000000000000000000000000000000000000000000000000000000000000000000E20066E200E2000000000000000000000000000000000000000000000000
310
000000000000000000000000000000000000000000000000000000000000000000000000000000000000000000000000000000000000000000000000000000000000000000000000000000000000E20066E200E200000000000000000000000000000000000000000000000000000000000000000000000000000000000000
310
0000000000000000000000000000000000000000000000000000000000000000000000000000000000000000000000000000000000000000000000E20000E200E20000000000000000000000000000000000000000000000000000000000000000000000000000000000000000000000000000000000000000000000000000
310
00000000000000000000000000000000000000000000000000000000000000000000000000000000E20099E200E2000000000000000000000000000000000000000000000000000000000000000000000000000000000000000000000000000000000000000000000000000000000000000000000000000000000000000000
310
000000000000000000000000000000000000000000E20000E200E2000000000000000000000000000000000000000000000000000000E2E2E2E2E2E20000E2E20000E2E2E2E2E2E2E2E2E2E2E2E2E2E2E2E2E2E2E2E2E2E2E2E2E2E2E2E2E2E2E2E2E2E2E2E2E2E20000000000000000000000000000000000000000000000
310
0000E200FFE200E200000000000000000000000000000000000000000000000000E2E2E200000000E20000E2E2E2E2E2E2E2E2000000000000000000000000000000E2E2E200E2E200000000E2000000E2000000E200000000000000000000000000000000000000000000000000E20000E200E20000000000000000000000
310
0000000000000000000000000000E2E2E200000000E2000000E20000E2E2000000000000000000000000000000000000E2E20000E200000000E2000000E2000000E200000000000000000000000000000000000000000000000000E20000E200E200000000000000000000000000000000000000000000000000E2E2E20000
310
0000E2E2E2E2E2E200E2E2E2E2E2E200000000000000000000000000E2E2E2E2E2E200000000E2000000E2000000E200000000000000000000000000000000000000000000000000E20000E200E2000000000000000000000000000000000000000000000000000000E2E2E2E2E2E2E2E2E2E2E2E2E2E2E2E2E2E2E2E2E2E2
310
E2E2E2E2E2E2E2E2E2E2E2E2E2E2E200000000E2000000E2000000E200000000000000000000000000000000000000000000000000E20000E200E20000000000000000000000000000000000000000000000000000E2E20000000000000000E2000000E2E2E200E2E200E2E2E2E2E2E2E2E2E2E2E200E2E2E2E2E200000000
310
E2000000E2000000E200000000000000000000000000000000000000000000000000E2000FE200E2000000000000000000000000000000000000000000000000000000E20000000000000000E200000000E2E200E2E20000000000000000E20000E200E2000000E200000000E2000000E2000000E200000000000000000000
310
000000000000000000000000000000E20000E200E2000000000000000000000000000000000000000000000000000000E20000000000000000E200000000E2E200E2E20000E2E2E2E2E2E2E2E2E2E2E2E2000000E200000000E2000000E2000000E200000000000000000000000000000000000000000000000000E20000E2
310
00E2000000000000000000000000000000000000000000000000000000E20000000000000000E200000000E2E200E2E20000E20000E2E2E2E2E2E2E2E2E2E20000E200000000E2000000E2000000E200000000000000000000000000000000000000000000000000E20000E200E20000000000000000000000000000000000
310
00000000000000000000E20000000000000000E200000000E2E200E2E20000E20000E2E2E2E2E2E2E2E2E2E2E2E2E200000000E2000000E2000000E200000000000000000000000000000000000000000000000000E20000E200E2000000000000000000000000000000000000000000000000000000E20000000000000000
310
E200000000E2E200E2E20000E20000E200E20000000000E2000000E200000000E2000000E2000000E200000000000000000000000000000000000000000000000000E2000FE20000000000000000000000000000000000000000000000000000000000E20000000000000000E200000000E2E200E2E20000E20000E200E200
310
00000000E2000000E200000000E2000000E2000000E200000000000000000000000000000000000000000000000000000000E20000000000000000000000000000000000000000000000000000000000E20000000000000000E200000000E2E200E2E20000E20000E2E2E20000000000E2000000E200000000E2000000E200
310
0000E2000000000000000000000000000000000000000000000000000000F5E20000000000000000000000000000000000000000000000000000000000E20000000000000000E200000000E2E200E2E20000E20000E2E2E20000000000E2000000E200000000E2000000E2000000E200000000000000000000000000000000
310
000000000000000000000000E20000000000000000000000000000000000000000000000000000000000E20000000000000000E200000000E2E200E2E20000E20000E2E2E20000000000E2000000E200000000E2000000E2000000E200000000000000000000000000000000000000000000000000000000E2000000000000
310
0000000000000000000000000000000000000000000000E20000000000000000E200000000E2E200E2E20000E20000E2E2E20000000000E2000000E200000000E2000000E2000000E200000000000000000000000000000000000000000000000000000000E200000000000000000000000000000000000000000000000000
310
00000000E20000000000000000E200000000E2E200E2E20000E20000E2E2E20000000000E2000000E20000E2E2E2E20000E2000000E200000000000000000000000000000000000000000000000000000000E20000000000000000000000000000000000000000000000000000000000E20000000000000000E200000000E2
310
E200E2E20000E20000E2E2E20000000000E2000000E20000E2E2E2E20000E2000000E20000000000000000000000000000000000000000000000000000000FE2000000000000000000000000000000000000000000000000000000E2E2E20000000000000000E200000000E2E200E2E20000E20000E2E2E20000000000E200
310
0000E2000000E2E2E20000E2000000E200000000000000000000000000000000000000000000000000000000E2000000000000000000000000000000000000000000000000000000E2E2E20000000000000000E200000000E2E200E2E20000E20000E2E2E20000000000E2000000E200000000E2000000E2000000E2000000
310
00000000000000000000000000000000000000000000000000E200E200000000000000000000000000000000000000000000000000E2E2E2E200000000000000E200000000E2E200E2E20000E20000E2E2E20000000000E200E2E2E200000000E2000000E2000000E200000000000000000000000000000000000000000000
310
000000E20000E200E2000000000000000000000000000000000000000000000000000000E20000000000000000E200000000E2E200E2E20000E20000E2E2E20000000000E200E2E2E2E2000000E2000000E2000000E200000000000000000000000000000000000000000000000000E20000E200E200000000000000000000
310
0000000000000000000000000000000000E20000000000000000E200000000E2E200E2E20000E20000E2E2E20000000000E200E2E2E200000000E2000000E2000000E200000000000000000000000000000000000000000000000000E200F5E200E2000000000000000000000000000000000000000000000000000000E200
310
00000000000000E200000000E2E200E2E20000E20000E2E2E20000000000E2000000E200000000E2000000E2000000E200000000000000000000000000000000000000000000000000E20000E200E2000000000000000000000000000000000000000000000000000000E20000000000000000E200000000E2E200E2E20000
310
E20000E2E2E20000000000E2000000E200000000E2000000E2000000E200000000000000000000000000000000000000000000000000E20000E200E2000000000000000000000000000000000000000000000000000000E20000000000000000E200000000E2E200E2E20000E20000E2E2E20000000000E2000000E2000000
310
00E2000000E2000000E200000000000000000000000000000000000000000000000000E20000E200E2000000000000000000000000000000000000000000000000000000E20000000000000000E200000000E2E200E2E20000E20000E2E2E20000000000E2000000E200000000E2000000E2000000E2000000000000000000
310
00000000000000000000000000000000E20000E200E2000000000000000000000000000000000000000000000000000000E20000000000000000E2E2E2E200E2E200E2E20000E20000E2E2E20000000000E2000000E200000000E2000000E2000000E200000000000000000000000000000000000000000000000000E200F5
310
E200E2000000000000000000000000000000000000000000000000000000E200E2E2E2E2000000E2E2E2E200E2E200E2E20000E20000E2E2E20000000000E2000000E200000000E2000000E2000000E200000000000000000000000000000000000000000000000000E20000E200E200000000000000000000000000000000
310
0000000000000000000000E200E20000E2000000E20000E2E2E2E200E2E20000E20000E2E2E20000000000E2000000E200000000E2000000E2000000E200000000000000000000000000000000000000000000000000E200F5E200E2000000000000000000000000000000000000000000000000000000E200E20000E2E2E2
310
00E20000E2E2E2E200E2E20000E20000E2E2E20000000000E2000000E200000000E2000000E2000000E200000000000000000000000000000000000000000000000000E20000E200E2000000000000000000000000000000000000000000000000000000E200E200000000E200E200000000E2E200E2E20000E20000E2E2E2
310
0000000000E2000000E200000000E2000000E2000000E200000000000000000000000000000000000000000000000000E20000E200E2000000000000000000000000000000000000000000000000000000E200E200000000E200E200000000E2E200E2E20000E20000E2E2E2000000E200E2000000E200000000E2000000E2
310
000000E200000000000000000000000000000000000000000000000000E20000E200E2000000000000000000000000000000000000000000000000000000E200E2E2E2E2E2E200E2E2E2E2E2E2E200E2E20000E20000E2E2E2E2E2E2E2E2E2000000E200000000E2000000E2000000E2000000000000000000000000000000
310
00000000000000000000E20000E200E2000000000000000000000000000000000000000000000000000000E20000E2E2E2E2E2000000E2E2E2E2E200E2E20000E20000E2E2E2E2E2E2E2E2E2000000E200000000E2000000E2000000E200000000000000000000000000000000000000000000000000E200F5E200E2000000
310
0000000000000000000000000000000000000000000000E2E2E2E2E2E2E2E20000000000E2E2E2E200E2E20000E20000E2E200E2E2E2E2E2E2E2E2E2E2E2E2E2E2E2000000E2000000E200000000000000000000000000000000000000000000000000E20000E200E200000000000000000000000000000000000000000000
310
00000000000000000000E2000000000000E200E2E200E2E20000E20000E2E20000E200E2E200000000E20000000000000000E200E2E2E2E2000000000000000000000000000000000000000000000000E20000E200000000000000000000000000000000000000000000000000000000000000000000E2E2E2E2E2E2E2E2E2
310
E2E2E2E2E2E2E2E2E2E2E2E2E2E2E2E2E2E200000000E200000000000000E2E20000E2E2E2000000000000000000000000000000000000000000000000000000E200000000000000000000000000000000000000000000000000000000000000000000E2E2E2E2E2E2E2E20000000000000000000000000000000000000000
310
000000E20000000000000000E20000E2E200000000000000000000000000000000000000000000000000000000E200000000000000000000000000000000000000000000000000000000000000000000E2000000000000E20000000000000000000000000000000000000000000000E20000000000000000E20000E2E20000
310
00000000000000000000000000000000000000000000000000F5E20000000000000000000000000000000000000000000000000000000000E2E2E2E2E2E2E20000000000E2E200000000000000000000000000000000000000000000E20000000000000000E2000000E2000000000000000000000000000000000000000000
310
00000000000000E200000000000000000000000000000000000000000000000000000000E2E20000E2E2E2E2E2000000E2E2E2E2000000000000000000000000000000000000000000E20000000000000000E2000000E200000000000000000000000000000000000000000000000000000000E20000000000000000000000
310
000000000000000000000000000000000000E200E2E2E2E2E2E200E2E2E2E2E2E200000000000000000000000000000000000000E2E2E20000000000000000E2000000E200000000000000000000000000000000000000000000000000000000E2000000000000000000000000000000000000000000000000000000E2E2E2
310
00E200000000E200E200000000E200000000000000000000000000000000000000E2E2E2E200000000000000E2000000E200000000000000000000000000000000000000000000000000000000E2000000000000000000000000000000000000000000E2E2E2E2E2E2E2E2E200E200000000E200E200000000E200E2E2E2E2
310
E2E2000000000000000000000000E2E2E2E200000000000000E2000000E2000000000000000000000000000000000000000000000000000000F5E2000000000000000000000000000000000000000000000000000000E2E2E200E200000000E200E200000000E200000000000000000000000000000000000000E2E2E2E200
310
000000000000E2000000E200000000000000000000000000000000000000000000000000000000E20000000000000000000000000000000000000000000000000000000000E200E2E2E2E200E200E2E2E2E200E2000000000000000000000000000000000000000000E20000000000000000E2000000E20000000000000000
310
00000000000000000000000000000000000000F5E200E2000000000000000000000000000000000000000000000000000000E20000E2E2E2E2E2000000E2E2E2E2000000000000000000000000000000000000000000E20000000000000000E2000000E200000000000000000000000000000000000000000000000000E200
310
00E200E20000000000000000000000000000000000000000000000000000E2E2E2E2E2E2E2E20000000000E2E200000000000000000000000000000000000000000000E20000000000000000E2000000E200000000000000000000000000000000000000000000000000E20000E200E2000000000000000000000000000000
310
0000000000000000000000000000000000E2000000000000E20000000000000000000000000000000000000000000000E20000000000000000E2000000E200000000000000000000000000000000000000000000000000E2007FE200E20000000000000000000000000000000000000000000000000000000000000000E2E2
310
E2E2E2E2E2E20000000000000000000000000000000000000000000000E20000000000000000E2000000E200000000000000000000000000000000000000000000000000E20000E200E20000000000000000000000000000000000000000000000000000000000000000E2E2E2E2E2E2E2E2E2E2E2E2E2E2E2E2E2E2E2E2E2
310
E2E2E2E2E2E200000000E20000000000000000E2000000E200000000000000000000000000000000000000000000000000E200F5E200E20000000000000000000000000000000000000000000000000000000000000000E2000000000000E200E2E200E2E20000E20000E2E20000E200E2E200000000E20000000000000000
310
E2000000E200000000000000000000000000000000000000000000000000E20000E200E2000000000000000000000000000000000000000000000000000000E200000000E2000000000000E200E2E200E2E20000E20000E2E20000E200E2E200000000E200000000E2000000E2000000E20000000000000000000000000000
310
0000000000000000000000E20000E200E20000000000000000000000000000000000000000000000000000E2E2E2E2E2E2E2E20000000000E2E2E2E200E2E20000E20000E2E200E2E2E2E2E2E2E2E2E2E2E2E2E2E2E2000000E2000000E200000000000000000000000000000000000000000000000000E20000E200E20000
310
00000000000000000000000000000000000000000000000000E20000E2E2E2E2E20000E2E2E2E2E2E200E2E20000E20000E2E2E2E2E2E2E2E2E2000000E200000000E2000000E2000000E200000000000000000000000000000000000000000000000000E20036E200E2000000000000000000000000000000000000000000
310
000000000000E200E2E2E2E200E200E2E2E2E200E2E200E2E20000E20000E2E2E2E2E2E2E2E2E2000000E200000000E2000000E2000000E200000000000000000000000000000000000000000000000000E200F5E200E2000000000000000000000000000000000000000000000000000000E200E200000000E200E2000000
310
00E2E200E2E20000E20000E2E2E20000000000E2000000E200000000E2000000E2000000E200000000000000000000000000000000000000000000000000E20000E200E2000000000000000000000000000000000000000000000000000000E200E200000000E200E200000000E2E200E2E20000E20000E2E2E20000000000
310
E2000000E200000000E2000000E2000000E200000000000000000000000000000000000000000000000000E200F5E200E2000000000000000000000000000000000000000000000000000000E200E20000E2E2E200E20000E2E2E2E200E2E20000E20000E2E2E20000000000E2000000E200000000E2000000E2000000E200
310
000000000000000000000000000000000000000000000000E20000E200E200000000000000000000000000000000000000000000000000E2E2E200E20000E2000000E20000E200E2E200E2E20000E20000E2E2E20000000000E200E2E2E200000000E2000000E2000000E20000000000000000000000000000000000000000
310
0000000000E20000E200E200000000000000000000000000000000000000000000000000E2E2E200E2E2E2E2000000E2E2E2E200E2E200E2E20000E20000E2E2E20000000000E200E2E2E2E2000000E2000000E2000000E200000000000000000000000000000000000000000000000000E200F5E200E20000000000000000
310
0000000000000000000000000000000000E2E2E2E200000000000000E200000000E2E200E2E20000E20000E2E2E20000000000E200E2E2E2E2000000E2000000E2000000E200000000000000000000000000000000000000000000000000E20000E200E2000000000000000000000000000000000000000000000000000000
310
E20000000000000000E2E2E2E200E2E200E2E20000E20000E2E2E200E2E20000E2000000E200000000E2000000E2000000E200000000000000000000000000000000000000000000000000E200F5E20000000000000000000000000000000000000000000000000000000000E20000000000000000E2E2E2E200E2E200E2E2
310
0000E20000E2E2E200E2E2E200E2000000E20000E2E2E2E20000E2000000E200000000000000000000000000000000000000000000000000000000E20000000000000000000000000000000000000000000000000000000000E20000000000000000E2E2E2E2E2E2E200E2E20000E20000E2E2E2E2E2E2E2E2E2000000E200
310
00E2E2E2E20000E2000000E200000000000000000000000000000000000000000000000000000000E20000000000000000000000000000000000000000000000000000000000E20000000000000000E2E2E2E200E2E200E2E20000E20000E2E2E200E2E2E200E2000000E20000E2E2E2E20000E2000000E200000000000000
310
000000000000000000000000000000000000000000E20000000000000000000000000000000000000000000000000000000000E20000000000000000E200000000E2E200E2E20000E20000E2E2E20000000000E2000000E20000E2E2E2E20000E2000000E20000000000000000000000000000000000000000000000000000
310
0000E20000000000000000000000000000000000000000000000000000000000E20000000000000000E200000000E2E2E2E2E20000E2E2E2E2E2E20000000000E2000000E200000000E2000000E2000000E200000000000000000000000000000000000000000000000000000000E200000000000000000000000000000000
310
00000000000000000000000000E20000000000000000E200000000E2E2E2E2E2E2E2E2E2E2E2E2E20000000000E2000000E200000000E2000000E2000000E200000000000000000000000000000000000000000000000000000000E200000000000000000000000000000000000000000000000000000000E2E2E2E2E2E2E2
310
E2E2E2E2E2E2E2E2E2E2E2E2E2E2E2E200E2E2E2E2E2E2E2E2E2E2E2E2E2E200000000E2000000E2000000E200000000000000000000000000000000000000000000000000000000E20000000000000000000000000000000000000000000000000000000000000000000000E2E2E2E2E2E200000000E2E200E2E2E2E20000
310
0000E200000000E20000000000000000E2000000E2000000E200000000000000000000000000000000000000000000000000000000E20000000000000000000000000000000000000000000000000000000000000000000000E20000E2E2E200E2E2E2E2E200E2E2E2E2E2E20000E2E200E200E20000000000000000E20000
310
00E2E20000E200000000000000000000000000000000000000000000000000000000E200E2000000000000000000000000000000000000000000000000000000000000000000E20000E2E2E2E2E2E2E2E2E2E2E2E2E2E2E2E2E2E2E2E2E2E2E2E2E2E2E2E2E2E2E2E2E2E2E2E2E2E20000E200000000000000000000000000
310
000000000000000000000000E200F5E200E2000000000000000000000000000000000000000000000000000000000000000000E2E2E2E2E200000000000000000000000000000000E2E2E2E2E2E2000000000000000000000000E2000000E200000000000000000000000000000000000000000000000000E20000E200E200
310
00000000000000000000000000000000000000000000000000000000000000E2E20000E2000000000000000000E2E2E20000000000E2E2E2E200E2E2E2E2E2E2E2E2E2E2E2E2E2E2E2E2E2E200000000000000000000000000000000000000000000000000E200F5E200E20000000000000000000000000000000000000000
310
000000000000000000000000E2000000E2000000000000000000E2E2E2E20000000000E2E2E200E2000000000000000000000000E2E2E2E2E200000000000000000000000000000000000000000000000000E20000E200E20000000000000000000000000000000000000000000000000000000000000000E2000000E2E2E2
310
E2E2E2E2E2E2E2E2E2E200E2E2E2E2E2E2E2E2E2E2000000000000000000000000E2E2E2E2E200000000000000000000000000000000000000000000000000E20000E200E20000000000000000000000000000000000000000000000000000000000000000E2E2E2E2E2000000000000000000E2E2E2000000000000000000
310
0000000000000000000000000000E2E2E2E20000000000000000000000000000000000000000000000000000E200F5E200E20000000000000000000000000000000000000000000000000000000000000000000000000000000000000000000000000000000000000000000000000000000000000000000000000000E2E200
310
00000000000000000000000000000000000000000000000000E20000E200E2000000000000000000000000000000000000000000000000000000000000000000000000000000000000000000000000000000000000000000000000000000000000000000000000000000000000000000000000000000000000000000000000
310
000000000000E20000E200E2000000000000000000000000000000000000000000000000000000000000000000000000000000000000000000000000000000000000000000000000000000000000000000000000000000000000000000000000000000000000000000000000000000000000E20000E200E200000000000000
310
0000000000000000000000000000000000000000000000000000000000000000000000000000000000000000000000000000000000000000000000000000000000000000000000000000000000000000000000000000000000000000000000E20000E200E20000000000000000000000000000000000000000000000000000
310
00000000000000000000000000000000000000000000000000000000000000000000000000000000000000000000000000000000000000000000000000000000000000000000000000000000E20000E200E2000000000000000000000000000000000000000000000000000000000000000000000000000000000000000000
310
000000000000000000000000000000000000000000000000000000000000000000000000000000000000000000000000000000000000000000E20000E200E200000000000000000000000000000000000000000000000000000000000000000000000000000000000000000000000000000000000000000000000000000000
310
0000000000000000000000000000000000000000000000000000000000000000000000000000E20000E200E20000000000000000000000000000000000000000000000000000000000000000000000000000000000000000000000000000000000000000000000000000000000000000000000000000000000000000000000
310
00000000000000000000000000000000000000E20000E200E2000000000000000000000000000000000000000000000000000000000000000000000000000000000000000000000000000000000000000000000000000000000000000000000000000000000000000000000000000000000000000000000000000000000000
310
E20000E200E2000000000000000000000000000000000000000000000000000000000000000000000000000000000000000000000000000000000000000000000000000000000000000000000000000000000000000000000000000000000000000000000000000000000000E20000E200E200000000E2E2E2E2E2E2E2E2E2
310
E2E2E2E2E2E2E2E2E2E2E2E2E2E2E2E2E2E2E2E2E2E2E2E2E2E2E2E2E2E2E2E2E2E2E2E2E2E2E2E2E2E2E2E2E2E2E2E2E2E2E2E2E2E2E2E2E2E2E2E2E2E2000000000000000000000000000000000000000000000000000000E20000E2000000000000E2E2E2E2E2E2E2E2E2E2E2E2E2E2E2E2E2E2E2E2E2E2E2E2E2E2E2E2
310
E2E2E2E2E2E2E2E2E2E2E2E2E2E2E2E2E2E2E2E2E2E2E2E2E2E2E2E2E2E2E2E2E2E2E2E2E2E2E2E2E2E2E2000000000000000000000000000000000000000000000000000000000000E2000000000000E2E2E2E2E2E2E2E2E2E2E2E2E2E2E2E2E2E2E2E2E2E2E2E2E2E2E2E2E2E2E2E2E2E2E2E2E2E2E2E2E2E2E2E2E2E2E2
310
E2E2E2E2E2E2E2E2E2E2E2E2E2E2E2E2E2E2E2E2E2E2E2E2000000000000000000000000000000000000000000000000000000000000E2000000000000E2E2E2E2E2E2E2E2E2E2E2E2E2E2E2E2E2E2E2E2E2E2E2E2E2E2E2E2E2E2E2E2E2E2E2E2E2E2E2E2E2E2E2E2E2E2E2E2E2E2E2E2E2E2E2E2E2E2E2E2E2E2E2E2E2E2
310
E2E2E2E2E20000000000000000000000000000000000000000000000000000000000F5E20000000000E2E2E2E2E2E2E2E2E2E2E2E2E2E2E2E2E2E2E2E2E2E2E2E2E2E2E2E2E2E2E2E2E2E2E2E2E2E2E2E2E2E2E2E2E2E2E2E2E2E2E2E2E2E2E2E2E2E2E2E2E2E2E2E2E2E2E2E2E2E2E2E2E2E2E2E2E2E2E2E2E2E2E2E2E2E2
310
E2E2E2E2E2E2E2E2E2E2E2E2E2000000E2000000000000E2E2E2E2E2E2E2E2E2E2E2E2E2E2E2E2E2E2E2E2E2E2E2E2E2E2E2E2E2E2E2E2000000000000000000000000000000000000000000000000000000000000000000000000000000000000000000000000000000000000000000000000000000000000000000E20000
310
00000000E2E2E2E2E2E2E2E2E2E2E2E2E2E2E2E2E2E2E2E2E2E2E2E2E2E2E2E2E2E2E2E20000000000000000000000000000000000000000000000000000000000000000000000000000000000000000000000000000000000000000000000000000000000000000F5E2000000000000E2E2E2E2E2E2E2E2E2E2E2E2E2E2E2
310
E2E2E2E2E2E2E2E2E2E2E2E2E2E2E2E2E2000000000000000000000000000000000000000000000000000000000000000000000000E2E2E2E2E2E2E2E2E2E2E2E2E2E2E2E2E2E2E2E2E2E2E2E2E2E2E2E2E200000000E2000000000000E2E2E2E2E2E2E2E2E2E2E2E2E2E2E2E2E2E2E2E2E2E2E2E2E2E2E2E2E2E2E2E20000
310
00000000000000000000000000000000000000000000000000000000000000000000E2000000000000000000000000000000000000000000000000000000E2000000F5E20000000000000000000000000000000000000000000000000000000000000000000000000000000000000000000000000000000000000000000000
310
000000000000000000000000000000E20000E5E5E5E5E500E5E5E5E5E5E5E5E5E5E000E50025E525E5E500E200000000E20000000000000000000000000000000000000000000000000000000000000000000000000000000000000000000000000000000000000000000000000000000000000000000000000000E200E500
310
0000000000000000000000000000000000000000000000E5E200000000E200E2000000000000000000000000000000000000000000000000000000000000000000000000000000000000000000000000000000000000000000000000000000000000000000000000E2E5E50000000000E50000000000000000000000000000
310
0000E50000E200E20000E200E2000000000000000000000000000000000000000000000000000000000000000000000000000000000000000000000000000000000000000000000000000000000000000000000000E2E5E50000000000E500000000000000000000000000000000E50000E200E20000E200E2000000000000
310
000000000000000000000000000000000000000000000000000000000000000000000000000000000000000000000000000000000000000000000000000000000000E2E5E50000E500000000000000000000E50000000000000000E00000E200E200F5E200E200000000000000000000000000000000000000000000000000
310
0000000000000000000000000000000000000000000000000000000000000000000000000000000000000000000000E2000000000000E0000000040000E500000004002000E500000000E4E200E20000E200E20000000000000000000000000000000000000000000000000000000000000000000000000000000000000000
310
00000000000000000000000000000000000000000000000000000000E20000000000000000C0C00000000000000000C0C000000000000000E200E20000E200E2000000000000000000000000000000000000000000000000000000000000000000000000000000000000000000000000000000000000000000000000000000
310
000000000000000000E2000000000000000000000000000000000000000000000000000000E200E20000E200E2000000000000000000000000000000000000000000000000000000000000000000000000000000000000000000000000000000000000000000000000000000000000000000000000E2000000000000000000
310
000000000000000000000000000000000000E200E20000E200E2000000000000000000000000000000000000000000000000000000000000000000000000000000000000000000000000000000000000000000000000000000000000000000000000E2E2E2E2E2E2E2E2E2E2E2E2E2E2E2E2E2E2E2E2E2E2E2E2E2E2E2E2E2
310
00E200F5E200E2E2E2E2E2E2E2E2E2000000000000000000E2E2E2E2E2E2E2E2E2E2E2E2E2E2E2E200000000000000000000E2E2E2E2E2E2E2E2E2E2E2E2E2E2E2E200000000000000000000E2E2E2E2E2E2E2E2E2E2E2E2E2E2E2E2000000000000000000E2E2E2E2E2E2E2E2E2E200E20000000000000000000000000000
310
00000000000000000000000000000000000000000000000000000000000000000000000000000000000000000000000000000000000000000000000000000000000000000000000000000000000000000000000000000000000000E2F5E2000000000000000000000000000000000000000000000000000000000000000000
310
0000000000000000000000000000000000000000000000000000000000000000000000000000000000000000000000000000000000000000000000000000000000000000000000000000E2E2E2E2E2E2E2E2E2E2E2E2E2E2E2E2E2E2E2E2E2E2E2E2E2E2E2E2E2E2E2E2E2E2E2E2E2E2E2E2E2E2E2E2E2E2E2E2E2E2E2E2E2
310
E2E2E2E2E2E2E2E2E2E2E2E2E2E2E2E2E2E2E2E2E2E2E2E2E2E2E2E2E2E2E2E2E2E2E2E2E2E2E2E2E2E2E2E2E2E2E2E2E2E2E2E2E2E200
  0
XRECORD
  5
34F
102
{ACAD_REACTORS
330
19
102
}
330
19
100
AcDbXrecord
280
     1
102
SHADEPLOT
 70
     0
102
SHADEPLOTRESLEVEL
 70
     2
102
SHADEPLOTCUSTOMDPI
 70
   300
  0
XRECORD
  5
1A
102
{ACAD_REACTORS
330
19
102
}
330
19
100
AcDbXrecord
280
     1
310
280000000001000076000000010008000000000000760000000000000000000000010000000000000000000000000000C8C8C8000000000000000000000000000000000000000000000000000000000000000000330000006600000099000000CC000000FF00000000330000333300006633000099330000CC330000FF3300
310
0000660000336600006666000099660000CC660000FF66000000990000339900006699000099990000CC990000FF99000000CC000033CC000066CC000099CC0000CCCC0000FFCC000000FF000033FF000066FF000099FF0000CCFF0000FFFF000000003300330033006600330099003300CC003300FF003300003333003333
310
33006633330099333300CC333300FF33330000663300336633006666330099663300CC663300FF66330000993300339933006699330099993300CC993300FF99330000CC330033CC330066CC330099CC3300CCCC3300FFCC330000FF330033FF330066FF330099FF3300CCFF3300FFFF330000006600330066006600660099
310
006600CC006600FF00660000336600333366006633660099336600CC336600FF33660000666600336666006666660099666600CC666600FF66660000996600339966006699660099996600CC996600FF99660000CC660033CC660066CC660099CC6600CCCC6600FFCC660000FF660033FF660066FF660099FF6600CCFF6600
310
FFFF660000009900330099006600990099009900CC009900FF00990000339900333399006633990099339900CC339900FF33990000669900336699006666990099669900CC669900FF66990000999900339999006699990099999900CC999900FF99990000CC990033CC990066CC990099CC9900CCCC9900FFCC990000FF99
310
0033FF990066FF990099FF9900CCFF9900FFFF99000000CC003300CC006600CC009900CC00CC00CC00FF00CC000033CC003333CC006633CC009933CC00CC33CC00FF33CC000066CC003366CC006666CC009966CC00CC66CC00FF66CC000099CC003399CC006699CC009999CC00CC99CC00FF99CC0000CCCC0033CCCC0066CC
310
CC0099CCCC00CCCCCC00FFCCCC0000FFCC0033FFCC0066FFCC0099FFCC00CCFFCC00FFFFCC000000FF003300FF006600FF009900FF00CC00FF00FF00FF000033FF003333FF006633FF009933FF00CC33FF00FF33FF000066FF003366FF006666FF009966FF00CC66FF00FF66FF000099FF003399FF006699FF009999FF00CC
310
99FF00FF99FF0000CCFF0033CCFF0066CCFF0099CCFF00CCCCFF00FFCCFF0000FFFF0033FFFF0066FFFF0099FFFF00CCFFFF00FFFFFF00000000000D0D0D001A1A1A00282828003535350043434300505050005D5D5D006B6B6B00787878008686860093939300A1A1A100AEAEAE00BBBBBB00C9C9C900D6D6D600E4E4E400
310
F1F1F100FFFFFF0000000000000000000000000000000000000000000000000000000000000000000000000000000000000000000000000000000000000000000000F5F5F5F5F5F5F500000000000000F50000000000000000F5000000000000F5F5F500000000000000000000000000000000000000000000000000000000
310
00000000000000000000F500F50000000000F500000000000000000000F50000000000000000F500000000000000F50000000000000000000000000000000000000000000000000000000000000000000000000000000000000000000000000000000000000000000000000000000000000000000000000000000000000000
310
0000000000000000000000000000000000000000000000000000000000000000000000000000000000000000000000000000000000000000000000000000000000000000F5F5F5F5F5F5F500000000000000F50000000000000000F5000000000000F5F5F50000000000000000000000000000000000000000000000000000
310
000000000000000000000000F500F50000000000F500000000000000000000F50000000000000000F500000000000000F5000000000000000000000000000000000000000000000000000000000000000000000000000000000000000000000000000000000000000000000000000000000000000000000000000000000000
310
00000000000000000000000000000000000000000000000000000000000000000000000000000000000000000000000000000000000000000000000000000000000000000000F5F5F5F5F5F5F5F5000000000000F5F5F5F5F500000000F5000000000000F5F5F5000000000000000000000000000000000000000000000000
310
0000000000000000000000000000F500F50000F5F5F5F5F5F50000000000000000F50000000000000000F500000000000000F500000000000000000000000000000000000000000000000000000000000000000000000000000000000000000000000000000000000000000000000000000000000000000000000000000000
310
000000000000000000000000000000000000000000000000000000000000000000000000000000000000000000000000000000000000000000000000000000000000000000000000F5F5F5F5F5F5F5F5000000000000F5F5F5F5F5F5F5F5F5F5F5F5F5F5F5F5F5F5F5F5F5F5F5F5F5F5F5F500000000000000000000000000
310
000000000000000000000000000000F5F500F50000F5F5F5F5F5F50000000000000000F50000000000000000F500000000000000F50000000000000000000000000000000000000000000000000000000000000000000000000000000000000000000000000000000000000000000000000000000000000000000000000000
310
000000000000000000000000000000000000000000000000000000000000000000000000000000000000000000000000000000000000000000000000000000000000000000000000000000000000F50000000000000000000000000000000000F5F5F5F5F5F5F5F5F5F5F5F5F5F5F5F5F5F5F5F5F5F5F5F5F5F5F5F5F5F5F5
310
F5F5F5F5F5F5F5F5F5F5F5F5F5F5F5F5F5F5F500F50000F5F5F5F5F5F50000000000000000F50000000000000000F500000000000000F5000000000000000000000000000000000000000000000000000000000000000000000000000000000000000000000000000000000000000000000000000000000000000000000000
310
0000000000000000000000000000000000000000000000000000000000000000000000000000000000000000000000000000000000000000000000000000000000000000000000000000000000000000F5F5F5F5F5F5F5F5F5F5F5F5F5F5F5F5F5F5F5F5F5F5F5F5F5F5F5F5F5F5F5F5F5F5F5F5F5F5F5F5F5F5F5F5F5F5F5
310
F5F5F5F5F500000000F500000000F50000F50000F500F50000F5F5F5F5F5F50000000000000000F50000000000000000F500000000000000F500000000000000000000000000000000000000000000000000000000000000000000000000000000000000000000000000000000000000000000000000000000000000000000
310
000000000000000000000000000000000000000000000000000000000000000000000000000000000000000000000000000000000000000000000000000000000000000000000000000000000000000000F5F500000000000000000000000000000000000000F50000000000000000F5F5F50000000000F5F5000000000000
310
F5F5F5F5F5F5F5F5F5F5F5F5F5F5F5F5F5F5F5F50000F5F5F50000F5F5F5F5F5F50000000000000000F50000000000000000F500000000000000F50000000000000000000000000000000000000000000000000000000000000000000000000000000000000000000000000000000000000000000000000000000000000000
310
000000000000000000000000000000000000000000000000000000000000000000000000000000000000000000000000000000000000000000000000000000000000000000000000000000000000000000000000F500000000000000000000000000000000000000F50000000000000000F5F5F50000000000F5F500000000
310
000000000000000000000000F500F5F5F5F5F5F5F5F50000F500000000F5F5F5F5F5F50000000000000000F50000000000000000F500000000000000F5000000000000000000000000000000000000000000000000000000000000000000000000000000000000000000000000000000000000000000000000000000000000
310
0000000000000000000000000000000000000000000000000000000000000000000000000000000000000000000000000000000000000000000000000000000000000000000000000000000000000000000000000000F500000000000000000000000000000000000000F50000000000000000F5F5F50000000000F5F50000
310
000000000000000000000000000000F50000000000F5F5F50000F500000000F5F5F5F5F5F50000000000000000F50000000000000000F500000000000000F500000000000000000000000000000000000000000000000000000000000000000000000000000000000000000000000000000000000000000000000000000000
310
00000000000000000000000000000000000000000000000000000000000000000000000000000000000000000000000000000000000000000000000000000000000000000000000000000000000000000000000000000000F500000000000000000000000000000000000000F50000000000000000F5F5F50000000000F5F5
310
0000000000000000000000000000000000F50000000000F5F5F50000F500000000000000F500000000000000000000F50000000000000000F500000000000000F50000000000000000000000000000000000000000000000000000000000000000000000000000000000000000000000000000000000000000000000000000
310
000000000000000000000000000000000000000000000000000000000000000000000000000000000000000000000000000000000000000000000000000000000000000000000000000000000000000000000000000000000000F500000000000000000000000000000000000000F50000000000000000F5F5F50000000000
310
F5F50000000000000000000000000000F500F5F5F5F5F5F5F5F5F5F5F5F5F500000000000000F500000000000000000000F50000000000000000F500000000000000F5000000000000000000000000000000000000000000000000000000000000000000000000000000000000000000000000000000000000000000000000
310
0000000000000000000000000000000000000000000000000000000000000000000000000000000000000000000000000000000000000000000000000000000000000000000000000000000000000000000000000000000000000000F500000000000000000000000000000000000000F50000000000000000F5F5F5000000
310
0000F5F50000000000F5F5F5F5F5F5F5F5F5F5F5F5F50000F50000F5F50000F50000000000000000F500000000000000000000F50000000000000000F500000000000000F500000000000000000000000000000000000000000000000000000000000000000000000000000000000000000000000000000000000000000000
310
00000000000000000000000000000000000000000000000000000000000000000000000000000000000000000000000000000000000000000000000000000000000000000000000000000000000000000000000000000000000000000000F500000000000000000000000000000000000000F50000000000000000F5F5F500
310
00000000F5F50000000000F5F500000000F5F5F500F5F5F50000F50000F5F50000F50000000000000000F500000000000000000000F50000000000000000F500000000000000F50000000000000000000000000000000000000000000000000000000000000000000000000000000000000000000000000000000000000000
310
000000000000000000000000000000000000000000000000000000000000000000000000000000000000000000000000000000000000000000000000000000000000000000000000000000000000000000000000000000000000000000000000F500000000000000000000000000000000000000F50000000000000000F5F5
310
F50000000000F5F50000000000F5F500000000F500F5F500F5F5F5F5F5F5F5F5F5F5F5F5F5F5000000000000F5F5000000000000000000F50000000000000000F500000000000000F5000000000000000000000000000000000000000000000000000000000000000000000000000000000000000000000000000000000000
310
0000000000000000000000000000000000000000000000000000000000000000000000000000000000000000000000000000000000000000000000000000000000000000000000000000000000000000000000000000000000000000000000000000F500000000000000000000000000000000000000F50000000000000000
310
F5F5F50000000000F5F50000000000F5F500000000F50000F5F5F5F5F5F5F5F5F5F5F5F5F5F5F5F5F5F5F5F5F5F5F500000000000000000000F50000000000000000F500000000000000F500000000000000000000000000000000000000000000000000000000000000000000000000000000000000000000000000000000
310
00000000000000000000000000000000000000000000000000000000000000000000000000000000000000000000000000000000000000000000000000000000000000000000000000000000000000000000000000000000000000000000000000000000F500000000000000000000000000000000000000F5000000000000
310
0000F5F5F50000000000F5F50000000000F5F500000000F500000000F50000000000000000000000F5F5000000000000F500000000000000000000F50000000000000000F500000000000000F50000000000000000000000000000000000000000000000000000000000000000000000000000000000000000000000000000
310
000000000000000000000000000000000000000000000000000000000000000000000000000000000000000000000000000000000000000000000000000000000000000000000000000000000000000000000000000000000000000000000000000000000000F500000000000000000000000000000000000000F500000000
310
00000000F5F5F50000000000F5F50000000000F5F500000000F500000000F50000000000000000000000F5F5000000000000F500000000000000000000F50000000000000000F500000000000000F5000000000000000000000000000000000000000000000000000000000000000000000000000000000000000000000000
310
0000000000000000000000000000000000000000000000000000000000000000000000000000000000000000000000000000000000000000000000000000000000000000000000000000000000000000000000000000000000000000000000000000000000000000F500000000000000000000000000000000000000F50000
310
000000000000F5F5F50000000000F5F50000000000F5F500000000F500000000F50000000000000000000000F500000000000000F500000000000000000000F50000000000000000F500000000000000F500000000000000000000000000000000000000000000000000000000000000000000000000000000000000000000
310
00000000000000000000000000000000000000000000000000000000000000000000000000000000000000000000000000000000000000000000000000000000000000000000000000000000000000000000000000000000000000000000000000000000000000000000F500000000000000000000000000000000000000F5
310
0000000000000000F5F5F50000000000F5F50000000000F5F500000000F500000000F50000000000000000000000F500000000000000F500000000000000000000F50000000000000000F500000000000000F50000000000000000000000000000000000000000000000000000000000000000000000000000000000000000
310
000000000000000000000000000000000000000000000000000000000000000000000000000000000000000000000000000000000000000000000000000000000000000000000000000000000000000000000000000000000000000000000000000000000000000000000000F5000000000000000000000000000000000000
310
00F50000000000000000F5F5F50000000000F5F50000000000F5F500000000F5F5000000F50000000000000000000000F500000000000000F500000000000000000000F50000000000000000F500000000000000F5000000000000000000000000000000000000000000000000000000000000000000000000000000000000
310
0000000000000000000000000000000000000000000000000000000000000000000000000000000000000000000000000000000000000000000000000000000000000000000000000000000000000000000000000000000000000000000000000000000000000000000000000000F500000000000000000000000000000000
310
000000F50000000000000000F5F5F50000000000F5F50000000000F5F50000000000F5F5F5F5F50000000000000000000000F500000000000000F500000000000000000000F50000000000000000F500000000000000F500000000000000000000000000000000000000000000000000000000000000000000000000000000
310
00000000000000000000000000000000000000000000000000000000000000000000000000000000000000000000000000000000000000000000000000000000000000000000000000000000000000000000000000000000000000000000000000000000000000000000000000000000F50000000000000000000000000000
310
0000000000F50000000000000000F5F5F50000000000F5F50000000000F5F50000000000F5F50000F50000000000000000000000F500000000000000F500000000000000000000F50000000000000000F500000000000000F50000000000000000000000000000000000000000000000000000000000000000000000000000
310
000000000000000000000000000000000000000000000000000000000000000000000000000000000000000000000000000000000000000000000000000000000000000000000000000000000000000000000000000000000000000000000000000000000000000000000000000000000000F5000000000000000000000000
310
00000000000000F50000000000000000F5F5F50000000000F5F50000000000F5F50000000000F5F50000F50000000000000000000000F500000000000000F500000000000000000000F50000000000000000F500000000000000F5000000000000000000000000000000000000000000000000000000000000000000000000
310
0000000000000000000000000000000000000000000000000000000000000000000000000000000000000000000000000000000000000000000000000000000000000000000000000000000000000000000000000000000000000000000000000000000000000000000000000000000000000000F500000000000000000000
310
000000000000000000F50000000000000000F5F5F50000000000F5F50000000000F5F50000000000F5F50000F50000000000000000000000F500000000000000F500000000000000000000F50000000000000000F500000000000000F500000000000000000000000000000000000000000000000000000000000000000000
310
00000000000000000000000000000000000000000000000000000000000000000000000000000000000000000000000000000000000000000000000000000000000000000000000000000000000000000000000000000000000000000000000000000000000000000000000000000000000000000000F50000000000000000
310
0000000000000000000000F50000000000000000F5F5F50000000000F5F50000000000F5F50000000000F5F50000F50000000000000000000000F500000000000000F500000000000000000000F50000000000000000F500000000000000F50000000000000000000000000000000000000000000000000000000000000000
310
000000000000000000000000000000000000000000000000000000000000000000000000000000000000000000000000000000000000000000000000000000000000000000000000000000000000000000000000000000000000000000000000000000000000000000000000000000000000000000000000F5000000000000
310
00000000000000000000000000F50000000000000000F5F5F50000000000F5F50000000000F5F50000000000F5F50000F50000000000000000000000F500000000000000F500000000000000000000F50000000000000000F500000000000000F5000000000000000000000000000000000000000000000000000000000000
310
0000000000000000000000000000000000000000000000000000000000000000000000000000000000000000000000000000000000000000000000000000000000000000000000000000000000000000000000000000000000000000000000000000000000000000000000000000000000000000000000000000F500000000
310
000000000000000000000000000000F50000000000000000F5F5F50000000000F5F50000000000F5F50000000000F5F50000F50000000000000000000000F500000000000000F500000000000000000000F50000000000000000F500000000000000F500000000000000000000000000000000000000000000000000000000
310
00000000000000000000000000000000000000000000000000000000000000000000000000000000000000000000000000000000000000000000000000000000000000000000000000000000000000000000000000000000000000000000000000000000000000000000000000000000000000000000000000000000F50000
310
0000000000000000000000000000000000F50000000000000000F5F5F50000000000F5F50000000000F5F50000000000F5F50000F50000000000000000000000F500000000000000F500000000000000000000F50000000000000000F500000000000000F50000000000000000000000000000000000000000000000000000
310
000000000000000000000000000000000000000000000000000000000000000000000000000000000000000000000000000000000000000000000000000000000000000000000000000000000000000000000000000000000000000000000000000000000000000000000000000000000000000000000000000000000000F5
310
00000000000000000000000000000000000000F50000000000000000F5F5F50000000000F5F50000000000F5F50000000000F5F50000F50000000000000000000000F500000000000000F500000000000000000000F50000000000000000F500000000000000F5000000000000000000000000000000000000000000000000
310
00000000000000000000000000000000000000000000000000000000000000000000000000000000000000000000000000000000000000000000000000000000000000000000000000000000000000000000000000000000000000000000000000000000000000000000000000000000000000000000000000000000000000
310
00F500000000000000000000000000000000000000F50000000000000000F5F5F50000000000F5F50000000000F5F50000000000F5F50000F50000000000000000000000F500000000000000F5000000000000F5F5F5F5F5F5F5F50000000000F500000000000000F500000000000000000000000000000000000000000000
310
00000000000000000000000000000000000000000000000000000000000000000000000000000000000000000000000000000000000000000000000000000000000000000000000000000000000000000000000000000000000000000000000000000000000000000000000000000000000000000000000000000000000000
310
000000F500000000000000000000000000000000000000F50000000000000000F5F5F50000000000F5F50000000000F5F50000000000F5F50000F50000000000000000000000F500000000000000F5000000000000F5F5F5F5F5F5F5F50000000000F500000000000000F50000000000000000000000000000000000000000
310
00000000000000000000000000000000000000000000000000000000000000000000000000000000000000000000000000000000000000000000000000000000000000000000000000000000000000000000000000000000000000000000000000000000000000000000000000000000000000000000000000000000000000
310
0000000000F500000000000000000000000000000000000000F50000000000000000F5F5F50000000000F5F50000000000F5F50000000000F5F50000F50000000000000000000000F500000000000000F500000000000000F5F5F5F5F5F5F50000000000F500000000000000F5000000000000000000000000000000000000
310
00000000000000000000000000000000000000000000000000000000000000000000000000000000000000000000000000000000000000000000000000000000000000000000000000000000000000000000000000000000000000000000000000000000000000000000000000000000000000000000000000000000000000
310
00000000000000F500000000000000000000000000000000000000F50000000000000000F5F5F50000000000F5F50000000000F5F50000000000F5F50000F50000000000000000000000F500000000000000F500000000000000F5F5F5F5F5F5000000000000F500000000000000F500000000000000000000000000000000
310
00000000000000000000000000000000000000000000000000000000000000000000000000000000000000000000000000000000000000000000000000000000000000000000000000000000000000000000000000000000000000000000000000000000000000000000000000000000000000000000000000000000000000
310
0000000000F5F5F5F5F5F5F50000000000000000000000000000000000F50000000000000000F5F5F50000000000F5F50000000000F5F50000000000F5F50000F50000000000000000000000F500000000000000F500000000000000F5F5F5F5F5F5000000000000F500000000000000F50000000000000000000000000000
310
00000000000000000000000000000000000000000000000000000000000000000000000000000000000000000000000000000000000000000000000000000000000000000000000000000000000000000000000000000000000000000000000000000000000000000000000000000000000000000000000000000000000000
310
00000000000000F5F5F5F5F5F5F50000000000000000000000000000000000F50000000000000000F5F5F50000000000F5F50000000000F5F50000000000F5F50000F50000000000000000000000F500000000000000F500000000000000F5F5F5F5F5F5000000000000F500000000000000F5000000000000000000000000
310
00000000000000000000000000000000000000000000000000000000000000000000000000000000000000000000000000000000000000000000000000000000000000000000000000000000000000000000000000000000000000000000000000000000000000000000000000000000000000000000000000000000000000
310
000000000000000000F5F5F5F5F5F5F5F500000000000000000000000000000000F50000000000000000F5F5F50000000000F5F50000000000F5F50000000000F5F50000F50000000000000000000000F500000000000000F500000000000000000000F50000000000000000F500000000000000F500000000000000000000
310
00000000000000000000000000000000000000000000000000000000000000000000000000000000000000000000000000000000000000000000000000000000000000000000000000000000000000000000000000000000000000000000000000000000000000000000000000000000000000000000000000000000000000
310
0000000000000000000000F5F5F5F5F5F5F5F500000000000000000000000000000000F50000000000000000F5F5F50000000000F5F50000000000F5F50000000000F5F50000F50000000000000000000000F500000000000000F500000000000000000000F50000000000000000F500000000000000F50000000000000000
310
00000000000000000000000000000000000000000000000000000000000000000000000000000000000000000000000000000000000000000000000000000000000000000000000000000000000000000000000000000000000000000000000000000000000000000000000000000000000000000000000000000000000000
310
00000000000000000000000000F5F5F5F5F5F5F50000000000000000000000000000000000F50000000000000000F5F5F50000000000F5F50000000000F5F50000000000F5F50000F50000000000000000000000F5000000F5F5F5F5F5F5F50000000000000000F50000000000000000F500000000000000F5000000000000
310
00000000000000000000000000000000000000000000000000000000000000000000000000000000000000000000000000000000000000000000000000000000000000000000000000000000000000000000000000000000000000000000000000000000000000000000000000000000000000000000000000000000000000
310
000000000000000000000000000000F5F5F5F5F5F5F5F500000000000000000000000000000000F50000000000000000F5F5F50000000000F5F50000000000F5F50000000000F5F50000F50000000000000000000000F5000000F5F5F5F5F5F5F50000000000000000F50000000000000000F500000000000000F500000000
310
00000000000000000000000000000000000000000000000000000000000000000000000000000000000000000000000000000000000000000000000000000000000000000000000000000000000000000000000000000000000000000000000000000000000000000000000000000000000000000000000000000000000000
310
0000000000000000000000000000000000F5F5F5F5F5F5F5F500000000000000000000000000000000F50000000000000000F5F5F50000000000F5F50000000000F5F50000000000F5F50000F50000000000000000000000F500000000F5F5F5F5F5F5F500000000000000F50000000000000000F500000000000000F50000
310
00000000000000000000000000000000000000000000000000000000000000000000000000000000000000000000000000000000000000000000000000000000000000000000000000000000000000000000000000000000000000000000000000000000000000000000000000000000000000000000000000000000000000
310
0000000000000000000000000000000000000000000000F500000000000000000000000000000000000000F50000000000000000F5F5F50000000000F5F50000000000F5F50000000000F5F50000F50000000000000000000000F500000000F5F5F5F5F5F5F500000000000000F50000000000000000F500000000000000F5
310
00000000000000000000000000000000000000000000000000000000000000000000000000000000000000000000000000000000000000000000000000000000000000000000000000000000000000000000000000000000000000000000000000000000000000000000000000000000000000000000000000000000000000
310
00000000000000000000000000000000000000000000000000F500000000000000000000000000000000000000F50000000000000000F5F5F50000000000F5F50000000000F5F50000000000F5F50000F50000000000000000000000F500000000F5F5F5F5F5F50000000000000000F50000000000000000F5000000000000
310
00F50000000000000000000000000000000000000000000000000000000000000000000000000000000000000000000000000000000000000000000000000000000000000000000000000000000000000000000000000000000000000000000000000000000000000000000000000000000000000000000000000000000000
310
000000000000000000000000000000000000000000000000000000F500000000000000000000000000000000000000F50000000000000000F5F5F50000000000F5F50000000000F5F50000000000F5F50000F50000000000000000000000F500000000F5F5F5F5F5F50000000000000000F50000000000000000F500000000
310
000000F5000000000000000000000000000000000000000000000000000000000000000000000000000000000000000000000000000000000000000000000000000000000000000000000000000000000000000000000000000000000000000000000000000000000000000000000000000000000000000000000000000000
310
0000000000000000000000000000000000000000000000000000000000F500000000000000000000000000000000000000F50000000000000000F5F5F50000000000F5F50000000000F5F50000000000F5F50000F50000000000000000000000F500000000F5F5F5F5F5F50000000000000000F50000000000000000F50000
310
0000000000F500000000000000000000000000000000000000000000000000000000000000000000000000000000000000000000000000000000000000000000000000000000000000000000000000000000000000000000000000000000000000000000000000000000000000000000000000000000000000000000000000
310
00000000000000000000000000000000000000000000000000000000000000F500000000000000000000000000000000000000F50000000000000000F5F5F50000000000F5F50000000000F5F50000000000F5F50000F50000000000000000000000F500000000000000F500000000000000000000F50000000000000000F5
310
00000000000000F50000000000000000000000000000000000000000000000000000000000000000000000000000000000000000000000000000000000000000000000000000000000000000000000000000000000000000000000000000000000000000000000000000000000000000000000000000000000000000000000
310
000000000000000000000000000000000000000000000000000000000000000000F500000000000000000000000000000000000000F50000F50000000000F5F5F50000000000F5F50000000000F5F50000000000F5F50000F50000000000000000000000F500000000000000F500000000000000000000F500000000000000
310
00F500000000000000F5000000000000000000000000000000000000000000000000000000000000000000000000000000000000000000000000000000000000000000000000000000000000000000000000000000000000000000000000000000000000000000000000000000000000000000000000000000000000000000
310
0000000000000000000000000000000000000000000000000000000000000000000000F500000000000000000000000000000000000000F50000F50000000000F5F5F50000000000F5F50000000000F5F50000000000F5F50000F50000000000000000000000F500000000000000F500000000000000000000F50000000000
310
000000F500000000000000F500000000000000000000000000000000000000000000000000000000000000000000000000000000000000000000000000000000000000000000000000000000000000000000000000000000000000000000000000000000000000000000000000000000000000000000000000000000000000
310
00000000000000000000000000000000000000000000000000000000000000000000000000F500000000000000000000000000000000000000F50000F50000F5F5F5F5F5F50000000000F5F50000000000F5F50000000000F5F50000F50000000000000000000000F500000000000000F500000000000000000000F5000000
310
0000000000F500000000000000F50000000000000000000000000000000000000000000000000000000000000000000000000000000000000000000000000000000000000000000000000000000000000000000000000000000000000000000000000000000000000000000000000000000000000000000000000000000000
310
000000000000000000000000000000000000000000000000000000000000000000000000000000F500000000000000000000000000000000000000F500F5F5F5F5F50000F5F5F50000000000F5F50000000000F5F50000000000F5F50000F50000000000000000000000F500000000000000F500000000000000000000F500
310
00000000000000F500000000000000F5000000000000000000000000000000000000000000000000000000000000000000000000000000000000000000000000000000000000000000000000000000000000000000000000000000000000000000000000000000000000000000000000000000000000000000000000000000
310
0000000000000000000000000000000000000000000000000000000000000000000000000000000000F500000000000000000000000000000000000000F500F5F50000F50000F5F5F50000000000F5F50000000000F5F50000000000F5F50000F50000000000000000000000F500000000000000F500000000000000000000
310
F50000000000000000F500000000000000F500000000000000000000000000000000000000000000000000000000000000000000000000000000000000000000000000000000000000000000000000000000000000000000000000000000000000000000000000000000000000000000000000000000000000000000000000
310
00000000000000000000000000000000000000000000000000000000000000000000000000000000000000F500000000000000000000000000000000000000F500F5F5F5F5F50000F5F5F50000000000F5F50000000000F5F50000000000F5F50000F50000000000000000000000F500000000000000F50000000000000000
310
0000F50000000000000000F500000000000000F50000000000000000000000000000000000000000000000000000000000000000000000000000000000000000000000000000000000000000000000000000000000000000000000000000000000000000000000000000000000000000000000000000000000000000000000
310
000000000000000000000000000000000000000000000000000000000000000000000000000000000000000000F500000000000000000000000000000000000000F50000F500F5F5F5F5F5F5F50000000000F5F50000000000F5F50000000000F5F50000F50000000000000000000000F500000000000000F5000000000000
310
00000000F50000000000000000F500000000000000F5000000000000000000000000000000000000000000000000000000000000000000000000000000000000000000000000000000000000000000000000000000000000000000000000000000000000000000000000000000000000000000000000000000000000000000
310
0000000000000000000000000000000000000000000000000000000000000000000000000000000000000000000000F500000000000000000000000000000000000000F5F5F5F5F5F5F50000F5F5F50000000000F5F50000000000F5F50000000000F5F50000F50000000000000000000000F500000000000000F500000000
310
000000000000F50000000000000000F500000000000000F500000000000000000000000000000000000000000000000000000000000000000000000000000000000000000000000000000000000000000000000000000000000000000000000000000000000000000000000000000000000000000000000000000000000000
310
00000000000000000000000000000000000000000000000000000000000000000000000000000000000000000000000000F50000000000F5F5F5F5F5F50000000000000000F5F5F5F5F5F5F50000F5F5F50000000000F5F50000000000F5F50000000000F5F50000F50000000000000000000000F500000000000000F50000
310
0000000000000000F50000000000000000F500000000000000F50000000000000000000000000000000000000000000000000000000000000000000000000000000000000000000000000000000000000000000000000000000000000000000000000000000000000000000000000000000000000000000000000000000000
310
000000000000000000000000000000000000000000000000000000000000000000000000000000000000000000000000000000F500000000F50000000000F50000000000000000F50000F5F500F50000F5F5F50000000000F5F50000000000F5F50000000000F5F50000F50000000000000000000000F500000000000000F5
310
00000000000000000000F50000000000000000F500000000000000F5000000000000000000000000000000000000000000000000000000000000000000000000000000000000000000000000000000000000000000000000000000000000000000000000000000000000000000000000000000000000000000000000000000
310
0000000000000000000000000000000000000000000000000000000000000000000000000000000000000000000000000000000000F500000000F50000000000F50000000000000000F50000F5F500F50000F5F5F50000000000F5F50000000000F5F50000000000F5F50000F50000000000000000000000F5000000000000
310
00F500000000000000000000F50000000000000000F500000000000000F500000000000000000000000000000000000000000000000000000000000000000000000000000000000000000000000000000000000000000000000000000000000000000000000000000000000000000000000000000000000000000000000000
310
00000000000000000000000000000000000000000000000000000000000000000000000000000000000000000000000000000000000000F500000000F50000000000F50000000000000000F50000F5F500F5F5F5F5F5F50000000000F5F50000000000F5F50000000000F5F50000F50000000000000000000000F500000000
310
000000F500000000000000000000F50000000000000000F500000000000000F50000000000000000000000000000000000000000000000000000000000000000000000000000000000000000000000000000000000000000000000000000000000000000000000000000000000000000000000000000000000000000000000
310
000000000000000000000000000000000000000000000000000000000000000000000000000000000000000000000000000000000000000000F500000000F50000000000F5F5F5F50000000000F50000F5F500F5F5F5F5F5F50000000000F5F50000000000F5F50000000000F5F50000F50000000000000000000000F50000
310
0000000000F500000000000000000000F50000000000000000F500000000000000F5000000000000000000000000000000000000000000000000000000000000000000000000000000000000000000000000000000000000000000000000000000000000000000000000000000000000000000000000000000000000000000
310
0000000000000000000000000000000000000000000000000000000000000000000000000000000000000000000000000000000000000000000000F500000000F50000000000000000F50000000000F50000000000000000F5F5F50000000000F5F50000000000F5F50000000000F5F50000F50000000000000000000000F5
310
00000000000000F500000000000000000000F50000000000000000F500000000000000F500000000000000000000000000000000000000000000000000000000000000000000000000000000000000000000000000000000000000000000000000000000000000000000000000000000000000000000000000000000000000
310
00000000000000000000000000000000000000000000000000000000000000000000000000000000000000000000000000000000000000000000000000F500000000F50000000000000000F50000000000F50000000000000000F5F5F50000000000F5F50000000000F5F50000000000F5F50000F500000000000000000000
310
00F500000000000000F500000000000000000000F50000000000000000F500000000000000F50000000000000000000000000000000000000000000000000000000000000000000000000000000000000000000000000000000000000000000000000000000000000000000000000000000000000000000000000000000000
310
000000000000000000000000000000000000000000000000000000000000000000000000000000000000000000000000000000000000000000000000000000F500000000F50000000000000000F50000000000F50000000000000000F5F5F50000000000F5F50000000000F5F50000000000F5F50000F50000000000000000
310
000000F500000000000000F500000000000000000000F50000000000000000F500000000000000F5000000000000000000000000000000000000000000000000000000000000000000000000000000000000000000000000000000000000000000000000000000000000000000000000000000000000000000000000000000
310
0000000000000000000000000000000000000000000000000000000000000000000000000000000000000000000000000000000000000000000000000000000000F500000000F50000000000000000F50000000000F50000000000000000F5F5F50000000000F5F50000000000F5F50000000000F5F50000F5000000000000
310
0000000000F500000000000000F500000000000000000000F50000000000000000F500000000000000F500000000000000000000000000000000000000000000000000000000000000000000000000000000000000000000000000000000000000000000000000000000000000000000000000000000000000000000000000
310
00000000000000000000000000000000000000000000000000000000000000000000000000000000000000000000000000000000000000000000000000000000000000F500000000F50000000000000000F50000000000F50000000000000000F5F5F50000000000F5F50000000000F5F50000000000F5F50000F500000000
310
0000F5F5000000F500000000000000F500000000000000000000F50000000000000000F500000000000000F50000000000000000000000000000000000000000000000000000000000000000000000000000000000000000000000000000000000000000000000000000000000000000000000000000000000000000000000
310
000000000000000000000000000000000000000000000000000000000000000000000000000000000000000000000000000000000000000000000000000000000000000000F500000000F5F5F5F5F5F5F5F500F50000000000F5F5F5F5F5F5F50000F5F5F50000000000F5F50000000000F5F50000000000F5F50000F5F5F5
310
F5F5F5F5F5F5F5F500F500000000000000F500000000000000000000F50000000000000000F500000000000000F5000000000000000000000000000000000000000000000000000000000000000000000000000000000000000000000000000000000000000000000000000000000000000000000000000000000000000000
310
0000000000000000000000000000000000000000000000000000000000000000000000000000000000000000000000000000000000000000000000000000000000000000000000F50000000000F5000000F5F5F500F500000000000000F5000000F50000F5F5F50000000000F5F50000000000F5F50000000000F5F50000F5
310
0000F5F5F5F5F5F5F5F500F500000000000000F500000000000000000000F50000000000000000F500000000000000F500000000000000000000000000000000000000000000000000000000000000000000000000000000000000000000000000000000000000000000000000000000000000000000000000000000000000
310
00000000000000000000000000000000000000000000000000000000000000000000000000000000000000000000000000000000000000000000000000000000000000000000000000F5000000000000F5F500F500F5F5F50000000000000000F50000F5F500F5F5F50000000000F5F50000000000F5F50000000000F5F500
310
00F5F500F5F5F5F5F5F5F5F500F500000000000000F500000000000000000000F50000000000000000F500000000000000F50000000000000000000000000000000000000000000000000000000000000000000000000000000000000000000000000000000000000000000000000000000000000000000000000000000000
310
000000000000000000000000000000000000000000000000000000000000000000000000000000000000000000000000000000000000000000000000000000000000000000000000000000F500000000000000F500F500F5F5F50000000000000000F5F500F5F5F5F5F5F50000000000F5F50000000000F5F50000000000F5
310
F5000000F500F5F5F50000F5F5F500F500000000000000F500000000000000000000F50000000000000000F500000000000000F5000000000000000000000000000000000000000000000000000000000000000000000000000000000000000000000000000000000000000000000000000000000000000000000000000000
310
0000000000000000000000000000000000000000000000000000000000000000000000000000000000000000000000000000000000000000000000000000000000000000000000000000000000F5F5F5F5F5F5F5F5F5F5F500F5F50000000000000000000000F5F5F5F500F5F50000000000F5F50000000000F5F500000000
310
00F5F500000000F5F5F5F5F5F5F5F5F5F5F5F5F5F5F5F5F5F5F5F5F5F5F5F5F5F5F5F5F5F5F500000000000000F500000000000000F500000000000000000000000000000000000000000000000000000000000000000000000000000000000000000000000000000000000000000000000000000000000000000000000000
310
000000000000000000000000000000000000000000000000000000000000000000000000000000000000000000000000000000000000000000000000000000000000000000000000000000000000F500000000000000000000F500F500000000000000000000000000F5000000F5F50000000000F5F50000000000F5F50000
310
000000F5F50000000000F5F500000000F5F50000000000000000F5F5000000000000000000F5F50000000000000000F500000000000000F50000000000000000000000000000000000000000000000000000000000000000000000000000000000000000000000000000000000000000000000000000000000000000000000
310
00000000000000000000000000000000000000000000000000000000000000000000000000000000000000000000000000000000000000000000000000000000000000000000000000000000000000000000000000000000000000F500F500000000000000000000000000F5000000F5F50000000000F5F50000000000F5F5
310
0000000000F5F50000000000F5F500000000F5F5000000000000000000F500000000000000000000000000000000000000F500000000000000F5000000000000000000000000000000000000000000000000000000000000000000000000000000000000000000000000000000000000000000000000000000000000000000
310
000000000000000000000000000000000000000000000000000000000000000000000000000000000000000000000000000000000000000000000000000000000000000000000000000000000000000000000000000000000000000000F500F500000000000000000000000000F5000000F5F50000000000F5F50000000000
310
F5F50000000000F5F50000000000F5F500000000F5F5000000000000000000F500000000000000000000000000000000000000F5000000F5F5F5F5F5F5F50000000000000000000000000000000000000000000000000000000000000000000000000000000000000000000000000000000000000000000000000000000000
310
0000000000000000000000000000000000000000000000000000000000000000000000000000000000000000000000000000000000000000000000000000000000000000000000000000000000000000000000000000000000000000000000F500F500000000000000000000000000F5000000F5F50000000000F5F5000000
310
0000F5F50000000000F5F50000000000F5F500000000F5F5000000000000000000F500000000000000000000000000000000000000F5000000F5F5F5F5F5F5F5000000000000000000000000000000000000000000000000000000000000000000000000000000000000000000000000000000000000000000000000000000
310
00000000000000000000000000000000000000000000000000000000000000000000000000000000000000000000000000000000000000000000000000000000000000000000000000000000000000000000000000000000000000000000000000F5F5F5F5F5F5F5F5F5F5F5F5F5F5F5F5F5F5F5F5F5F5F5F5F5F5F5F5F5F5
310
F5F5F5F5F5F5F5F5F5F5F5F5F5F5F5F5F5F5F5F5F5F5F5F5F5F5000000000000000000F50000000000000000000000000000000000F5F5F5000000F5F5F5F5F5F5F5F5000000000000000000000000000000000000000000000000000000000000000000000000000000000000000000000000000000000000000000000000
310
00000000000000000000000000000000000000000000000000000000000000000000000000000000000000000000000000000000000000000000000000000000000000000000000000000000000000000000000000000000000000000000000000000000000000000000000000000000000000000000000000000000000000
310
00000000000000000000000000000000000000000000000000000000000000000000000000F50000000000000000000000000000000000F5F5F5000000F5F5F5F5F5F5F5F500000000000000000000000000000000000000000000000000000000000000000000000000000000000000000000000000000000000000000000
310
00000000000000000000000000000000000000000000000000000000000000000000000000000000000000000000000000000000000000000000000000000000000000000000000000000000000000000000000000000000000000000000000000000000000000000000000000000000000000000000000000000000000000
310
000000000000000000000000000000000000000000000000000000000000000000000000000000F5000000000000000000000000000000000000F5F5F5000000F5F5F5F5F500000000000000000000000000000000000000000000000000000000000000000000000000000000000000000000000000000000000000000000
310
00000000000000000000000000000000000000000000000000000000000000000000000000000000000000000000000000000000000000000000000000000000000000000000000000000000000000000000000000000000000000000000000000000000000000F5F5F5F5F5F5F5F5F5F5F5F5F5F5F5F5F500000000000000
310
0000000000000000000000000000000000000000000000000000000000000000000000000000000000F5000000000000000000000000000000000000F5F5F5000000F5F5F5F5F50000000000000000000000000000000000000000000000000000000000000000000000000000000000000000000000000000000000000000
310
000000000000000000000000000000000000000000000000000000000000000000000000000000000000000000000000000000000000000000000000000000000000000000000000000000000000000000000000000000000000000000000000000000000000000000F500F500000000000000000000000000F50000000000
310
00000000000000000000000000000000000000000000000000000000000000000000000000000000000000F500000000000000000000000000000000000000F500000000F5F5F5F5F5F50000000000000000000000000000000000000000000000000000000000000000000000000000000000000000000000000000000000
310
0000000000000000000000000000000000000000000000000000000000000000000000000000000000000000000000000000000000000000000000000000000000000000000000000000000000000000000000000000000000000000000000000000000000000000000000F500F500000000000000000000000000F5000000
310
000000000000000000000000000000000000000000000000000000000000000000000000000000000000000000F500000000000000000000000000000000000000F500000000F5F5F5F5F5F5000000000000000000000000000000000000000000000000000000000000000000000000000000000000000000000000000000
310
00000000000000000000000000000000000000000000000000000000000000000000000000000000000000000000000000000000000000000000000000000000000000000000000000000000000000000000000000000000000000000000000000000000000000000000000000F500F500000000000000000000000000F500
310
0000000000000000000000000000000000000000000000000000000000000000000000000000000000000000000000F500000000000000000000000000000000000000F500000000000000F5000000000000000000000000000000000000000000000000000000000000000000000000000000000000000000000000000000
310
0000000000000000000000000000000000000000000000000000000000000000000000000000000000000000000000000000000000000000000000000000000000000000000000000000000000000000000000000000000000000000000000000000000000F5F5F5F5F5F5F5F5F5F5F500F5000000000000000000000000F5
310
F5F50000000000000000000000000000000000000000000000000000000000000000000000000000000000000000000000F500000000000000000000000000000000000000F500000000000000F500000000000000000000000000000000000000000000000000000000000000000000000000000000000000000000000000
310
000000000000000000000000000000000000000000000000000000000000000000000000000000000000000000000000000000000000000000000000000000000000000000000000000000000000000000000000000000000000000000000000000000000000F5F50000000000000000F5F500F5F5F5000000000000000000
310
00F5F5F5F500000000000000000000000000000000000000000000000000000000000000000000000000000000000000000000F500000000000000000000000000000000000000F500000000000000F50000000000000000000000000000000000000000000000000000000000000000000000000000000000000000000000
310
000000000000000000000000000000000000000000000000000000000000000000000000000000000000000000000000000000000000000000000000000000000000000000000000000000000000000000000000000000000000000000000000000000000000000000F500000000000000F500F500F5F5F500000000000000
310
00F5F500F5F5F5F5000000000000000000000000000000000000000000000000000000000000000000000000000000000000000000F500000000000000000000000000000000000000F500000000000000F5000000000000000000000000000000000000000000000000000000000000000000000000000000000000000000
310
0000000000000000000000000000000000000000000000000000000000000000000000000000000000000000000000000000000000000000000000000000000000000000000000000000000000000000000000000000000000000000000000000000000000000000000000F5000000000000F50000F5F5F5F5F50000000000
310
000000F50000F5F500F5000000000000000000000000000000000000000000000000000000000000000000000000000000000000000000F500000000000000000000000000000000000000F500000000000000F500000000000000000000000000000000000000000000000000000000000000000000000000000000000000
310
00000000000000000000000000000000000000000000000000000000000000000000000000000000000000000000000000000000000000000000000000000000000000000000000000000000000000000000000000000000000000000000000000000000000000000000000000F500000000F5F5F5F5F5F5F5F500F5000000
310
0000F5F5F5F5F5F5F50000F50000000000000000000000000000000000000000000000000000000000000000000000000000000000F5F5F5F5F5F5F50000000000000000000000000000000000F500000000000000F50000000000000000000000000000000000000000000000000000000000000000000000000000000000
310
000000000000000000000000000000000000000000000000000000000000000000000000000000000000000000000000000000000000000000000000000000000000000000000000000000000000000000000000000000000000000000000000000000000000000000000000F5F5F5F5F5F50000F50000000000000000F500
310
00000000F50000000000000000F50000000000000000000000000000000000000000000000000000000000000000000000000000000000F5F5F5F5F5F5F50000000000000000000000000000000000F500000000000000F5000000000000000000000000000000000000000000000000000000000000000000000000000000
310
0000000000000000000000000000000000000000000000000000000000000000000000000000000000000000000000000000000000000000000000000000000000000000000000000000000000000000000000000000000000000000000000000000000000000000000000000000F5F5F5F5F5F50000F50000000000000000
310
F50000000000F50000000000000000F5000000000000000000000000000000000000000000000000000000000000000000000000000000000000F5F5F5F5F5F5F500000000000000000000000000000000F500000000000000F500000000000000000000000000000000000000000000000000000000000000000000000000
310
000000000000000000000000000000000000000000000000000000000000000000000000000000000000000000000000000000000000000000000000000000000000000000000000000000000000000000000000000000000000000000000000000000F5F5F5F5F5F5F5F5F5F5F50000F5F5F5F5F5F50000F5000000000000
310
0000F50000000000F50000000000000000F500000000F5F5F5F5F5F5F5F5F5F5F5F50000000000000000000000000000000000000000000000000000F5F5F5F5F5F5F500000000000000000000000000000000F500000000000000F50000000000000000000000000000000000000000000000000000000000000000000000
310
0000000000000000000000000000000000000000000000000000000000000000000000000000000000000000000000000000000000000000000000000000000000000000000000000000000000000000000000000000000000000000000000000000000000F5F5F5F5F5F5F5F5F5F5000000F5F5F5F5F5F50000F500000000
310
00000000F50000000000F50000000000000000F500000000F5F5F5F5F5F5F5F5F5F5F50000000000000000000000000000000000000000000000000000F5F5F5F5F5F5F5F500000000000000000000000000000000F500000000000000F5000000000000000000000000000000000000000000000000000000000000000000
310
00000000000000000000000000000000000000000000000000000000000000000000000000000000000000000000000000000000000000000000000000000000000000000000000000000000000000000000000000000000000000000000000000000000000000F5F5F5F5F5F5F5F5F5F5000000F5F5F5F5F5F50000F50000
310
000000000000F50000000000F50000000000000000F500000000F5F5F5F5F5F5F5F5F5F5F50000000000000000000000000000000000000000000000000000F5F5F5F5F5F5F5F500000000000000000000000000000000F500000000000000F500000000000000000000000000000000000000000000000000000000000000
310
00000000000000000000000000000000000000000000000000000000000000000000000000000000000000000000000000000000000000000000000000000000000000000000000000000000000000000000000000000000000000000000000000000000000000000000000000000000000000000000F5F5F5F5F5F50000F5
310
0000000000000000F50000000000F50000000000000000F50000000000000000000000000000000000000000000000000000000000000000000000000000000000F5F5F5F5F5F5F5F500000000000000000000000000000000F500000000000000F50000000000000000000000000000000000000000000000000000000000
310
000000000000000000000000000000000000000000000000000000000000000000000000000000000000000000000000000000000000000000000000000000000000000000000000000000000000000000000000000000000000000000000000000000000000000000000000000000000000000000000000000000F5000000
310
00F50000000000000000F50000000000F50000000000000000F50000000000000000000000000000000000000000000000000000000000000000000000000000000000F5F5F5F5F5F5F5F500000000000000000000000000000000F500000000000000F5000000000000000000000000000000000000000000000000000000
310
0000000000000000000000000000000000000000000000000000000000000000000000000000000000000000000000000000000000000000000000000000000000000000000000000000000000000000000000000000000000000000000000000000000000000000000000000000000000000000000000000000000000F500
310
000000F5F5F5F5F5F5F5F500F50000000000F5F5F5F5F5F5F50000F5000000000000000000000000000000000000000000000000000000000000000000000000000000000000000000F500000000000000000000000000000000000000F500000000000000F500000000000000000000000000000000000000000000000000
310
00000000000000000000000000000000000000000000000000000000000000000000000000000000000000000000000000000000000000000000000000000000000000000000000000000000000000000000000000000000000000000000000000000000000000000000000000000000000000000000000000000000000000
310
F5000000000000F50000F500F5F5F50000000000000000F50000F5F500F5000000000000000000000000000000000000000000000000000000000000000000000000000000000000000000F500000000000000000000000000000000000000F500000000000000F50000000000000000000000000000000000000000000000
310
00000000000000000000000000000000000000000000000000000000000000000000000000000000000000000000000000000000000000000000000000000000000000000000000000000000000000000000000000000000000000000000000000000000000000000000000000000000000000000000000000000000000000
310
0000F500000000000000F500F500F5F5F50000000000000000F5F500F5F5F5F5000000000000000000000000000000000000000000000000000000000000000000000000000000000000000000F500000000000000000000000000000000000000F500000000000000F5000000000000000000000000000000000000000000
310
00000000000000000000000000000000000000000000000000000000000000000000000000000000000000000000000000000000000000000000000000000000000000000000000000000000000000000000000000000000000000000000000000000000000000000000000000000000000000000000000000000000000000
310
00000000F50000000000000000F5F500F5F50000000000000000000000F5F5F5F500000000000000000000000000000000000000000000000000000000000000000000000000000000000000000000F500000000000000000000000000000000000000F500000000000000F500000000000000000000000000000000000000
310
00000000000000000000000000000000000000000000000000000000000000000000000000000000000000000000000000000000000000000000000000000000000000000000000000000000000000000000000000000000000000000000000000000000000000000000000000000000000000000000000000000000000000
310
0000000000F5F5F5F5F5F5F5F5F5F5F5F500F5000000000000000000000000F5F5F50000000000000000000000000000000000000000000000000000000000000000000000000000000000000000000000F500000000000000000000000000000000000000F500000000000000F50000000000000000000000000000000000
310
00000000000000000000000000000000000000000000000000000000000000000000000000000000000000000000000000000000000000000000000000000000000000000000000000000000000000000000000000000000000000000000000000000000000000000000000000000000000000000000000000000000000000
310
000000000000000000000000000000000000F500F500000000000000000000000000F5000000000000000000000000000000000000000000000000000000000000000000000000000000000000000000000000F500000000000000000000000000000000000000F500000000000000F5000000000000000000000000000000
310
00000000000000000000000000000000000000000000000000000000000000000000000000000000000000000000000000000000000000000000000000000000000000000000000000000000000000000000000000000000000000000000000000000000000000000000000000000000000000000000000000000000000000
310
0000000000000000000000000000000000000000F500F500000000000000000000000000F5000000000000000000000000000000000000000000000000000000000000000000000000000000000000000000000000F500000000000000000000000000000000000000F500000000000000F500000000000000000000000000
310
00000000000000000000000000000000000000000000000000000000000000000000000000000000000000000000000000000000000000000000000000000000000000000000000000000000000000000000000000000000000000000000000000000000000000000000000000000000000000000000000000000000000000
310
00000000000000000000000000000000000000000000F500F500000000000000000000000000F5000000000000000000000000000000000000000000000000000000000000000000000000000000000000000000000000F500000000000000000000000000000000000000F500000000000000F50000000000000000000000
310
00000000000000000000000000000000000000000000000000000000000000000000000000000000000000000000000000000000000000000000000000000000000000000000000000000000000000000000000000000000000000000000000000000000000000000000000000000000000000000000000000000000000000
310
000000000000000000000000000000000000000000000000F5F5F5F5F5F5F5F5F5F5F5F5F5F5F5F5F5000000000000000000000000000000000000000000000000000000000000000000000000000000000000000000000000F500000000000000000000000000000000000000F500000000000000F5000000000000000000
310
00000000000000000000000000000000000000000000000000000000000000000000000000000000000000000000000000000000000000000000000000000000000000000000000000000000000000000000000000000000000000000000000000000000000000000000000000000000000000000000000000000000000000
310
00000000000000000000000000000000000000000000000000000000000000000000000000000000000000000000000000000000000000000000000000000000000000000000000000000000000000000000000000000000000000F500000000000000000000000000000000000000F500000000000000F500000000000000
310
00000000000000000000000000000000000000000000000000000000000000000000000000000000000000000000000000000000000000000000000000000000000000000000000000000000000000000000000000000000000000000000000000000000000000000000000000000000000000000000000000000000000000
310
000000000000000000000000000000000000000000000000000000000000000000000000000000000000000000000000000000000000000000000000000000000000000000000000000000000000000000000000000000000000000000F500000000000000000000000000000000000000F500000000000000F50000000000
310
00000000000000000000000000000000000000000000000000000000000000000000000000000000000000000000000000000000000000000000000000000000000000000000000000000000000000000000000000000000000000000000000000000000000000000000000000000000000000000000000000000000000000
310
000000000000000000000000000000000000000000000000000000000000F5F5F5F5F5F5F5F5F5F5F5F5F5F5F5F5F5F5F5F5F5F5F5F5F5F5F5F5F5F5F5F5F5F5F5F5F5F5F5F5F5F5F5F5F5F5F5F5F5F5F5F5F5F5F5F5000000000000000000F500000000000000000000000000000000000000F500000000000000F5000000
310
00000000000000000000000000000000000000000000000000000000000000000000000000000000000000000000000000000000000000000000000000000000000000000000000000000000000000000000000000000000000000000000000000000000000000000000000000000000000000000000000000000000000000
310
0000000000000000000000000000000000000000000000000000000000000000F500F500000000000000000000000000F5000000F5F50000000000F5F50000000000F5F50000000000F5F50000000000F5F500000000F5F5000000000000000000F500000000000000000000000000000000000000F500000000000000F500
310
00000000000000000000000000000000000000000000000000000000000000000000000000000000000000000000000000000000000000000000000000000000000000000000000000000000000000000000000000000000000000000000000000000000000000000000000000000000000000000000000000000000000000
310
00000000000000000000000000000000000000000000000000000000000000000000F500F500000000000000000000000000F5000000F5F50000000000F5F50000000000F5F50000000000F5F50000000000F5F500000000F5F5000000000000000000F500000000000000000000000000000000000000F500000000000000
310
F5000000000000000000000000000000000000000000000000000000000000000000000000000000000000000000000000000000000000000000000000000000000000000000000000000000000000000000000000000000000000000000000000000000000000000000000000000000000000000000000000000000000000
310
000000000000000000000000000000000000000000000000000000000000000000000000F500F500000000000000000000000000F5000000F5F50000000000F5F50000000000F5F50000000000F5F50000000000F5F500000000F5F5000000000000000000F500000000000000000000000000000000000000F50000000000
310
0000F500000000000000000000000000000000000000000000000000000000000000000000000000000000000000000000000000000000000000000000000000000000000000000000000000000000000000000000000000000000000000000000000000000000000000000000000000000000000000000000000000000000
310
00000000000000000000000000000000000000000000000000000000F5F5F5F5F5F5F5F5F5F5F500F5000000000000000000000000F5F5F50000F5F50000000000F5F50000000000F5F50000000000F5F500000000F5F5F500000000F5F5F5F5F5F5F5F5F5F5F5F5F5F5F5F5F5F5F5F5F5F5F5F500000000000000F5000000
310
00000000F50000000000000000000000000000000000000000000000000000000000000000000000000000000000000000000000000000000000000000000000000000000000000000000000000000000000000000000000000000000000000000000000000000000000000000000000000000000000000000000000000000
310
0000000000000000000000000000000000000000000000000000000000F5F50000000000000000F5F500F5F50000000000000000000000F5F5F5F500F5F50000000000F5F50000000000F5F50000000000F5F500000000F5F5F5F5F5F5F5F5F5F5F5000000000000F5F5000000000000000000F5F50000000000000000F500
310
000000000000F5000000000000000000000000000000000000000000000000000000000000000000000000000000000000000000000000000000000000000000000000000000000000000000000000000000000000000000000000000000000000000000000000000000000000000000000000000000000000000000000000
310
0000000000000000000000000000000000000000000000000000000000000000F500000000000000F500F500F5F5F50000000000000000F5F500F5F5F5F5F5F50000000000F5F50000000000F5F50000000000F5F50000F5F500F5F5F5F5F5F5F5F500F500000000000000F500000000000000000000F50000000000000000
310
F500000000000000F500000000000000000000000000000000000000000000000000000000000000000000000000000000000000000000000000000000000000000000000000000000000000000000000000000000000000000000000000000000000000000000000000000000000000000000000000000000000000000000
310
00000000000000000000000000000000000000000000000000000000000000000000F5000000000000F50000F500F5F5F50000000000000000F50000F5F500F5F5F50000000000F5F50000000000F5F50000000000F5F50000F50000F5F5F5F5F5F5F5F500F500000000000000F500000000000000000000F5000000000000
310
0000F500000000000000F50000000000000000000000000000000000000000000000000000000000000000000000000000000000000000000000000000000000000000000000000000000000000000000000000000000000000000000000000000000000000000000000000000000000000000000000000000000000000000
310
000000000000000000000000000000000000000000000000000000000000000000000000F500000000F5F5F5F5F5F5F5F500F50000000000F5F5F5F5F5F5F50000F5F5F50000000000F5F50000000000F5F50000000000F5F50000F5F5F5F5F5F5F5F5F5F5F500F500000000000000F500000000000000000000F500000000
310
00000000F500000000000000F5000000000000000000000000000000000000000000000000000000000000000000000000000000000000000000000000000000000000000000000000000000000000000000000000000000000000000000000000000000000000000000000000000000000000000000000000000000000000
310
0000000000000000000000000000000000000000000000000000000000000000000000000000F500000000F50000000000000000F50000000000F50000000000000000F5F5F50000000000F5F50000000000F5F50000000000F5F50000F5000000000000F5F5000000F500000000000000F500000000000000000000F50000
310
000000000000F500000000000000F500000000000000000000000000000000000000000000000000000000000000000000000000000000000000000000000000000000000000000000000000000000000000000000000000000000000000000000000000000000000000000000000000000000000000000000000000000000
310
00000000000000000000000000000000000000000000000000000000000000000000000000000000F500000000F50000000000000000F50000000000F50000000000000000F5F5F50000000000F5F50000000000F5F50000000000F5F50000F5000000000000F5F5000000F500000000000000F500000000000000000000F5
310
0000000000000000F500000000000000F50000000000000000000000000000000000000000000000000000000000000000000000000000000000000000000000000000000000000000000000000000000000000000000000000000000000000000000000000000000000000000000000000000000000000000000000000000
310
000000000000000000000000000000000000000000000000000000000000000000000000000000000000F500000000F50000000000000000F50000000000F50000000000000000F5F5F50000000000F5F50000000000F5F50000000000F5F50000F50000000000000000000000F500000000000000F5000000000000000000
310
00F50000000000000000F500000000000000F5000000000000000000000000000000000000000000000000000000000000000000000000000000000000000000000000000000000000000000000000000000000000000000000000000000000000000000000000000000000000000000000000000000000000000000000000
310
0000000000000000000000000000000000000000000000000000000000000000000000000000000000000000F500000000F50000000000000000F50000000000F50000000000000000F5F5F50000000000F5F50000000000F5F50000000000F5F50000F50000000000000000000000F500000000000000F500000000000000
310
000000F50000000000000000F500000000000000F500000000000000000000000000000000000000000000000000000000000000000000000000000000000000000000000000000000000000000000000000000000000000000000000000000000000000000000000000000000000000000000000000000000000000000000
310
00000000000000000000000000000000000000000000000000000000000000000000000000000000000000000000F500000000F50000000000000000F50000000000F50000000000000000F5F5F50000000000F5F50000000000F5F50000000000F5F50000F50000000000000000000000F500000000000000F50000000000
310
0000000000F50000000000000000F500000000000000F50000000000000000000000000000000000000000000000000000000000000000000000000000000000000000000000000000000000000000000000000000000000000000000000000000000000000000000000000000000000000000000000000000000000000000
310
000000000000000000000000000000000000000000000000000000000000000000000000000000000000000000000000F500000000F50000000000000000F50000000000F50000000000000000F5F5F50000000000F5F50000000000F5F50000000000F5F50000F50000000000000000000000F500000000000000F5000000
310
00000000000000F50000000000000000F500000000000000F5000000000000000000000000000000000000000000000000000000000000000000000000000000000000000000000000000000000000000000000000000000000000000000000000000000000000000000000000000000000000000000000000000000000000
310
0000000000000000000000000000000000000000000000000000000000000000000000000000000000000000000000000000F500000000F50000000000F5F5F5F50000000000F50000000000F5F5F5F5F5F50000000000F5F50000000000F5F50000000000F5F50000F50000000000000000000000F500000000000000F500
310
000000000000000000F50000000000000000F500000000000000F500000000000000000000000000000000000000000000000000000000000000000000000000000000000000000000000000000000000000000000000000000000000000000000000000000000000000000000000000000000000000000000000000000000
310
000000000000000000000000000000000000000000000000000000000000
  0
XRECORD
  5
354
102
{ACAD_REACTORS
330
49
102
}
330
49
100
AcDbXrecord
280
     1
102
MATERIAL
148
0.0
149
0.0
149
0.0
 93
        0
 94
      127
282
     0
 72
     0
 77
     0
171
     0
175
     0
179
     0
273
     0
  0
XRECORD
  5
4A
102
{ACAD_REACTORS
330
49
102
}
330
49
100
AcDbXrecord
280
     1
270
     1
271
     1
  0
XRECORD
  5
4B
102
{ACAD_REACTORS
330
49
102
}
330
49
100
AcDbXrecord
280
     1
270
     1
271
     1
  0
XRECORD
  5
4C
102
{ACAD_REACTORS
330
49
102
}
330
49
100
AcDbXrecord
280
     1
270
     1
271
     1
  0
XRECORD
  5
4D
102
{ACAD_REACTORS
330
49
102
}
330
49
100
AcDbXrecord
280
     1
270
     1
271
     1
  0
XRECORD
  5
4E
102
{ACAD_REACTORS
330
49
102
}
330
49
100
AcDbXrecord
280
     1
270
     1
271
     1
  0
XRECORD
  5
4F
102
{ACAD_REACTORS
330
49
102
}
330
49
100
AcDbXrecord
280
     1
270
     1
271
     1
  0
XRECORD
  5
353
102
{ACAD_REACTORS
330
41
102
}
330
41
100
AcDbXrecord
280
     1
102
MATERIAL
148
0.0
149
0.0
149
0.0
 93
        0
 94
      127
282
     0
 72
     0
 77
     0
171
     0
175
     0
179
     0
273
     0
  0
XRECORD
  5
42
102
{ACAD_REACTORS
330
41
102
}
330
41
100
AcDbXrecord
280
     1
270
     1
271
     1
  0
XRECORD
  5
43
102
{ACAD_REACTORS
330
41
102
}
330
41
100
AcDbXrecord
280
     1
270
     1
271
     1
  0
XRECORD
  5
44
102
{ACAD_REACTORS
330
41
102
}
330
41
100
AcDbXrecord
280
     1
270
     1
271
     1
  0
XRECORD
  5
45
102
{ACAD_REACTORS
330
41
102
}
330
41
100
AcDbXrecord
280
     1
270
     1
271
     1
  0
XRECORD
  5
46
102
{ACAD_REACTORS
330
41
102
}
330
41
100
AcDbXrecord
280
     1
270
     1
271
     1
  0
XRECORD
  5
47
102
{ACAD_REACTORS
330
41
102
}
330
41
100
AcDbXrecord
280
     1
270
     1
271
     1
  0
XRECORD
  5
34E
102
{ACAD_REACTORS
330
E
102
}
330
E
100
AcDbXrecord
280
     1
102
MATERIAL
148
0.0
149
0.0
149
0.0
 93
        0
 94
      127
282
     0
 72
     0
 77
     0
171
     0
175
     0
179
     0
273
     0
  0
XRECORD
  5
F
102
{ACAD_REACTORS
330
E
102
}
330
E
100
AcDbXrecord
280
     1
270
     1
271
     1
  0
XRECORD
  5
10
102
{ACAD_REACTORS
330
E
102
}
330
E
100
AcDbXrecord
280
     1
270
     1
271
     1
  0
XRECORD
  5
11
102
{ACAD_REACTORS
330
E
102
}
330
E
100
AcDbXrecord
280
     1
270
     1
271
     1
  0
XRECORD
  5
12
102
{ACAD_REACTORS
330
E
102
}
330
E
100
AcDbXrecord
280
     1
270
     1
271
     1
  0
XRECORD
  5
13
102
{ACAD_REACTORS
330
E
102
}
330
E
100
AcDbXrecord
280
     1
270
     1
271
     1
  0
XRECORD
  5
14
102
{ACAD_REACTORS
330
E
102
}
330
E
100
AcDbXrecord
280
     1
270
     1
271
     1
  0
CELLSTYLEMAP
  5
34C
102
{ACAD_REACTORS
330
56
102
}
330
56
100
AcDbCellStyleMap
 90
        3
300
CELLSTYLE
  1
TABLEFORMAT_BEGIN
 90
        5
170
     1
 91
        0
 92
    32768
 62
   257
 93
        1
300
CONTENTFORMAT
  1
CONTENTFORMAT_BEGIN
 90
        0
 91
        0
 92
        4
 93
        0
300

 40
0.0
140
1.0
 94
        5
 62
     0
340
26
144
0.25
309
CONTENTFORMAT_END
171
     1
301
MARGIN
  1
CELLMARGIN_BEGIN
 40
0.06
 40
0.06
 40
0.06
 40
0.06
 40
0.18
 40
0.18
309
CELLMARGIN_END
 94
        6
 95
        1
302
GRIDFORMAT
  1
GRIDFORMAT_BEGIN
 90
        0
 91
        1
 62
     0
 92
       -2
340
0
 93
        0
 40
0.045
309
GRIDFORMAT_END
 95
        2
302
GRIDFORMAT
  1
GRIDFORMAT_BEGIN
 90
        0
 91
        1
 62
     0
 92
       -2
340
0
 93
        0
 40
0.045
309
GRIDFORMAT_END
 95
        4
302
GRIDFORMAT
  1
GRIDFORMAT_BEGIN
 90
        0
 91
        1
 62
     0
 92
       -2
340
0
 93
        0
 40
0.045
309
GRIDFORMAT_END
 95
        8
302
GRIDFORMAT
  1
GRIDFORMAT_BEGIN
 90
        0
 91
        1
 62
     0
 92
       -2
340
0
 93
        0
 40
0.045
309
GRIDFORMAT_END
 95
       16
302
GRIDFORMAT
  1
GRIDFORMAT_BEGIN
 90
        0
 91
        1
 62
     0
 92
       -2
340
0
 93
        0
 40
0.045
309
GRIDFORMAT_END
 95
       32
302
GRIDFORMAT
  1
GRIDFORMAT_BEGIN
 90
        0
 91
        1
 62
     0
 92
       -2
340
0
 93
        0
 40
0.045
309
GRIDFORMAT_END
309
TABLEFORMAT_END
  1
CELLSTYLE_BEGIN
 90
        1
 91
        1
300
_TITLE
309
CELLSTYLE_END
300
CELLSTYLE
  1
TABLEFORMAT_BEGIN
 90
        5
170
     1
 91
        0
 92
        0
 62
   257
 93
        1
300
CONTENTFORMAT
  1
CONTENTFORMAT_BEGIN
 90
        0
 91
        0
 92
        4
 93
        0
300

 40
0.0
140
1.0
 94
        5
 62
     0
340
26
144
0.18
309
CONTENTFORMAT_END
171
     1
301
MARGIN
  1
CELLMARGIN_BEGIN
 40
0.06
 40
0.06
 40
0.06
 40
0.06
 40
0.18
 40
0.18
309
CELLMARGIN_END
 94
        6
 95
        1
302
GRIDFORMAT
  1
GRIDFORMAT_BEGIN
 90
        0
 91
        1
 62
     0
 92
       -2
340
0
 93
        0
 40
0.045
309
GRIDFORMAT_END
 95
        2
302
GRIDFORMAT
  1
GRIDFORMAT_BEGIN
 90
        0
 91
        1
 62
     0
 92
       -2
340
0
 93
        0
 40
0.045
309
GRIDFORMAT_END
 95
        4
302
GRIDFORMAT
  1
GRIDFORMAT_BEGIN
 90
        0
 91
        1
 62
     0
 92
       -2
340
0
 93
        0
 40
0.045
309
GRIDFORMAT_END
 95
        8
302
GRIDFORMAT
  1
GRIDFORMAT_BEGIN
 90
        0
 91
        1
 62
     0
 92
       -2
340
0
 93
        0
 40
0.045
309
GRIDFORMAT_END
 95
       16
302
GRIDFORMAT
  1
GRIDFORMAT_BEGIN
 90
        0
 91
        1
 62
     0
 92
       -2
340
0
 93
        0
 40
0.045
309
GRIDFORMAT_END
 95
       32
302
GRIDFORMAT
  1
GRIDFORMAT_BEGIN
 90
        0
 91
        1
 62
     0
 92
       -2
340
0
 93
        0
 40
0.045
309
GRIDFORMAT_END
309
TABLEFORMAT_END
  1
CELLSTYLE_BEGIN
 90
        2
 91
        1
300
_HEADER
309
CELLSTYLE_END
300
CELLSTYLE
  1
TABLEFORMAT_BEGIN
 90
        5
170
     1
 91
        0
 92
        0
 62
   257
 93
        1
300
CONTENTFORMAT
  1
CONTENTFORMAT_BEGIN
 90
        0
 91
        0
 92
        4
 93
        0
300

 40
0.0
140
1.0
 94
        2
 62
     0
340
26
144
0.18
309
CONTENTFORMAT_END
171
     1
301
MARGIN
  1
CELLMARGIN_BEGIN
 40
0.06
 40
0.06
 40
0.06
 40
0.06
 40
0.18
 40
0.18
309
CELLMARGIN_END
 94
        6
 95
        1
302
GRIDFORMAT
  1
GRIDFORMAT_BEGIN
 90
        0
 91
        1
 62
     0
 92
       -2
340
0
 93
        0
 40
0.045
309
GRIDFORMAT_END
 95
        2
302
GRIDFORMAT
  1
GRIDFORMAT_BEGIN
 90
        0
 91
        1
 62
     0
 92
       -2
340
0
 93
        0
 40
0.045
309
GRIDFORMAT_END
 95
        4
302
GRIDFORMAT
  1
GRIDFORMAT_BEGIN
 90
        0
 91
        1
 62
     0
 92
       -2
340
0
 93
        0
 40
0.045
309
GRIDFORMAT_END
 95
        8
302
GRIDFORMAT
  1
GRIDFORMAT_BEGIN
 90
        0
 91
        1
 62
     0
 92
       -2
340
0
 93
        0
 40
0.045
309
GRIDFORMAT_END
 95
       16
302
GRIDFORMAT
  1
GRIDFORMAT_BEGIN
 90
        0
 91
        1
 62
     0
 92
       -2
340
0
 93
        0
 40
0.045
309
GRIDFORMAT_END
 95
       32
302
GRIDFORMAT
  1
GRIDFORMAT_BEGIN
 90
        0
 91
        1
 62
     0
 92
       -2
340
0
 93
        0
 40
0.045
309
GRIDFORMAT_END
309
TABLEFORMAT_END
  1
CELLSTYLE_BEGIN
 90
        3
 91
        2
300
_DATA
309
CELLSTYLE_END
  0
XRECORD
  5
355
102
{ACAD_REACTORS
330
56
102
}
330
56
100
AcDbXrecord
280
     1
102
ACAD_ROUNDTRIP_PRE2007_TABLESTYLE
 90
        4
 91
        0
  1

 92
        4
 93
        0
  2

 94
        4
 95
        0
  3

  0
XRECORD
  5
352
102
{ACAD_REACTORS
330
351
102
}
330
351
100
AcDbXrecord
280
     1
102
RTVSPropertyOp0
 70
     1
102
RTVSPropertyOp1
 70
     1
102
RTVSPropertyOp2
 70
     1
102
RTVSPropertyOp3
 70
     1
102
RTVSPropertyOp4
 70
     1
102
RTVSPropertyOp5
 70
     1
102
RTVSPropertyOp6
 70
     1
102
RTVSPropertyOp7
 70
     1
102
RTVSPropertyOp8
 70
     1
102
RTVSPropertyOp9
 70
     1
102
RTVSPropertyOp10
 70
     1
102
RTVSPropertyOp11
 70
     1
102
RTVSPropertyOp12
 70
     1
102
RTVSPropertyOp13
 70
     1
102
RTVSPropertyOp14
 70
     1
102
RTVSPropertyOp15
 70
     1
102
RTVSPropertyOp16
 70
     1
102
RTVSPropertyOp17
 70
     1
102
RTVSPropertyOp18
 70
     1
102
RTVSPropertyOp19
 70
     1
102
RTVSPropertyOp20
 70
     1
102
RTVSPropertyOp21
 70
     1
102
RTVSPropertyOp22
 70
     1
102
RTVSPropertyOp23
 70
     1
102
RTVSPropertyOp24
 70
     1
102
RTVSPropertyOp25
 70
     1
102
RTVSPropertyOp26
 70
     1
102
RTVSPropertyOp27
 70
     1
102
RTVSPropertyOp28
 70
     1
102
RTVSPropertyOp29
 70
     1
102
RTVSPropertyOp30
 70
     1
102
RTVSPropertyOp31
 70
     1
102
RTVSPropertyOp32
 70
     1
  0
XRECORD
  5
357
102
{ACAD_REACTORS
330
356
102
}
330
356
100
AcDbXrecord
280
     1
102
RTVSPropertyOp0
 70
     1
102
RTVSPropertyOp1
 70
     1
102
RTVSPropertyOp2
 70
     1
102
RTVSPropertyOp3
 70
     1
102
RTVSPropertyOp4
 70
     1
102
RTVSPropertyOp5
 70
     1
102
RTVSPropertyOp6
 70
     1
102
RTVSPropertyOp7
 70
     1
102
RTVSPropertyOp8
 70
     1
102
RTVSPropertyOp9
 70
     1
102
RTVSPropertyOp10
 70
     1
102
RTVSPropertyOp11
 70
     1
102
RTVSPropertyOp12
 70
     1
102
RTVSPropertyOp13
 70
     1
102
RTVSPropertyOp14
 70
     1
102
RTVSPropertyOp15
 70
     1
102
RTVSPropertyOp16
 70
     1
102
RTVSPropertyOp17
 70
     1
102
RTVSPropertyOp18
 70
     1
102
RTVSPropertyOp19
 70
     1
102
RTVSPropertyOp20
 70
     1
102
RTVSPropertyOp21
 70
     1
102
RTVSPropertyOp22
 70
     1
102
RTVSPropertyOp23
 70
     1
102
RTVSPropertyOp24
 70
     1
102
RTVSPropertyOp25
 70
     1
102
RTVSPropertyOp26
 70
     1
102
RTVSPropertyOp27
 70
     1
102
RTVSPropertyOp28
 70
     1
102
RTVSPropertyOp29
 70
     1
102
RTVSPropertyOp30
 70
     1
102
RTVSPropertyOp31
 70
     1
102
RTVSPropertyOp32
 70
     1
  0
XRECORD
  5
359
102
{ACAD_REACTORS
330
358
102
}
330
358
100
AcDbXrecord
280
     1
102
RTVSPropertyOp0
 70
     1
102
RTVSPropertyOp1
 70
     1
102
RTVSPropertyOp2
 70
     1
102
RTVSPropertyOp3
 70
     1
102
RTVSPropertyOp4
 70
     1
102
RTVSPropertyOp5
 70
     1
102
RTVSPropertyOp6
 70
     1
102
RTVSPropertyOp7
 70
     1
102
RTVSPropertyOp8
 70
     1
102
RTVSPropertyOp9
 70
     1
102
RTVSPropertyOp10
 70
     1
102
RTVSPropertyOp11
 70
     1
102
RTVSPropertyOp12
 70
     1
102
RTVSPropertyOp13
 70
     1
102
RTVSPropertyOp14
 70
     1
102
RTVSPropertyOp15
 70
     1
102
RTVSPropertyOp16
 70
     1
102
RTVSPropertyOp17
 70
     1
102
RTVSPropertyOp18
 70
     1
102
RTVSPropertyOp19
 70
     1
102
RTVSPropertyOp20
 70
     1
102
RTVSPropertyOp21
 70
     1
102
RTVSPropertyOp22
 70
     1
102
RTVSPropertyOp23
 70
     1
102
RTVSPropertyOp24
 70
     1
102
RTVSPropertyOp25
 70
     1
102
RTVSPropertyOp26
 70
     1
102
RTVSPropertyOp27
 70
     1
102
RTVSPropertyOp28
 70
     1
102
RTVSPropertyOp29
 70
     1
102
RTVSPropertyOp30
 70
     1
102
RTVSPropertyOp31
 70
     1
102
RTVSPropertyOp32
 70
     1
  0
ENDSEC
  0
EOF
