  0
SECTION
  2
HEADER
  9
$ACADVER
  1
AC1015
  9
$ACADMAINTVER
 70
    18
  9
$DWGCODEPAGE
  3
ANSI_1252
  9
$INSBASE
 10
26.63117615265246
 20
33.78453704464418
 30
0.0
  9
$EXTMIN
 10
16.19801958355735
 20
21.25958695796621
 30
0.0
  9
$EXTMAX
 10
35.22591270655169
 20
43.75250484444534
 30
0.0
  9
$LIMMIN
 10
0.0
 20
0.0
  9
$LIMMAX
 10
10000.0
 20
10000.0
  9
$ORTHOMODE
 70
     0
  9
$REGENMODE
 70
     1
  9
$FILLMODE
 70
     1
  9
$QTEXTMODE
 70
     0
  9
$MIRRTEXT
 70
     0
  9
$LTSCALE
 40
0.5
  9
$ATTMODE
 70
     1
  9
$TEXTSIZE
 40
0.25
  9
$TRACEWID
 40
0.05
  9
$TEXTSTYLE
  7
Standard
  9
$CLAYER
  8
0
  9
$CELTYPE
  6
ByLayer
  9
$CECOLOR
 62
   256
  9
$CELTSCALE
 40
1.0
  9
$DISPSILH
 70
     0
  9
$DIMSCALE
 40
0.0
  9
$DIMASZ
 40
0.156
  9
$DIMEXO
 40
0.04
  9
$DIMDLI
 40
0.38
  9
$DIMRND
 40
0.0
  9
$DIMDLE
 40
0.0
  9
$DIMEXE
 40
0.03
  9
$DIMTP
 40
0.0
  9
$DIMTM
 40
0.0
  9
$DIMTXT
 40
0.3125
  9
$DIMCEN
 40
0.0
  9
$DIMTSZ
 40
0.0
  9
$DIMTOL
 70
     0
  9
$DIMLIM
 70
     0
  9
$DIMTIH
 70
     1
  9
$DIMTOH
 70
     1
  9
$DIMSE1
 70
     0
  9
$DIMSE2
 70
     0
  9
$DIMTAD
 70
     0
  9
$DIMZIN
 70
     0
  9
$DIMBLK
  1
ArchTick
  9
$DIMASO
 70
     1
  9
$DIMSHO
 70
     1
  9
$DIMPOST
  1
\X
  9
$DIMAPOST
  1
mm
  9
$DIMALT
 70
     1
  9
$DIMALTD
 70
     0
  9
$DIMALTF
 40
25.4
  9
$DIMLFAC
 40
1.0
  9
$DIMTOFL
 70
     0
  9
$DIMTVP
 40
0.0
  9
$DIMTIX
 70
     0
  9
$DIMSOXD
 70
     0
  9
$DIMSAH
 70
     0
  9
$DIMBLK1
  1

  9
$DIMBLK2
  1

  9
$DIMSTYLE
  2
Knife
  9
$DIMCLRD
 70
     0
  9
$DIMCLRE
 70
     0
  9
$DIMCLRT
 70
     0
  9
$DIMTFAC
 40
1.0
  9
$DIMGAP
 40
0.04
  9
$DIMJUST
 70
     0
  9
$DIMSD1
 70
     0
  9
$DIMSD2
 70
     0
  9
$DIMTOLJ
 70
     1
  9
$DIMTZIN
 70
     0
  9
$DIMALTZ
 70
     0
  9
$DIMALTTZ
 70
     0
  9
$DIMUPT
 70
     0
  9
$DIMDEC
 70
     5
  9
$DIMTDEC
 70
     5
  9
$DIMALTU
 70
     2
  9
$DIMALTTD
 70
     0
  9
$DIMTXSTY
  7
Standard
  9
$DIMAUNIT
 70
     0
  9
$DIMADEC
 70
     1
  9
$DIMALTRND
 40
0.0
  9
$DIMAZIN
 70
     0
  9
$DIMDSEP
 70
    46
  9
$DIMATFIT
 70
     3
  9
$DIMFRAC
 70
     2
  9
$DIMLDRBLK
  1

  9
$DIMLUNIT
 70
     4
  9
$DIMLWD
 70
    -2
  9
$DIMLWE
 70
    -2
  9
$DIMTMOVE
 70
     0
  9
$LUNITS
 70
     2
  9
$LUPREC
 70
     4
  9
$SKETCHINC
 40
0.1
  9
$FILLETRAD
 40
0.0
  9
$AUNITS
 70
     0
  9
$AUPREC
 70
     0
  9
$MENU
  1
.
  9
$ELEVATION
 40
0.0
  9
$PELEVATION
 40
0.0
  9
$THICKNESS
 40
0.0
  9
$LIMCHECK
 70
     0
  9
$CHAMFERA
 40
0.0
  9
$CHAMFERB
 40
0.0
  9
$CHAMFERC
 40
0.0
  9
$CHAMFERD
 40
0.0
  9
$SKPOLY
 70
     0
  9
$TDCREATE
 40
2454538.540644179
  9
$TDUCREATE
 40
2454538.665644178
  9
$TDUPDATE
 40
2456148.528875868
  9
$TDUUPDATE
 40
2456148.653875868
  9
$TDINDWG
 40
0.3332797569
  9
$TDUSRTIMER
 40
0.3332797569
  9
$USRTIMER
 70
     1
  9
$ANGBASE
 50
0.0
  9
$ANGDIR
 70
     0
  9
$PDMODE
 70
     3
  9
$PDSIZE
 40
0.0
  9
$PLINEWID
 40
0.0
  9
$SPLFRAME
 70
     0
  9
$SPLINETYPE
 70
     6
  9
$SPLINESEGS
 70
    12
  9
$HANDSEED
  5
375
  9
$SURFTAB1
 70
     6
  9
$SURFTAB2
 70
     6
  9
$SURFTYPE
 70
     6
  9
$SURFU
 70
     6
  9
$SURFV
 70
     6
  9
$UCSBASE
  2

  9
$UCSNAME
  2

  9
$UCSORG
 10
0.0
 20
0.0
 30
0.0
  9
$UCSXDIR
 10
1.0
 20
0.0
 30
0.0
  9
$UCSYDIR
 10
0.0
 20
1.0
 30
0.0
  9
$UCSORTHOREF
  2

  9
$UCSORTHOVIEW
 70
     0
  9
$UCSORGTOP
 10
0.0
 20
0.0
 30
0.0
  9
$UCSORGBOTTOM
 10
0.0
 20
0.0
 30
0.0
  9
$UCSORGLEFT
 10
0.0
 20
0.0
 30
0.0
  9
$UCSORGRIGHT
 10
0.0
 20
0.0
 30
0.0
  9
$UCSORGFRONT
 10
0.0
 20
0.0
 30
0.0
  9
$UCSORGBACK
 10
0.0
 20
0.0
 30
0.0
  9
$PUCSBASE
  2

  9
$PUCSNAME
  2

  9
$PUCSORG
 10
0.0
 20
0.0
 30
0.0
  9
$PUCSXDIR
 10
1.0
 20
0.0
 30
0.0
  9
$PUCSYDIR
 10
0.0
 20
1.0
 30
0.0
  9
$PUCSORTHOREF
  2

  9
$PUCSORTHOVIEW
 70
     0
  9
$PUCSORGTOP
 10
0.0
 20
0.0
 30
0.0
  9
$PUCSORGBOTTOM
 10
0.0
 20
0.0
 30
0.0
  9
$PUCSORGLEFT
 10
0.0
 20
0.0
 30
0.0
  9
$PUCSORGRIGHT
 10
0.0
 20
0.0
 30
0.0
  9
$PUCSORGFRONT
 10
0.0
 20
0.0
 30
0.0
  9
$PUCSORGBACK
 10
0.0
 20
0.0
 30
0.0
  9
$USERI1
 70
     0
  9
$USERI2
 70
     0
  9
$USERI3
 70
     0
  9
$USERI4
 70
     0
  9
$USERI5
 70
     0
  9
$USERR1
 40
0.0
  9
$USERR2
 40
0.0
  9
$USERR3
 40
0.0
  9
$USERR4
 40
0.0
  9
$USERR5
 40
0.0
  9
$WORLDVIEW
 70
     1
  9
$SHADEDGE
 70
     3
  9
$SHADEDIF
 70
    70
  9
$TILEMODE
 70
     1
  9
$MAXACTVP
 70
    64
  9
$PINSBASE
 10
0.0
 20
0.0
 30
0.0
  9
$PLIMCHECK
 70
     0
  9
$PEXTMIN
 10
0.0000000075458644
 20
0.0000000082145277
 30
0.0
  9
$PEXTMAX
 10
8.454000007545857
 20
10.67400000821453
 30
0.0
  9
$PLIMMIN
 10
-0.0064249311656545
 20
-0.1631194818509899
  9
$PLIMMAX
 10
8.493574828538456
 20
10.83688027785312
  9
$UNITMODE
 70
     0
  9
$VISRETAIN
 70
     1
  9
$PLINEGEN
 70
     0
  9
$PSLTSCALE
 70
     1
  9
$TREEDEPTH
 70
  3020
  9
$CMLSTYLE
  2
Standard
  9
$CMLJUST
 70
     0
  9
$CMLSCALE
 40
1.0
  9
$PROXYGRAPHICS
 70
     1
  9
$MEASUREMENT
 70
     0
  9
$CELWEIGHT
370
    -1
  9
$ENDCAPS
280
     0
  9
$JOINSTYLE
280
     0
  9
$LWDISPLAY
290
     0
  9
$INSUNITS
 70
     1
  9
$HYPERLINKBASE
  1

  9
$STYLESHEET
  1

  9
$XEDIT
290
     1
  9
$CEPSNTYPE
380
     0
  9
$PSTYLEMODE
290
     1
  9
$FINGERPRINTGUID
  2
{540AC91F-A9F2-44D4-BC06-22B12F43BD16}
  9
$VERSIONGUID
  2
{F53F959D-3918-423B-9D8B-D1EDA2B69DC8}
  9
$EXTNAMES
290
     1
  9
$PSVPSCALE
 40
0.0
  9
$OLESTARTUP
290
     0
  0
ENDSEC
  0
SECTION
  2
CLASSES
  0
CLASS
  1
ACDBDICTIONARYWDFLT
  2
AcDbDictionaryWithDefault
  3
ObjectDBX Classes
 90
        0
280
     0
281
     0
  0
CLASS
  1
ACDBPLACEHOLDER
  2
AcDbPlaceHolder
  3
ObjectDBX Classes
 90
        0
280
     0
281
     0
  0
CLASS
  1
LAYOUT
  2
AcDbLayout
  3
ObjectDBX Classes
 90
        0
280
     0
281
     0
  0
CLASS
  1
DICTIONARYVAR
  2
AcDbDictionaryVar
  3
ObjectDBX Classes
 90
        0
280
     0
281
     0
  0
CLASS
  1
TABLESTYLE
  2
AcDbTableStyle
  3
ObjectDBX Classes
 90
     4095
280
     0
281
     0
  0
CLASS
  1
SORTENTSTABLE
  2
AcDbSortentsTable
  3
ObjectDBX Classes
 90
        0
280
     0
281
     0
  0
CLASS
  1
DIMASSOC
  2
AcDbDimAssoc
  3
"AcDbDimAssoc|Product Desc:     AcDim ARX App For Dimension|Company:          Autodesk, Inc.|WEB Address:      www.autodesk.com"
 90
        0
280
     0
281
     0
  0
CLASS
  1
MATERIAL
  2
AcDbMaterial
  3
ObjectDBX Classes
 90
     1153
280
     0
281
     0
  0
CLASS
  1
VISUALSTYLE
  2
AcDbVisualStyle
  3
ObjectDBX Classes
 90
     4095
280
     0
281
     0
  0
CLASS
  1
SCALE
  2
AcDbScale
  3
ObjectDBX Classes
 90
     1153
280
     0
281
     0
  0
CLASS
  1
MLEADERSTYLE
  2
AcDbMLeaderStyle
  3
ACDB_MLEADERSTYLE_CLASS
 90
    36863
280
     0
281
     0
  0
CLASS
  1
CELLSTYLEMAP
  2
AcDbCellStyleMap
  3
ObjectDBX Classes
 90
     1152
280
     0
281
     0
  0
ENDSEC
  0
SECTION
  2
TABLES
  0
TABLE
  2
VPORT
  5
2E
102
{ACAD_XDICTIONARY
360
33
102
}
330
0
100
AcDbSymbolTable
 70
     1
  0
VPORT
  5
2F
330
2E
100
AcDbSymbolTableRecord
100
AcDbViewportTableRecord
  2
*Active
 70
     0
 10
0.0
 20
0.0
 11
1.0
 21
1.0
 12
28.22376447642264
 22
32.07080296603975
 13
0.0
 23
0.0
 14
0.5
 24
0.5
 15
0.5
 25
0.5
 16
0.0
 26
0.0
 36
1.0
 17
0.0
 27
0.0
 37
0.0
 40
23.88735487882512
 41
2.183284457478005
 42
50.0
 43
0.0
 44
0.0
 50
0.0
 51
0.0
 71
     0
 72
  5000
 73
     1
 74
     3
 75
     0
 76
     0
 77
     0
 78
     0
281
     0
 65
     1
110
0.0
120
0.0
130
0.0
111
1.0
121
0.0
131
0.0
112
0.0
122
1.0
132
0.0
 79
     0
146
0.0
1001
ACAD_NAV_VCDISPLAY
1070
     3
  0
ENDTAB
  0
TABLE
  2
LTYPE
  5
29
330
0
100
AcDbSymbolTable
 70
     4
  0
LTYPE
  5
2A
330
29
100
AcDbSymbolTableRecord
100
AcDbLinetypeTableRecord
  2
ByBlock
 70
     0
  3

 72
    65
 73
     0
 40
0.0
  0
LTYPE
  5
2B
330
29
100
AcDbSymbolTableRecord
100
AcDbLinetypeTableRecord
  2
ByLayer
 70
     0
  3

 72
    65
 73
     0
 40
0.0
  0
LTYPE
  5
15
330
29
100
AcDbSymbolTableRecord
100
AcDbLinetypeTableRecord
  2
Continuous
 70
     0
  3
Solid line
 72
    65
 73
     0
 40
0.0
  0
LTYPE
  5
129
330
29
100
AcDbSymbolTableRecord
100
AcDbLinetypeTableRecord
  2
CENTER
 70
     0
  3
____ _ ____ _ ____ _ ____ _ ____ _ ____ 
 72
    65
 73
     4
 40
2.0
 49
1.25
 74
     0
 49
-0.25
 74
     0
 49
0.25
 74
     0
 49
-0.25
 74
     0
  0
LTYPE
  5
9A
330
29
100
AcDbSymbolTableRecord
100
AcDbLinetypeTableRecord
  2
HIDDEN2
 70
     0
  3
Hidden (.5x) _ _ _ _ _ _ _ _ _ _ _ _ _ _ _ _ _
 72
    65
 73
     2
 40
0.1875
 49
0.125
 74
     0
 49
-0.0625
 74
     0
  0
LTYPE
  5
9F
330
29
100
AcDbSymbolTableRecord
100
AcDbLinetypeTableRecord
  2
HIDDEN
 70
     0
  3
Hidden __ __ __ __ __ __ __ __ __ __ __ __ __ __
 72
    65
 73
     2
 40
0.375
 49
0.25
 74
     0
 49
-0.125
 74
     0
  0
ENDTAB
  0
TABLE
  2
LAYER
  5
22
102
{ACAD_XDICTIONARY
360
23
102
}
330
0
100
AcDbSymbolTable
 70
     3
  0
LAYER
  5
6
102
{ACAD_XDICTIONARY
360
7
102
}
330
22
100
AcDbSymbolTableRecord
100
AcDbLayerTableRecord
  2
0
 70
     0
 62
     7
  6
Continuous
370
    18
390
9
  0
LAYER
  5
242
330
22
100
AcDbSymbolTableRecord
100
AcDbLayerTableRecord
  2
Defpoints
 70
     0
 62
     7
  6
Continuous
290
     0
370
    18
390
9
  0
LAYER
  5
E1
102
{ACAD_XDICTIONARY
360
E2
102
}
330
22
100
AcDbSymbolTableRecord
100
AcDbLayerTableRecord
  2
Screw
 70
     0
 62
     7
  6
Continuous
370
    18
390
9
  0
ENDTAB
  0
TABLE
  2
STYLE
  5
25
330
0
100
AcDbSymbolTable
 70
     1
  0
STYLE
  5
26
330
25
100
AcDbSymbolTableRecord
100
AcDbTextStyleTableRecord
  2
Standard
 70
     0
 40
0.0
 41
0.55
 50
5.0
 71
     0
 42
0.25
  3
lc______.ttf
  4

1001
ACAD
1000
Letter Gothic
1071
       50
  0
ENDTAB
  0
TABLE
  2
VIEW
  5
2C
330
0
100
AcDbSymbolTable
 70
     0
  0
ENDTAB
  0
TABLE
  2
UCS
  5
2D
330
0
100
AcDbSymbolTable
 70
     0
  0
ENDTAB
  0
TABLE
  2
APPID
  5
34
330
0
100
AcDbSymbolTable
 70
     5
  0
APPID
  5
27
330
34
100
AcDbSymbolTableRecord
100
AcDbRegAppTableRecord
  2
ACAD
 70
     0
  0
APPID
  5
1B
330
34
100
AcDbSymbolTableRecord
100
AcDbRegAppTableRecord
  2
ACAD_PSEXT
 70
     0
  0
APPID
  5
32
330
34
100
AcDbSymbolTableRecord
100
AcDbRegAppTableRecord
  2
ACAD_NAV_VCDISPLAY
 70
     0
  0
APPID
  5
76
330
34
100
AcDbSymbolTableRecord
100
AcDbRegAppTableRecord
  2
GradientColor1ACI
 70
     0
  0
APPID
  5
77
330
34
100
AcDbSymbolTableRecord
100
AcDbRegAppTableRecord
  2
GradientColor2ACI
 70
     0
  0
ENDTAB
  0
TABLE
  2
DIMSTYLE
  5
35
330
0
100
AcDbSymbolTable
 70
     2
100
AcDbDimStyleTable
 71
     2
340
36
340
3B
  0
DIMSTYLE
105
3B
330
35
100
AcDbSymbolTableRecord
100
AcDbDimStyleTableRecord
  2
Standard
 70
     0
  3
"
 40
0.0
 41
0.095
 42
0.04
 44
0.04
140
0.125
141
0.0
147
0.04
179
     1
271
     6
272
     6
276
     2
277
     5
340
26
  0
DIMSTYLE
105
36
102
{ACAD_REACTORS
330
234
330
246
330
257
330
268
330
277
330
288
330
299
330
2AA
330
2BB
330
2CC
330
2DD
330
2ED
330
2FD
330
30B
330
31A
330
32B
330
33C
330
34A
102
}
330
35
100
AcDbSymbolTableRecord
100
AcDbDimStyleTableRecord
  2
Knife
 70
     0
  3
\X
  4
mm
 40
0.0
 41
0.156
 42
0.04
 44
0.03
140
0.3125
141
0.0
147
0.04
170
     1
171
     0
179
     1
271
     5
272
     5
274
     0
276
     2
277
     4
340
26
342
37
  0
ENDTAB
  0
TABLE
  2
BLOCK_RECORD
  5
1
330
0
100
AcDbSymbolTable
 70
    22
  0
BLOCK_RECORD
  5
2
102
{ACAD_XDICTIONARY
360
3
102
}
330
1
100
AcDbSymbolTableRecord
100
AcDbBlockTableRecord
  2
*Model_Space
340
17
  0
BLOCK_RECORD
  5
1C
330
1
100
AcDbSymbolTableRecord
100
AcDbBlockTableRecord
  2
*Paper_Space
340
1F
  0
BLOCK_RECORD
  5
37
330
1
100
AcDbSymbolTableRecord
100
AcDbBlockTableRecord
  2
_ArchTick
340
0
102
{BLKREFS
331
260
331
261
331
26F
331
270
331
280
331
281
331
291
331
292
331
2A2
331
2A3
331
2B3
331
2B4
331
2C4
331
2C5
331
2D5
331
2D6
331
2E6
331
2E7
331
2F6
331
2F7
331
304
331
305
331
313
331
314
331
324
331
325
331
334
331
335
331
343
331
344
331
353
331
354
331
23D
331
23E
331
24F
331
250
102
}
  0
BLOCK_RECORD
  5
DE
330
1
100
AcDbSymbolTableRecord
100
AcDbBlockTableRecord
  2
8 x .75 FH
340
0
310
2800000020000000200000000100080000000000000400000000000000000000000000000000000000000000000080000080000000808000800000008000800080800000C0C0C000C0DCC000F0CAA6000020400000206000002080000020A0000020C0000020E00000400000004020000040400000406000004080000040A0
310
000040C0000040E00000600000006020000060400000606000006080000060A0000060C0000060E00000800000008020000080400000806000008080000080A0000080C0000080E00000A0000000A0200000A0400000A0600000A0800000A0A00000A0C00000A0E00000C0000000C0200000C0400000C0600000C0800000C0
310
A00000C0C00000C0E00000E0000000E0200000E0400000E0600000E0800000E0A00000E0C00000E0E00040000000400020004000400040006000400080004000A0004000C0004000E00040200000402020004020400040206000402080004020A0004020C0004020E000404000004040200040404000404060004040800040
310
40A0004040C0004040E00040600000406020004060400040606000406080004060A0004060C0004060E00040800000408020004080400040806000408080004080A0004080C0004080E00040A0000040A0200040A0400040A0600040A0800040A0A00040A0C00040A0E00040C0000040C0200040C0400040C0600040C08000
310
40C0A00040C0C00040C0E00040E0000040E0200040E0400040E0600040E0800040E0A00040E0C00040E0E00080000000800020008000400080006000800080008000A0008000C0008000E00080200000802020008020400080206000802080008020A0008020C0008020E00080400000804020008040400080406000804080
310
008040A0008040C0008040E00080600000806020008060400080606000806080008060A0008060C0008060E00080800000808020008080400080806000808080008080A0008080C0008080E00080A0000080A0200080A0400080A0600080A0800080A0A00080A0C00080A0E00080C0000080C0200080C0400080C0600080C0
310
800080C0A00080C0C00080C0E00080E0000080E0200080E0400080E0600080E0800080E0A00080E0C00080E0E000C0000000C0002000C0004000C0006000C0008000C000A000C000C000C000E000C0200000C0202000C0204000C0206000C0208000C020A000C020C000C020E000C0400000C0402000C0404000C0406000C0
310
408000C040A000C040C000C040E000C0600000C0602000C0604000C0606000C0608000C060A000C060C000C060E000C0800000C0802000C0804000C0806000C0808000C080A000C080C000C080E000C0A00000C0A02000C0A04000C0A06000C0A08000C0A0A000C0A0C000C0A0E000C0C00000C0C02000C0C04000C0C06000
310
C0C08000C0C0A000F0FBFF00A4A0A000808080000000FF0000FF000000FFFF00FF000000FF00FF00FFFF0000FFFFFF0007070707070707070707070707070707070707070707070707070707070707070707070707070707070707070707070700070707070707070707070707070707070707070707070707070707070707
310
07000707070707070707070707070707070707070707070707070707070707070700070707070707070707070707070707070707070707070707070707070707070007070707070707070707070707070707070707070707070707070707070000000707070707070707070707070707070707070707070707070707070707
310
07000000070707070707070707070707070707070707070707070707070707000007000007070707070707070707070707070707070707070707070707070707000000000007070707070707070707070707070707070707070707070707070700070000000707070707070707070707070707070707070707070707070707
310
00000000000707070707070707070707070707070707070707070707070707070700070000000707070707070707070707070707070707070707070707070707000000000007070707070707070707070707070707070707070707070707070707000700000007070707070707070707070707070707070707070707070707
310
07000000000007070707070707070707070707070707070707070707070707070707000700000007070707070707070707070707070707070707070707070707070000000000070707070707070707070707070707070707070707070707070707070007000000070707070707070707070707070707070707070707070707
310
07070000000000070707070707070707070707070707070707070707070707070707070007000000070707070707070707070707070707070707070707070707070707000700000707070707070707070707070707070707070707070707070707070000000000070707070707070707070707070707070707070707070707
310
07070707000700000007070707070707070707070707070707070707070707070707070700000000070707070707070707070707070707070707070707070707070707000707000700070707070707070707070707070707070707070707070707070007070700070700070707070707070707070707070707070707070707
310
07070007070707000707070007070707070707070707070707070707070707070700000000000000000000000007070707070707070707070707070707070707070000000000000000000000000707070707070707070707070707070707070707070707070707000707070707070707070707070707070707070707070707
310
0707070707070707000707070707070707070707070707070707070707070707070707070707070707070707070707070707070707070707
102
{BLKREFS
331
DD
102
}
  0
BLOCK_RECORD
  5
12C
330
1
100
AcDbSymbolTableRecord
100
AcDbBlockTableRecord
  2
8 X .625 PH
340
0
310
2800000020000000200000000100080000000000000400000000000000000000000000000000000000000000000080000080000000808000800000008000800080800000C0C0C000C0DCC000F0CAA6000020400000206000002080000020A0000020C0000020E00000400000004020000040400000406000004080000040A0
310
000040C0000040E00000600000006020000060400000606000006080000060A0000060C0000060E00000800000008020000080400000806000008080000080A0000080C0000080E00000A0000000A0200000A0400000A0600000A0800000A0A00000A0C00000A0E00000C0000000C0200000C0400000C0600000C0800000C0
310
A00000C0C00000C0E00000E0000000E0200000E0400000E0600000E0800000E0A00000E0C00000E0E00040000000400020004000400040006000400080004000A0004000C0004000E00040200000402020004020400040206000402080004020A0004020C0004020E000404000004040200040404000404060004040800040
310
40A0004040C0004040E00040600000406020004060400040606000406080004060A0004060C0004060E00040800000408020004080400040806000408080004080A0004080C0004080E00040A0000040A0200040A0400040A0600040A0800040A0A00040A0C00040A0E00040C0000040C0200040C0400040C0600040C08000
310
40C0A00040C0C00040C0E00040E0000040E0200040E0400040E0600040E0800040E0A00040E0C00040E0E00080000000800020008000400080006000800080008000A0008000C0008000E00080200000802020008020400080206000802080008020A0008020C0008020E00080400000804020008040400080406000804080
310
008040A0008040C0008040E00080600000806020008060400080606000806080008060A0008060C0008060E00080800000808020008080400080806000808080008080A0008080C0008080E00080A0000080A0200080A0400080A0600080A0800080A0A00080A0C00080A0E00080C0000080C0200080C0400080C0600080C0
310
800080C0A00080C0C00080C0E00080E0000080E0200080E0400080E0600080E0800080E0A00080E0C00080E0E000C0000000C0002000C0004000C0006000C0008000C000A000C000C000C000E000C0200000C0202000C0204000C0206000C0208000C020A000C020C000C020E000C0400000C0402000C0404000C0406000C0
310
408000C040A000C040C000C040E000C0600000C0602000C0604000C0606000C0608000C060A000C060C000C060E000C0800000C0802000C0804000C0806000C0808000C080A000C080C000C080E000C0A00000C0A02000C0A04000C0A06000C0A08000C0A0A000C0A0C000C0A0E000C0C00000C0C02000C0C04000C0C06000
310
C0C08000C0C0A000F0FBFF00A4A0A000808080000000FF0000FF000000FFFF00FF000000FF00FF00FFFF0000FFFFFF0007070707070707070707070707070707070707070707070707070707070707070707070707070707070707070707070700070707070707070707070707070707070707070707070707070707070707
310
07000707070707070707070707070707070707070707070707070707070707070700070707070707070707070707070707070707070707070707070707070707070007070707070707070707070707070707070707070707070707070707070000000707070707070707070707070707070707070707070707070707070707
310
00000000070707070707070707070707070707070707070707070707070707070007000007070707070707070707070707070707070707070707070707070700000000000007070707070707070707070707070707070707070707070707070007070000000707070707070707070707070707070707070707070707070707
310
00000000070007070707070707070707070707070707070707070707070707070007070000000707070707070707070707070707070707070707070707070707000000000700070707070707070707070707070707070707070707070707070700070700000007070707070707070707070707070707070707070707070707
310
07000000000700070707070707070707070707070707070707070707070707070700070700000007070707070707070707070707070707070707070707070707070007070007000707070707070707070707070707070707070707070707070707000000000700070707070707070707070707070707070707070707070707
310
07070007070000000707070707070707070707070707070707070707070707070707000000000700070707070707070707070707070707070707070707070707070700070700000007070707070707070707070707070707070707070707070707070000000007000707070707070707070707070707070707070707070707
310
07070700070700000007070707070707070707070707070707070707070707070707070000000007000707070707070707070707070707070707070707070707070000000000000000000007070707070707070707070707070707070707070700070707070700070707070007070707070707070707070707070707070707
310
07000000000000000000000000070707070707070707070707070707070707070707000007070700070700000707070707070707070707070707070707070707070707070000000000000707070707070707070707070707070707070707070707070707070707000707070707070707070707070707070707070707070707
310
0707070707070707000707070707070707070707070707070707070707070707070707070707070707070707070707070707070707070707
102
{BLKREFS
331
12B
102
}
  0
BLOCK_RECORD
  5
1BD
330
1
100
AcDbSymbolTableRecord
100
AcDbBlockTableRecord
  2
8 X 1.5 FH
340
0
310
2800000020000000200000000100080000000000000400000000000000000000000000000000000000000000000080000080000000808000800000008000800080800000C0C0C000C0DCC000F0CAA6000020400000206000002080000020A0000020C0000020E00000400000004020000040400000406000004080000040A0
310
000040C0000040E00000600000006020000060400000606000006080000060A0000060C0000060E00000800000008020000080400000806000008080000080A0000080C0000080E00000A0000000A0200000A0400000A0600000A0800000A0A00000A0C00000A0E00000C0000000C0200000C0400000C0600000C0800000C0
310
A00000C0C00000C0E00000E0000000E0200000E0400000E0600000E0800000E0A00000E0C00000E0E00040000000400020004000400040006000400080004000A0004000C0004000E00040200000402020004020400040206000402080004020A0004020C0004020E000404000004040200040404000404060004040800040
310
40A0004040C0004040E00040600000406020004060400040606000406080004060A0004060C0004060E00040800000408020004080400040806000408080004080A0004080C0004080E00040A0000040A0200040A0400040A0600040A0800040A0A00040A0C00040A0E00040C0000040C0200040C0400040C0600040C08000
310
40C0A00040C0C00040C0E00040E0000040E0200040E0400040E0600040E0800040E0A00040E0C00040E0E00080000000800020008000400080006000800080008000A0008000C0008000E00080200000802020008020400080206000802080008020A0008020C0008020E00080400000804020008040400080406000804080
310
008040A0008040C0008040E00080600000806020008060400080606000806080008060A0008060C0008060E00080800000808020008080400080806000808080008080A0008080C0008080E00080A0000080A0200080A0400080A0600080A0800080A0A00080A0C00080A0E00080C0000080C0200080C0400080C0600080C0
310
800080C0A00080C0C00080C0E00080E0000080E0200080E0400080E0600080E0800080E0A00080E0C00080E0E000C0000000C0002000C0004000C0006000C0008000C000A000C000C000C000E000C0200000C0202000C0204000C0206000C0208000C020A000C020C000C020E000C0400000C0402000C0404000C0406000C0
310
408000C040A000C040C000C040E000C0600000C0602000C0604000C0606000C0608000C060A000C060C000C060E000C0800000C0802000C0804000C0806000C0808000C080A000C080C000C080E000C0A00000C0A02000C0A04000C0A06000C0A08000C0A0A000C0A0C000C0A0E000C0C00000C0C02000C0C04000C0C06000
310
C0C08000C0C0A000F0FBFF00A4A0A000808080000000FF0000FF000000FFFF00FF000000FF00FF00FFFF0000FFFFFF0007070707070707070707070707070707070707070707070707070707070707070707070707070707070707070707070700070707070707070707070707070707070707070707070707070707070707
310
07000707070707070707070707070707070707070707070707070707070707070000070707070707070707070707070707070707070707070707070707070707000007070707070707070707070707070707070707070707070707070707070000000007070707070707070707070707070707070707070707070707070707
310
00000000070707070707070707070707070707070707070707070707070707070000000007070707070707070707070707070707070707070707070707070707000000000707070707070707070707070707070707070707070707070707070700000000070707070707070707070707070707070707070707070707070707
310
07000000000707070707070707070707070707070707070707070707070707070700070000070707070707070707070707070707070707070707070707070707070000000007070707070707070707070707070707070707070707070707070707000000000707070707070707070707070707070707070707070707070707
310
07070000000007070707070707070707070707070707070707070707070707070707000000000707070707070707070707070707070707070707070707070707070700000000070707070707070707070707070707070707070707070707070707070000000007070707070707070707070707070707070707070707070707
310
07070700070000070707070707070707070707070707070707070707070707070707070007000007070707070707070707070707070707070707070707070707070707000700000707070707070707070707070707070707070707070707070707070700070000070707070707070707070707070707070707070707070707
310
07070707000700000707070707070707070707070707070707070707070707070707070700070000070707070707070707070707070707070707070707070707070707070007000007070707070707070707070707070707070707070707070707070707000700000707070707070707070707070707070707070707070707
310
07070707070000000007070707070707070707070707070707070707070707070707070707000700070007070707070707070707070707070707070707070707070707070000000000000707070707070707070707070707070707070707070707070707000000000000070707070707070707070707070707070707070707
310
0707070707070707000707070707070707070707070707070707070707070707070707070707070707070707070707070707070707070707
102
{BLKREFS
331
1BC
102
}
  0
BLOCK_RECORD
  5
237
330
1
100
AcDbSymbolTableRecord
100
AcDbBlockTableRecord
  2
*D4
340
0
  0
BLOCK_RECORD
  5
249
330
1
100
AcDbSymbolTableRecord
100
AcDbBlockTableRecord
  2
*D5
340
0
  0
BLOCK_RECORD
  5
25A
330
1
100
AcDbSymbolTableRecord
100
AcDbBlockTableRecord
  2
*D6
340
0
  0
BLOCK_RECORD
  5
269
330
1
100
AcDbSymbolTableRecord
100
AcDbBlockTableRecord
  2
*D7
340
0
  0
BLOCK_RECORD
  5
27A
330
1
100
AcDbSymbolTableRecord
100
AcDbBlockTableRecord
  2
*D8
340
0
  0
BLOCK_RECORD
  5
28B
330
1
100
AcDbSymbolTableRecord
100
AcDbBlockTableRecord
  2
*D9
340
0
  0
BLOCK_RECORD
  5
29C
330
1
100
AcDbSymbolTableRecord
100
AcDbBlockTableRecord
  2
*D10
340
0
  0
BLOCK_RECORD
  5
2AD
330
1
100
AcDbSymbolTableRecord
100
AcDbBlockTableRecord
  2
*D11
340
0
  0
BLOCK_RECORD
  5
2BE
330
1
100
AcDbSymbolTableRecord
100
AcDbBlockTableRecord
  2
*D12
340
0
  0
BLOCK_RECORD
  5
2CF
330
1
100
AcDbSymbolTableRecord
100
AcDbBlockTableRecord
  2
*D13
340
0
  0
BLOCK_RECORD
  5
2E0
330
1
100
AcDbSymbolTableRecord
100
AcDbBlockTableRecord
  2
*D14
340
0
  0
BLOCK_RECORD
  5
2F0
330
1
100
AcDbSymbolTableRecord
100
AcDbBlockTableRecord
  2
*D15
340
0
  0
BLOCK_RECORD
  5
2FE
330
1
100
AcDbSymbolTableRecord
100
AcDbBlockTableRecord
  2
*D16
340
0
  0
BLOCK_RECORD
  5
30C
330
1
100
AcDbSymbolTableRecord
100
AcDbBlockTableRecord
  2
*D17
340
0
  0
BLOCK_RECORD
  5
31D
330
1
100
AcDbSymbolTableRecord
100
AcDbBlockTableRecord
  2
*D18
340
0
  0
BLOCK_RECORD
  5
32E
330
1
100
AcDbSymbolTableRecord
100
AcDbBlockTableRecord
  2
*D19
340
0
  0
BLOCK_RECORD
  5
33D
330
1
100
AcDbSymbolTableRecord
100
AcDbBlockTableRecord
  2
*D20
340
0
  0
BLOCK_RECORD
  5
34D
330
1
100
AcDbSymbolTableRecord
100
AcDbBlockTableRecord
  2
*D21
340
0
  0
ENDTAB
  0
ENDSEC
  0
SECTION
  2
BLOCKS
  0
BLOCK
  5
5
330
2
100
AcDbEntity
  8
0
100
AcDbBlockBegin
  2
*Model_Space
 70
     0
 10
0.0
 20
0.0
 30
0.0
  3
*Model_Space
  1

  0
ENDBLK
  5
16
330
2
100
AcDbEntity
  8
0
100
AcDbBlockEnd
  0
BLOCK
  5
1D
330
1C
100
AcDbEntity
 67
     1
  8
0
100
AcDbBlockBegin
  2
*Paper_Space
 70
     0
 10
0.0
 20
0.0
 30
0.0
  3
*Paper_Space
  1

  0
ENDBLK
  5
1E
330
1C
100
AcDbEntity
 67
     1
  8
0
100
AcDbBlockEnd
  0
BLOCK
  5
38
330
37
100
AcDbEntity
  8
0
100
AcDbBlockBegin
  2
_ArchTick
 70
     0
 10
0.0
 20
0.0
 30
0.0
  3
_ArchTick
  1

  0
LWPOLYLINE
  5
39
330
37
100
AcDbEntity
  8
0
  6
ByBlock
 62
     0
100
AcDbPolyline
 90
        2
 70
     0
 43
0.15
 10
-0.5
 20
-0.5
 10
0.5
 20
0.5
  0
ENDBLK
  5
3A
330
37
100
AcDbEntity
  8
0
100
AcDbBlockEnd
  0
BLOCK
  5
DF
330
DE
100
AcDbEntity
  8
0
 62
     7
370
     9
100
AcDbBlockBegin
  2
8 x .75 FH
 70
     0
 10
0.0
 20
0.0
 30
0.0
  3
8 x .75 FH
  1

  0
LINE
  5
E0
330
DE
100
AcDbEntity
  8
Screw
 62
     7
370
     9
100
AcDbLine
 10
0.0550146141445112
 20
-0.6503624430697528
 30
0.0
 11
-0.040994238129656
 21
-0.6842106249981726
 31
0.0
  0
LINE
  5
E3
330
DE
100
AcDbEntity
  8
Screw
 62
     7
370
     9
100
AcDbLine
 10
0.082499999998845
 20
-0.5862344890166469
 30
0.0
 11
-0.0718750000007731
 21
-0.6184212499980504
 31
0.0
  0
LINE
  5
E4
330
DE
100
AcDbEntity
  8
Screw
 62
     7
370
     9
100
AcDbLine
 10
0.0439236020391718
 20
-0.6439590442452073
 30
0.0
 11
0.0490410471671794
 21
-0.6316044388123601
 31
0.0
  0
LINE
  5
E5
330
DE
100
AcDbEntity
  8
Screw
 62
     7
370
     9
100
AcDbLine
 10
0.029903226022725
 20
-0.6778072261735133
 30
0.0
 11
0.0229311243443817
 21
-0.6946393686034753
 31
0.0
  0
LINE
  5
E6
330
DE
100
AcDbEntity
  8
Screw
 62
     7
370
     9
100
AcDbLine
 10
0.0578546239828484
 20
-0.6103265821309379
 30
0.0
 11
0.0490410471671794
 21
-0.6316044388123601
 31
0.0
  0
LINE
  5
E7
330
DE
100
AcDbEntity
  8
Screw
 62
     7
370
     9
100
AcDbLine
 10
-0.0000000000006821
 20
-0.749999999998181
 30
0.0
 11
-0.0229311243459733
 21
-0.6946393686034753
 31
0.0
  0
LINE
  5
E8
330
DE
100
AcDbEntity
  8
Screw
 62
     7
370
     9
100
AcDbLine
 10
-0.0718750000007731
 20
-0.6184212499980504
 30
0.0
 11
-0.0600000000014234
 21
-0.6115652155518774
 31
0.0
  0
LINE
  5
E9
330
DE
100
AcDbEntity
  8
Screw
 62
     7
370
     9
100
AcDbLine
 10
-0.0718750000007731
 20
-0.6184212499981641
 30
0.0
 11
-0.0490410471686573
 21
-0.6316044388123601
 31
0.0
  0
LINE
  5
EA
330
DE
100
AcDbEntity
  8
Screw
 62
     7
370
     9
100
AcDbLine
 10
-0.040994238129656
 20
-0.6842106249981726
 30
0.0
 11
-0.0299032260242029
 21
-0.6778072261735133
 31
0.0
  0
LINE
  5
EB
330
DE
100
AcDbEntity
  8
Screw
 62
     7
370
     9
100
AcDbLine
 10
-0.040994238129656
 20
-0.6842106249981726
 30
0.0
 11
-0.0229311243459733
 21
-0.6946393686034753
 31
0.0
  0
LINE
  5
EC
330
DE
100
AcDbEntity
  8
Screw
 62
     7
370
     9
100
AcDbLine
 10
-0.0299032260242029
 20
-0.6778072261735133
 30
0.0
 11
-0.0490410471686573
 21
-0.6316044388123601
 31
0.0
  0
LINE
  5
ED
330
DE
100
AcDbEntity
  8
Screw
 62
     7
370
     9
100
AcDbLine
 10
0.029903226022725
 20
-0.6778072261735133
 30
0.0
 11
0.0369515003608285
 21
-0.6607911866751693
 31
0.0
  0
LINE
  5
EE
330
DE
100
AcDbEntity
  8
Screw
 62
     7
370
     9
100
AcDbLine
 10
0.0578546239828484
 20
-0.6103265821309379
 30
0.0
 11
0.0632241464040817
 21
-0.5973634082783974
 31
0.0
  0
LINE
  5
EF
330
DE
100
AcDbEntity
  8
Screw
 62
     7
370
     9
100
AcDbLine
 10
0.0550146141445112
 20
-0.6503624430697528
 30
0.0
 11
0.0369515003608285
 21
-0.6607911866751693
 31
0.0
  0
LINE
  5
F0
330
DE
100
AcDbEntity
  8
Screw
 62
     7
370
     9
100
AcDbLine
 10
0.0550146141445112
 20
-0.6503624430697528
 30
0.0
 11
0.0439236020391718
 21
-0.6439590442452073
 31
0.0
  0
LINE
  5
F1
330
DE
100
AcDbEntity
  8
Screw
 62
     7
370
     9
100
AcDbLine
 10
0.0824999999986176
 20
-0.5862344890166469
 30
0.0
 11
0.063224146403968
 21
-0.5973634082782838
 31
0.0
  0
LINE
  5
F2
330
DE
100
AcDbEntity
  8
Screw
 62
     7
370
     9
100
AcDbLine
 10
0.0824999999986176
 20
-0.5862344890166469
 30
0.0
 11
0.0684796239821708
 21
-0.5781398211494207
 31
0.0
  0
LINE
  5
F3
330
DE
100
AcDbEntity
  8
Screw
 62
     7
370
     9
100
AcDbLine
 10
-0.0000000000006821
 20
-0.749999999998181
 30
0.0
 11
0.0229311243443817
 21
-0.6946393686034753
 31
0.0
  0
LINE
  5
F4
330
DE
100
AcDbEntity
  8
Screw
 62
     7
370
     9
100
AcDbLine
 10
0.0599999999988086
 20
-0.4018567450733599
 30
0.0
 11
0.0599999999988086
 21
-0.4416653579600052
 31
0.0
  0
LINE
  5
F5
330
DE
100
AcDbEntity
  8
Screw
 62
     7
370
     9
100
AcDbLine
 10
0.0824999999987313
 20
-0.3888663640167351
 30
0.0
 11
0.0599999999988086
 21
-0.4018567450733599
 31
0.0
  0
LINE
  5
F6
330
DE
100
AcDbEntity
  8
Screw
 62
     7
370
     9
100
AcDbLine
 10
0.0599999999988086
 20
-0.4676461200734821
 30
0.0
 11
0.0599999999988086
 21
-0.5074547329599
 31
0.0
  0
LINE
  5
F7
330
DE
100
AcDbEntity
  8
Screw
 62
     7
370
     9
100
AcDbLine
 10
0.0824999999987313
 20
-0.5204451140167521
 30
0.0
 11
0.0599999999988086
 21
-0.5334354950734906
 31
0.0
  0
LINE
  5
F8
330
DE
100
AcDbEntity
  8
Screw
 62
     7
370
     9
100
AcDbLine
 10
0.0824999999987313
 20
-0.5204451140167521
 30
0.0
 11
0.0599999999986949
 21
-0.5074547329599
 31
0.0
  0
LINE
  5
F9
330
DE
100
AcDbEntity
  8
Screw
 62
     7
370
     9
100
AcDbLine
 10
0.0824999999987313
 20
-0.45465573901663
 30
0.0
 11
0.0599999999988086
 21
-0.4676461200734821
 31
0.0
  0
LINE
  5
FA
330
DE
100
AcDbEntity
  8
Screw
 62
     7
370
     9
100
AcDbLine
 10
0.0824999999987313
 20
-0.45465573901663
 30
0.0
 11
0.0599999999988086
 21
-0.4416653579600052
 31
0.0
  0
LINE
  5
FB
330
DE
100
AcDbEntity
  8
Screw
 62
     7
370
     9
100
AcDbLine
 10
0.0824999999987313
 20
-0.3888663640167351
 30
0.0
 11
-0.0825000000013461
 21
-0.4176219848775418
 31
0.0
  0
LINE
  5
FC
330
DE
100
AcDbEntity
  8
Screw
 62
     7
370
     9
100
AcDbLine
 10
0.0824999999987313
 20
-0.5204451140167521
 30
0.0
 11
-0.0825000000013461
 21
-0.5492007348775588
 31
0.0
  0
LINE
  5
FD
330
DE
100
AcDbEntity
  8
Screw
 62
     7
370
     9
100
AcDbLine
 10
0.0824999999987313
 20
-0.45465573901663
 30
0.0
 11
-0.0825000000013461
 21
-0.4834113598775503
 31
0.0
  0
LINE
  5
FE
330
DE
100
AcDbEntity
  8
Screw
 62
     7
370
     9
100
AcDbLine
 10
0.0824999999987313
 20
-0.3888663640167351
 30
0.0
 11
0.0599999999988086
 21
-0.3758759829599967
 31
0.0
  0
LINE
  5
FF
330
DE
100
AcDbEntity
  8
Screw
 62
     7
370
     9
100
AcDbLine
 10
0.0824999999987313
 20
-0.5862344890167606
 30
0.0
 11
0.0599999999986949
 21
-0.5732441079599085
 31
0.0
  0
LINE
  5
100
330
DE
100
AcDbEntity
  8
Screw
 62
     7
370
     9
100
AcDbLine
 10
0.0599999999988086
 20
-0.5334354950734906
 30
0.0
 11
0.0599999999988086
 21
-0.5732441079599085
 31
0.0
  0
LINE
  5
101
330
DE
100
AcDbEntity
  8
Screw
 62
     7
370
     9
100
AcDbLine
 10
-0.0825000000012324
 20
-0.4834113598774366
 30
0.0
 11
-0.0600000000013097
 21
-0.4704209788208118
 31
0.0
  0
LINE
  5
102
330
DE
100
AcDbEntity
  8
Screw
 62
     7
370
     9
100
AcDbLine
 10
-0.0825000000012324
 20
-0.483411359877664
 30
0.0
 11
-0.0600000000013097
 21
-0.4964017409342887
 31
0.0
  0
LINE
  5
103
330
DE
100
AcDbEntity
  8
Screw
 62
     7
370
     9
100
AcDbLine
 10
-0.0825000000012324
 20
-0.5492007348775588
 30
0.0
 11
-0.0600000000013097
 21
-0.5362103538207066
 31
0.0
  0
LINE
  5
104
330
DE
100
AcDbEntity
  8
Screw
 62
     7
370
     9
100
AcDbLine
 10
-0.0825000000012324
 20
-0.5492007348775588
 30
0.0
 11
-0.0600000000013097
 21
-0.5621911159342972
 31
0.0
  0
LINE
  5
105
330
DE
100
AcDbEntity
  8
Screw
 62
     7
370
     9
100
AcDbLine
 10
-0.0825000000012324
 20
-0.4176219848775418
 30
0.0
 11
-0.0600000000013097
 21
-0.4306123659343939
 31
0.0
  0
LINE
  5
106
330
DE
100
AcDbEntity
  8
Screw
 62
     7
370
     9
100
AcDbLine
 10
-0.0825000000012324
 20
-0.4176219848775418
 30
0.0
 11
-0.0600000000013097
 21
-0.4046316038208034
 31
0.0
  0
LINE
  5
107
330
DE
100
AcDbEntity
  8
Screw
 62
     7
370
     9
100
AcDbLine
 10
-0.0600000000013097
 20
-0.5621911159342972
 30
0.0
 11
-0.0600000000013097
 21
-0.6115652155519911
 31
0.0
  0
LINE
  5
108
330
DE
100
AcDbEntity
  8
Screw
 62
     7
370
     9
100
AcDbLine
 10
-0.0600000000013097
 20
-0.496401740934175
 30
0.0
 11
-0.0600000000013097
 21
-0.5362103538205929
 31
0.0
  0
LINE
  5
109
330
DE
100
AcDbEntity
  8
Screw
 62
     7
370
     9
100
AcDbLine
 10
-0.0600000000013097
 20
-0.4306123659340529
 30
0.0
 11
-0.0600000000013097
 21
-0.4704209788206981
 31
0.0
  0
LINE
  5
10A
330
DE
100
AcDbEntity
  8
Screw
 62
     7
370
     9
100
AcDbLine
 10
0.0824999999987313
 20
-0.2572876140167182
 30
0.0
 11
0.0599999999988086
 21
-0.2442972329599797
 31
0.0
  0
LINE
  5
10B
330
DE
100
AcDbEntity
  8
Screw
 62
     7
370
     9
100
AcDbLine
 10
0.0824999999987313
 20
-0.323076989016613
 30
0.0
 11
-0.0825000000013461
 21
-0.3518326098775333
 31
0.0
  0
LINE
  5
10C
330
DE
100
AcDbEntity
  8
Screw
 62
     7
370
     9
100
AcDbLine
 10
0.0824999999987313
 20
-0.2572876140167182
 30
0.0
 11
-0.0825000000013461
 21
-0.2860432348775248
 31
0.0
  0
LINE
  5
10D
330
DE
100
AcDbEntity
  8
Screw
 62
     7
370
     9
100
AcDbLine
 10
0.0824999999987313
 20
-0.323076989016613
 30
0.0
 11
0.0599999999988086
 21
-0.3100866079599882
 31
0.0
  0
LINE
  5
10E
330
DE
100
AcDbEntity
  8
Screw
 62
     7
370
     9
100
AcDbLine
 10
0.0824999999987313
 20
-0.323076989016613
 30
0.0
 11
0.0599999999988086
 21
-0.3360673700734651
 31
0.0
  0
LINE
  5
10F
330
DE
100
AcDbEntity
  8
Screw
 62
     7
370
     9
100
AcDbLine
 10
0.0599999999988086
 20
-0.3360673700734651
 30
0.0
 11
0.0599999999988086
 21
-0.375875982959883
 31
0.0
  0
LINE
  5
110
330
DE
100
AcDbEntity
  8
Screw
 62
     7
370
     9
100
AcDbLine
 10
0.0824999999987313
 20
-0.2572876140167182
 30
0.0
 11
0.0599999999988086
 21
-0.2702779950733429
 31
0.0
  0
LINE
  5
111
330
DE
100
AcDbEntity
  8
Screw
 62
     7
370
     9
100
AcDbLine
 10
0.0599999999988086
 20
-0.2702779950733429
 30
0.0
 11
0.0599999999988086
 21
-0.3100866079599882
 31
0.0
  0
LINE
  5
112
330
DE
100
AcDbEntity
  8
Screw
 62
     7
370
     9
100
AcDbLine
 10
-0.0600000000013097
 20
-0.2990336159340359
 30
0.0
 11
-0.0600000000013097
 21
-0.3388422288206812
 31
0.0
  0
LINE
  5
113
330
DE
100
AcDbEntity
  8
Screw
 62
     7
370
     9
100
AcDbLine
 10
-0.0600000000013097
 20
-0.364822990934158
 30
0.0
 11
-0.0600000000013097
 21
-0.404631603820576
 31
0.0
  0
LINE
  5
114
330
DE
100
AcDbEntity
  8
Screw
 62
     7
370
     9
100
AcDbLine
 10
-0.0825000000012324
 20
-0.2860432348775248
 30
0.0
 11
-0.0600000000013097
 21
-0.2730528538207864
 31
0.0
  0
LINE
  5
115
330
DE
100
AcDbEntity
  8
Screw
 62
     7
370
     9
100
AcDbLine
 10
-0.0825000000012324
 20
-0.2860432348775248
 30
0.0
 11
-0.0600000000013097
 21
-0.2990336159343769
 31
0.0
  0
LINE
  5
116
330
DE
100
AcDbEntity
  8
Screw
 62
     7
370
     9
100
AcDbLine
 10
-0.0825000000012324
 20
-0.351832609877647
 30
0.0
 11
-0.0600000000013097
 21
-0.3648229909342717
 31
0.0
  0
LINE
  5
117
330
DE
100
AcDbEntity
  8
Screw
 62
     7
370
     9
100
AcDbLine
 10
-0.0825000000012324
 20
-0.3518326098774196
 30
0.0
 11
-0.0600000000013097
 21
-0.3388422288207948
 31
0.0
  0
LINE
  5
118
330
DE
100
AcDbEntity
  8
Screw
 62
     7
370
     9
100
AcDbLine
 10
0.0599999999988086
 20
-0.2044886200734481
 30
0.0
 11
0.0599999999988086
 21
-0.244297232959866
 31
0.0
  0
LINE
  5
119
330
DE
100
AcDbEntity
  8
Screw
 62
     7
370
     9
100
AcDbLine
 10
-0.0600000000013097
 20
-0.2332442409341411
 30
0.0
 11
-0.0600000000013097
 21
-0.273052853820559
 31
0.0
  0
LINE
  5
11A
330
DE
100
AcDbEntity
  8
Screw
 62
     7
370
     9
100
AcDbLine
 10
-0.0600000000013097
 20
-0.1430000000002565
 30
0.0
 11
-0.0600000000013097
 21
-0.2072634788206642
 31
0.0
  0
LINE
  5
11B
330
DE
100
AcDbEntity
  8
Screw
 62
     7
370
     9
100
AcDbLine
 10
-0.0825000000012324
 20
-0.22025385987763
 30
0.0
 11
-0.0600000000013097
 21
-0.2332442409342548
 31
0.0
  0
LINE
  5
11C
330
DE
100
AcDbEntity
  8
Screw
 62
     7
370
     9
100
AcDbLine
 10
-0.0825000000012324
 20
-0.2202538598774026
 30
0.0
 11
-0.0600000000013097
 21
-0.2072634788207779
 31
0.0
  0
LINE
  5
11D
330
DE
100
AcDbEntity
  8
Screw
 62
     7
370
     9
100
AcDbLine
 10
0.0824999999987313
 20
-0.191498239016596
 30
0.0
 11
-0.0825000000013461
 21
-0.2202538598775163
 31
0.0
  0
LINE
  5
11E
330
DE
100
AcDbEntity
  8
Screw
 62
     7
370
     9
100
AcDbLine
 10
0.0824999999987313
 20
-0.191498239016596
 30
0.0
 11
0.0599999999988086
 21
-0.1785078579599713
 31
0.0
  0
LINE
  5
11F
330
DE
100
AcDbEntity
  8
Screw
 62
     7
370
     9
100
AcDbLine
 10
0.0824999999987313
 20
-0.191498239016596
 30
0.0
 11
0.0599999999988086
 21
-0.2044886200734481
 31
0.0
  0
LINE
  5
120
330
DE
100
AcDbEntity
  8
Screw
 62
     7
370
     9
100
AcDbLine
 10
0.0599999999989223
 20
-0.1430000000002565
 30
0.0
 11
0.0599999999988086
 21
-0.1785078579599713
 31
0.0
  0
LINE
  5
121
330
DE
100
AcDbEntity
  8
Screw
 62
     7
370
     9
100
AcDbLine
 10
-0.1550000000002001
 20
0.0000000000001137
 30
0.0
 11
-0.1550000000020191
 21
-0.015999999999849
 31
0.0
  0
LINE
  5
122
330
DE
100
AcDbEntity
  8
Screw
 62
     7
370
     9
100
AcDbLine
 10
0.1549999999986085
 20
0.0
 30
0.0
 11
0.1549999999986085
 21
-0.0159999999999627
 31
0.0
  0
LINE
  5
123
330
DE
100
AcDbEntity
  8
Screw
 62
     7
370
     9
100
AcDbLine
 10
0.1549999999987222
 20
-0.0160000000006448
 30
0.0
 11
-0.155000000001337
 21
-0.0159999999999627
 31
0.0
  0
LINE
  5
124
330
DE
100
AcDbEntity
  8
Screw
 62
     7
370
     9
100
AcDbLine
 10
0.1549999999987222
 20
0.0
 30
0.0
 11
-0.155000000001337
 21
0.0
 31
0.0
  0
LINE
  5
125
330
DE
100
AcDbEntity
  8
Screw
 62
     7
370
     9
100
AcDbLine
 10
0.0599999999989223
 20
-0.1430000000000291
 30
0.0
 11
-0.0600000000013097
 21
-0.1430000000000291
 31
0.0
  0
LINE
  5
126
330
DE
100
AcDbEntity
  8
Screw
 62
     7
370
     9
100
AcDbLine
 10
0.1549999999986085
 20
-0.0160000000006448
 30
0.0
 11
0.0599999999988086
 21
-0.1430000000001428
 31
0.0
  0
LINE
  5
127
330
DE
100
AcDbEntity
  8
Screw
 62
     7
370
     9
100
AcDbLine
 10
-0.1550000000020191
 20
-0.0159999999999627
 30
0.0
 11
-0.0600000000013097
 21
-0.1430000000001428
 31
0.0
  0
LINE
  5
128
330
DE
100
AcDbEntity
  8
Screw
  6
CENTER
 62
     7
370
     9
100
AcDbLine
 10
0.0
 20
0.0516137131638743
 30
0.0
 11
0.0
 21
-0.8012116686045374
 31
0.0
  0
ENDBLK
  5
12A
330
DE
100
AcDbEntity
  8
0
 62
     7
370
     9
100
AcDbBlockEnd
  0
BLOCK
  5
12D
330
12C
100
AcDbEntity
  8
0
 62
     5
100
AcDbBlockBegin
  2
8 X .625 PH
 70
     0
 10
0.0
 20
0.0
 30
0.0
  3
8 X .625 PH
  1

  0
LINE
  5
12E
330
12C
100
AcDbEntity
  8
Screw
  6
CENTER
 62
     7
370
     9
100
AcDbLine
 10
0.0
 20
0.1516137131640107
 30
0.0
 11
-0.0000000000001137
 21
-0.6762116686043101
 31
0.0
  0
LINE
  5
12F
330
12C
100
AcDbEntity
  8
Screw
 62
     7
370
     9
100
AcDbLine
 10
0.1549999999987222
 20
0.0400000000003047
 30
0.0
 11
0.1549999999986085
 21
0.0100000000001046
 31
0.0
  0
LINE
  5
130
330
12C
100
AcDbEntity
  8
Screw
 62
     7
370
     9
100
AcDbLine
 10
-0.1550000000386262
 20
0.0400000000013279
 30
0.0
 11
-0.1550000000420368
 21
0.0100000000010141
 31
0.0
  0
LINE
  5
131
330
12C
100
AcDbEntity
  8
Screw
 62
     7
370
     9
100
AcDbLine
 10
0.0599999999986949
 20
-0.0136992450730986
 30
0.0
 11
0.0599999999986949
 21
-0.0535078579597439
 31
0.0
  0
LINE
  5
132
330
12C
100
AcDbEntity
  8
Screw
 62
     7
370
     9
100
AcDbLine
 10
0.0824999999986176
 20
-0.0007088640164739
 30
0.0
 11
0.0599999999986949
 21
-0.0136992450730986
 31
0.0
  0
LINE
  5
133
330
12C
100
AcDbEntity
  8
Screw
 62
     7
370
     9
100
AcDbLine
 10
0.0824999999986176
 20
-0.0664982390163687
 30
0.0
 11
0.0599999999986949
 21
-0.0794886200732208
 31
0.0
  0
LINE
  5
134
330
12C
100
AcDbEntity
  8
Screw
 62
     7
370
     9
100
AcDbLine
 10
0.0824999999986176
 20
-0.0664982390163687
 30
0.0
 11
0.0599999999986949
 21
-0.0535078579597439
 31
0.0
  0
LINE
  5
135
330
12C
100
AcDbEntity
  8
Screw
 62
     7
370
     9
100
AcDbLine
 10
0.0824999999986176
 20
-0.0007088640164739
 30
0.0
 11
-0.0825000000014598
 21
-0.0294644848772805
 31
0.0
  0
LINE
  5
136
330
12C
100
AcDbEntity
  8
Screw
 62
     7
370
     9
100
AcDbLine
 10
0.0824999999986176
 20
-0.0664982390163687
 30
0.0
 11
-0.0825000000014598
 21
-0.095253859877289
 31
0.0
  0
LINE
  5
137
330
12C
100
AcDbEntity
  8
Screw
 62
     7
370
     9
100
AcDbLine
 10
0.0824999999986176
 20
-0.0007088640164739
 30
0.0
 11
0.0812722115064162
 21
0.0000000000001137
 31
0.0
  0
LINE
  5
138
330
12C
100
AcDbEntity
  8
Screw
 62
     7
370
     9
100
AcDbLine
 10
-0.0825000000013461
 20
-0.0952538598771753
 30
0.0
 11
-0.0600000000014234
 21
-0.0822634788205505
 31
0.0
  0
LINE
  5
139
330
12C
100
AcDbEntity
  8
Screw
 62
     7
370
     9
100
AcDbLine
 10
-0.0825000000013461
 20
-0.0952538598774027
 30
0.0
 11
-0.0600000000014234
 21
-0.1082442409340274
 31
0.0
  0
LINE
  5
13A
330
12C
100
AcDbEntity
  8
Screw
 62
     7
370
     9
100
AcDbLine
 10
-0.0825000000013461
 20
-0.0294644848772805
 30
0.0
 11
-0.0600000000014234
 21
-0.0424548659341326
 31
0.0
  0
LINE
  5
13B
330
12C
100
AcDbEntity
  8
Screw
 62
     7
370
     9
100
AcDbLine
 10
-0.0825000000013461
 20
-0.0294644848772805
 30
0.0
 11
-0.0600000000014234
 21
-0.0164741038205421
 31
0.0
  0
LINE
  5
13C
330
12C
100
AcDbEntity
  8
Screw
 62
     7
370
     9
100
AcDbLine
 10
-0.0600000000014234
 20
-0.0424548659337916
 30
0.0
 11
-0.0600000000014234
 21
-0.0822634788204369
 31
0.0
  0
LINE
  5
13D
330
12C
100
AcDbEntity
  8
Screw
 62
     7
370
     9
100
AcDbLine
 10
-0.0600000000015371
 20
0.0
 30
0.0
 11
-0.0600000000014234
 21
-0.0164741038203147
 31
0.0
  0
LINE
  5
13E
330
12C
100
AcDbEntity
  8
Screw
 62
     7
370
     9
100
AcDbLine
 10
-0.0600000000014234
 20
-0.1082442409339137
 30
0.0
 11
-0.0600000000014234
 21
-0.1480528538203316
 31
0.0
  0
LINE
  5
13F
330
12C
100
AcDbEntity
  8
Screw
 62
     7
370
     9
100
AcDbLine
 10
0.0599999999986949
 20
-0.0794886200732208
 30
0.0
 11
0.0599999999986949
 21
-0.1192972329596387
 31
0.0
  0
LINE
  5
140
330
12C
100
AcDbEntity
  8
Screw
 62
     7
370
     9
100
AcDbLine
 10
-0.0825000000013461
 20
-0.2268326098771922
 30
0.0
 11
-0.0600000000014234
 21
-0.2138422288205675
 31
0.0
  0
LINE
  5
141
330
12C
100
AcDbEntity
  8
Screw
 62
     7
370
     9
100
AcDbLine
 10
-0.0825000000013461
 20
-0.2268326098774196
 30
0.0
 11
-0.0600000000014234
 21
-0.2398229909340443
 31
0.0
  0
LINE
  5
142
330
12C
100
AcDbEntity
  8
Screw
 62
     7
370
     9
100
AcDbLine
 10
-0.0825000000013461
 20
-0.1610432348772974
 30
0.0
 11
-0.0600000000014234
 21
-0.1740336159341496
 31
0.0
  0
LINE
  5
143
330
12C
100
AcDbEntity
  8
Screw
 62
     7
370
     9
100
AcDbLine
 10
-0.0825000000013461
 20
-0.1610432348772974
 30
0.0
 11
-0.0600000000014234
 21
-0.148052853820559
 31
0.0
  0
LINE
  5
144
330
12C
100
AcDbEntity
  8
Screw
 62
     7
370
     9
100
AcDbLine
 10
-0.0600000000014234
 20
-0.2398229909339307
 30
0.0
 11
-0.0600000000014234
 21
-0.2796316038203486
 31
0.0
  0
LINE
  5
145
330
12C
100
AcDbEntity
  8
Screw
 62
     7
370
     9
100
AcDbLine
 10
-0.0600000000014234
 20
-0.1740336159338085
 30
0.0
 11
-0.0600000000014234
 21
-0.2138422288204538
 31
0.0
  0
LINE
  5
146
330
12C
100
AcDbEntity
  8
Screw
 62
     7
370
     9
100
AcDbLine
 10
0.0599999999986949
 20
-0.1452779950731156
 30
0.0
 11
0.0599999999986949
 21
-0.1850866079597608
 31
0.0
  0
LINE
  5
147
330
12C
100
AcDbEntity
  8
Screw
 62
     7
370
     9
100
AcDbLine
 10
0.0824999999986176
 20
-0.1322876140164908
 30
0.0
 11
0.0599999999986949
 21
-0.1452779950731156
 31
0.0
  0
LINE
  5
148
330
12C
100
AcDbEntity
  8
Screw
 62
     7
370
     9
100
AcDbLine
 10
0.0599999999986949
 20
-0.2110673700732377
 30
0.0
 11
0.0599999999986949
 21
-0.2508759829596556
 31
0.0
  0
LINE
  5
149
330
12C
100
AcDbEntity
  8
Screw
 62
     7
370
     9
100
AcDbLine
 10
0.0824999999986176
 20
-0.1980769890163856
 30
0.0
 11
0.0599999999986949
 21
-0.2110673700732377
 31
0.0
  0
LINE
  5
14A
330
12C
100
AcDbEntity
  8
Screw
 62
     7
370
     9
100
AcDbLine
 10
0.0824999999986176
 20
-0.1980769890163856
 30
0.0
 11
0.0599999999986949
 21
-0.1850866079597608
 31
0.0
  0
LINE
  5
14B
330
12C
100
AcDbEntity
  8
Screw
 62
     7
370
     9
100
AcDbLine
 10
0.0824999999986176
 20
-0.1322876140164908
 30
0.0
 11
-0.0825000000014598
 21
-0.1610432348772974
 31
0.0
  0
LINE
  5
14C
330
12C
100
AcDbEntity
  8
Screw
 62
     7
370
     9
100
AcDbLine
 10
0.0824999999986176
 20
-0.1980769890163856
 30
0.0
 11
-0.0825000000014598
 21
-0.2268326098773059
 31
0.0
  0
LINE
  5
14D
330
12C
100
AcDbEntity
  8
Screw
 62
     7
370
     9
100
AcDbLine
 10
0.0824999999986176
 20
-0.1322876140164908
 30
0.0
 11
0.0599999999986949
 21
-0.1192972329597524
 31
0.0
  0
LINE
  5
14E
330
12C
100
AcDbEntity
  8
Screw
 62
     7
370
     9
100
AcDbLine
 10
-0.0600000000014234
 20
-0.3056123659338255
 30
0.0
 11
-0.0600000000014234
 21
-0.3454209788204707
 31
0.0
  0
LINE
  5
14F
330
12C
100
AcDbEntity
  8
Screw
 62
     7
370
     9
100
AcDbLine
 10
-0.0600000000014234
 20
-0.3714017409339476
 30
0.0
 11
-0.0600000000014234
 21
-0.4112103538203656
 31
0.0
  0
LINE
  5
150
330
12C
100
AcDbEntity
  8
Screw
 62
     7
370
     9
100
AcDbLine
 10
-0.0600000000014234
 20
-0.4371911159340698
 30
0.0
 11
-0.0600000000014234
 21
-0.4865652155517637
 31
0.0
  0
LINE
  5
151
330
12C
100
AcDbEntity
  8
Screw
 62
     7
370
     9
100
AcDbLine
 10
-0.0825000000013461
 20
-0.2926219848773144
 30
0.0
 11
-0.0600000000014234
 21
-0.2796316038205759
 31
0.0
  0
LINE
  5
152
330
12C
100
AcDbEntity
  8
Screw
 62
     7
370
     9
100
AcDbLine
 10
-0.0825000000013461
 20
-0.2926219848773144
 30
0.0
 11
-0.0600000000014234
 21
-0.3056123659341665
 31
0.0
  0
LINE
  5
153
330
12C
100
AcDbEntity
  8
Screw
 62
     7
370
     9
100
AcDbLine
 10
-0.0825000000013461
 20
-0.4242007348773314
 30
0.0
 11
-0.0600000000014234
 21
-0.4371911159340698
 31
0.0
  0
LINE
  5
154
330
12C
100
AcDbEntity
  8
Screw
 62
     7
370
     9
100
AcDbLine
 10
-0.0825000000013461
 20
-0.4242007348773314
 30
0.0
 11
-0.0600000000014234
 21
-0.4112103538204793
 31
0.0
  0
LINE
  5
155
330
12C
100
AcDbEntity
  8
Screw
 62
     7
370
     9
100
AcDbLine
 10
-0.0825000000013461
 20
-0.3584113598774365
 30
0.0
 11
-0.0600000000014234
 21
-0.3714017409340613
 31
0.0
  0
LINE
  5
156
330
12C
100
AcDbEntity
  8
Screw
 62
     7
370
     9
100
AcDbLine
 10
-0.0825000000013461
 20
-0.3584113598772092
 30
0.0
 11
-0.0600000000014234
 21
-0.3454209788205844
 31
0.0
  0
LINE
  5
157
330
12C
100
AcDbEntity
  8
Screw
 62
     7
370
     9
100
AcDbLine
 10
0.0599999999986949
 20
-0.4084354950732632
 30
0.0
 11
0.0599999999986949
 21
-0.4482441079596811
 31
0.0
  0
LINE
  5
158
330
12C
100
AcDbEntity
  8
Screw
 62
     7
370
     9
100
AcDbLine
 10
0.0824999999986176
 20
-0.4612344890165332
 30
0.0
 11
0.0599999999985812
 21
-0.4482441079596811
 31
0.0
  0
LINE
  5
159
330
12C
100
AcDbEntity
  8
Screw
 62
     7
370
     9
100
AcDbLine
 10
0.0824999999986176
 20
-0.2638663640165078
 30
0.0
 11
0.0599999999986949
 21
-0.2508759829597693
 31
0.0
  0
LINE
  5
15A
330
12C
100
AcDbEntity
  8
Screw
 62
     7
370
     9
100
AcDbLine
 10
0.0824999999986176
 20
-0.3296557390164025
 30
0.0
 11
-0.0825000000014598
 21
-0.3584113598773229
 31
0.0
  0
LINE
  5
15B
330
12C
100
AcDbEntity
  8
Screw
 62
     7
370
     9
100
AcDbLine
 10
0.0824999999986176
 20
-0.3954451140165247
 30
0.0
 11
-0.0825000000014598
 21
-0.4242007348773314
 31
0.0
  0
LINE
  5
15C
330
12C
100
AcDbEntity
  8
Screw
 62
     7
370
     9
100
AcDbLine
 10
0.0824999999986176
 20
-0.2638663640165078
 30
0.0
 11
-0.0825000000014598
 21
-0.2926219848773144
 31
0.0
  0
LINE
  5
15D
330
12C
100
AcDbEntity
  8
Screw
 62
     7
370
     9
100
AcDbLine
 10
0.0824999999986176
 20
-0.3296557390164025
 30
0.0
 11
0.0599999999986949
 21
-0.3166653579597778
 31
0.0
  0
LINE
  5
15E
330
12C
100
AcDbEntity
  8
Screw
 62
     7
370
     9
100
AcDbLine
 10
0.0824999999986176
 20
-0.3296557390164025
 30
0.0
 11
0.0599999999986949
 21
-0.3426461200732547
 31
0.0
  0
LINE
  5
15F
330
12C
100
AcDbEntity
  8
Screw
 62
     7
370
     9
100
AcDbLine
 10
0.0824999999986176
 20
-0.3954451140165247
 30
0.0
 11
0.0599999999985812
 21
-0.3824547329596726
 31
0.0
  0
LINE
  5
160
330
12C
100
AcDbEntity
  8
Screw
 62
     7
370
     9
100
AcDbLine
 10
0.0824999999986176
 20
-0.3954451140165247
 30
0.0
 11
0.0599999999986949
 21
-0.4084354950732632
 31
0.0
  0
LINE
  5
161
330
12C
100
AcDbEntity
  8
Screw
 62
     7
370
     9
100
AcDbLine
 10
0.0599999999986949
 20
-0.3426461200732547
 30
0.0
 11
0.0599999999986949
 21
-0.3824547329596726
 31
0.0
  0
LINE
  5
162
330
12C
100
AcDbEntity
  8
Screw
 62
     7
370
     9
100
AcDbLine
 10
0.0824999999986176
 20
-0.2638663640165078
 30
0.0
 11
0.0599999999986949
 21
-0.2768567450731325
 31
0.0
  0
LINE
  5
163
330
12C
100
AcDbEntity
  8
Screw
 62
     7
370
     9
100
AcDbLine
 10
0.0599999999986949
 20
-0.2768567450731325
 30
0.0
 11
0.0599999999986949
 21
-0.3166653579597778
 31
0.0
  0
LINE
  5
164
330
12C
100
AcDbEntity
  8
Screw
 62
     7
370
     9
100
AcDbLine
 10
-0.0000000000007958
 20
-0.6249999999979537
 30
0.0
 11
0.022931124344268
 21
-0.569639368603248
 31
0.0
  0
LINE
  5
165
330
12C
100
AcDbEntity
  8
Screw
 62
     7
370
     9
100
AcDbLine
 10
0.0824999999985039
 20
-0.4612344890164195
 30
0.0
 11
0.0684796239820571
 21
-0.4531398211491933
 31
0.0
  0
LINE
  5
166
330
12C
100
AcDbEntity
  8
Screw
 62
     7
370
     9
100
AcDbLine
 10
0.0824999999985039
 20
-0.4612344890164195
 30
0.0
 11
0.0632241464038543
 21
-0.4723634082780564
 31
0.0
  0
LINE
  5
167
330
12C
100
AcDbEntity
  8
Screw
 62
     7
370
     9
100
AcDbLine
 10
0.0550146141443975
 20
-0.5253624430695254
 30
0.0
 11
0.0439236020390581
 21
-0.5189590442449799
 31
0.0
  0
LINE
  5
168
330
12C
100
AcDbEntity
  8
Screw
 62
     7
370
     9
100
AcDbLine
 10
0.0550146141443975
 20
-0.5253624430695254
 30
0.0
 11
0.0369515003607148
 21
-0.5357911866749419
 31
0.0
  0
LINE
  5
169
330
12C
100
AcDbEntity
  8
Screw
 62
     7
370
     9
100
AcDbLine
 10
0.0578546239827347
 20
-0.4853265821307105
 30
0.0
 11
0.063224146403968
 21
-0.4723634082781701
 31
0.0
  0
LINE
  5
16A
330
12C
100
AcDbEntity
  8
Screw
 62
     7
370
     9
100
AcDbLine
 10
0.0299032260226113
 20
-0.552807226173286
 30
0.0
 11
0.0369515003607148
 21
-0.5357911866749419
 31
0.0
  0
LINE
  5
16B
330
12C
100
AcDbEntity
  8
Screw
 62
     7
370
     9
100
AcDbLine
 10
-0.0299032260243166
 20
-0.552807226173286
 30
0.0
 11
-0.049041047168771
 21
-0.5066044388121327
 31
0.0
  0
LINE
  5
16C
330
12C
100
AcDbEntity
  8
Screw
 62
     7
370
     9
100
AcDbLine
 10
-0.0409942381297697
 20
-0.5592106249979452
 30
0.0
 11
-0.022931124346087
 21
-0.569639368603248
 31
0.0
  0
LINE
  5
16D
330
12C
100
AcDbEntity
  8
Screw
 62
     7
370
     9
100
AcDbLine
 10
-0.0409942381297697
 20
-0.5592106249979452
 30
0.0
 11
-0.0299032260243166
 21
-0.552807226173286
 31
0.0
  0
LINE
  5
16E
330
12C
100
AcDbEntity
  8
Screw
 62
     7
370
     9
100
AcDbLine
 10
-0.0718750000008868
 20
-0.4934212499979367
 30
0.0
 11
-0.049041047168771
 21
-0.5066044388121327
 31
0.0
  0
LINE
  5
16F
330
12C
100
AcDbEntity
  8
Screw
 62
     7
370
     9
100
AcDbLine
 10
-0.0718750000008868
 20
-0.493421249997823
 30
0.0
 11
-0.0600000000015371
 21
-0.48656521555165
 31
0.0
  0
LINE
  5
170
330
12C
100
AcDbEntity
  8
Screw
 62
     7
370
     9
100
AcDbLine
 10
-0.0000000000007958
 20
-0.6249999999979537
 30
0.0
 11
-0.022931124346087
 21
-0.569639368603248
 31
0.0
  0
LINE
  5
171
330
12C
100
AcDbEntity
  8
Screw
 62
     7
370
     9
100
AcDbLine
 10
0.0578546239827347
 20
-0.4853265821307105
 30
0.0
 11
0.0490410471670657
 21
-0.5066044388121327
 31
0.0
  0
LINE
  5
172
330
12C
100
AcDbEntity
  8
Screw
 62
     7
370
     9
100
AcDbLine
 10
0.0299032260226113
 20
-0.552807226173286
 30
0.0
 11
0.022931124344268
 21
-0.569639368603248
 31
0.0
  0
LINE
  5
173
330
12C
100
AcDbEntity
  8
Screw
 62
     7
370
     9
100
AcDbLine
 10
0.0439236020390581
 20
-0.5189590442449799
 30
0.0
 11
0.0490410471670657
 21
-0.5066044388121327
 31
0.0
  0
LINE
  5
174
330
12C
100
AcDbEntity
  8
Screw
 62
     7
370
     9
100
AcDbLine
 10
0.0824999999987313
 20
-0.4612344890164195
 30
0.0
 11
-0.0718750000008868
 21
-0.493421249997823
 31
0.0
  0
LINE
  5
175
330
12C
100
AcDbEntity
  8
Screw
 62
     7
370
     9
100
AcDbLine
 10
0.0550146141443975
 20
-0.5253624430695254
 30
0.0
 11
-0.0409942381297697
 21
-0.5592106249979452
 31
0.0
  0
LINE
  5
176
330
12C
100
AcDbEntity
  8
Screw
 62
     7
370
     9
100
AcDbLine
 10
-0.1450000000420459
 20
-0.0000000000001137
 30
0.0
 11
0.1449999999986176
 21
0.0000000000001137
 31
0.0
  0
LINE
  5
177
330
12C
100
AcDbEntity
  8
Screw
 62
     7
370
     9
100
AcDbLine
 10
-0.1450000000385216
 20
0.0500000000004093
 30
0.0
 11
0.1449999999986176
 21
0.050000000000523
 31
0.0
  0
ARC
  5
178
330
12C
100
AcDbEntity
  8
Screw
 62
     7
370
     9
100
AcDbCircle
 10
0.1449999999986176
 20
0.0100000000001046
 30
0.0
 40
0.01
100
AcDbArc
 50
270.0
 51
0.0
  0
ARC
  5
179
330
12C
100
AcDbEntity
  8
Screw
 62
     7
370
     9
100
AcDbCircle
 10
-0.1450000000420459
 20
0.0099999999998772
 30
0.0
 40
0.01
100
AcDbArc
 50
179.9999999934667
 51
270.0
  0
LINE
  5
17A
330
12C
100
AcDbEntity
  8
Screw
 62
     7
370
     9
100
AcDbLine
 10
-0.0570000000392383
 20
0.1000000000004775
 30
0.0
 11
0.0569999999995616
 21
0.1000000000003638
 31
0.0
  0
ARC
  5
17B
330
12C
100
AcDbEntity
  8
Screw
 62
     7
370
     9
100
AcDbCircle
 10
0.1449999999986176
 20
0.0400000000003047
 30
0.0
 40
0.01
100
AcDbArc
 50
0.0
 51
90.0
  0
ARC
  5
17C
330
12C
100
AcDbEntity
  8
Screw
 62
     7
370
     9
100
AcDbCircle
 10
-0.1450000000385216
 20
0.040000000000191
 30
0.0
 40
0.01
100
AcDbArc
 50
90.0
 51
179.9999999934862
  0
ARC
  5
17D
330
12C
100
AcDbEntity
  8
Screw
 62
     7
370
     9
100
AcDbCircle
 10
-0.0000000000198952
 20
-0.1142505253642412
 30
0.0
 40
0.2217031520327291
100
AcDbArc
 50
46.77058113432305
 51
75.10191228261263
  0
ARC
  5
17E
330
12C
100
AcDbEntity
  8
Screw
 62
     7
370
     9
100
AcDbCircle
 10
-0.0000000000198952
 20
-0.1142505253642412
 30
0.0
 40
0.2217031520327291
100
AcDbArc
 50
104.8980877173874
 51
133.2294188657414
  0
ENDBLK
  5
17F
330
12C
100
AcDbEntity
  8
0
 62
     5
100
AcDbBlockEnd
  0
BLOCK
  5
1BE
330
1BD
100
AcDbEntity
  8
0
 62
     5
100
AcDbBlockBegin
  2
8 X 1.5 FH
 70
     0
 10
0.0
 20
0.0
 30
0.0
  3
8 X 1.5 FH
  1

  0
LINE
  5
1BF
330
1BD
100
AcDbEntity
  8
Screw
 62
     7
370
     9
100
AcDbLine
 10
-0.0600000000013097
 20
-0.1430000000001428
 30
0.0
 11
-0.0600000000013097
 21
-0.6283166038209629
 31
0.0
  0
LINE
  5
1C0
330
1BD
100
AcDbEntity
  8
Screw
 62
     7
370
     9
100
AcDbLine
 10
-0.0825000000012324
 20
-0.6413069848773603
 30
0.0
 11
-0.0600000000013097
 21
-0.6283166038207355
 31
0.0
  0
LINE
  5
1C1
330
1BD
100
AcDbEntity
  8
Screw
 62
     7
370
     9
100
AcDbLine
 10
-0.0825000000012324
 20
-0.6413069848775877
 30
0.0
 11
-0.0600000000013097
 21
-0.6542973659342124
 31
0.0
  0
LINE
  5
1C2
330
1BD
100
AcDbEntity
  8
Screw
 62
     7
370
     9
100
AcDbLine
 10
-0.0600000000013097
 20
-0.6542973659340987
 30
0.0
 11
-0.0600000000013097
 21
-0.6941059788205167
 31
0.0
  0
LINE
  5
1C3
330
1BD
100
AcDbEntity
  8
Screw
 62
     7
370
     9
100
AcDbLine
 10
0.0599999999989223
 20
-0.1430000000001428
 30
0.0
 11
0.0599999999985812
 21
-0.5995609829597015
 31
0.0
  0
LINE
  5
1C4
330
1BD
100
AcDbEntity
  8
Screw
 62
     7
370
     9
100
AcDbLine
 10
0.0599999999988086
 20
-0.6255417450734058
 30
0.0
 11
0.0599999999988086
 21
-0.6653503579598237
 31
0.0
  0
LINE
  5
1C5
330
1BD
100
AcDbEntity
  8
Screw
 62
     7
370
     9
100
AcDbLine
 10
0.0824999999987313
 20
-0.6125513640165537
 30
0.0
 11
0.0599999999988086
 21
-0.6255417450734058
 31
0.0
  0
LINE
  5
1C6
330
1BD
100
AcDbEntity
  8
Screw
 62
     7
370
     9
100
AcDbLine
 10
0.0824999999987313
 20
-0.6125513640165537
 30
0.0
 11
0.0599999999988086
 21
-0.5995609829599289
 31
0.0
  0
LINE
  5
1C7
330
1BD
100
AcDbEntity
  8
Screw
 62
     7
370
     9
100
AcDbLine
 10
0.0824999999987313
 20
-0.6125513640165537
 30
0.0
 11
-0.0825000000013461
 21
-0.641306984877474
 31
0.0
  0
LINE
  5
1C8
330
1BD
100
AcDbEntity
  8
Screw
 62
     7
370
     9
100
AcDbLine
 10
0.0550146141445112
 20
-1.400362443069752
 30
0.0
 11
-0.040994238129656
 21
-1.434210624998172
 31
0.0
  0
LINE
  5
1C9
330
1BD
100
AcDbEntity
  8
Screw
 62
     7
370
     9
100
AcDbLine
 10
0.082499999998845
 20
-1.336234489016646
 30
0.0
 11
-0.0718750000007731
 21
-1.36842124999805
 31
0.0
  0
LINE
  5
1CA
330
1BD
100
AcDbEntity
  8
Screw
 62
     7
370
     9
100
AcDbLine
 10
0.0439236020391718
 20
-1.393959044245207
 30
0.0
 11
0.0490410471671794
 21
-1.38160443881236
 31
0.0
  0
LINE
  5
1CB
330
1BD
100
AcDbEntity
  8
Screw
 62
     7
370
     9
100
AcDbLine
 10
0.029903226022725
 20
-1.427807226173513
 30
0.0
 11
0.0229311243443817
 21
-1.444639368603475
 31
0.0
  0
LINE
  5
1CC
330
1BD
100
AcDbEntity
  8
Screw
 62
     7
370
     9
100
AcDbLine
 10
0.0578546239828484
 20
-1.360326582130937
 30
0.0
 11
0.0490410471671794
 21
-1.38160443881236
 31
0.0
  0
LINE
  5
1CD
330
1BD
100
AcDbEntity
  8
Screw
 62
     7
370
     9
100
AcDbLine
 10
-0.0000000000006821
 20
-1.499999999998181
 30
0.0
 11
-0.0229311243459733
 21
-1.444639368603475
 31
0.0
  0
LINE
  5
1CE
330
1BD
100
AcDbEntity
  8
Screw
 62
     7
370
     9
100
AcDbLine
 10
-0.0718750000007731
 20
-1.36842124999805
 30
0.0
 11
-0.0600000000014234
 21
-1.361565215551877
 31
0.0
  0
LINE
  5
1CF
330
1BD
100
AcDbEntity
  8
Screw
 62
     7
370
     9
100
AcDbLine
 10
-0.0718750000007731
 20
-1.368421249998164
 30
0.0
 11
-0.0490410471686573
 21
-1.38160443881236
 31
0.0
  0
LINE
  5
1D0
330
1BD
100
AcDbEntity
  8
Screw
 62
     7
370
     9
100
AcDbLine
 10
-0.040994238129656
 20
-1.434210624998172
 30
0.0
 11
-0.0299032260242029
 21
-1.427807226173513
 31
0.0
  0
LINE
  5
1D1
330
1BD
100
AcDbEntity
  8
Screw
 62
     7
370
     9
100
AcDbLine
 10
-0.040994238129656
 20
-1.434210624998172
 30
0.0
 11
-0.0229311243459733
 21
-1.444639368603475
 31
0.0
  0
LINE
  5
1D2
330
1BD
100
AcDbEntity
  8
Screw
 62
     7
370
     9
100
AcDbLine
 10
-0.0299032260242029
 20
-1.427807226173513
 30
0.0
 11
-0.0490410471686573
 21
-1.38160443881236
 31
0.0
  0
LINE
  5
1D3
330
1BD
100
AcDbEntity
  8
Screw
 62
     7
370
     9
100
AcDbLine
 10
0.029903226022725
 20
-1.427807226173513
 30
0.0
 11
0.0369515003608285
 21
-1.410791186675169
 31
0.0
  0
LINE
  5
1D4
330
1BD
100
AcDbEntity
  8
Screw
 62
     7
370
     9
100
AcDbLine
 10
0.0578546239828484
 20
-1.360326582130937
 30
0.0
 11
0.0632241464040817
 21
-1.347363408278397
 31
0.0
  0
LINE
  5
1D5
330
1BD
100
AcDbEntity
  8
Screw
 62
     7
370
     9
100
AcDbLine
 10
0.0550146141445112
 20
-1.400362443069752
 30
0.0
 11
0.0369515003608285
 21
-1.410791186675169
 31
0.0
  0
LINE
  5
1D6
330
1BD
100
AcDbEntity
  8
Screw
 62
     7
370
     9
100
AcDbLine
 10
0.0550146141445112
 20
-1.400362443069752
 30
0.0
 11
0.0439236020391718
 21
-1.393959044245207
 31
0.0
  0
LINE
  5
1D7
330
1BD
100
AcDbEntity
  8
Screw
 62
     7
370
     9
100
AcDbLine
 10
0.0824999999986176
 20
-1.336234489016646
 30
0.0
 11
0.063224146403968
 21
-1.347363408278283
 31
0.0
  0
LINE
  5
1D8
330
1BD
100
AcDbEntity
  8
Screw
 62
     7
370
     9
100
AcDbLine
 10
0.0824999999986176
 20
-1.336234489016646
 30
0.0
 11
0.0684796239821708
 21
-1.32813982114942
 31
0.0
  0
LINE
  5
1D9
330
1BD
100
AcDbEntity
  8
Screw
 62
     7
370
     9
100
AcDbLine
 10
-0.0000000000006821
 20
-1.499999999998181
 30
0.0
 11
0.0229311243443817
 21
-1.444639368603475
 31
0.0
  0
LINE
  5
1DA
330
1BD
100
AcDbEntity
  8
Screw
 62
     7
370
     9
100
AcDbLine
 10
0.0599999999988086
 20
-1.151856745073359
 30
0.0
 11
0.0599999999988086
 21
-1.191665357960005
 31
0.0
  0
LINE
  5
1DB
330
1BD
100
AcDbEntity
  8
Screw
 62
     7
370
     9
100
AcDbLine
 10
0.0824999999987313
 20
-1.138866364016735
 30
0.0
 11
0.0599999999988086
 21
-1.151856745073359
 31
0.0
  0
LINE
  5
1DC
330
1BD
100
AcDbEntity
  8
Screw
 62
     7
370
     9
100
AcDbLine
 10
0.0599999999988086
 20
-1.217646120073482
 30
0.0
 11
0.0599999999988086
 21
-1.257454732959899
 31
0.0
  0
LINE
  5
1DD
330
1BD
100
AcDbEntity
  8
Screw
 62
     7
370
     9
100
AcDbLine
 10
0.0824999999987313
 20
-1.270445114016752
 30
0.0
 11
0.0599999999988086
 21
-1.28343549507349
 31
0.0
  0
LINE
  5
1DE
330
1BD
100
AcDbEntity
  8
Screw
 62
     7
370
     9
100
AcDbLine
 10
0.0824999999987313
 20
-1.270445114016752
 30
0.0
 11
0.0599999999986949
 21
-1.257454732959899
 31
0.0
  0
LINE
  5
1DF
330
1BD
100
AcDbEntity
  8
Screw
 62
     7
370
     9
100
AcDbLine
 10
0.0824999999987313
 20
-1.204655739016629
 30
0.0
 11
0.0599999999988086
 21
-1.217646120073482
 31
0.0
  0
LINE
  5
1E0
330
1BD
100
AcDbEntity
  8
Screw
 62
     7
370
     9
100
AcDbLine
 10
0.0824999999987313
 20
-1.204655739016629
 30
0.0
 11
0.0599999999988086
 21
-1.191665357960005
 31
0.0
  0
LINE
  5
1E1
330
1BD
100
AcDbEntity
  8
Screw
 62
     7
370
     9
100
AcDbLine
 10
0.0824999999987313
 20
-1.138866364016735
 30
0.0
 11
-0.0825000000013461
 21
-1.167621984877541
 31
0.0
  0
LINE
  5
1E2
330
1BD
100
AcDbEntity
  8
Screw
 62
     7
370
     9
100
AcDbLine
 10
0.0824999999987313
 20
-1.270445114016752
 30
0.0
 11
-0.0825000000013461
 21
-1.299200734877558
 31
0.0
  0
LINE
  5
1E3
330
1BD
100
AcDbEntity
  8
Screw
 62
     7
370
     9
100
AcDbLine
 10
0.0824999999987313
 20
-1.204655739016629
 30
0.0
 11
-0.0825000000013461
 21
-1.23341135987755
 31
0.0
  0
LINE
  5
1E4
330
1BD
100
AcDbEntity
  8
Screw
 62
     7
370
     9
100
AcDbLine
 10
0.0824999999987313
 20
-1.138866364016735
 30
0.0
 11
0.0599999999988086
 21
-1.125875982959996
 31
0.0
  0
LINE
  5
1E5
330
1BD
100
AcDbEntity
  8
Screw
 62
     7
370
     9
100
AcDbLine
 10
0.0824999999987313
 20
-1.33623448901676
 30
0.0
 11
0.0599999999986949
 21
-1.323244107959908
 31
0.0
  0
LINE
  5
1E6
330
1BD
100
AcDbEntity
  8
Screw
 62
     7
370
     9
100
AcDbLine
 10
0.0599999999988086
 20
-1.28343549507349
 30
0.0
 11
0.0599999999988086
 21
-1.323244107959908
 31
0.0
  0
LINE
  5
1E7
330
1BD
100
AcDbEntity
  8
Screw
 62
     7
370
     9
100
AcDbLine
 10
-0.0825000000012324
 20
-1.233411359877436
 30
0.0
 11
-0.0600000000013097
 21
-1.220420978820811
 31
0.0
  0
LINE
  5
1E8
330
1BD
100
AcDbEntity
  8
Screw
 62
     7
370
     9
100
AcDbLine
 10
-0.0825000000012324
 20
-1.233411359877663
 30
0.0
 11
-0.0600000000013097
 21
-1.246401740934288
 31
0.0
  0
LINE
  5
1E9
330
1BD
100
AcDbEntity
  8
Screw
 62
     7
370
     9
100
AcDbLine
 10
-0.0825000000012324
 20
-1.299200734877558
 30
0.0
 11
-0.0600000000013097
 21
-1.286210353820706
 31
0.0
  0
LINE
  5
1EA
330
1BD
100
AcDbEntity
  8
Screw
 62
     7
370
     9
100
AcDbLine
 10
-0.0825000000012324
 20
-1.299200734877558
 30
0.0
 11
-0.0600000000013097
 21
-1.312191115934297
 31
0.0
  0
LINE
  5
1EB
330
1BD
100
AcDbEntity
  8
Screw
 62
     7
370
     9
100
AcDbLine
 10
-0.0825000000012324
 20
-1.167621984877541
 30
0.0
 11
-0.0600000000013097
 21
-1.180612365934393
 31
0.0
  0
LINE
  5
1EC
330
1BD
100
AcDbEntity
  8
Screw
 62
     7
370
     9
100
AcDbLine
 10
-0.0825000000012324
 20
-1.167621984877541
 30
0.0
 11
-0.0600000000013097
 21
-1.154631603820803
 31
0.0
  0
LINE
  5
1ED
330
1BD
100
AcDbEntity
  8
Screw
 62
     7
370
     9
100
AcDbLine
 10
-0.0600000000013097
 20
-1.312191115934297
 30
0.0
 11
-0.0600000000013097
 21
-1.361565215551991
 31
0.0
  0
LINE
  5
1EE
330
1BD
100
AcDbEntity
  8
Screw
 62
     7
370
     9
100
AcDbLine
 10
-0.0600000000013097
 20
-1.246401740934174
 30
0.0
 11
-0.0600000000013097
 21
-1.286210353820592
 31
0.0
  0
LINE
  5
1EF
330
1BD
100
AcDbEntity
  8
Screw
 62
     7
370
     9
100
AcDbLine
 10
-0.0600000000013097
 20
-1.180612365934052
 30
0.0
 11
-0.0600000000013097
 21
-1.220420978820698
 31
0.0
  0
LINE
  5
1F0
330
1BD
100
AcDbEntity
  8
Screw
 62
     7
370
     9
100
AcDbLine
 10
0.0824999999987313
 20
-1.007287614016718
 30
0.0
 11
0.0599999999988086
 21
-0.9942972329599797
 31
0.0
  0
LINE
  5
1F1
330
1BD
100
AcDbEntity
  8
Screw
 62
     7
370
     9
100
AcDbLine
 10
0.0824999999987313
 20
-1.073076989016612
 30
0.0
 11
-0.0825000000013461
 21
-1.101832609877533
 31
0.0
  0
LINE
  5
1F2
330
1BD
100
AcDbEntity
  8
Screw
 62
     7
370
     9
100
AcDbLine
 10
0.0824999999987313
 20
-1.007287614016718
 30
0.0
 11
-0.0825000000013461
 21
-1.036043234877524
 31
0.0
  0
LINE
  5
1F3
330
1BD
100
AcDbEntity
  8
Screw
 62
     7
370
     9
100
AcDbLine
 10
0.0824999999987313
 20
-1.073076989016612
 30
0.0
 11
0.0599999999988086
 21
-1.060086607959988
 31
0.0
  0
LINE
  5
1F4
330
1BD
100
AcDbEntity
  8
Screw
 62
     7
370
     9
100
AcDbLine
 10
0.0824999999987313
 20
-1.073076989016612
 30
0.0
 11
0.0599999999988086
 21
-1.086067370073465
 31
0.0
  0
LINE
  5
1F5
330
1BD
100
AcDbEntity
  8
Screw
 62
     7
370
     9
100
AcDbLine
 10
0.0599999999988086
 20
-1.086067370073465
 30
0.0
 11
0.0599999999988086
 21
-1.125875982959883
 31
0.0
  0
LINE
  5
1F6
330
1BD
100
AcDbEntity
  8
Screw
 62
     7
370
     9
100
AcDbLine
 10
0.0824999999987313
 20
-1.007287614016718
 30
0.0
 11
0.0599999999988086
 21
-1.020277995073342
 31
0.0
  0
LINE
  5
1F7
330
1BD
100
AcDbEntity
  8
Screw
 62
     7
370
     9
100
AcDbLine
 10
0.0599999999988086
 20
-1.020277995073342
 30
0.0
 11
0.0599999999988086
 21
-1.060086607959988
 31
0.0
  0
LINE
  5
1F8
330
1BD
100
AcDbEntity
  8
Screw
 62
     7
370
     9
100
AcDbLine
 10
-0.0600000000013097
 20
-1.049033615934035
 30
0.0
 11
-0.0600000000013097
 21
-1.088842228820681
 31
0.0
  0
LINE
  5
1F9
330
1BD
100
AcDbEntity
  8
Screw
 62
     7
370
     9
100
AcDbLine
 10
-0.0600000000013097
 20
-1.114822990934158
 30
0.0
 11
-0.0600000000013097
 21
-1.154631603820575
 31
0.0
  0
LINE
  5
1FA
330
1BD
100
AcDbEntity
  8
Screw
 62
     7
370
     9
100
AcDbLine
 10
-0.0825000000012324
 20
-1.036043234877524
 30
0.0
 11
-0.0600000000013097
 21
-1.023052853820786
 31
0.0
  0
LINE
  5
1FB
330
1BD
100
AcDbEntity
  8
Screw
 62
     7
370
     9
100
AcDbLine
 10
-0.0825000000012324
 20
-1.036043234877524
 30
0.0
 11
-0.0600000000013097
 21
-1.049033615934376
 31
0.0
  0
LINE
  5
1FC
330
1BD
100
AcDbEntity
  8
Screw
 62
     7
370
     9
100
AcDbLine
 10
-0.0825000000012324
 20
-1.101832609877646
 30
0.0
 11
-0.0600000000013097
 21
-1.114822990934271
 31
0.0
  0
LINE
  5
1FD
330
1BD
100
AcDbEntity
  8
Screw
 62
     7
370
     9
100
AcDbLine
 10
-0.0825000000012324
 20
-1.101832609877419
 30
0.0
 11
-0.0600000000013097
 21
-1.088842228820794
 31
0.0
  0
LINE
  5
1FE
330
1BD
100
AcDbEntity
  8
Screw
 62
     7
370
     9
100
AcDbLine
 10
0.0599999999988086
 20
-0.9544886200734481
 30
0.0
 11
0.0599999999988086
 21
-0.994297232959866
 31
0.0
  0
LINE
  5
1FF
330
1BD
100
AcDbEntity
  8
Screw
 62
     7
370
     9
100
AcDbLine
 10
-0.0600000000013097
 20
-0.983244240934141
 30
0.0
 11
-0.0600000000013097
 21
-1.023052853820558
 31
0.0
  0
LINE
  5
200
330
1BD
100
AcDbEntity
  8
Screw
 62
     7
370
     9
100
AcDbLine
 10
-0.0825000000012324
 20
-0.8386751098773856
 30
0.0
 11
-0.0600000000013097
 21
-0.8256847288207609
 31
0.0
  0
LINE
  5
201
330
1BD
100
AcDbEntity
  8
Screw
 62
     7
370
     9
100
AcDbLine
 10
-0.0825000000012324
 20
-0.838675109877613
 30
0.0
 11
-0.0600000000013097
 21
-0.8516654909342378
 31
0.0
  0
LINE
  5
202
330
1BD
100
AcDbEntity
  8
Screw
 62
     7
370
     9
100
AcDbLine
 10
-0.0825000000012324
 20
-0.7728857348774909
 30
0.0
 11
-0.0600000000013097
 21
-0.7858761159343431
 31
0.0
  0
LINE
  5
203
330
1BD
100
AcDbEntity
  8
Screw
 62
     7
370
     9
100
AcDbLine
 10
-0.0825000000012324
 20
-0.7728857348774909
 30
0.0
 11
-0.0600000000013097
 21
-0.7598953538207525
 31
0.0
  0
LINE
  5
204
330
1BD
100
AcDbEntity
  8
Screw
 62
     7
370
     9
100
AcDbLine
 10
-0.0600000000013097
 20
-0.8516654909341241
 30
0.0
 11
-0.0600000000013097
 21
-0.891474103820542
 31
0.0
  0
LINE
  5
205
330
1BD
100
AcDbEntity
  8
Screw
 62
     7
370
     9
100
AcDbLine
 10
-0.0600000000013097
 20
-0.785876115934002
 30
0.0
 11
-0.0600000000013097
 21
-0.8256847288206472
 31
0.0
  0
LINE
  5
206
330
1BD
100
AcDbEntity
  8
Screw
 62
     7
370
     9
100
AcDbLine
 10
0.0599999999988086
 20
-0.7571204950733091
 30
0.0
 11
0.0599999999988086
 21
-0.7969291079599543
 31
0.0
  0
LINE
  5
207
330
1BD
100
AcDbEntity
  8
Screw
 62
     7
370
     9
100
AcDbLine
 10
0.0824999999987313
 20
-0.7441301140166843
 30
0.0
 11
0.0599999999988086
 21
-0.7571204950733091
 31
0.0
  0
LINE
  5
208
330
1BD
100
AcDbEntity
  8
Screw
 62
     7
370
     9
100
AcDbLine
 10
0.0599999999988086
 20
-0.8229098700734311
 30
0.0
 11
0.0599999999988086
 21
-0.862718482959849
 31
0.0
  0
LINE
  5
209
330
1BD
100
AcDbEntity
  8
Screw
 62
     7
370
     9
100
AcDbLine
 10
0.0824999999987313
 20
-0.809919489016579
 30
0.0
 11
0.0599999999988086
 21
-0.8229098700734311
 31
0.0
  0
LINE
  5
20A
330
1BD
100
AcDbEntity
  8
Screw
 62
     7
370
     9
100
AcDbLine
 10
0.0824999999987313
 20
-0.809919489016579
 30
0.0
 11
0.0599999999988086
 21
-0.7969291079599543
 31
0.0
  0
LINE
  5
20B
330
1BD
100
AcDbEntity
  8
Screw
 62
     7
370
     9
100
AcDbLine
 10
0.0824999999987313
 20
-0.7441301140166843
 30
0.0
 11
-0.0825000000013461
 21
-0.7728857348774909
 31
0.0
  0
LINE
  5
20C
330
1BD
100
AcDbEntity
  8
Screw
 62
     7
370
     9
100
AcDbLine
 10
0.0824999999987313
 20
-0.809919489016579
 30
0.0
 11
-0.0825000000013461
 21
-0.8386751098774993
 31
0.0
  0
LINE
  5
20D
330
1BD
100
AcDbEntity
  8
Screw
 62
     7
370
     9
100
AcDbLine
 10
0.0824999999987313
 20
-0.7441301140166843
 30
0.0
 11
0.0599999999988086
 21
-0.7311397329599459
 31
0.0
  0
LINE
  5
20E
330
1BD
100
AcDbEntity
  8
Screw
 62
     7
370
     9
100
AcDbLine
 10
-0.0600000000013097
 20
-0.9174548659340189
 30
0.0
 11
-0.0600000000013097
 21
-0.9572634788206642
 31
0.0
  0
LINE
  5
20F
330
1BD
100
AcDbEntity
  8
Screw
 62
     7
370
     9
100
AcDbLine
 10
-0.0825000000012324
 20
-0.9044644848775078
 30
0.0
 11
-0.0600000000013097
 21
-0.8914741038207694
 31
0.0
  0
LINE
  5
210
330
1BD
100
AcDbEntity
  8
Screw
 62
     7
370
     9
100
AcDbLine
 10
-0.0825000000012324
 20
-0.9044644848775078
 30
0.0
 11
-0.0600000000013097
 21
-0.9174548659343599
 31
0.0
  0
LINE
  5
211
330
1BD
100
AcDbEntity
  8
Screw
 62
     7
370
     9
100
AcDbLine
 10
-0.0825000000012324
 20
-0.97025385987763
 30
0.0
 11
-0.0600000000013097
 21
-0.9832442409342547
 31
0.0
  0
LINE
  5
212
330
1BD
100
AcDbEntity
  8
Screw
 62
     7
370
     9
100
AcDbLine
 10
-0.0825000000012324
 20
-0.9702538598774026
 30
0.0
 11
-0.0600000000013097
 21
-0.9572634788207778
 31
0.0
  0
LINE
  5
213
330
1BD
100
AcDbEntity
  8
Screw
 62
     7
370
     9
100
AcDbLine
 10
0.0824999999987313
 20
-0.8757088640167012
 30
0.0
 11
0.0599999999988086
 21
-0.8627184829599627
 31
0.0
  0
LINE
  5
214
330
1BD
100
AcDbEntity
  8
Screw
 62
     7
370
     9
100
AcDbLine
 10
0.0824999999987313
 20
-0.941498239016596
 30
0.0
 11
-0.0825000000013461
 21
-0.9702538598775163
 31
0.0
  0
LINE
  5
215
330
1BD
100
AcDbEntity
  8
Screw
 62
     7
370
     9
100
AcDbLine
 10
0.0824999999987313
 20
-0.8757088640167012
 30
0.0
 11
-0.0825000000013461
 21
-0.9044644848775078
 31
0.0
  0
LINE
  5
216
330
1BD
100
AcDbEntity
  8
Screw
 62
     7
370
     9
100
AcDbLine
 10
0.0824999999987313
 20
-0.941498239016596
 30
0.0
 11
0.0599999999988086
 21
-0.9285078579599712
 31
0.0
  0
LINE
  5
217
330
1BD
100
AcDbEntity
  8
Screw
 62
     7
370
     9
100
AcDbLine
 10
0.0824999999987313
 20
-0.941498239016596
 30
0.0
 11
0.0599999999988086
 21
-0.9544886200734481
 31
0.0
  0
LINE
  5
218
330
1BD
100
AcDbEntity
  8
Screw
 62
     7
370
     9
100
AcDbLine
 10
0.0824999999987313
 20
-0.8757088640167012
 30
0.0
 11
0.0599999999988086
 21
-0.8886992450733259
 31
0.0
  0
LINE
  5
219
330
1BD
100
AcDbEntity
  8
Screw
 62
     7
370
     9
100
AcDbLine
 10
0.0599999999988086
 20
-0.8886992450733259
 30
0.0
 11
0.0599999999988086
 21
-0.9285078579599712
 31
0.0
  0
LINE
  5
21A
330
1BD
100
AcDbEntity
  8
Screw
 62
     7
370
     9
100
AcDbLine
 10
-0.1550000000002001
 20
0.0000000000001137
 30
0.0
 11
-0.1550000000020191
 21
-0.015999999999849
 31
0.0
  0
LINE
  5
21B
330
1BD
100
AcDbEntity
  8
Screw
 62
     7
370
     9
100
AcDbLine
 10
0.1549999999986085
 20
0.0
 30
0.0
 11
0.1549999999986085
 21
-0.0159999999999627
 31
0.0
  0
LINE
  5
21C
330
1BD
100
AcDbEntity
  8
Screw
 62
     7
370
     9
100
AcDbLine
 10
0.1549999999987222
 20
-0.0160000000006448
 30
0.0
 11
-0.155000000001337
 21
-0.0159999999999627
 31
0.0
  0
LINE
  5
21D
330
1BD
100
AcDbEntity
  8
Screw
 62
     7
370
     9
100
AcDbLine
 10
0.1549999999987222
 20
0.0
 30
0.0
 11
-0.155000000001337
 21
0.0
 31
0.0
  0
LINE
  5
21E
330
1BD
100
AcDbEntity
  8
Screw
 62
     7
370
     9
100
AcDbLine
 10
0.0599999999989223
 20
-0.1430000000000291
 30
0.0
 11
-0.0600000000013097
 21
-0.1430000000000291
 31
0.0
  0
LINE
  5
21F
330
1BD
100
AcDbEntity
  8
Screw
 62
     7
370
     9
100
AcDbLine
 10
0.1549999999986085
 20
-0.0160000000006448
 30
0.0
 11
0.0599999999988086
 21
-0.1430000000001428
 31
0.0
  0
LINE
  5
220
330
1BD
100
AcDbEntity
  8
Screw
 62
     7
370
     9
100
AcDbLine
 10
-0.1550000000020191
 20
-0.0159999999999627
 30
0.0
 11
-0.0600000000013097
 21
-0.1430000000001428
 31
0.0
  0
LINE
  5
221
330
1BD
100
AcDbEntity
  8
Screw
 62
     7
370
     9
100
AcDbLine
 10
0.0824999999987313
 20
-0.6783407390166758
 30
0.0
 11
0.0599999999988086
 21
-0.6653503579599374
 31
0.0
  0
LINE
  5
222
330
1BD
100
AcDbEntity
  8
Screw
 62
     7
370
     9
100
AcDbLine
 10
0.0824999999987313
 20
-0.6783407390166758
 30
0.0
 11
-0.0825000000013461
 21
-0.7070963598774825
 31
0.0
  0
LINE
  5
223
330
1BD
100
AcDbEntity
  8
Screw
 62
     7
370
     9
100
AcDbLine
 10
0.0824999999987313
 20
-0.6783407390166758
 30
0.0
 11
0.0599999999988086
 21
-0.6913311200733006
 31
0.0
  0
LINE
  5
224
330
1BD
100
AcDbEntity
  8
Screw
 62
     7
370
     9
100
AcDbLine
 10
0.0599999999988086
 20
-0.6913311200733006
 30
0.0
 11
0.0599999999988086
 21
-0.7311397329599459
 31
0.0
  0
LINE
  5
225
330
1BD
100
AcDbEntity
  8
Screw
 62
     7
370
     9
100
AcDbLine
 10
-0.0600000000013097
 20
-0.7200867409339935
 30
0.0
 11
-0.0600000000013097
 21
-0.7598953538206388
 31
0.0
  0
LINE
  5
226
330
1BD
100
AcDbEntity
  8
Screw
 62
     7
370
     9
100
AcDbLine
 10
-0.0825000000012324
 20
-0.7070963598774825
 30
0.0
 11
-0.0600000000013097
 21
-0.694105978820744
 31
0.0
  0
LINE
  5
227
330
1BD
100
AcDbEntity
  8
Screw
 62
     7
370
     9
100
AcDbLine
 10
-0.0825000000012324
 20
-0.7070963598774825
 30
0.0
 11
-0.0600000000013097
 21
-0.7200867409343346
 31
0.0
  0
LINE
  5
228
330
1BD
100
AcDbEntity
  8
Screw
  6
CENTER
 62
     7
370
     9
100
AcDbLine
 10
0.0
 20
0.0516137131638743
 30
0.0
 11
0.0
 21
-1.551211668604537
 31
0.0
  0
ENDBLK
  5
229
330
1BD
100
AcDbEntity
  8
0
 62
     5
100
AcDbBlockEnd
  0
BLOCK
  5
238
330
237
100
AcDbEntity
  8
0
100
AcDbBlockBegin
  2
*D4
 70
     1
 10
0.0
 20
0.0
 30
0.0
  3
*D4
  1

  0
LINE
  5
239
330
237
100
AcDbEntity
  8
0
 62
     0
370
    -2
100
AcDbLine
 10
29.25545530792378
 20
21.34586010730609
 30
0.0
 11
30.09662653130059
 21
21.34586010730609
 31
0.0
  0
LINE
  5
23A
330
237
100
AcDbEntity
  8
0
 62
     0
370
    -2
100
AcDbLine
 10
29.00548747866814
 20
23.72086010729959
 30
0.0
 11
30.09662653130059
 21
23.72086010729959
 31
0.0
  0
LINE
  5
23B
330
237
100
AcDbEntity
  8
0
 62
     0
370
    -2
100
AcDbLine
 10
30.06662653130059
 20
21.34586010730609
 30
0.0
 11
30.06662653130059
 21
22.11112322095449
 31
0.0
  0
LINE
  5
23C
330
237
100
AcDbEntity
  8
0
 62
     0
370
    -2
100
AcDbLine
 10
30.06662653130059
 20
23.72086010729959
 30
0.0
 11
30.06662653130059
 21
22.95559699365119
 31
0.0
  0
INSERT
  5
23D
330
237
100
AcDbEntity
  8
0
 62
     0
370
    -2
100
AcDbBlockReference
  2
_ArchTick
 10
30.06662653130059
 20
21.34586010730609
 30
0.0
 41
0.156
 42
0.156
 43
0.156
 50
270.0
  0
INSERT
  5
23E
330
237
100
AcDbEntity
  8
0
 62
     0
370
    -2
100
AcDbBlockReference
  2
_ArchTick
 10
30.06662653130059
 20
23.72086010729959
 30
0.0
 41
0.156
 42
0.156
 43
0.156
 50
90.0
  0
MTEXT
  5
23F
330
237
100
AcDbEntity
  8
0
 62
     0
100
AcDbMText
 10
30.06662653130058
 20
22.7357045928442
 30
0.0
 40
0.3125
 41
0.0
 71
     5
 72
     1
  1
\A1;2 3/8"
 73
     1
 44
1.0
1001
ACAD
1000
MTEXTBEGIN
1070
    73
1070
     1
1070
    44
1040
1.0
1070
    74
1070
     0
1000
MTEXTEND
  0
MTEXT
  5
240
330
237
100
AcDbEntity
  8
0
 62
     0
100
AcDbMText
 10
30.06662653130058
 20
22.31346770649585
 30
0.0
 40
0.3125
 41
0.0
 71
     5
 72
     1
  1
\A1;[60mm]
 73
     1
 44
1.0
1001
ACAD
1000
MTEXTBEGIN
1070
    73
1070
     1
1070
    44
1040
1.0
1070
    74
1070
     0
1000
MTEXTEND
  0
POINT
  5
241
330
237
100
AcDbEntity
  8
Defpoints
 62
     0
100
AcDbPoint
 10
29.21545530792378
 20
21.34586010730609
 30
0.0
  0
POINT
  5
243
330
237
100
AcDbEntity
  8
Defpoints
 62
     0
100
AcDbPoint
 10
28.96548747866814
 20
23.72086010729959
 30
0.0
  0
POINT
  5
244
330
237
100
AcDbEntity
  8
Defpoints
 62
     0
100
AcDbPoint
 10
30.06662653130059
 20
23.72086010729959
 30
0.0
  0
ENDBLK
  5
245
330
237
100
AcDbEntity
  8
0
100
AcDbBlockEnd
  0
BLOCK
  5
24A
330
249
100
AcDbEntity
  8
0
100
AcDbBlockBegin
  2
*D5
 70
     1
 10
0.0
 20
0.0
 30
0.0
  3
*D5
  1

  0
LINE
  5
24B
330
249
100
AcDbEntity
  8
0
 62
     0
370
    -2
100
AcDbLine
 10
29.00548747866814
 20
23.72086010729959
 30
0.0
 11
30.09662653130059
 21
23.72086010729959
 31
0.0
  0
LINE
  5
24C
330
249
100
AcDbEntity
  8
0
 62
     0
370
    -2
100
AcDbLine
 10
28.72541636080545
 20
31.09586010729959
 30
0.0
 11
30.09662653130059
 21
31.09586010729959
 31
0.0
  0
LINE
  5
24D
330
249
100
AcDbEntity
  8
0
 62
     0
370
    -2
100
AcDbLine
 10
30.06662653130059
 20
23.72086010729959
 30
0.0
 11
30.06662653130059
 21
26.98612322095124
 31
0.0
  0
LINE
  5
24E
330
249
100
AcDbEntity
  8
0
 62
     0
370
    -2
100
AcDbLine
 10
30.06662653130059
 20
31.09586010729959
 30
0.0
 11
30.06662653130059
 21
27.83059699364794
 31
0.0
  0
INSERT
  5
24F
330
249
100
AcDbEntity
  8
0
 62
     0
370
    -2
100
AcDbBlockReference
  2
_ArchTick
 10
30.06662653130059
 20
23.72086010729959
 30
0.0
 41
0.156
 42
0.156
 43
0.156
 50
270.0
  0
INSERT
  5
250
330
249
100
AcDbEntity
  8
0
 62
     0
370
    -2
100
AcDbBlockReference
  2
_ArchTick
 10
30.06662653130059
 20
31.09586010729959
 30
0.0
 41
0.156
 42
0.156
 43
0.156
 50
90.0
  0
MTEXT
  5
251
330
249
100
AcDbEntity
  8
0
 62
     0
100
AcDbMText
 10
30.06662653130058
 20
27.61070459284095
 30
0.0
 40
0.3125
 41
0.0
 71
     5
 72
     1
  1
\A1;7 3/8"
 73
     1
 44
1.0
1001
ACAD
1000
MTEXTBEGIN
1070
    73
1070
     1
1070
    44
1040
1.0
1070
    74
1070
     0
1000
MTEXTEND
  0
MTEXT
  5
252
330
249
100
AcDbEntity
  8
0
 62
     0
100
AcDbMText
 10
30.06662653130058
 20
27.1884677064926
 30
0.0
 40
0.3125
 41
0.0
 71
     5
 72
     1
  1
\A1;[187mm]
 73
     1
 44
1.0
1001
ACAD
1000
MTEXTBEGIN
1070
    73
1070
     1
1070
    44
1040
1.0
1070
    74
1070
     0
1000
MTEXTEND
  0
POINT
  5
253
330
249
100
AcDbEntity
  8
Defpoints
 62
     0
100
AcDbPoint
 10
28.96548747866814
 20
23.72086010729959
 30
0.0
  0
POINT
  5
254
330
249
100
AcDbEntity
  8
Defpoints
 62
     0
100
AcDbPoint
 10
28.68541636080545
 20
31.09586010729959
 30
0.0
  0
POINT
  5
255
330
249
100
AcDbEntity
  8
Defpoints
 62
     0
100
AcDbPoint
 10
30.06662653130059
 20
31.09586010729959
 30
0.0
  0
ENDBLK
  5
256
330
249
100
AcDbEntity
  8
0
100
AcDbBlockEnd
  0
BLOCK
  5
25B
330
25A
100
AcDbEntity
  8
0
100
AcDbBlockBegin
  2
*D6
 70
     1
 10
0.0
 20
0.0
 30
0.0
  3
*D6
  1

  0
LINE
  5
25C
330
25A
100
AcDbEntity
  8
0
 62
     0
370
    -2
100
AcDbLine
 10
21.10960778731336
 20
31.09710457479579
 30
0.0
 11
18.18316578786514
 21
31.09710457479579
 31
0.0
  0
LINE
  5
25D
330
25A
100
AcDbEntity
  8
0
 62
     0
370
    -2
100
AcDbLine
 10
21.92572545486754
 20
22.53336010729959
 30
0.0
 11
18.18316578786513
 21
22.53336010729959
 31
0.0
  0
LINE
  5
25E
330
25A
100
AcDbEntity
  8
0
 62
     0
370
    -2
100
AcDbLine
 10
18.21316578786514
 20
31.09710457479579
 30
0.0
 11
18.21316578786514
 21
27.23746922739604
 31
0.0
  0
LINE
  5
25F
330
25A
100
AcDbEntity
  8
0
 62
     0
370
    -2
100
AcDbLine
 10
18.21316578786514
 20
22.53336010729959
 30
0.0
 11
18.21316578786514
 21
26.39299545469934
 31
0.0
  0
INSERT
  5
260
330
25A
100
AcDbEntity
  8
0
 62
     0
370
    -2
100
AcDbBlockReference
  2
_ArchTick
 10
18.21316578786514
 20
31.09710457479579
 30
0.0
 41
0.156
 42
0.156
 43
0.156
 50
90.0
  0
INSERT
  5
261
330
25A
100
AcDbEntity
  8
0
 62
     0
370
    -2
100
AcDbBlockReference
  2
_ArchTick
 10
18.21316578786514
 20
22.53336010729959
 30
0.0
 41
0.156
 42
0.156
 43
0.156
 50
270.0
  0
MTEXT
  5
262
330
25A
100
AcDbEntity
  8
0
 62
     0
100
AcDbMText
 10
18.21316578786513
 20
27.01757682658905
 30
0.0
 40
0.3125
 41
0.0
 71
     5
 72
     1
  1
\A1;8 9/16"
 73
     1
 44
1.0
1001
ACAD
1000
MTEXTBEGIN
1070
    73
1070
     1
1070
    44
1040
1.0
1070
    74
1070
     0
1000
MTEXTEND
  0
MTEXT
  5
263
330
25A
100
AcDbEntity
  8
0
 62
     0
100
AcDbMText
 10
18.21316578786513
 20
26.5953399402407
 30
0.0
 40
0.3125
 41
0.0
 71
     5
 72
     1
  1
\A1;[218mm]
 73
     1
 44
1.0
1001
ACAD
1000
MTEXTBEGIN
1070
    73
1070
     1
1070
    44
1040
1.0
1070
    74
1070
     0
1000
MTEXTEND
  0
POINT
  5
264
330
25A
100
AcDbEntity
  8
Defpoints
 62
     0
100
AcDbPoint
 10
21.14960778731336
 20
31.09710457479579
 30
0.0
  0
POINT
  5
265
330
25A
100
AcDbEntity
  8
Defpoints
 62
     0
100
AcDbPoint
 10
21.96572545486754
 20
22.53336010729959
 30
0.0
  0
POINT
  5
266
330
25A
100
AcDbEntity
  8
Defpoints
 62
     0
100
AcDbPoint
 10
18.21316578786514
 20
22.53336010729959
 30
0.0
  0
ENDBLK
  5
267
330
25A
100
AcDbEntity
  8
0
100
AcDbBlockEnd
  0
BLOCK
  5
26A
330
269
100
AcDbEntity
  8
0
100
AcDbBlockBegin
  2
*D7
 70
     1
 10
0.0
 20
0.0
 30
0.0
  3
*D7
  1

  0
LINE
  5
26B
330
269
100
AcDbEntity
  8
0
 62
     0
370
    -2
100
AcDbLine
 10
23.32570530792255
 20
21.34586010730609
 30
0.0
 11
18.18316578786513
 21
21.34586010730609
 31
0.0
  0
LINE
  5
26C
330
269
100
AcDbEntity
  8
0
 62
     0
370
    -2
100
AcDbLine
 10
21.92572545486754
 20
22.53336010729959
 30
0.0
 11
18.18316578786513
 21
22.53336010729959
 31
0.0
  0
LINE
  5
26D
330
269
100
AcDbEntity
  8
0
 62
     0
370
    -2
100
AcDbLine
 10
18.21316578786513
 20
21.34586010730609
 30
0.0
 11
18.21316578786513
 21
21.51737322095449
 31
0.0
  0
LINE
  5
26E
330
269
100
AcDbEntity
  8
0
 62
     0
370
    -2
100
AcDbLine
 10
18.21316578786513
 20
22.53336010729959
 30
0.0
 11
18.21316578786513
 21
22.36184699365119
 31
0.0
  0
INSERT
  5
26F
330
269
100
AcDbEntity
  8
0
 62
     0
370
    -2
100
AcDbBlockReference
  2
_ArchTick
 10
18.21316578786513
 20
21.34586010730609
 30
0.0
 41
0.156
 42
0.156
 43
0.156
 50
270.0
  0
INSERT
  5
270
330
269
100
AcDbEntity
  8
0
 62
     0
370
    -2
100
AcDbBlockReference
  2
_ArchTick
 10
18.21316578786513
 20
22.53336010729959
 30
0.0
 41
0.156
 42
0.156
 43
0.156
 50
90.0
  0
MTEXT
  5
271
330
269
100
AcDbEntity
  8
0
 62
     0
100
AcDbMText
 10
18.21316578786513
 20
22.1419545928442
 30
0.0
 40
0.3125
 41
0.0
 71
     5
 72
     1
  1
\A1;1 3/16"
 73
     1
 44
1.0
1001
ACAD
1000
MTEXTBEGIN
1070
    73
1070
     1
1070
    44
1040
1.0
1070
    74
1070
     0
1000
MTEXTEND
  0
MTEXT
  5
272
330
269
100
AcDbEntity
  8
0
 62
     0
100
AcDbMText
 10
18.21316578786513
 20
21.71971770649585
 30
0.0
 40
0.3125
 41
0.0
 71
     5
 72
     1
  1
\A1;[30mm]
 73
     1
 44
1.0
1001
ACAD
1000
MTEXTBEGIN
1070
    73
1070
     1
1070
    44
1040
1.0
1070
    74
1070
     0
1000
MTEXTEND
  0
POINT
  5
273
330
269
100
AcDbEntity
  8
Defpoints
 62
     0
100
AcDbPoint
 10
23.36570530792255
 20
21.34586010730609
 30
0.0
  0
POINT
  5
274
330
269
100
AcDbEntity
  8
Defpoints
 62
     0
100
AcDbPoint
 10
21.96572545486754
 20
22.53336010729959
 30
0.0
  0
POINT
  5
275
330
269
100
AcDbEntity
  8
Defpoints
 62
     0
100
AcDbPoint
 10
18.21316578786513
 20
22.53336010729959
 30
0.0
  0
ENDBLK
  5
276
330
269
100
AcDbEntity
  8
0
100
AcDbBlockEnd
  0
BLOCK
  5
27B
330
27A
100
AcDbEntity
  8
0
100
AcDbBlockBegin
  2
*D8
 70
     1
 10
0.0
 20
0.0
 30
0.0
  3
*D8
  1

  0
LINE
  5
27C
330
27A
100
AcDbEntity
  8
0
 62
     0
370
    -2
100
AcDbLine
 10
21.10960778731336
 20
32.72121117144914
 30
0.0
 11
18.18316578786514
 21
32.72121117144914
 31
0.0
  0
LINE
  5
27D
330
27A
100
AcDbEntity
  8
0
 62
     0
370
    -2
100
AcDbLine
 10
21.10960778731336
 20
34.84638116498135
 30
0.0
 11
18.18316578786514
 21
34.84638116498135
 31
0.0
  0
LINE
  5
27E
330
27A
100
AcDbEntity
  8
0
 62
     0
370
    -2
100
AcDbLine
 10
18.21316578786514
 20
32.72121117144914
 30
0.0
 11
18.21316578786514
 21
33.3615592818669
 31
0.0
  0
LINE
  5
27F
330
27A
100
AcDbEntity
  8
0
 62
     0
370
    -2
100
AcDbLine
 10
18.21316578786514
 20
34.84638116498135
 30
0.0
 11
18.21316578786514
 21
34.2060330545636
 31
0.0
  0
INSERT
  5
280
330
27A
100
AcDbEntity
  8
0
 62
     0
370
    -2
100
AcDbBlockReference
  2
_ArchTick
 10
18.21316578786514
 20
32.72121117144914
 30
0.0
 41
0.156
 42
0.156
 43
0.156
 50
270.0
  0
INSERT
  5
281
330
27A
100
AcDbEntity
  8
0
 62
     0
370
    -2
100
AcDbBlockReference
  2
_ArchTick
 10
18.21316578786514
 20
34.84638116498135
 30
0.0
 41
0.156
 42
0.156
 43
0.156
 50
90.0
  0
MTEXT
  5
282
330
27A
100
AcDbEntity
  8
0
 62
     0
100
AcDbMText
 10
18.21316578786514
 20
33.98614065375662
 30
0.0
 40
0.3125
 41
0.0
 71
     5
 72
     1
  1
\A1;2 1/8"
 73
     1
 44
1.0
1001
ACAD
1000
MTEXTBEGIN
1070
    73
1070
     1
1070
    44
1040
1.0
1070
    74
1070
     0
1000
MTEXTEND
  0
MTEXT
  5
283
330
27A
100
AcDbEntity
  8
0
 62
     0
100
AcDbMText
 10
18.21316578786514
 20
33.56390376740826
 30
0.0
 40
0.3125
 41
0.0
 71
     5
 72
     1
  1
\A1;[54mm]
 73
     1
 44
1.0
1001
ACAD
1000
MTEXTBEGIN
1070
    73
1070
     1
1070
    44
1040
1.0
1070
    74
1070
     0
1000
MTEXTEND
  0
POINT
  5
284
330
27A
100
AcDbEntity
  8
Defpoints
 62
     0
100
AcDbPoint
 10
21.14960778731336
 20
32.72121117144914
 30
0.0
  0
POINT
  5
285
330
27A
100
AcDbEntity
  8
Defpoints
 62
     0
100
AcDbPoint
 10
21.14960778731336
 20
34.84638116498135
 30
0.0
  0
POINT
  5
286
330
27A
100
AcDbEntity
  8
Defpoints
 62
     0
100
AcDbPoint
 10
18.21316578786514
 20
34.84638116498135
 30
0.0
  0
ENDBLK
  5
287
330
27A
100
AcDbEntity
  8
0
100
AcDbBlockEnd
  0
BLOCK
  5
28C
330
28B
100
AcDbEntity
  8
0
100
AcDbBlockBegin
  2
*D9
 70
     1
 10
0.0
 20
0.0
 30
0.0
  3
*D9
  1

  0
LINE
  5
28D
330
28B
100
AcDbEntity
  8
0
 62
     0
370
    -2
100
AcDbLine
 10
21.10960778731336
 20
36.4704877616347
 30
0.0
 11
18.18316578786514
 21
36.4704877616347
 31
0.0
  0
LINE
  5
28E
330
28B
100
AcDbEntity
  8
0
 62
     0
370
    -2
100
AcDbLine
 10
21.92572545486754
 20
41.06473776163662
 30
0.0
 11
18.18316578786514
 21
41.06473776163662
 31
0.0
  0
LINE
  5
28F
330
28B
100
AcDbEntity
  8
0
 62
     0
370
    -2
100
AcDbLine
 10
18.21316578786514
 20
36.4704877616347
 30
0.0
 11
18.21316578786514
 21
38.34537587528731
 31
0.0
  0
LINE
  5
290
330
28B
100
AcDbEntity
  8
0
 62
     0
370
    -2
100
AcDbLine
 10
18.21316578786514
 20
41.06473776163662
 30
0.0
 11
18.21316578786514
 21
39.18984964798401
 31
0.0
  0
INSERT
  5
291
330
28B
100
AcDbEntity
  8
0
 62
     0
370
    -2
100
AcDbBlockReference
  2
_ArchTick
 10
18.21316578786514
 20
36.4704877616347
 30
0.0
 41
0.156
 42
0.156
 43
0.156
 50
270.0
  0
INSERT
  5
292
330
28B
100
AcDbEntity
  8
0
 62
     0
370
    -2
100
AcDbBlockReference
  2
_ArchTick
 10
18.21316578786514
 20
41.06473776163662
 30
0.0
 41
0.156
 42
0.156
 43
0.156
 50
90.0
  0
MTEXT
  5
293
330
28B
100
AcDbEntity
  8
0
 62
     0
100
AcDbMText
 10
18.21316578786514
 20
38.96995724717703
 30
0.0
 40
0.3125
 41
0.0
 71
     5
 72
     1
  1
\A1;4 19/32"
 73
     1
 44
1.0
1001
ACAD
1000
MTEXTBEGIN
1070
    73
1070
     1
1070
    44
1040
1.0
1070
    74
1070
     0
1000
MTEXTEND
  0
MTEXT
  5
294
330
28B
100
AcDbEntity
  8
0
 62
     0
100
AcDbMText
 10
18.21316578786514
 20
38.54772036082868
 30
0.0
 40
0.3125
 41
0.0
 71
     5
 72
     1
  1
\A1;[117mm]
 73
     1
 44
1.0
1001
ACAD
1000
MTEXTBEGIN
1070
    73
1070
     1
1070
    44
1040
1.0
1070
    74
1070
     0
1000
MTEXTEND
  0
POINT
  5
295
330
28B
100
AcDbEntity
  8
Defpoints
 62
     0
100
AcDbPoint
 10
21.14960778731336
 20
36.4704877616347
 30
0.0
  0
POINT
  5
296
330
28B
100
AcDbEntity
  8
Defpoints
 62
     0
100
AcDbPoint
 10
21.96572545486754
 20
41.06473776163662
 30
0.0
  0
POINT
  5
297
330
28B
100
AcDbEntity
  8
Defpoints
 62
     0
100
AcDbPoint
 10
18.21316578786514
 20
41.06473776163662
 30
0.0
  0
ENDBLK
  5
298
330
28B
100
AcDbEntity
  8
0
100
AcDbBlockEnd
  0
BLOCK
  5
29D
330
29C
100
AcDbEntity
  8
0
100
AcDbBlockBegin
  2
*D10
 70
     1
 10
0.0
 20
0.0
 30
0.0
  3
*D10
  1

  0
LINE
  5
29E
330
29C
100
AcDbEntity
  8
0
 62
     0
370
    -2
100
AcDbLine
 10
28.96545530792366
 20
41.91673776163631
 30
0.0
 11
28.96545530792366
 21
43.11499677086078
 31
0.0
  0
LINE
  5
29F
330
29C
100
AcDbEntity
  8
0
 62
     0
370
    -2
100
AcDbLine
 10
21.96522545486744
 20
42.68273776163625
 30
0.0
 11
21.96522545486744
 21
43.11499677086078
 31
0.0
  0
LINE
  5
2A0
330
29C
100
AcDbEntity
  8
0
 62
     0
370
    -2
100
AcDbLine
 10
28.96545530792366
 20
43.08499677086078
 30
0.0
 11
25.9765996904024
 21
43.08499677086078
 31
0.0
  0
LINE
  5
2A1
330
29C
100
AcDbEntity
  8
0
 62
     0
370
    -2
100
AcDbLine
 10
21.96522545486744
 20
43.08499677086078
 30
0.0
 11
24.9540810723887
 21
43.08499677086078
 31
0.0
  0
INSERT
  5
2A2
330
29C
100
AcDbEntity
  8
0
 62
     0
370
    -2
100
AcDbBlockReference
  2
_ArchTick
 10
28.96545530792366
 20
43.08499677086078
 30
0.0
 41
0.156
 42
0.156
 43
0.156
  0
INSERT
  5
2A3
330
29C
100
AcDbEntity
  8
0
 62
     0
370
    -2
100
AcDbBlockReference
  2
_ArchTick
 10
21.96522545486744
 20
43.08499677086078
 30
0.0
 41
0.156
 42
0.156
 43
0.156
 50
180.0
  0
MTEXT
  5
2A4
330
29C
100
AcDbEntity
  8
0
 62
     0
100
AcDbMText
 10
25.46534038139555
 20
43.28124677086078
 30
0.0
 40
0.3125
 41
0.0
 71
     5
 72
     1
  1
\A1;7"
 73
     1
 44
1.0
1001
ACAD
1000
MTEXTBEGIN
1070
    73
1070
     1
1070
    44
1040
1.0
1070
    74
1070
     0
1000
MTEXTEND
  0
MTEXT
  5
2A5
330
29C
100
AcDbEntity
  8
0
 62
     0
100
AcDbMText
 10
25.46534038139555
 20
42.86510437005379
 30
0.0
 40
0.3125
 41
0.0
 71
     5
 72
     1
  1
\A1;[178mm]
 73
     1
 44
1.0
1001
ACAD
1000
MTEXTBEGIN
1070
    73
1070
     1
1070
    44
1040
1.0
1070
    74
1070
     0
1000
MTEXTEND
  0
POINT
  5
2A6
330
29C
100
AcDbEntity
  8
Defpoints
 62
     0
100
AcDbPoint
 10
28.96545530792366
 20
41.87673776163632
 30
0.0
  0
POINT
  5
2A7
330
29C
100
AcDbEntity
  8
Defpoints
 62
     0
100
AcDbPoint
 10
21.96522545486744
 20
42.64273776163626
 30
0.0
  0
POINT
  5
2A8
330
29C
100
AcDbEntity
  8
Defpoints
 62
     0
100
AcDbPoint
 10
21.96522545486744
 20
43.08499677086078
 30
0.0
  0
ENDBLK
  5
2A9
330
29C
100
AcDbEntity
  8
0
100
AcDbBlockEnd
  0
BLOCK
  5
2AE
330
2AD
100
AcDbEntity
  8
0
100
AcDbBlockBegin
  2
*D11
 70
     1
 10
0.0
 20
0.0
 30
0.0
  3
*D11
  1

  0
LINE
  5
2AF
330
2AD
100
AcDbEntity
  8
0
 62
     0
370
    -2
100
AcDbLine
 10
28.72541636080545
 20
36.47173222913096
 30
0.0
 11
30.09662653130059
 21
36.47173222913096
 31
0.0
  0
LINE
  5
2B0
330
2AD
100
AcDbEntity
  8
0
 62
     0
370
    -2
100
AcDbLine
 10
28.94345530792372
 20
41.06373222913098
 30
0.0
 11
30.09662653130059
 21
41.06373222913098
 31
0.0
  0
LINE
  5
2B1
330
2AD
100
AcDbEntity
  8
0
 62
     0
370
    -2
100
AcDbLine
 10
30.06662653130059
 20
36.47173222913096
 30
0.0
 11
30.06662653130059
 21
38.34549534278262
 31
0.0
  0
LINE
  5
2B2
330
2AD
100
AcDbEntity
  8
0
 62
     0
370
    -2
100
AcDbLine
 10
30.06662653130059
 20
41.06373222913098
 30
0.0
 11
30.06662653130059
 21
39.18996911547932
 31
0.0
  0
INSERT
  5
2B3
330
2AD
100
AcDbEntity
  8
0
 62
     0
370
    -2
100
AcDbBlockReference
  2
_ArchTick
 10
30.06662653130059
 20
36.47173222913096
 30
0.0
 41
0.156
 42
0.156
 43
0.156
 50
270.0
  0
INSERT
  5
2B4
330
2AD
100
AcDbEntity
  8
0
 62
     0
370
    -2
100
AcDbBlockReference
  2
_ArchTick
 10
30.06662653130059
 20
41.06373222913098
 30
0.0
 41
0.156
 42
0.156
 43
0.156
 50
90.0
  0
MTEXT
  5
2B5
330
2AD
100
AcDbEntity
  8
0
 62
     0
100
AcDbMText
 10
30.06662653130059
 20
38.97007671467234
 30
0.0
 40
0.3125
 41
0.0
 71
     5
 72
     1
  1
\A1;4 19/32"
 73
     1
 44
1.0
1001
ACAD
1000
MTEXTBEGIN
1070
    73
1070
     1
1070
    44
1040
1.0
1070
    74
1070
     0
1000
MTEXTEND
  0
MTEXT
  5
2B6
330
2AD
100
AcDbEntity
  8
0
 62
     0
100
AcDbMText
 10
30.06662653130059
 20
38.54783982832399
 30
0.0
 40
0.3125
 41
0.0
 71
     5
 72
     1
  1
\A1;[117mm]
 73
     1
 44
1.0
1001
ACAD
1000
MTEXTBEGIN
1070
    73
1070
     1
1070
    44
1040
1.0
1070
    74
1070
     0
1000
MTEXTEND
  0
POINT
  5
2B7
330
2AD
100
AcDbEntity
  8
Defpoints
 62
     0
100
AcDbPoint
 10
28.68541636080545
 20
36.47173222913096
 30
0.0
  0
POINT
  5
2B8
330
2AD
100
AcDbEntity
  8
Defpoints
 62
     0
100
AcDbPoint
 10
28.90345530792372
 20
41.06373222913098
 30
0.0
  0
POINT
  5
2B9
330
2AD
100
AcDbEntity
  8
Defpoints
 62
     0
100
AcDbPoint
 10
30.06662653130059
 20
41.06373222913098
 30
0.0
  0
ENDBLK
  5
2BA
330
2AD
100
AcDbEntity
  8
0
100
AcDbBlockEnd
  0
BLOCK
  5
2BF
330
2BE
100
AcDbEntity
  8
0
100
AcDbBlockBegin
  2
*D12
 70
     1
 10
0.0
 20
0.0
 30
0.0
  3
*D12
  1

  0
LINE
  5
2C0
330
2BE
100
AcDbEntity
  8
0
 62
     0
370
    -2
100
AcDbLine
 10
27.21545530792366
 20
39.08873222913099
 30
0.0
 11
27.21545530792366
 21
39.65310815093176
 31
0.0
  0
LINE
  5
2C1
330
2BE
100
AcDbEntity
  8
0
 62
     0
370
    -2
100
AcDbLine
 10
28.96545530792366
 20
39.08873222913099
 30
0.0
 11
28.96545530792366
 21
39.65310815093176
 31
0.0
  0
LINE
  5
2C2
330
2BE
100
AcDbEntity
  8
0
 62
     0
370
    -2
100
AcDbLine
 10
27.21545530792366
 20
39.62310815093175
 30
0.0
 11
27.64751704990571
 21
39.62310815093175
 31
0.0
  0
LINE
  5
2C3
330
2BE
100
AcDbEntity
  8
0
 62
     0
370
    -2
100
AcDbLine
 10
28.96545530792366
 20
39.62310815093175
 30
0.0
 11
28.53339356594162
 21
39.62310815093175
 31
0.0
  0
INSERT
  5
2C4
330
2BE
100
AcDbEntity
  8
0
 62
     0
370
    -2
100
AcDbBlockReference
  2
_ArchTick
 10
27.21545530792366
 20
39.62310815093175
 30
0.0
 41
0.156
 42
0.156
 43
0.156
 50
180.0
  0
INSERT
  5
2C5
330
2BE
100
AcDbEntity
  8
0
 62
     0
370
    -2
100
AcDbBlockReference
  2
_ArchTick
 10
28.96545530792366
 20
39.62310815093175
 30
0.0
 41
0.156
 42
0.156
 43
0.156
  0
MTEXT
  5
2C6
330
2BE
100
AcDbEntity
  8
0
 62
     0
100
AcDbMText
 10
28.09045530792366
 20
39.82545263647312
 30
0.0
 40
0.3125
 41
0.0
 71
     5
 72
     1
  1
\A1;1 3/4"
 73
     1
 44
1.0
1001
ACAD
1000
MTEXTBEGIN
1070
    73
1070
     1
1070
    44
1040
1.0
1070
    74
1070
     0
1000
MTEXTEND
  0
MTEXT
  5
2C7
330
2BE
100
AcDbEntity
  8
0
 62
     0
100
AcDbMText
 10
28.09045530792366
 20
39.40321575012477
 30
0.0
 40
0.3125
 41
0.0
 71
     5
 72
     1
  1
\A1;[44mm]
 73
     1
 44
1.0
1001
ACAD
1000
MTEXTBEGIN
1070
    73
1070
     1
1070
    44
1040
1.0
1070
    74
1070
     0
1000
MTEXTEND
  0
POINT
  5
2C8
330
2BE
100
AcDbEntity
  8
Defpoints
 62
     0
100
AcDbPoint
 10
27.21545530792366
 20
39.04873222913099
 30
0.0
  0
POINT
  5
2C9
330
2BE
100
AcDbEntity
  8
Defpoints
 62
     0
100
AcDbPoint
 10
28.96545530792366
 20
39.04873222913099
 30
0.0
  0
POINT
  5
2CA
330
2BE
100
AcDbEntity
  8
Defpoints
 62
     0
100
AcDbPoint
 10
28.96545530792366
 20
39.62310815093175
 30
0.0
  0
ENDBLK
  5
2CB
330
2BE
100
AcDbEntity
  8
0
100
AcDbBlockEnd
  0
BLOCK
  5
2D0
330
2CF
100
AcDbEntity
  8
0
100
AcDbBlockBegin
  2
*D13
 70
     1
 10
0.0
 20
0.0
 30
0.0
  3
*D13
  1

  0
LINE
  5
2D1
330
2CF
100
AcDbEntity
  8
0
 62
     0
370
    -2
100
AcDbLine
 10
21.90322545486754
 20
39.76717526163663
 30
0.0
 11
21.90322545486754
 21
39.59310815093175
 31
0.0
  0
LINE
  5
2D2
330
2CF
100
AcDbEntity
  8
0
 62
     0
370
    -2
100
AcDbLine
 10
23.65322545486754
 20
39.76717526163663
 30
0.0
 11
23.65322545486754
 21
39.59310815093175
 31
0.0
  0
LINE
  5
2D3
330
2CF
100
AcDbEntity
  8
0
 62
     0
370
    -2
100
AcDbLine
 10
21.90322545486754
 20
39.62310815093175
 30
0.0
 11
22.33528719684958
 21
39.62310815093175
 31
0.0
  0
LINE
  5
2D4
330
2CF
100
AcDbEntity
  8
0
 62
     0
370
    -2
100
AcDbLine
 10
23.65322545486754
 20
39.62310815093175
 30
0.0
 11
23.22116371288549
 21
39.62310815093175
 31
0.0
  0
INSERT
  5
2D5
330
2CF
100
AcDbEntity
  8
0
 62
     0
370
    -2
100
AcDbBlockReference
  2
_ArchTick
 10
21.90322545486754
 20
39.62310815093175
 30
0.0
 41
0.156
 42
0.156
 43
0.156
 50
180.0
  0
INSERT
  5
2D6
330
2CF
100
AcDbEntity
  8
0
 62
     0
370
    -2
100
AcDbBlockReference
  2
_ArchTick
 10
23.65322545486754
 20
39.62310815093175
 30
0.0
 41
0.156
 42
0.156
 43
0.156
  0
MTEXT
  5
2D7
330
2CF
100
AcDbEntity
  8
0
 62
     0
100
AcDbMText
 10
22.77822545486754
 20
39.82545263647312
 30
0.0
 40
0.3125
 41
0.0
 71
     5
 72
     1
  1
\A1;1 3/4"
 73
     1
 44
1.0
1001
ACAD
1000
MTEXTBEGIN
1070
    73
1070
     1
1070
    44
1040
1.0
1070
    74
1070
     0
1000
MTEXTEND
  0
MTEXT
  5
2D8
330
2CF
100
AcDbEntity
  8
0
 62
     0
100
AcDbMText
 10
22.77822545486754
 20
39.40321575012477
 30
0.0
 40
0.3125
 41
0.0
 71
     5
 72
     1
  1
\A1;[44mm]
 73
     1
 44
1.0
1001
ACAD
1000
MTEXTBEGIN
1070
    73
1070
     1
1070
    44
1040
1.0
1070
    74
1070
     0
1000
MTEXTEND
  0
POINT
  5
2D9
330
2CF
100
AcDbEntity
  8
Defpoints
 62
     0
100
AcDbPoint
 10
21.90322545486754
 20
39.80717526163663
 30
0.0
  0
POINT
  5
2DA
330
2CF
100
AcDbEntity
  8
Defpoints
 62
     0
100
AcDbPoint
 10
23.65322545486754
 20
39.80717526163663
 30
0.0
  0
POINT
  5
2DB
330
2CF
100
AcDbEntity
  8
Defpoints
 62
     0
100
AcDbPoint
 10
23.65322545486754
 20
39.62310815093175
 30
0.0
  0
ENDBLK
  5
2DC
330
2CF
100
AcDbEntity
  8
0
100
AcDbBlockEnd
  0
BLOCK
  5
2E1
330
2E0
100
AcDbEntity
  8
0
100
AcDbBlockBegin
  2
*D14
 70
     1
 10
0.0
 20
0.0
 30
0.0
  3
*D14
  1

  0
LINE
  5
2E2
330
2E0
100
AcDbEntity
  8
0
 62
     0
370
    -2
100
AcDbLine
 10
28.72541636080545
 20
31.09586010729959
 30
0.0
 11
30.09662653130059
 21
31.09586010729959
 31
0.0
  0
LINE
  5
2E3
330
2E0
100
AcDbEntity
  8
0
 62
     0
370
    -2
100
AcDbLine
 10
28.72541636080706
 20
36.47173222913096
 30
0.0
 11
30.09662653130059
 21
36.47173222913096
 31
0.0
  0
LINE
  5
2E4
330
2E0
100
AcDbEntity
  8
0
 62
     0
370
    -2
100
AcDbLine
 10
30.06662653130059
 20
31.09586010729959
 30
0.0
 11
30.06662653130059
 21
33.31798777323657
 31
0.0
  0
LINE
  5
2E5
330
2E0
100
AcDbEntity
  8
0
 62
     0
370
    -2
100
AcDbLine
 10
30.06662653130059
 20
36.47173222913096
 30
0.0
 11
30.06662653130059
 21
34.24960456319398
 31
0.0
  0
INSERT
  5
2E6
330
2E0
100
AcDbEntity
  8
0
 62
     0
370
    -2
100
AcDbBlockReference
  2
_ArchTick
 10
30.06662653130059
 20
31.09586010729959
 30
0.0
 41
0.156
 42
0.156
 43
0.156
 50
270.0
  0
INSERT
  5
2E7
330
2E0
100
AcDbEntity
  8
0
 62
     0
370
    -2
100
AcDbBlockReference
  2
_ArchTick
 10
30.06662653130059
 20
36.47173222913096
 30
0.0
 41
0.156
 42
0.156
 43
0.156
 50
90.0
  0
MTEXT
  5
2E8
330
2E0
100
AcDbEntity
  8
0
 62
     0
100
AcDbMText
 10
30.06662653130059
 20
33.78379616821528
 30
0.0
 40
0.3125
 41
0.0
 71
     5
 72
     1
  1
\A1;DAYLIGHT\POPENING
 73
     1
 44
1.0
1001
ACAD
1000
MTEXTBEGIN
1070
    73
1070
     1
1070
    44
1040
1.0
1070
    74
1070
     0
1000
MTEXTEND
  0
POINT
  5
2E9
330
2E0
100
AcDbEntity
  8
Defpoints
 62
     0
100
AcDbPoint
 10
28.68541636080545
 20
31.09586010729959
 30
0.0
  0
POINT
  5
2EA
330
2E0
100
AcDbEntity
  8
Defpoints
 62
     0
100
AcDbPoint
 10
28.68541636080706
 20
36.47173222913096
 30
0.0
  0
POINT
  5
2EB
330
2E0
100
AcDbEntity
  8
Defpoints
 62
     0
100
AcDbPoint
 10
30.06662653130059
 20
36.47173222913096
 30
0.0
  0
ENDBLK
  5
2EC
330
2E0
100
AcDbEntity
  8
0
100
AcDbBlockEnd
  0
BLOCK
  5
2F1
330
2F0
100
AcDbEntity
  8
0
100
AcDbBlockBegin
  2
*D15
 70
     1
 10
0.0
 20
0.0
 30
0.0
  3
*D15
  1

  0
LINE
  5
2F2
330
2F0
100
AcDbEntity
  8
0
 62
     0
370
    -2
100
AcDbLine
 10
29.00545530792366
 20
41.87673776163632
 30
0.0
 11
33.38110718949603
 21
41.87673776163632
 31
0.0
  0
LINE
  5
2F3
330
2F0
100
AcDbEntity
  8
0
 62
     0
370
    -2
100
AcDbLine
 10
29.25545530792378
 20
21.34586010730609
 30
0.0
 11
33.38110718949603
 21
21.34586010730609
 31
0.0
  0
LINE
  5
2F4
330
2F0
100
AcDbEntity
  8
0
 62
     0
370
    -2
100
AcDbLine
 10
33.35110718949603
 20
41.87673776163632
 30
0.0
 11
33.35110718949603
 21
32.16719584430155
 31
0.0
  0
LINE
  5
2F5
330
2F0
100
AcDbEntity
  8
0
 62
     0
370
    -2
100
AcDbLine
 10
33.35110718949603
 20
21.34586010730609
 30
0.0
 11
33.35110718949603
 21
31.76250687321882
 31
0.0
  0
INSERT
  5
2F6
330
2F0
100
AcDbEntity
  8
0
 62
     0
370
    -2
100
AcDbBlockReference
  2
_ArchTick
 10
33.35110718949603
 20
41.87673776163632
 30
0.0
 41
0.156
 42
0.156
 43
0.156
 50
90.0
  0
INSERT
  5
2F7
330
2F0
100
AcDbEntity
  8
0
 62
     0
370
    -2
100
AcDbBlockReference
  2
_ArchTick
 10
33.35110718949603
 20
21.34586010730609
 30
0.0
 41
0.156
 42
0.156
 43
0.156
 50
270.0
  0
MTEXT
  5
2F8
330
2F0
100
AcDbEntity
  8
0
 62
     0
100
AcDbMText
 10
33.35110718949602
 20
31.96485135876019
 30
0.0
 40
0.3125
 41
0.0
 71
     5
 72
     1
  1
\A1;BOX
 73
     1
 44
1.0
1001
ACAD
1000
MTEXTBEGIN
1070
    73
1070
     1
1070
    44
1040
1.0
1070
    74
1070
     0
1000
MTEXTEND
  0
POINT
  5
2F9
330
2F0
100
AcDbEntity
  8
Defpoints
 62
     0
100
AcDbPoint
 10
28.96545530792366
 20
41.87673776163632
 30
0.0
  0
POINT
  5
2FA
330
2F0
100
AcDbEntity
  8
Defpoints
 62
     0
100
AcDbPoint
 10
29.21545530792378
 20
21.34586010730609
 30
0.0
  0
POINT
  5
2FB
330
2F0
100
AcDbEntity
  8
Defpoints
 62
     0
100
AcDbPoint
 10
33.35110718949603
 20
21.34586010730609
 30
0.0
  0
ENDBLK
  5
2FC
330
2F0
100
AcDbEntity
  8
0
100
AcDbBlockEnd
  0
BLOCK
  5
2FF
330
2FE
100
AcDbEntity
  8
0
100
AcDbBlockBegin
  2
*D16
 70
     1
 10
0.0
 20
0.0
 30
0.0
  3
*D16
  1

  0
LINE
  5
300
330
2FE
100
AcDbEntity
  8
0
 62
     0
370
    -2
100
AcDbLine
 10
29.25545530792378
 20
21.34586010730609
 30
0.0
 11
34.7357107798106
 21
21.34586010730609
 31
0.0
  0
LINE
  5
301
330
2FE
100
AcDbEntity
  8
0
 62
     0
370
    -2
100
AcDbLine
 10
29.00545530792366
 20
42.62673776163632
 30
0.0
 11
34.7357107798106
 21
42.62673776163632
 31
0.0
  0
LINE
  5
302
330
2FE
100
AcDbEntity
  8
0
 62
     0
370
    -2
100
AcDbLine
 10
34.7057107798106
 20
21.34586010730609
 30
0.0
 11
34.7057107798106
 21
31.5204905394925
 31
0.0
  0
LINE
  5
303
330
2FE
100
AcDbEntity
  8
0
 62
     0
370
    -2
100
AcDbLine
 10
34.7057107798106
 20
42.62673776163632
 30
0.0
 11
34.7057107798106
 21
32.45210732944991
 31
0.0
  0
INSERT
  5
304
330
2FE
100
AcDbEntity
  8
0
 62
     0
370
    -2
100
AcDbBlockReference
  2
_ArchTick
 10
34.7057107798106
 20
21.34586010730609
 30
0.0
 41
0.156
 42
0.156
 43
0.156
 50
270.0
  0
INSERT
  5
305
330
2FE
100
AcDbEntity
  8
0
 62
     0
370
    -2
100
AcDbBlockReference
  2
_ArchTick
 10
34.7057107798106
 20
42.62673776163632
 30
0.0
 41
0.156
 42
0.156
 43
0.156
 50
90.0
  0
MTEXT
  5
306
330
2FE
100
AcDbEntity
  8
0
 62
     0
100
AcDbMText
 10
34.70571077981059
 20
31.98629893447121
 30
0.0
 40
0.3125
 41
0.0
 71
     5
 72
     1
  1
\A1;ROUGH\POPENING
 73
     1
 44
1.0
1001
ACAD
1000
MTEXTBEGIN
1070
    73
1070
     1
1070
    44
1040
1.0
1070
    74
1070
     0
1000
MTEXTEND
  0
POINT
  5
307
330
2FE
100
AcDbEntity
  8
Defpoints
 62
     0
100
AcDbPoint
 10
29.21545530792378
 20
21.34586010730609
 30
0.0
  0
POINT
  5
308
330
2FE
100
AcDbEntity
  8
Defpoints
 62
     0
100
AcDbPoint
 10
28.96545530792366
 20
42.62673776163632
 30
0.0
  0
POINT
  5
309
330
2FE
100
AcDbEntity
  8
Defpoints
 62
     0
100
AcDbPoint
 10
34.7057107798106
 20
42.62673776163632
 30
0.0
  0
ENDBLK
  5
30A
330
2FE
100
AcDbEntity
  8
0
100
AcDbBlockEnd
  0
BLOCK
  5
30D
330
30C
100
AcDbEntity
  8
0
100
AcDbBlockBegin
  2
*D17
 70
     1
 10
0.0
 20
0.0
 30
0.0
  3
*D17
  1

  0
LINE
  5
30E
330
30C
100
AcDbEntity
  8
0
 62
     0
370
    -2
100
AcDbLine
 10
29.00545530792366
 20
41.87673776163632
 30
0.0
 11
33.38110718949602
 21
41.87673776163632
 31
0.0
  0
LINE
  5
30F
330
30C
100
AcDbEntity
  8
0
 62
     0
370
    -2
100
AcDbLine
 10
29.00545530792366
 20
42.62673776163632
 30
0.0
 11
33.38110718949602
 21
42.62673776163632
 31
0.0
  0
LINE
  5
310
330
30C
100
AcDbEntity
  8
0
 62
     0
370
    -2
100
AcDbLine
 10
33.35110718949602
 20
41.87673776163632
 30
0.0
 11
33.35110718949602
 21
42.62673776163632
 31
0.0
  0
LINE
  5
311
330
30C
100
AcDbEntity
  8
0
 62
     0
370
    -2
100
AcDbLine
 10
33.35110718949602
 20
42.62673776163632
 30
0.0
 11
33.35110718949602
 21
43.19219745820907
 31
0.0
  0
LINE
  5
312
330
30C
100
AcDbEntity
  8
0
 62
     0
370
    -2
100
AcDbLine
 10
33.35110718949602
 20
43.19219745820907
 30
0.0
 11
33.50710718949602
 21
43.19219745820907
 31
0.0
  0
INSERT
  5
313
330
30C
100
AcDbEntity
  8
0
 62
     0
370
    -2
100
AcDbBlockReference
  2
_ArchTick
 10
33.35110718949602
 20
41.87673776163632
 30
0.0
 41
0.156
 42
0.156
 43
0.156
 50
270.0
  0
INSERT
  5
314
330
30C
100
AcDbEntity
  8
0
 62
     0
370
    -2
100
AcDbBlockReference
  2
_ArchTick
 10
33.35110718949602
 20
42.62673776163632
 30
0.0
 41
0.156
 42
0.156
 43
0.156
 50
90.0
  0
MTEXT
  5
315
330
30C
100
AcDbEntity
  8
0
 62
     0
100
AcDbMText
 10
34.03763264264431
 20
43.19219745820908
 30
0.0
 40
0.3125
 41
0.0
 71
     5
 72
     1
  1
\A1;3/4"\P [19mm]
 73
     1
 44
1.0
1001
ACAD
1000
MTEXTBEGIN
1070
    73
1070
     1
1070
    44
1040
1.0
1070
    74
1070
     0
1000
MTEXTEND
  0
POINT
  5
316
330
30C
100
AcDbEntity
  8
Defpoints
 62
     0
100
AcDbPoint
 10
28.96545530792366
 20
41.87673776163632
 30
0.0
  0
POINT
  5
317
330
30C
100
AcDbEntity
  8
Defpoints
 62
     0
100
AcDbPoint
 10
28.96545530792366
 20
42.62673776163632
 30
0.0
  0
POINT
  5
318
330
30C
100
AcDbEntity
  8
Defpoints
 62
     0
100
AcDbPoint
 10
33.35110718949602
 20
42.62673776163632
 30
0.0
  0
ENDBLK
  5
319
330
30C
100
AcDbEntity
  8
0
100
AcDbBlockEnd
  0
BLOCK
  5
31E
330
31D
100
AcDbEntity
  8
0
100
AcDbBlockBegin
  2
*D18
 70
     1
 10
0.0
 20
0.0
 30
0.0
  3
*D18
  1

  0
LINE
  5
31F
330
31D
100
AcDbEntity
  8
0
 62
     0
370
    -2
100
AcDbLine
 10
26.88045530792366
 20
41.18872669662562
 30
0.0
 11
27.49743409616579
 21
41.18872669662562
 31
0.0
  0
LINE
  5
320
330
31D
100
AcDbEntity
  8
0
 62
     0
370
    -2
100
AcDbLine
 10
26.88045530792366
 20
41.87673776163632
 30
0.0
 11
27.49743409616579
 21
41.87673776163632
 31
0.0
  0
LINE
  5
321
330
31D
100
AcDbEntity
  8
0
 62
     0
370
    -2
100
AcDbLine
 10
27.46743409616579
 20
41.18872669662562
 30
0.0
 11
27.46743409616579
 21
41.87673776163632
 31
0.0
  0
LINE
  5
322
330
31D
100
AcDbEntity
  8
0
 62
     0
370
    -2
100
AcDbLine
 10
27.46743409616579
 20
41.87673776163632
 30
0.0
 11
27.46743409616579
 21
42.41976169169827
 31
0.0
  0
LINE
  5
323
330
31D
100
AcDbEntity
  8
0
 62
     0
370
    -2
100
AcDbLine
 10
27.46743409616579
 20
42.41976169169827
 30
0.0
 11
27.62343409616579
 21
42.41976169169827
 31
0.0
  0
INSERT
  5
324
330
31D
100
AcDbEntity
  8
0
 62
     0
370
    -2
100
AcDbBlockReference
  2
_ArchTick
 10
27.46743409616579
 20
41.18872669662562
 30
0.0
 41
0.156
 42
0.156
 43
0.156
 50
270.0
  0
INSERT
  5
325
330
31D
100
AcDbEntity
  8
0
 62
     0
370
    -2
100
AcDbBlockReference
  2
_ArchTick
 10
27.46743409616579
 20
41.87673776163632
 30
0.0
 41
0.156
 42
0.156
 43
0.156
 50
90.0
  0
MTEXT
  5
326
330
31D
100
AcDbEntity
  8
0
 62
     0
100
AcDbMText
 10
28.15395954931408
 20
42.41976169169828
 30
0.0
 40
0.3125
 41
0.0
 71
     5
 72
     1
  1
\A1;11/16"\P [17mm]
 73
     1
 44
1.0
1001
ACAD
1000
MTEXTBEGIN
1070
    73
1070
     1
1070
    44
1040
1.0
1070
    74
1070
     0
1000
MTEXTEND
  0
POINT
  5
327
330
31D
100
AcDbEntity
  8
Defpoints
 62
     0
100
AcDbPoint
 10
26.84045530792366
 20
41.18872669662562
 30
0.0
  0
POINT
  5
328
330
31D
100
AcDbEntity
  8
Defpoints
 62
     0
100
AcDbPoint
 10
26.84045530792366
 20
41.87673776163632
 30
0.0
  0
POINT
  5
329
330
31D
100
AcDbEntity
  8
Defpoints
 62
     0
100
AcDbPoint
 10
27.46743409616579
 20
41.87673776163632
 30
0.0
  0
ENDBLK
  5
32A
330
31D
100
AcDbEntity
  8
0
100
AcDbBlockEnd
  0
BLOCK
  5
32F
330
32E
100
AcDbEntity
  8
0
100
AcDbBlockBegin
  2
*D19
 70
     1
 10
0.0
 20
0.0
 30
0.0
  3
*D19
  1

  0
LINE
  5
330
330
32E
100
AcDbEntity
  8
0
 62
     0
370
    -2
100
AcDbLine
 10
25.59839803499168
 20
41.87673776163632
 30
0.0
 11
25.74097809873345
 21
41.87673776163632
 31
0.0
  0
LINE
  5
331
330
32E
100
AcDbEntity
  8
0
 62
     0
370
    -2
100
AcDbLine
 10
25.59839491822922
 20
40.68872989747852
 30
0.0
 11
25.74097809873345
 21
40.68872989747852
 31
0.0
  0
LINE
  5
332
330
32E
100
AcDbEntity
  8
0
 62
     0
370
    -2
100
AcDbLine
 10
25.71097809873345
 20
41.87673776163632
 30
0.0
 11
25.71097809873345
 21
41.70497071590577
 31
0.0
  0
LINE
  5
333
330
32E
100
AcDbEntity
  8
0
 62
     0
370
    -2
100
AcDbLine
 10
25.71097809873345
 20
40.68872989747852
 30
0.0
 11
25.71097809873345
 21
40.86049694320907
 31
0.0
  0
INSERT
  5
334
330
32E
100
AcDbEntity
  8
0
 62
     0
370
    -2
100
AcDbBlockReference
  2
_ArchTick
 10
25.71097809873345
 20
41.87673776163632
 30
0.0
 41
0.156
 42
0.156
 43
0.156
 50
90.0
  0
INSERT
  5
335
330
32E
100
AcDbEntity
  8
0
 62
     0
370
    -2
100
AcDbBlockReference
  2
_ArchTick
 10
25.71097809873345
 20
40.68872989747852
 30
0.0
 41
0.156
 42
0.156
 43
0.156
 50
270.0
  0
MTEXT
  5
336
330
32E
100
AcDbEntity
  8
0
 62
     0
100
AcDbMText
 10
25.71097809873344
 20
41.48507831509879
 30
0.0
 40
0.3125
 41
0.0
 71
     5
 72
     1
  1
\A1;1 3/16"
 73
     1
 44
1.0
1001
ACAD
1000
MTEXTBEGIN
1070
    73
1070
     1
1070
    44
1040
1.0
1070
    74
1070
     0
1000
MTEXTEND
  0
MTEXT
  5
337
330
32E
100
AcDbEntity
  8
0
 62
     0
100
AcDbMText
 10
25.71097809873344
 20
41.06284142875043
 30
0.0
 40
0.3125
 41
0.0
 71
     5
 72
     1
  1
\A1;[30mm]
 73
     1
 44
1.0
1001
ACAD
1000
MTEXTBEGIN
1070
    73
1070
     1
1070
    44
1040
1.0
1070
    74
1070
     0
1000
MTEXTEND
  0
POINT
  5
338
330
32E
100
AcDbEntity
  8
Defpoints
 62
     0
100
AcDbPoint
 10
25.55839803499168
 20
41.87673776163632
 30
0.0
  0
POINT
  5
339
330
32E
100
AcDbEntity
  8
Defpoints
 62
     0
100
AcDbPoint
 10
25.55839491822923
 20
40.68872989747852
 30
0.0
  0
POINT
  5
33A
330
32E
100
AcDbEntity
  8
Defpoints
 62
     0
100
AcDbPoint
 10
25.71097809873345
 20
40.68872989747852
 30
0.0
  0
ENDBLK
  5
33B
330
32E
100
AcDbEntity
  8
0
100
AcDbBlockEnd
  0
BLOCK
  5
33E
330
33D
100
AcDbEntity
  8
0
100
AcDbBlockBegin
  2
*D20
 70
     1
 10
0.0
 20
0.0
 30
0.0
  3
*D20
  1

  0
LINE
  5
33F
330
33D
100
AcDbEntity
  8
0
 62
     0
370
    -2
100
AcDbLine
 10
28.72541636080545
 20
36.47173222913096
 30
0.0
 11
31.89229934808449
 21
36.47173222913096
 31
0.0
  0
LINE
  5
340
330
33D
100
AcDbEntity
  8
0
 62
     0
370
    -2
100
AcDbLine
 10
29.00545530792366
 20
41.87673776163632
 30
0.0
 11
31.8922993480845
 21
41.87673776163632
 31
0.0
  0
LINE
  5
341
330
33D
100
AcDbEntity
  8
0
 62
     0
370
    -2
100
AcDbLine
 10
31.86229934808449
 20
36.47173222913096
 30
0.0
 11
31.86229934808449
 21
39.50955901125214
 31
0.0
  0
LINE
  5
342
330
33D
100
AcDbEntity
  8
0
 62
     0
370
    -2
100
AcDbLine
 10
31.8622993480845
 20
41.87673776163632
 30
0.0
 11
31.8622993480845
 21
40.47627163174081
 31
0.0
  0
INSERT
  5
343
330
33D
100
AcDbEntity
  8
0
 62
     0
370
    -2
100
AcDbBlockReference
  2
_ArchTick
 10
31.86229934808449
 20
36.47173222913096
 30
0.0
 41
0.156
 42
0.156
 43
0.156
 50
270.0
  0
INSERT
  5
344
330
33D
100
AcDbEntity
  8
0
 62
     0
370
    -2
100
AcDbBlockReference
  2
_ArchTick
 10
31.8622993480845
 20
41.87673776163632
 30
0.0
 41
0.156
 42
0.156
 43
0.156
 50
90.0
  0
MTEXT
  5
345
330
33D
100
AcDbEntity
  8
0
 62
     0
100
AcDbMText
 10
31.86229934808449
 20
39.99291532149648
 30
0.0
 40
0.3125
 41
0.0
 71
     5
 72
     1
  1
\A1;5 13/32"\P [137mm]
 73
     1
 44
1.0
1001
ACAD
1000
MTEXTBEGIN
1070
    73
1070
     1
1070
    44
1040
1.0
1070
    74
1070
     0
1000
MTEXTEND
  0
POINT
  5
346
330
33D
100
AcDbEntity
  8
Defpoints
 62
     0
100
AcDbPoint
 10
28.68541636080545
 20
36.47173222913096
 30
0.0
  0
POINT
  5
347
330
33D
100
AcDbEntity
  8
Defpoints
 62
     0
100
AcDbPoint
 10
28.96545530792366
 20
41.87673776163632
 30
0.0
  0
POINT
  5
348
330
33D
100
AcDbEntity
  8
Defpoints
 62
     0
100
AcDbPoint
 10
31.8622993480845
 20
41.87673776163632
 30
0.0
  0
ENDBLK
  5
349
330
33D
100
AcDbEntity
  8
0
100
AcDbBlockEnd
  0
BLOCK
  5
34E
330
34D
100
AcDbEntity
  8
0
100
AcDbBlockBegin
  2
*D21
 70
     1
 10
0.0
 20
0.0
 30
0.0
  3
*D21
  1

  0
LINE
  5
34F
330
34D
100
AcDbEntity
  8
0
 62
     0
370
    -2
100
AcDbLine
 10
28.67793583436455
 20
31.09586010729957
 30
0.0
 11
31.89229934808449
 21
31.09586010729957
 31
0.0
  0
LINE
  5
350
330
34D
100
AcDbEntity
  8
0
 62
     0
370
    -2
100
AcDbLine
 10
29.25545530792378
 20
21.34586010730609
 30
0.0
 11
31.89229934808448
 21
21.34586010730609
 31
0.0
  0
LINE
  5
351
330
34D
100
AcDbEntity
  8
0
 62
     0
370
    -2
100
AcDbLine
 10
31.86229934808449
 20
31.09586010729957
 30
0.0
 11
31.86229934808449
 21
26.64309699365118
 31
0.0
  0
LINE
  5
352
330
34D
100
AcDbEntity
  8
0
 62
     0
370
    -2
100
AcDbLine
 10
31.86229934808448
 20
21.34586010730609
 30
0.0
 11
31.86229934808449
 21
25.79862322095448
 31
0.0
  0
INSERT
  5
353
330
34D
100
AcDbEntity
  8
0
 62
     0
370
    -2
100
AcDbBlockReference
  2
_ArchTick
 10
31.86229934808449
 20
31.09586010729957
 30
0.0
 41
0.156
 42
0.156
 43
0.156
 50
90.0
  0
INSERT
  5
354
330
34D
100
AcDbEntity
  8
0
 62
     0
370
    -2
100
AcDbBlockReference
  2
_ArchTick
 10
31.86229934808448
 20
21.34586010730609
 30
0.0
 41
0.156
 42
0.156
 43
0.156
 50
270.0
  0
MTEXT
  5
355
330
34D
100
AcDbEntity
  8
0
 62
     0
100
AcDbMText
 10
31.86229934808448
 20
26.4232045928442
 30
0.0
 40
0.3125
 41
0.0
 71
     5
 72
     1
  1
\A1;9 3/4"
 73
     1
 44
1.0
1001
ACAD
1000
MTEXTBEGIN
1070
    73
1070
     1
1070
    44
1040
1.0
1070
    74
1070
     0
1000
MTEXTEND
  0
MTEXT
  5
356
330
34D
100
AcDbEntity
  8
0
 62
     0
100
AcDbMText
 10
31.86229934808448
 20
26.00096770649584
 30
0.0
 40
0.3125
 41
0.0
 71
     5
 72
     1
  1
\A1;[248mm]
 73
     1
 44
1.0
1001
ACAD
1000
MTEXTBEGIN
1070
    73
1070
     1
1070
    44
1040
1.0
1070
    74
1070
     0
1000
MTEXTEND
  0
POINT
  5
357
330
34D
100
AcDbEntity
  8
Defpoints
 62
     0
100
AcDbPoint
 10
28.63793583436456
 20
31.09586010729957
 30
0.0
  0
POINT
  5
358
330
34D
100
AcDbEntity
  8
Defpoints
 62
     0
100
AcDbPoint
 10
29.21545530792378
 20
21.34586010730609
 30
0.0
  0
POINT
  5
359
330
34D
100
AcDbEntity
  8
Defpoints
 62
     0
100
AcDbPoint
 10
31.86229934808448
 20
21.34586010730609
 30
0.0
  0
ENDBLK
  5
35A
330
34D
100
AcDbEntity
  8
0
100
AcDbBlockEnd
  0
ENDSEC
  0
SECTION
  2
ENTITIES
  0
TEXT
  5
6A
330
2
100
AcDbEntity
  8
0
100
AcDbText
 10
16.20494748546063
 20
33.74854692369768
 30
0.0
 40
0.25
  1
%%USTORM INSERT
 41
0.55
 51
5.0
 72
     1
 11
16.88680693401476
 21
33.74854692369768
 31
0.0
100
AcDbText
  0
TEXT
  5
6B
330
2
100
AcDbEntity
  8
0
100
AcDbText
 10
24.49999265981785
 20
33.73068056890068
 30
0.0
 40
0.25
  1
%%USCREEN INSERT
 41
0.55
 51
5.0
 72
     1
 11
25.23867372908483
 21
33.73068056890068
 31
0.0
100
AcDbText
  0
LWPOLYLINE
  5
6C
102
{ACAD_REACTORS
330
2AC
330
2BD
330
2DF
102
}
330
2
100
AcDbEntity
  8
0
  6
Continuous
100
AcDbPolyline
 90
       19
 70
     1
 43
0.0
 10
28.59045530792378
 20
36.78423222913099
 10
28.59045530792378
 20
37.03389953635963
 10
28.40345530792376
 20
37.03389953635963
 10
28.40345530792376
 20
37.133732229131
 42
1.045128398166766
 10
28.2168633571755
 20
37.12449074478394
 42
-0.4419056050544676
 10
28.13422677063625
 20
37.03373222913098
 10
27.27745530792379
 20
37.03373222913098
 10
27.21545530792366
 20
37.09573222913099
 10
27.21545530792366
 20
41.00173222913099
 42
-0.4142135623730951
 10
27.27745530792379
 20
41.06373222913098
 10
28.90345530792377
 20
41.06373222913098
 42
-0.4142135623730951
 10
28.96545530792366
 20
41.00173222913099
 10
28.96545530792366
 20
36.78451230622903
 10
28.90345530792377
 20
36.72251230622902
 10
28.87041636080551
 20
36.72251230622902
 42
-0.3899024490717814
 10
28.68541636080545
 20
36.52133945490187
 10
28.68541636080545
 20
36.47173222913096
 10
28.59045530792366
 20
36.47173222913099
 10
28.59045530792366
 20
36.59673222913099
 42
0.7066666666666829
  0
LWPOLYLINE
  5
6D
102
{ACAD_REACTORS
330
29B
330
2EF
330
31C
330
32D
102
}
330
2
100
AcDbEntity
  8
0
  6
Continuous
100
AcDbPolyline
 90
       26
 70
     0
 43
0.0
 10
28.90345530792377
 20
41.18873776163633
 10
26.84045530792366
 20
41.18872669662562
 10
26.84045530792366
 20
41.1267266966256
 10
26.34848747866807
 20
41.1267266966256
 10
26.34848747866807
 20
41.00172669662561
 10
26.84045530792366
 20
41.00172669662561
 10
26.84045530792366
 20
40.7507266966256
 42
-0.4142135623730951
 10
26.77845530792365
 20
40.68872669662562
 10
24.46545514826778
 20
40.68873276482793
 42
-0.4142128141791537
 10
24.40295530792366
 20
40.7512327648277
 10
24.40295530792366
 20
41.53373776621214
 42
1.000000000000008
 10
24.40295530792366
 20
41.75173776621216
 10
24.40295530792366
 20
41.82673776163631
 10
25.08995530792367
 20
41.82673776163631
 10
25.08995530792367
 20
41.87673776163632
 10
25.30839803499168
 20
41.87673776163632
 42
0.9999999999999998
 10
25.55839803499168
 20
41.87673776163632
 10
25.96947139329598
 20
41.87673776163632
 42
0.9999999999999998
 10
26.21947139329598
 20
41.87673776163632
 10
26.46947139329598
 20
41.87673776163632
 42
0.9999999999999998
 10
26.71947139329598
 20
41.87673776163632
 10
28.2153967990356
 20
41.87673776163632
 42
0.9999999999999998
 10
28.4653967990356
 20
41.87673776163632
 10
28.96545530792366
 20
41.87673776163632
 10
28.96545530792366
 20
41.25123776163633
 42
-0.4142135623730951
 10
28.90295530792366
 20
41.18873776163633
  0
LWPOLYLINE
  5
6E
330
2
100
AcDbEntity
  8
0
100
AcDbPolyline
 90
       48
 70
     1
 43
0.0
 10
23.40243233800015
 20
22.15757133084744
 42
0.3099869661589099
 10
23.54083346078573
 20
22.2340150689478
 42
0.6346282874007124
 10
23.4819744312847
 20
22.25566771061031
 42
-0.2491068491705158
 10
23.40585119649063
 20
22.21523292296743
 10
23.36570530792255
 20
22.21523292296743
 42
-0.4142135623730951
 10
23.33445530791528
 20
22.24648292296743
 10
23.33445530791528
 20
22.26081605759728
 10
23.33445530791528
 20
22.31180667070558
 42
-0.3892015183906261
 10
23.36278811319335
 20
22.34269171681649
 10
28.35720854117801
 20
22.77400374135905
 42
0.3892015181633394
 10
28.38645530792587
 20
22.80588507926464
 10
28.38645530792587
 20
22.88061010729771
 42
0.4142135623730951
 10
28.35520530791132
 20
22.91186010729771
 10
28.30245530791604
 20
22.91186010729771
 42
-0.4142135623731034
 10
28.27145530791336
 20
22.94286010728947
 42
-0.4142135623730867
 10
28.30245530791604
 20
22.97386010729943
 10
28.41720530792395
 20
22.97386010729943
 42
-0.4142135623730951
 10
28.44845530792395
 20
22.94261010728852
 10
28.44845530792395
 20
22.74900855972592
 42
-0.3892015181726193
 10
28.41920854117495
 20
22.71712722182011
 10
28.08445530792255
 20
22.68821834304564
 10
28.08445530792255
 20
22.43886010729958
 10
28.02245530792447
 20
22.43886010729958
 10
28.02245530792447
 20
22.68286409905923
 10
27.39745530789537
 20
22.62888986535918
 10
27.39745530789537
 20
22.43886010729958
 10
27.33545530793367
 20
22.43886010729958
 10
27.33545530793367
 20
22.62353562136596
 10
23.61758920729392
 20
22.30246526336793
 42
-0.4513779684185582
 10
23.39645530792063
 20
22.0958601073061
 10
23.39645530792063
 20
21.68986010730705
 10
23.45845530792599
 20
21.68986010730705
 42
-0.4142135623730951
 10
23.58345530790416
 20
21.56486010730706
 10
23.58345530790416
 20
21.40786010730781
 10
23.86545530792523
 20
21.40786010730781
 42
-0.9999999999999998
 10
23.86545530792523
 20
21.34586010730609
 10
23.36570530792255
 20
21.34586010730609
 42
-0.4142135623730951
 10
23.33445530791528
 20
21.3771101073061
 10
23.33445530791528
 20
21.4708601073061
 42
-0.9999999999999998
 10
23.39645530792063
 20
21.4708601073061
 10
23.39645530792063
 20
21.4088601072971
 10
23.52145530791336
 20
21.4088601072971
 10
23.52145530791336
 20
21.56536010730897
 42
0.4142135623730951
 10
23.45895530790608
 20
21.62786010730898
 10
23.36570530792255
 20
21.62786010730898
 42
-0.4142135623730951
 10
23.33445530791528
 20
21.65911010730898
 10
23.33445530791528
 20
22.12657133085205
 42
-0.4142135623730951
 10
23.36545530792523
 20
22.15757133084744
  0
LWPOLYLINE
  5
6F
102
{ACAD_REACTORS
330
236
102
}
330
2
100
AcDbEntity
  8
0
100
AcDbPolyline
 90
        6
 70
     1
 43
0.0
 10
28.96545530792378
 20
22.72154615381706
 10
29.05845530793181
 20
22.72154615381706
 10
29.1844553079211
 20
22.64880001990142
 42
-0.2679491924311338
 10
29.21545530792378
 20
22.59510644485536
 10
29.21545530792378
 20
21.34586010730609
 10
28.96545530792378
 20
21.34586010730609
  0
LWPOLYLINE
  5
70
330
2
100
AcDbEntity
  8
0
100
AcDbPolyline
 90
       16
 70
     1
 43
0.0
 10
28.96545530792378
 20
22.2353601072995
 10
28.96545530792378
 20
21.45486010730284
 10
28.77838648726925
 20
21.45486010730284
 10
28.71545530792378
 20
21.34586010730609
 10
24.26345530794083
 20
21.34586010730609
 42
-0.414213562373095
 10
24.20145530792093
 20
21.40786010730781
 10
24.20145530792093
 20
21.62686010729786
 10
23.95145530792092
 20
21.62686010729786
 10
23.95145530792092
 20
21.48786010730592
 42
-0.4142135623730951
 10
23.8894553079374
 20
21.42586010729693
 10
23.61545530793251
 20
21.42586010729693
 10
23.61545530793251
 20
22.23886010730613
 10
26.11545530793251
 20
22.43886010729958
 10
28.65395530793103
 20
22.43886010729958
 42
-0.4142135623730951
 10
28.71595530793104
 20
22.37686010729968
 10
28.71595530793104
 20
22.2353601072995
  0
LWPOLYLINE
  5
71
330
2
100
AcDbEntity
  8
0
  6
Continuous
100
AcDbPolyline
 90
       13
 70
     1
 43
0.0
 10
28.30845530792374
 20
23.03186010729957
 42
0.4142135623730951
 10
28.24645530792373
 20
22.96986010729956
 10
28.24645530792373
 20
22.76956858717858
 10
27.25363994316444
 20
22.69143232341031
 42
-0.5289142198612735
 10
27.23747175798178
 20
22.71157746463618
 10
27.38893369960408
 20
23.20698715299238
 42
-0.329750547140315
 10
27.4482245944738
 20
23.25086010729956
 10
28.90345530792377
 20
23.25086010729956
 42
-0.4142135623730951
 10
28.96545530792378
 20
23.18886010729958
 10
28.96545530792378
 20
22.43886010729958
 10
28.46545530792378
 20
22.43886010729958
 10
28.46545530792378
 20
22.96986010729956
 42
0.4142135623730956
 10
28.40345530792376
 20
23.03186010729957
  0
LWPOLYLINE
  5
72
330
2
100
AcDbEntity
  8
0
  6
Continuous
100
AcDbPolyline
 90
        7
 70
     1
 43
0.0
 10
26.59045530792366
 20
23.46986010730038
 10
26.59045530792366
 20
24.39836124338385
 42
-0.3738846794848032
 10
26.69805867030402
 20
24.52214475197692
 10
27.21545530792366
 20
24.59486010730038
 10
27.21545530792366
 20
23.78286010729957
 10
27.05945530792372
 20
23.78286010729957
 10
26.74645530792361
 20
23.46986010730038
  0
LWPOLYLINE
  5
73
102
{ACAD_REACTORS
330
248
330
34C
102
}
330
2
100
AcDbEntity
  8
0
  6
Continuous
100
AcDbPolyline
 90
       19
 70
     1
 43
0.0
 10
28.59045530792366
 20
30.78336010729956
 10
28.59045530792366
 20
30.53369280007093
 10
28.40345530792376
 20
30.53369280007093
 10
28.40345530792376
 20
30.43386010729955
 42
-1.045128398166766
 10
28.21686335717561
 20
30.44310159164661
 42
0.4419056050544676
 10
28.13422677063625
 20
30.53386010729957
 10
27.27745530792379
 20
30.53386010729957
 10
27.21545530792366
 20
30.47186010729956
 10
27.21545530792366
 20
23.78286010729957
 42
0.4142135623730951
 10
27.27745530792379
 20
23.72086010729959
 10
28.90345530792377
 20
23.72086010729959
 42
0.4142135623730951
 10
28.96545530792366
 20
23.78286010729957
 10
28.96545530792366
 20
30.78308003020152
 10
28.90345530792377
 20
30.84508003020153
 10
28.87041636080551
 20
30.84508003020153
 42
0.3899024490717814
 10
28.68541636080545
 20
31.04625288152869
 10
28.68541636080545
 20
31.09586010729959
 10
28.59045530792366
 20
31.09586010729956
 10
28.59045530792366
 20
30.97086010729956
 42
-0.7066666666666826
  0
LWPOLYLINE
  5
74
102
{ACAD_REACTORS
330
236
102
}
330
2
100
AcDbEntity
  8
0
  6
Continuous
100
AcDbPolyline
 90
       26
 70
     0
 43
0.0
 10
28.96548747866814
 20
23.72086010729959
 10
27.21545530792366
 20
23.72086010729959
 10
27.21545530792366
 20
23.61186010729958
 42
0.157771401281339
 10
26.96545530792366
 20
23.16086010729959
 10
27.01060686491758
 20
23.1520659671464
 42
-0.1709509127273156
 10
27.27745530792379
 20
23.60561297577118
 10
27.27745530792379
 20
23.16086010729959
 10
27.32345530792372
 20
23.16086010729959
 10
27.32345530792372
 20
23.61186010729958
 10
27.76045530792373
 20
23.61186010729958
 10
27.76045530792373
 20
23.15299411690415
 10
27.80645530792379
 20
23.15299411690415
 10
27.80645530792379
 20
23.61186010729958
 10
28.24345530792368
 20
23.61186010729958
 10
28.24345530792368
 20
23.15299411690415
 10
28.28945530792373
 20
23.15299411690415
 10
28.28945530792373
 20
23.61186010729958
 10
28.72645530792374
 20
23.61186010729958
 10
28.72645530792374
 20
23.15299411690415
 10
28.77245530792368
 20
23.15299411690415
 10
28.77245530792368
 20
23.61186010729958
 10
29.07445530792382
 20
23.61186010729958
 10
29.07445530792382
 20
23.90886010729957
 42
0.4142135623730948
 10
29.01245530792369
 20
23.97086010729958
 10
28.96545530792366
 20
23.97086010729958
 10
28.96545530792366
 20
23.72086010729959
  0
HATCH
  5
75
330
2
100
AcDbEntity
  8
0
100
AcDbHatch
 10
0.0
 20
0.0
 30
0.0
210
0.0
220
0.0
230
1.0
  2
SOLID
 70
     1
 71
     0
 91
        1
 92
        7
 72
     1
 73
     1
 93
        2
 10
28.59045530792366
 20
36.59639953635963
 42
0.0
 10
28.59045530792378
 20
36.7838995363596
 42
-0.6666666666666311
 97
        0
 75
     1
 76
     1
 47
0.0010014887122476
 98
        1
 10
28.63651538427064
 20
36.71130473240376
1001
GradientColor1ACI
1070
     5
1001
GradientColor2ACI
1070
     2
1001
ACAD
1010
0.0
1020
0.0
1030
0.0
  0
HATCH
  5
78
330
2
100
AcDbEntity
  8
0
100
AcDbHatch
 10
0.0
 20
0.0
 30
0.0
210
0.0
220
0.0
230
1.0
  2
SOLID
 70
     1
 71
     0
 91
        1
 92
        7
 72
     1
 73
     1
 93
        2
 10
27.68122515044365
 20
36.59639953635963
 42
0.0
 10
27.68122515044365
 20
36.7838995363596
 42
0.6666666666666311
 97
        0
 75
     1
 76
     1
 47
0.0010014887122476
 98
        1
 10
27.63516507409679
 20
36.71130473240376
1001
GradientColor1ACI
1070
     5
1001
GradientColor2ACI
1070
     2
1001
ACAD
1010
0.0
1020
0.0
1030
0.0
  0
LWPOLYLINE
  5
79
330
2
100
AcDbEntity
  8
0
100
AcDbPolyline
 90
       11
 70
     1
 43
0.0
 10
27.68122515044365
 20
36.7838995363596
 10
27.68122515044365
 20
37.03389953635963
 10
27.30722515044363
 20
37.0338995363596
 10
27.30722515044363
 20
36.75239953635961
 42
0.4142135623731695
 10
27.33822515044358
 20
36.72139953635963
 10
27.38474991873011
 20
36.72139953635963
 42
-0.235730494161761
 10
27.40952611330613
 20
36.70903123468079
 10
27.57892418758115
 20
36.48376783803846
 42
0.235730494161718
 10
27.60370038215717
 20
36.47139953635963
 10
27.68122515044365
 20
36.47139953635963
 10
27.68122515044365
 20
36.59639953635963
 42
-0.6666666666666588
  0
LWPOLYLINE
  5
7A
330
2
100
AcDbEntity
  8
0
100
AcDbPolyline
 90
        4
 70
     0
 43
0.0
 10
28.43271522918371
 20
35.84629616821528
 10
28.43271522918371
 20
36.92489953635925
 10
28.59045530792378
 20
36.92489953635925
 10
28.59045530792378
 20
35.84629616821528
  0
LWPOLYLINE
  5
7B
330
2
100
AcDbEntity
  8
0
100
AcDbPolyline
 90
        4
 70
     0
 43
0.0
 10
27.83896522918372
 20
35.84629616821528
 10
27.83896522918372
 20
36.92489953635925
 10
27.68122515044365
 20
36.92489953635925
 10
27.68122515044365
 20
35.84629616821528
  0
LWPOLYLINE
  5
7C
330
2
100
AcDbEntity
  8
0
100
AcDbPolyline
 90
       14
 70
     1
 43
0.0
 10
27.94834022918371
 20
36.71507479541072
 42
-0.3359746306540741
 10
27.91583631943672
 20
36.69471203635897
 10
27.87996522918388
 20
36.71889953635912
 42
0.4142135623730951
 10
27.86434022918388
 20
36.70327453635912
 10
27.86434022918388
 20
36.52164953635895
 10
28.40734022918354
 20
36.52164953635895
 10
28.40734022918354
 20
36.70327453635912
 42
0.414213562373094
 10
28.39171522918355
 20
36.71889953635912
 10
28.35622744112539
 20
36.69471203635897
 42
-0.3208708054700532
 10
28.32334022918372
 20
36.71543770449137
 10
28.32334022918372
 20
36.77227453635953
 42
0.4142135623730951
 10
28.30771522918372
 20
36.78789953635953
 10
27.96396522918371
 20
36.78789953635953
 42
0.4142135623730951
 10
27.94834022918371
 20
36.77227453635953
  0
LWPOLYLINE
  5
7D
330
2
100
AcDbEntity
  8
0
100
AcDbPolyline
 90
       14
 70
     1
 43
0.0
 10
27.95534022918423
 20
36.71385639526636
 42
-0.3593608004949541
 10
27.91334034186025
 20
36.68795237938559
 10
27.87812139474795
 20
36.71170014610436
 42
0.3524310491054993
 10
27.87134022918349
 20
36.70327453635912
 10
27.87134022918349
 20
36.52164953635895
 10
28.40034022918394
 20
36.52164953635895
 10
28.40034022918394
 20
36.70327453635912
 42
0.3518693664465323
 10
28.39357590148234
 20
36.7116964437206
 10
28.35865151031635
 20
36.68789293954126
 42
-0.3446308864324803
 10
28.3163402291832
 20
36.71413185354288
 10
28.3163402291832
 20
36.77227453635953
 42
0.4142135623730946
 10
28.30771522918372
 20
36.78089953635902
 10
27.96396522918371
 20
36.78089953635902
 42
0.4142135623730946
 10
27.95534022918423
 20
36.77227453635953
  0
LWPOLYLINE
  5
7E
330
2
100
AcDbEntity
  8
0
100
AcDbPolyline
 90
       10
 70
     1
 43
0.0
 10
27.97959022918372
 20
36.71033703635897
 42
-0.3584554666094669
 10
27.91468638303036
 20
36.66346203635896
 10
27.89559022918388
 20
36.66346203635896
 10
27.89559022918388
 20
36.55289953635895
 10
28.37609022918355
 20
36.55289953635895
 10
28.37609022918355
 20
36.66346203635896
 10
28.35699407533707
 20
36.66346203635896
 42
-0.3467993108968364
 10
28.29209022918372
 20
36.71033703635897
 10
28.29209022918372
 20
36.75664953635954
 10
27.97959022918372
 20
36.75664953635954
  0
LWPOLYLINE
  5
7F
330
2
100
AcDbEntity
  8
0
100
AcDbPolyline
 90
        6
 70
     0
 43
0.0
 10
27.86434022918388
 20
36.54989953635925
 10
27.85459022918371
 20
36.54989953635925
 10
27.85459022918371
 20
36.51189953635878
 10
28.41709022918371
 20
36.51189953635878
 10
28.41709022918371
 20
36.54989953635925
 10
28.40734022918354
 20
36.54989953635925
  0
LINE
  5
80
330
2
100
AcDbEntity
  8
0
100
AcDbLine
 10
28.40734022918354
 20
36.70327453635912
 30
0.0
 11
28.43271522918371
 21
36.70327453635912
 31
0.0
  0
LINE
  5
81
330
2
100
AcDbEntity
  8
0
100
AcDbLine
 10
28.40734022918354
 20
36.54989953635925
 30
0.0
 11
28.43271522918371
 21
36.54989953635925
 31
0.0
  0
LINE
  5
82
330
2
100
AcDbEntity
  8
0
100
AcDbLine
 10
27.86434022918388
 20
36.70327453635912
 30
0.0
 11
27.83896522918372
 21
36.70327453635912
 31
0.0
  0
LINE
  5
83
330
2
100
AcDbEntity
  8
0
100
AcDbLine
 10
27.86434022918388
 20
36.54989953635925
 30
0.0
 11
27.83896522918372
 21
36.54989953635925
 31
0.0
  0
HATCH
  5
84
330
2
100
AcDbEntity
  8
0
  6
Continuous
100
AcDbHatch
 10
0.0
 20
0.0
 30
0.0
210
0.0
220
0.0
230
1.0
  2
DOTS
 70
     0
 71
     0
 91
        2
 92
        7
 72
     0
 73
     1
 93
        4
 10
27.86434022918388
 20
36.70327453635912
 10
27.83896522918372
 20
36.70327453635912
 10
27.83896522918372
 20
36.54989953635925
 10
27.86434022918388
 20
36.54989953635925
 97
        0
 92
        7
 72
     0
 73
     1
 93
        4
 10
28.43271522918371
 20
36.70327453635912
 10
28.40734022918354
 20
36.70327453635912
 10
28.40734022918354
 20
36.54989953635925
 10
28.43271522918371
 20
36.54989953635925
 97
        0
 75
     0
 76
     1
 52
360.0
 41
0.1
 77
     0
 78
     1
 53
360.0
 43
21.74548548364715
 44
38.99760427994591
 45
0.003125
 46
-0.00625
 79
     2
 49
0.0
 49
-0.00625
 47
0.0006001443632006
 98
        2
 10
27.85261993903646
 20
36.64568959631072
 10
28.42250486843227
 20
36.64208872251186
  0
HATCH
  5
85
330
2
100
AcDbEntity
  8
0
  6
Continuous
100
AcDbHatch
 10
0.0
 20
0.0
 30
0.0
210
0.0
220
0.0
230
1.0
  2
DASH
 70
     0
 71
     0
 91
        1
 92
        7
 72
     1
 73
     1
 93
       16
 10
28.30771522918372
 20
36.78789953635953
 42
-0.4142135623730951
 10
28.32334022918372
 20
36.77227453635953
 42
0.0
 10
28.32334022918372
 20
36.71543770449137
 42
0.3208708054700533
 10
28.35622744112539
 20
36.69471203635897
 42
0.0
 10
28.39171522918355
 20
36.71889953635912
 42
-0.414213562373094
 10
28.40734022918354
 20
36.70327453635912
 42
0.0
 10
28.43271522918462
 20
36.70327453635912
 42
0.0
 10
28.43271522918281
 20
36.92489953635834
 42
0.0
 10
27.83896522918372
 20
36.92489953635834
 42
0.0
 10
27.83896522918372
 20
36.70327453635912
 42
0.0
 10
27.86434022918388
 20
36.70327453635912
 42
-0.4142135623730951
 10
27.87996522918388
 20
36.71889953635912
 42
0.0
 10
27.91583631943672
 20
36.69471203635897
 42
0.3359746306540741
 10
27.94834022918371
 20
36.71507479541072
 42
0.0
 10
27.94834022918371
 20
36.77227453635953
 42
-0.4142135623730951
 10
27.96396522918371
 20
36.78789953635953
 42
0.0
 97
        0
 75
     0
 76
     1
 52
360.0
 41
0.1
 77
     0
 78
     1
 53
360.0
 43
21.74548548364715
 44
38.99760427994591
 45
0.0125
 46
-0.0125
 79
     2
 49
0.0125
 49
-0.0125
 47
0.0009600803746669
 98
        1
 10
28.18486170926849
 20
36.83873880855356
  0
LINE
  5
86
330
2
100
AcDbEntity
  8
0
100
AcDbLine
 10
27.68122515044365
 20
37.03389953635963
 30
0.0
 11
28.59045530792378
 21
36.92489953635925
 31
0.0
  0
LWPOLYLINE
  5
87
330
2
100
AcDbEntity
  8
0
100
AcDbPolyline
 90
        8
 70
     0
 43
0.0
 10
27.68122515044365
 20
37.03389953635963
 10
28.59045530792378
 20
37.03389953635963
 10
28.59045530792378
 20
36.92489953635925
 10
27.68122515044365
 20
36.92489953635925
 10
27.68122515044365
 20
37.03389953635963
 10
28.59045530792378
 20
36.92489953635925
 10
27.68122515044365
 20
36.92489953635925
 10
28.59045530792378
 20
37.03389953635963
  0
HATCH
  5
88
330
2
100
AcDbEntity
  8
0
100
AcDbHatch
 10
0.0
 20
0.0
 30
0.0
210
0.0
220
0.0
230
1.0
  2
SOLID
 70
     1
 71
     0
 91
        1
 92
        7
 72
     1
 73
     1
 93
        2
 10
28.59045530792366
 20
30.97119280007092
 42
0.0
 10
28.59045530792366
 20
30.78369280007095
 42
0.6666666666666311
 97
        0
 75
     1
 76
     1
 47
0.0010014887122476
 98
        1
 10
28.63651538427064
 20
30.85628760402679
1001
GradientColor1ACI
1070
     5
1001
GradientColor2ACI
1070
     2
1001
ACAD
1010
0.0
1020
0.0
1030
0.0
  0
HATCH
  5
89
330
2
100
AcDbEntity
  8
0
100
AcDbHatch
 10
0.0
 20
0.0
 30
0.0
210
0.0
220
0.0
230
1.0
  2
SOLID
 70
     1
 71
     0
 91
        1
 92
        7
 72
     1
 73
     1
 93
        2
 10
27.68122515044365
 20
30.97119280007092
 42
0.0
 10
27.68122515044354
 20
30.78369280007095
 42
-0.6666666666666311
 97
        0
 75
     1
 76
     1
 47
0.0010014887122476
 98
        1
 10
27.63516507409679
 20
30.85628760402679
1001
GradientColor1ACI
1070
     5
1001
GradientColor2ACI
1070
     2
1001
ACAD
1010
0.0
1020
0.0
1030
0.0
  0
LWPOLYLINE
  5
8A
330
2
100
AcDbEntity
  8
0
100
AcDbPolyline
 90
       11
 70
     1
 43
0.0
 10
27.68122515044354
 20
30.78369280007095
 10
27.68122515044354
 20
30.53369280007093
 10
27.30722515044363
 20
30.53369280007095
 10
27.30722515044352
 20
30.81519280007095
 42
-0.4142135623731695
 10
27.33822515044358
 20
30.84619280007093
 10
27.38474991873011
 20
30.84619280007093
 42
0.235730494161761
 10
27.40952611330602
 20
30.85856110174976
 10
27.57892418758104
 20
31.08382449839209
 42
-0.235730494161718
 10
27.60370038215717
 20
31.09619280007092
 10
27.68122515044365
 20
31.09619280007092
 10
27.68122515044365
 20
30.97119280007092
 42
0.6666666666666588
  0
LWPOLYLINE
  5
8B
330
2
100
AcDbEntity
  8
0
100
AcDbPolyline
 90
        4
 70
     0
 43
0.0
 10
28.4327152291836
 20
31.72129616821528
 10
28.4327152291836
 20
30.6426928000713
 10
28.59045530792366
 20
30.6426928000713
 10
28.59045530792366
 20
31.72129616821528
  0
LWPOLYLINE
  5
8C
330
2
100
AcDbEntity
  8
0
100
AcDbPolyline
 90
        4
 70
     0
 43
0.0
 10
27.8389652291836
 20
31.72129616821528
 10
27.8389652291836
 20
30.6426928000713
 10
27.68122515044354
 20
30.6426928000713
 10
27.68122515044354
 20
31.72129616821528
  0
LWPOLYLINE
  5
8D
330
2
100
AcDbEntity
  8
0
100
AcDbPolyline
 90
       14
 70
     1
 43
0.0
 10
27.9483402291836
 20
30.85251754101984
 42
0.3359746306540741
 10
27.91583631943661
 20
30.87288030007159
 10
27.87996522918377
 20
30.84869280007143
 42
-0.4142135623730951
 10
27.86434022918377
 20
30.86431780007143
 10
27.86434022918377
 20
31.0459428000716
 10
28.40734022918343
 20
31.0459428000716
 10
28.40734022918343
 20
30.86431780007143
 42
-0.414213562373094
 10
28.39171522918343
 20
30.84869280007143
 10
28.35622744112527
 20
30.87288030007159
 42
0.3208708054700532
 10
28.3233402291836
 20
30.85215463193919
 10
28.3233402291836
 20
30.79531780007102
 42
-0.4142135623730951
 10
28.3077152291836
 20
30.77969280007102
 10
27.9639652291836
 20
30.77969280007102
 42
-0.4142135623730951
 10
27.9483402291836
 20
30.79531780007102
  0
LWPOLYLINE
  5
8E
330
2
100
AcDbEntity
  8
0
100
AcDbPolyline
 90
       14
 70
     1
 43
0.0
 10
27.95534022918412
 20
30.85373594116419
 42
0.3593608004949541
 10
27.91334034186014
 20
30.87963995704496
 10
27.87812139474784
 20
30.85589219032619
 42
-0.3524310491054993
 10
27.87134022918337
 20
30.86431780007143
 10
27.87134022918337
 20
31.0459428000716
 10
28.40034022918383
 20
31.0459428000716
 10
28.40034022918383
 20
30.86431780007143
 42
-0.3518693664465323
 10
28.39357590148222
 20
30.85589589270995
 10
28.35865151031624
 20
30.87969939688929
 42
0.3446308864324803
 10
28.31634022918308
 20
30.85346048288767
 10
28.31634022918308
 20
30.79531780007102
 42
-0.4142135623730946
 10
28.3077152291836
 20
30.78669280007154
 10
27.9639652291836
 20
30.78669280007154
 42
-0.4142135623730946
 10
27.95534022918412
 20
30.79531780007102
  0
LWPOLYLINE
  5
8F
330
2
100
AcDbEntity
  8
0
100
AcDbPolyline
 90
       10
 70
     1
 43
0.0
 10
27.9795902291836
 20
30.85725530007159
 42
0.3584554666094669
 10
27.91468638303025
 20
30.90413030007159
 10
27.89559022918377
 20
30.90413030007159
 10
27.89559022918377
 20
31.0146928000716
 10
28.37609022918343
 20
31.0146928000716
 10
28.37609022918343
 20
30.90413030007159
 10
28.35699407533696
 20
30.90413030007159
 42
0.3467993108968364
 10
28.2920902291836
 20
30.85725530007159
 10
28.2920902291836
 20
30.81094280007102
 10
27.9795902291836
 20
30.81094280007102
  0
LWPOLYLINE
  5
90
330
2
100
AcDbEntity
  8
0
100
AcDbPolyline
 90
        6
 70
     0
 43
0.0
 10
27.86434022918377
 20
31.0176928000713
 10
27.8545902291836
 20
31.0176928000713
 10
27.8545902291836
 20
31.05569280007177
 10
28.4170902291836
 20
31.05569280007177
 10
28.4170902291836
 20
31.0176928000713
 10
28.40734022918343
 20
31.0176928000713
  0
LINE
  5
91
330
2
100
AcDbEntity
  8
0
100
AcDbLine
 10
28.40734022918343
 20
30.86431780007143
 30
0.0
 11
28.4327152291836
 21
30.86431780007143
 31
0.0
  0
LINE
  5
92
330
2
100
AcDbEntity
  8
0
100
AcDbLine
 10
28.40734022918343
 20
31.0176928000713
 30
0.0
 11
28.4327152291836
 21
31.0176928000713
 31
0.0
  0
LINE
  5
93
330
2
100
AcDbEntity
  8
0
100
AcDbLine
 10
27.86434022918377
 20
30.86431780007143
 30
0.0
 11
27.8389652291836
 21
30.86431780007143
 31
0.0
  0
LINE
  5
94
330
2
100
AcDbEntity
  8
0
100
AcDbLine
 10
27.86434022918377
 20
31.0176928000713
 30
0.0
 11
27.8389652291836
 21
31.0176928000713
 31
0.0
  0
HATCH
  5
95
330
2
100
AcDbEntity
  8
0
  6
Continuous
100
AcDbHatch
 10
0.0
 20
0.0
 30
0.0
210
0.0
220
0.0
230
1.0
  2
DOTS
 70
     0
 71
     0
 91
        2
 92
        7
 72
     0
 73
     1
 93
        4
 10
27.86434022918377
 20
30.86431780007143
 10
27.8389652291836
 20
30.86431780007143
 10
27.8389652291836
 20
31.0176928000713
 10
27.86434022918377
 20
31.0176928000713
 97
        0
 92
        7
 72
     0
 73
     1
 93
        4
 10
28.4327152291836
 20
30.86431780007143
 10
28.40734022918343
 20
30.86431780007143
 10
28.40734022918343
 20
31.0176928000713
 10
28.4327152291836
 20
31.0176928000713
 97
        0
 75
     0
 76
     1
 52
360.0
 41
0.1
 77
     0
 78
     1
 53
360.0
 43
21.74548548364703
 44
34.12260427994591
 45
0.003125
 46
-0.00625
 79
     2
 49
0.0
 49
-0.00625
 47
0.0006001443632006
 98
        2
 10
27.85261993903635
 20
30.92190274011983
 10
28.42250486843216
 20
30.92550361391869
  0
HATCH
  5
96
330
2
100
AcDbEntity
  8
0
  6
Continuous
100
AcDbHatch
 10
0.0
 20
0.0
 30
0.0
210
0.0
220
0.0
230
1.0
  2
DASH
 70
     0
 71
     0
 91
        1
 92
        7
 72
     1
 73
     1
 93
       16
 10
28.3077152291836
 20
30.77969280007102
 42
0.4142135623730951
 10
28.3233402291836
 20
30.79531780007102
 42
0.0
 10
28.3233402291836
 20
30.85215463193919
 42
-0.3208708054700533
 10
28.35622744112527
 20
30.87288030007159
 42
0.0
 10
28.39171522918343
 20
30.84869280007143
 42
0.414213562373094
 10
28.40734022918343
 20
30.86431780007143
 42
0.0
 10
28.43271522918451
 20
30.86431780007143
 42
0.0
 10
28.43271522918269
 20
30.64269280007221
 42
0.0
 10
27.8389652291836
 20
30.64269280007221
 42
0.0
 10
27.8389652291836
 20
30.86431780007143
 42
0.0
 10
27.86434022918377
 20
30.86431780007143
 42
0.4142135623730951
 10
27.87996522918377
 20
30.84869280007143
 42
0.0
 10
27.91583631943661
 20
30.87288030007159
 42
-0.3359746306540741
 10
27.9483402291836
 20
30.85251754101984
 42
0.0
 10
27.9483402291836
 20
30.79531780007102
 42
0.4142135623730951
 10
27.9639652291836
 20
30.77969280007102
 42
0.0
 97
        0
 75
     0
 76
     1
 52
360.0
 41
0.1
 77
     0
 78
     1
 53
360.0
 43
21.74548548364703
 44
34.12260427994591
 45
0.0125
 46
-0.0125
 79
     2
 49
0.0125
 49
-0.0125
 47
0.0009600803746669
 98
        1
 10
28.18486170926838
 20
30.72885352787699
  0
LINE
  5
97
330
2
100
AcDbEntity
  8
0
100
AcDbLine
 10
27.68122515044354
 20
30.53369280007093
 30
0.0
 11
28.59045530792366
 21
30.6426928000713
 31
0.0
  0
LWPOLYLINE
  5
98
330
2
100
AcDbEntity
  8
0
100
AcDbPolyline
 90
        8
 70
     0
 43
0.0
 10
27.68122515044354
 20
30.53369280007093
 10
28.59045530792366
 20
30.53369280007093
 10
28.59045530792366
 20
30.6426928000713
 10
27.68122515044354
 20
30.6426928000713
 10
27.68122515044354
 20
30.53369280007093
 10
28.59045530792366
 20
30.6426928000713
 10
27.68122515044354
 20
30.6426928000713
 10
28.59045530792366
 20
30.53369280007093
  0
LINE
  5
99
330
2
100
AcDbEntity
  8
0
  6
HIDDEN2
100
AcDbLine
 10
21.14960778731336
 20
35.84629616821519
 30
0.0
 11
28.59045530792366
 21
35.84629616821528
 31
0.0
  0
HATCH
  5
9B
330
2
100
AcDbEntity
  8
0
100
AcDbHatch
 10
0.0
 20
0.0
 30
0.0
210
0.0
220
0.0
230
1.0
  2
HONEY
 70
     0
 71
     0
 91
        2
 92
       16
 93
        9
 72
     1
 10
26.49731290440275
 20
41.0962692986753
 11
26.49731290440275
 21
41.1259459890548
 72
     1
 10
26.49731290440275
 20
41.12594598905476
 11
26.87471029079018
 21
41.12579032998431
 72
     1
 10
26.87471029079006
 20
41.12579032998431
 11
26.87457816173617
 21
40.80544176669071
 72
     1
 10
26.87457816173617
 20
40.80544176669073
 11
26.84107660872667
 21
40.80545558454105
 72
     1
 10
26.84107660872667
 20
40.80545558454105
 11
26.84119715689428
 21
41.09772614256161
 72
     1
 10
26.84119715689428
 20
41.09772614256161
 11
26.52777062405255
 21
41.09785541659613
 72
     1
 10
26.52777062405255
 20
41.09785541659613
 11
26.62267726386676
 21
41.00287045522702
 72
     1
 10
26.62267726386688
 20
41.00287045522702
 11
26.59063473415813
 21
41.00287045522702
 72
     1
 10
26.59063473415802
 20
41.00287045522702
 11
26.49731290440275
 21
41.0962692986753
 97
        0
 92
        1
 93
       11
 72
     1
 10
26.94437869034903
 20
40.79669031122191
 11
26.94449117629165
 21
41.06941390281614
 72
     2
 10
26.88736316517918
 20
41.06943746549416
 40
0.0571280159716573
 50
359.9763681265573
 51
449.9763681265644
 73
     1
 72
     1
 10
26.88738672785723
 20
41.12656547660657
 11
26.49653252946575
 21
41.12672668599327
 72
     1
 10
26.49653252946575
 20
41.12672668599327
 11
26.49648097271722
 21
41.00172669662566
 72
     1
 10
26.49648097271722
 20
41.00172669662566
 11
26.84045530792378
 21
41.00158482302714
 72
     1
 10
26.84045530792366
 20
41.00158482302714
 11
26.84033860199077
 21
40.71862981153057
 72
     2
 10
27.0278476277507
 20
40.74047421299297
 40
0.1887771506741734
 50
186.6448831998169
 51
353.3078530532888
 73
     1
 72
     1
 10
27.21533857009365
 20
40.71847514128492
 11
27.21546725909389
 21
41.03048325108815
 72
     2
 10
27.12666513634611
 20
41.02439373459358
 40
0.0890106691113012
 50
3.922859359099021
 51
176.0298768940037
 73
     1
 72
     1
 10
27.03786806710241
 20
41.03055650258946
 11
27.10195497958523
 21
40.82011944246704
 72
     2
 10
27.02491354661072
 20
40.79665709429642
 40
0.0805348631119007
 50
343.0623079543601
 51
540.0236318734479
 73
     0
 97
        0
 75
     1
 76
     1
 52
0.0
 41
0.2
 77
     0
 78
     3
 53
0.0
 43
-78.81044384369125
 44
-10.11961716108032
 45
0.0375
 46
0.021650635094611
 79
     2
 49
0.025
 49
-0.05
 53
120.0
 43
-78.81044384369125
 44
-10.11961716108032
 45
-0.0375
 46
0.021650635094611
 79
     2
 49
0.0249999999999999
 49
-0.0499999999999998
 53
60.0
 43
-78.81044384369125
 44
-10.11961716108032
 45
0.0
 46
0.043301270189222
 79
     2
 49
-0.05
 49
0.025
 98
        1
 10
-78.81044384369125
 20
-10.11961716108032
1001
GradientColor1ACI
1070
     5
1001
GradientColor2ACI
1070
     2
1001
ACAD
1010
0.0
1020
0.0
1030
0.0
  0
LWPOLYLINE
  5
9C
330
2
100
AcDbEntity
  8
0
100
AcDbPolyline
 90
       11
 70
     1
 43
0.0
 10
26.94437869034903
 20
40.79669031122191
 10
26.94449117629165
 20
41.06941390281614
 42
0.4142135623731042
 10
26.88738672785723
 20
41.12656547660657
 10
26.49653252946575
 20
41.12672668599327
 10
26.49648097271722
 20
41.00172669662566
 10
26.84045530792366
 20
41.00158482302714
 10
26.84033860199077
 20
40.71862981153057
 42
0.8898955318630001
 10
27.21533857009365
 20
40.71847514128492
 10
27.21546725909377
 20
41.03048325108815
 42
0.9333884728362816
 10
27.03786806710241
 20
41.03055650258946
 10
27.10195497958523
 20
40.82011944246704
 42
-1.16016115395227
  0
LWPOLYLINE
  5
9D
330
2
100
AcDbEntity
  8
0
  6
Continuous
100
AcDbPolyline
 90
        9
 70
     1
 43
0.0
 10
26.49731290440275
 20
41.0962692986753
 10
26.49731290440275
 20
41.12594598905476
 10
26.87471029079006
 20
41.12579032998431
 10
26.87457816173617
 20
40.80544176669073
 10
26.84107660872667
 20
40.80545558454105
 10
26.84119715689428
 20
41.09772614256161
 10
26.52777062405255
 20
41.09785541659613
 10
26.62267726386688
 20
41.00287045522702
 10
26.59063473415802
 20
41.00287045522702
  0
LINE
  5
9E
330
2
100
AcDbEntity
  8
0
  6
HIDDEN
100
AcDbLine
 10
26.65295530792378
 20
23.37786010729957
 30
0.0
 11
26.65295530792378
 21
23.46986010730038
 31
0.0
  0
LINE
  5
A0
330
2
100
AcDbEntity
  8
0
  6
HIDDEN
100
AcDbLine
 10
26.65295530792378
 20
24.50661441885714
 30
0.0
 11
26.65295530792366
 21
31.72129616821528
 31
0.0
  0
LINE
  5
A1
330
2
100
AcDbEntity
  8
0
  6
HIDDEN
100
AcDbLine
 10
26.65295530792366
 20
35.84629616821525
 30
0.0
 11
26.65295530792366
 21
40.53273222913097
 31
0.0
  0
LINE
  5
A2
330
2
100
AcDbEntity
  8
0
100
AcDbLine
 10
26.83914551047917
 20
40.53273222913097
 30
0.0
 11
26.83914551047917
 21
35.84629616821525
 31
0.0
  0
LINE
  5
A3
330
2
100
AcDbEntity
  8
0
100
AcDbLine
 10
26.83914551047917
 20
31.72129616821528
 30
0.0
 11
26.83914551047906
 21
24.54197321426071
 31
0.0
  0
LINE
  5
A4
330
2
100
AcDbEntity
  8
0
100
AcDbLine
 10
26.83914551047906
 20
23.56255030985554
 30
0.0
 11
26.83914551047906
 21
23.37786010729957
 31
0.0
  0
LINE
  5
A5
330
2
100
AcDbEntity
  8
0
100
AcDbLine
 10
25.77614551047918
 20
40.53273222913097
 30
0.0
 11
25.77614551047918
 21
35.84629616821522
 31
0.0
  0
LINE
  5
A6
330
2
100
AcDbEntity
  8
0
100
AcDbLine
 10
25.83864551047919
 20
40.53273222913097
 30
0.0
 11
25.83864551047919
 21
35.84629616821522
 31
0.0
  0
LINE
  5
A7
330
2
100
AcDbEntity
  8
0
100
AcDbLine
 10
25.90114551047918
 20
40.53273222913097
 30
0.0
 11
25.90114551047918
 21
35.84629616821522
 31
0.0
  0
LINE
  5
A8
330
2
100
AcDbEntity
  8
0
100
AcDbLine
 10
25.77614551047918
 20
31.72129616821528
 30
0.0
 11
25.77614551047918
 21
23.37786010729957
 31
0.0
  0
LINE
  5
A9
330
2
100
AcDbEntity
  8
0
100
AcDbLine
 10
25.83864551047919
 20
31.72129616821528
 30
0.0
 11
25.83864551047919
 21
23.37786010729957
 31
0.0
  0
LINE
  5
AA
330
2
100
AcDbEntity
  8
0
100
AcDbLine
 10
25.90114551047918
 20
31.72129616821528
 30
0.0
 11
25.90114551047918
 21
23.37786010729957
 31
0.0
  0
LINE
  5
AB
330
2
100
AcDbEntity
  8
0
100
AcDbLine
 10
27.21545530792366
 20
40.53273222913097
 30
0.0
 11
25.77614551047918
 21
40.53273222913097
 31
0.0
  0
LINE
  5
AC
330
2
100
AcDbEntity
  8
0
100
AcDbLine
 10
26.83914551047906
 20
23.3778601072996
 30
0.0
 11
25.77614551047918
 21
23.3778601072996
 31
0.0
  0
LINE
  5
AD
330
2
100
AcDbEntity
  8
0
100
AcDbLine
 10
27.27745530792379
 20
23.72086010729959
 30
0.0
 11
26.99745530792359
 21
23.72086010729959
 31
0.0
  0
LINE
  5
AE
330
2
100
AcDbEntity
  8
0
  6
HIDDEN
100
AcDbLine
 10
26.65295530792412
 20
23.37786010741132
 30
0.0
 11
26.65295530792412
 21
23.46986010741213
 31
0.0
  0
LINE
  5
AF
330
2
100
AcDbEntity
  8
0
100
AcDbLine
 10
26.8391455104794
 20
23.56255030996729
 30
0.0
 11
26.8391455104794
 21
23.37786010741132
 31
0.0
  0
LWPOLYLINE
  5
B0
330
2
100
AcDbEntity
  8
0
  6
Continuous
100
AcDbPolyline
 90
       16
 70
     1
 43
0.0
 10
23.71522545485106
 20
23.43986010729327
 10
23.71522545485834
 20
22.9738601073002
 42
0.4142135623730951
 10
23.84022545485834
 20
22.8488601073002
 10
23.90322545486754
 20
22.8488601073002
 10
23.90322545486754
 20
22.59586010729959
 10
23.81022545488133
 20
22.59586010729959
 10
23.81022545488133
 20
22.66086010729828
 10
23.84122545486218
 20
22.66086010729828
 10
23.84122545486218
 20
22.78686010728393
 10
23.71522545485106
 20
22.78686010728393
 10
23.71522545485106
 20
22.66086010729828
 10
23.74622545488285
 20
22.66086010729828
 10
23.74622545488285
 20
22.59586010729959
 10
23.65322545486754
 20
22.59586010729959
 10
23.65322545486754
 20
23.47086010729959
 10
23.68422545486294
 20
23.47086010729328
 42
-0.4142135623730951
  0
LWPOLYLINE
  5
B1
330
2
100
AcDbEntity
  8
0
  6
Continuous
100
AcDbPolyline
 90
        2
 70
     0
 43
0.0
 10
23.71164850511275
 20
22.29668534671529
 10
23.74822545485665
 20
22.66086010729828
  0
LWPOLYLINE
  5
B2
330
2
100
AcDbEntity
  8
0
  6
Continuous
100
AcDbPolyline
 90
        2
 70
     0
 43
0.0
 10
23.78072545485668
 20
22.29668534671529
 10
23.78072545485668
 20
22.68586010729825
  0
LWPOLYLINE
  5
B3
330
2
100
AcDbEntity
  8
0
  6
Continuous
100
AcDbPolyline
 90
        2
 70
     0
 43
0.0
 10
23.7757254548568
 20
22.29668534671529
 10
23.7757254548568
 20
22.68586010729825
  0
LWPOLYLINE
  5
B4
330
2
100
AcDbEntity
  8
0
  6
Continuous
100
AcDbPolyline
 90
        3
 70
     0
 43
0.0
 10
23.77155878818996
 20
22.68586010729825
 10
23.77155878818996
 20
22.66086010729828
 10
23.76681649400063
 20
22.29668534671529
  0
LWPOLYLINE
  5
B5
330
2
100
AcDbEntity
  8
0
  6
Continuous
100
AcDbPolyline
 90
        3
 70
     0
 43
0.0
 10
23.76822545485663
 20
22.68586010729825
 10
23.76822545485663
 20
22.66086010729828
 10
23.75880339483081
 20
22.29668534671529
  0
LWPOLYLINE
  5
B6
330
2
100
AcDbEntity
  8
0
  6
Continuous
100
AcDbPolyline
 90
        3
 70
     0
 43
0.0
 10
23.7648921215233
 20
22.68586010729825
 10
23.7648921215233
 20
22.66086010729828
 10
23.75083534007933
 20
22.29668534671529
  0
LWPOLYLINE
  5
B7
330
2
100
AcDbEntity
  8
0
  6
Continuous
100
AcDbPolyline
 90
        3
 70
     0
 43
0.0
 10
23.76155878818997
 20
22.68586010729825
 10
23.76155878818997
 20
22.66086010729828
 10
23.74291168250818
 20
22.29668534671529
  0
LWPOLYLINE
  5
B8
330
2
100
AcDbEntity
  8
0
  6
Continuous
100
AcDbPolyline
 90
        3
 70
     0
 43
0.0
 10
23.75822545485664
 20
22.68586010729825
 10
23.75822545485664
 20
22.66086010729828
 10
23.73503178722046
 20
22.29668534671529
  0
LWPOLYLINE
  5
B9
330
2
100
AcDbEntity
  8
0
  6
Continuous
100
AcDbPolyline
 90
        3
 70
     0
 43
0.0
 10
23.75489212152331
 20
22.68586010729825
 10
23.75489212152331
 20
22.66086010729828
 10
23.72719503136739
 20
22.29668534671529
  0
LWPOLYLINE
  5
BA
330
2
100
AcDbEntity
  8
0
  6
Continuous
100
AcDbPolyline
 90
        3
 70
     0
 43
0.0
 10
23.75155878818998
 20
22.68586010729825
 10
23.75155878818998
 20
22.66086010729828
 10
23.71940080386401
 20
22.29668534671529
  0
LWPOLYLINE
  5
BB
330
2
100
AcDbEntity
  8
0
  6
Continuous
100
AcDbPolyline
 90
        3
 70
     0
 43
0.0
 10
23.78963441571284
 20
22.29668534671529
 10
23.78489212152329
 20
22.66086010729828
 10
23.78489212152329
 20
22.68586010729825
  0
LWPOLYLINE
  5
BC
330
2
100
AcDbEntity
  8
0
  6
Continuous
100
AcDbPolyline
 90
        3
 70
     0
 43
0.0
 10
23.79764751488267
 20
22.29668534671529
 10
23.78822545485684
 20
22.66086010729828
 10
23.78822545485684
 20
22.68586010729825
  0
LWPOLYLINE
  5
BD
330
2
100
AcDbEntity
  8
0
  6
Continuous
100
AcDbPolyline
 90
        3
 70
     0
 43
0.0
 10
23.80561556963392
 20
22.29668534671529
 10
23.79155878819017
 20
22.66086010729828
 10
23.79155878819017
 20
22.68586010729825
  0
LWPOLYLINE
  5
BE
330
2
100
AcDbEntity
  8
0
  6
Continuous
100
AcDbPolyline
 90
        3
 70
     0
 43
0.0
 10
23.81353922720507
 20
22.29668534671529
 10
23.7948921215235
 20
22.66086010729828
 10
23.7948921215235
 20
22.68586010729825
  0
LWPOLYLINE
  5
BF
330
2
100
AcDbEntity
  8
0
  6
Continuous
100
AcDbPolyline
 90
        3
 70
     0
 43
0.0
 10
23.82141912249301
 20
22.29668534671529
 10
23.79822545485684
 20
22.66086010729828
 10
23.79822545485684
 20
22.68586010729825
  0
LWPOLYLINE
  5
C0
330
2
100
AcDbEntity
  8
0
  6
Continuous
100
AcDbPolyline
 90
        3
 70
     0
 43
0.0
 10
23.82925587834609
 20
22.29668534671529
 10
23.80155878819016
 20
22.66086010729828
 10
23.80155878819016
 20
22.68586010729825
  0
LWPOLYLINE
  5
C1
330
2
100
AcDbEntity
  8
0
  6
Continuous
100
AcDbPolyline
 90
        3
 70
     0
 43
0.0
 10
23.83705010584947
 20
22.29668534671529
 10
23.80489212152349
 20
22.66086010729828
 10
23.80489212152349
 20
22.68586010729825
  0
LWPOLYLINE
  5
C2
330
2
100
AcDbEntity
  8
0
  6
Continuous
100
AcDbPolyline
 90
       10
 70
     0
 43
0.0
 10
23.87400357375407
 20
22.29668534671529
 10
23.80822545485683
 20
22.66086010729828
 10
23.84060045485683
 20
22.66086010729828
 10
23.84060045485683
 20
22.78523813040724
 10
23.71585045485665
 20
22.78523813040724
 10
23.71585045485665
 20
22.66086010729828
 10
23.74822545485665
 20
22.66086010729828
 10
23.74822545485665
 20
22.68586010729825
 10
23.80822545485683
 20
22.68586010729825
 10
23.80822545485683
 20
22.66086010729828
  0
LWPOLYLINE
  5
C3
330
2
100
AcDbEntity
  8
0
  6
Continuous
100
AcDbPolyline
 90
        3
 70
     0
 43
0.0
 10
23.8575465978339
 20
22.29668534671529
 10
23.80822545485683
 20
22.66086010729828
 10
23.84480240460073
 20
22.29668534671529
  0
LWPOLYLINE
  5
C4
330
2
100
AcDbEntity
  8
0
  6
Continuous
100
AcDbPolyline
 90
        2
 70
     0
 43
0.0
 10
23.86505892720391
 20
22.29668534671529
 10
23.80915594033297
 20
22.65750214323288
  0
LWPOLYLINE
  5
C5
330
2
100
AcDbEntity
  8
0
  6
Continuous
100
AcDbPolyline
 90
        3
 70
     0
 43
0.0
 10
23.68244733595941
 20
22.29668534671529
 10
23.74822545485665
 20
22.66086010729828
 10
23.69890431187958
 20
22.29668534671529
  0
LWPOLYLINE
  5
C6
330
2
100
AcDbEntity
  8
0
  6
Continuous
100
AcDbPolyline
 90
        2
 70
     0
 43
0.0
 10
23.69139198250957
 20
22.29668534671529
 10
23.74729496938051
 20
22.65750214323288
  0
LINE
  5
C7
330
2
100
AcDbEntity
  8
0
  6
HIDDEN2
100
AcDbLine
 10
21.14960778731336
 20
31.72311971766499
 30
0.0
 11
28.59045530792366
 21
31.72311971766507
 31
0.0
  0
LINE
  5
C8
330
2
100
AcDbEntity
  8
0
  6
HIDDEN
100
AcDbLine
 10
24.02822545486765
 20
40.53273222913097
 30
0.0
 11
24.02822545486754
 21
35.84629616821525
 31
0.0
  0
LINE
  5
C9
330
2
100
AcDbEntity
  8
0
  6
HIDDEN
100
AcDbLine
 10
24.02822545486731
 20
31.72311971766504
 30
0.0
 11
24.02822545486709
 21
22.53336010729959
 31
0.0
  0
LINE
  5
CA
330
2
100
AcDbEntity
  8
0
100
AcDbLine
 10
23.84203525231226
 20
40.532732229131
 30
0.0
 11
23.84203525231226
 21
35.84629616821525
 31
0.0
  0
LINE
  5
CB
330
2
100
AcDbEntity
  8
0
100
AcDbLine
 10
23.84203525231226
 20
31.72311971766504
 30
0.0
 11
23.84203525231226
 21
22.8488601073002
 31
0.0
  0
LINE
  5
CC
330
2
100
AcDbEntity
  8
0
100
AcDbLine
 10
23.84203525231226
 20
22.59586010729959
 30
0.0
 11
23.84203525231226
 21
22.53336010729959
 31
0.0
  0
LINE
  5
CD
330
2
100
AcDbEntity
  8
0
100
AcDbLine
 10
24.78103525231211
 20
40.532732229131
 30
0.0
 11
24.78103525231234
 21
35.84629616821525
 31
0.0
  0
LINE
  5
CE
330
2
100
AcDbEntity
  8
0
100
AcDbLine
 10
24.78103525231245
 20
31.72311971766504
 30
0.0
 11
24.78103525231257
 21
22.53336010729959
 31
0.0
  0
LINE
  5
CF
330
2
100
AcDbEntity
  8
0
100
AcDbLine
 10
24.84303525231223
 20
40.532732229131
 30
0.0
 11
24.84303525231223
 21
35.84629616821525
 31
0.0
  0
LINE
  5
D0
330
2
100
AcDbEntity
  8
0
100
AcDbLine
 10
24.84303525231223
 20
31.72311971766504
 30
0.0
 11
24.84303525231223
 21
22.53336010729959
 31
0.0
  0
LINE
  5
D1
330
2
100
AcDbEntity
  8
0
100
AcDbLine
 10
24.90503525231213
 20
40.53273222913097
 30
0.0
 11
24.90503525231225
 21
35.84629616821525
 31
0.0
  0
LINE
  5
D2
330
2
100
AcDbEntity
  8
0
100
AcDbLine
 10
24.90503525231225
 20
31.72311971766504
 30
0.0
 11
24.90503525231213
 21
22.53336010729959
 31
0.0
  0
LINE
  5
D3
330
2
100
AcDbEntity
  8
0
100
AcDbLine
 10
24.90503525231213
 20
40.53273222913097
 30
0.0
 11
23.65322545486754
 21
40.53273222913097
 31
0.0
  0
LINE
  5
D4
330
2
100
AcDbEntity
  8
0
100
AcDbLine
 10
24.90503525231213
 20
22.53336010729959
 30
0.0
 11
23.65322545486754
 21
22.53336010729959
 31
0.0
  0
LINE
  5
D5
330
2
100
AcDbEntity
  8
0
100
AcDbLine
 10
23.65322545486754
 20
22.59586010729959
 30
0.0
 11
23.65322545486754
 21
22.53336010729959
 31
0.0
  0
LWPOLYLINE
  5
D6
102
{ACAD_REACTORS
330
29B
102
}
330
2
100
AcDbEntity
  8
0
100
AcDbPolyline
 90
       15
 70
     0
 43
0.0
 10
20.96422545486735
 20
41.45473776163624
 42
0.4142135623730951
 10
21.02622545486736
 20
41.39273776163626
 10
21.90322545486731
 20
41.39273776163626
 10
21.90322545486742
 20
42.64273776163626
 10
21.96522545486744
 20
42.64273776163626
 10
21.96522545486744
 20
43.26773776163622
 10
20.90222545486733
 20
43.26773776163622
 42
0.4142135623731003
 10
20.84022545486744
 20
43.20573776163624
 10
20.84022545486744
 20
42.67373776163623
 42
0.4142135623730951
 10
20.87122545486739
 20
42.64273776163626
 10
20.90222545486733
 20
42.64273776163626
 10
20.90222545486733
 20
42.42373776163623
 42
0.4142135623730951
 10
20.9332254548674
 20
42.39273776163622
 10
20.96422545486735
 20
42.39273776163622
 10
20.96422545486735
 20
41.45473777110555
  0
HATCH
  5
D7
330
2
100
AcDbEntity
  8
0
  6
Continuous
100
AcDbHatch
 10
0.0
 20
0.0
 30
0.0
210
0.0
220
0.0
230
1.0
  2
STEEL
 70
     0
 71
     0
 91
        1
 92
        7
 72
     0
 73
     1
 93
        6
 10
21.96522545486732
 20
41.88873776163624
 10
21.96522545486744
 20
42.60855602557191
 10
21.90322545486742
 20
42.60855602557191
 10
21.90322545486731
 20
41.82673776163622
 10
22.56035684914207
 20
41.82673776163622
 10
22.56035684914207
 20
41.88873776163624
 97
        0
 75
     0
 76
     1
 52
-0.0000000000000127
 41
1.0
 77
     0
 78
     2
 53
44.99999999999999
 43
119.8586102903931
 44
-1.377314719370872
 45
-0.0883883476483184
 46
0.0883883476483185
 79
     0
 53
44.99999999999999
 43
119.8586102903931
 44
-1.314814719370872
 45
-0.0883883476483184
 46
0.0883883476483185
 79
     0
 47
0.003572857848563
 98
        1
 10
22.07380102001173
 20
41.86111967467996
  0
LINE
  5
D8
330
2
100
AcDbEntity
  8
0
100
AcDbLine
 10
21.90322545486742
 20
42.60855602557191
 30
0.0
 11
21.90322545486731
 21
41.82673776163622
 31
0.0
  0
LINE
  5
D9
330
2
100
AcDbEntity
  8
0
  6
Continuous
100
AcDbLine
 10
21.90322545486731
 20
41.82673776163622
 30
0.0
 11
22.56035684914207
 21
41.82673776163622
 31
0.0
  0
LINE
  5
DA
330
2
100
AcDbEntity
  8
0
  6
Continuous
100
AcDbLine
 10
21.96522545486732
 20
41.88873776163624
 30
0.0
 11
22.56035684914207
 21
41.88873776163624
 31
0.0
  0
LINE
  5
DB
330
2
100
AcDbEntity
  8
0
  6
Continuous
100
AcDbLine
 10
22.56035684914207
 20
41.88873776163624
 30
0.0
 11
22.56035684914207
 21
41.82673776163622
 31
0.0
  0
LINE
  5
DC
330
2
100
AcDbEntity
  8
0
100
AcDbLine
 10
21.96522545486744
 20
42.60855602557191
 30
0.0
 11
21.96522545486732
 21
41.88873776163624
 31
0.0
  0
INSERT
  5
DD
330
2
100
AcDbEntity
  8
0
100
AcDbBlockReference
  2
8 x .75 FH
 10
21.96522545486744
 20
42.24864689360408
 30
0.0
 50
270.0
  0
INSERT
  5
12B
330
2
100
AcDbEntity
  8
0
100
AcDbBlockReference
  2
8 X .625 PH
 10
22.26279115200475
 20
41.88873776163624
 30
0.0
  0
LINE
  5
180
330
2
100
AcDbEntity
  8
0
100
AcDbLine
 10
21.96522545486744
 20
42.60855602557191
 30
0.0
 11
21.90322545486742
 21
42.60855602557194
 31
0.0
  0
LWPOLYLINE
  5
181
330
2
100
AcDbEntity
  8
0
100
AcDbPolyline
 90
       19
 70
     1
 43
0.0
 10
23.84072545486754
 20
41.07873776163668
 10
23.84072545486754
 20
40.87623776163667
 42
0.4142135623730818
 10
23.90272545486766
 20
40.81423776163666
 10
24.40295530792366
 20
40.81423776163666
 10
24.40295530792366
 20
40.98523775706084
 42
-0.3200000000033261
 10
24.40295530792366
 20
41.11023775706246
 10
24.40295530792366
 20
41.54973776621247
 42
1.0
 10
24.40295530792366
 20
41.73573776621182
 10
24.40295530792366
 20
41.82673776163665
 10
23.77795530792366
 20
41.82673776163665
 10
23.65292288655621
 20
41.57678100570641
 10
23.15322545486754
 20
41.82673776163665
 10
21.90322545486754
 20
41.82673776163662
 10
21.90322545486754
 20
41.25173776163663
 42
0.4142135623730959
 10
21.96522545486766
 20
41.18973776163665
 10
23.84072545486754
 20
41.18973776163667
 10
23.84072545486754
 20
41.18514266441628
 10
24.08053562065936
 20
41.20612333532133
 10
24.08977412939055
 20
41.1005266973236
  0
HATCH
  5
182
330
2
100
AcDbEntity
  8
0
100
AcDbHatch
 10
0.0
 20
0.0
 30
0.0
210
0.0
220
0.0
230
1.0
  2
HONEY
 70
     0
 71
     0
 91
        1
 92
        1
 93
       16
 72
     1
 10
23.95472545486757
 20
41.08573776163669
 11
23.94972545486758
 21
41.1277377616367
 72
     1
 10
23.94972545486769
 20
41.12773776163666
 11
23.84072545486777
 21
41.12773776163666
 72
     1
 10
23.84072545486754
 20
41.12773776163666
 11
23.84072545486754
 21
40.87473776163665
 72
     2
 10
23.77872545486764
 20
40.87473776163668
 40
0.0620000000000118
 50
0.0
 51
90.0
 73
     0
 72
     1
 10
23.77872545486764
 20
40.81273776163667
 11
23.73149925355471
 21
40.81273776163672
 72
     2
 10
23.73149925355471
 20
40.82773776163671
 40
0.0149999999999864
 50
90.0
 51
160.149945478262
 73
     0
 72
     1
 10
23.71739048630946
 20
40.82264436524318
 11
23.59750443963469
 21
41.15473010878258
 72
     2
 10
23.61161320687995
 20
41.15982350517609
 40
0.0149999999999975
 50
160.1499454783641
 51
249.5218661953308
 73
     0
 72
     1
 10
23.60636545857631
 20
41.17387559177356
 11
23.63634504457161
 21
41.18507146083234
 72
     2
 10
23.64159279287503
 20
41.17101937423487
 40
0.0149999999999873
 50
249.5218661952929
 51
340.1499454783642
 73
     0
 72
     1
 10
23.65570156012029
 20
41.17611277062841
 11
23.74861668762242
 21
40.91873678686375
 72
     2
 10
23.76272545486756
 20
40.92383018325725
 40
0.0149999999999804
 50
199.8500545217748
 51
359.9999999998914
 73
     1
 72
     1
 10
23.77772545486767
 20
40.92383018325725
 11
23.77772545486767
 21
41.15873776163667
 72
     2
 10
23.80872545486761
 20
41.15873776163667
 40
0.0310000000000059
 50
180.0
 51
270.0
 73
     0
 72
     1
 10
23.80872545486761
 20
41.18973776163667
 11
24.05872545486761
 21
41.18973776163667
 72
     1
 10
24.05872545486761
 20
41.18973776163667
 11
23.95472545486757
 21
41.08573776163669
 97
        0
 75
     1
 76
     1
 52
360.0
 41
0.15
 77
     0
 78
     3
 53
360.0
 43
189.241188621117
 44
-116.6150098019083
 45
0.028125
 46
0.0162379763209582
 79
     2
 49
0.01875
 49
-0.0375
 53
119.9999999999999
 43
189.241188621117
 44
-116.6150098019083
 45
-0.028125
 46
0.0162379763209582
 79
     2
 49
0.01875
 49
-0.0374999999999999
 53
59.99999999999997
 43
189.241188621117
 44
-116.6150098019083
 45
0.0
 46
0.0324759526419165
 79
     2
 49
-0.0375
 49
0.01875
 98
        1
 10
189.241188621117
 20
-116.6150098019083
1001
GradientColor1ACI
1070
     5
1001
GradientColor2ACI
1070
     2
1001
ACAD
1010
0.0
1020
0.0
1030
0.0
  0
LWPOLYLINE
  5
183
330
2
100
AcDbEntity
  8
0
100
AcDbPolyline
 90
       16
 70
     1
 43
0.0
 10
23.95472545486757
 20
41.08573776163669
 10
23.94972545486769
 20
41.12773776163666
 10
23.84072545486754
 20
41.12773776163666
 10
23.84072545486754
 20
40.87473776163668
 42
-0.4142135623730951
 10
23.77872545486764
 20
40.81273776163667
 10
23.73149925355471
 20
40.81273776163672
 42
-0.3160182401893135
 10
23.71739048630946
 20
40.82264436524318
 10
23.59750443963469
 20
41.15473010878256
 42
-0.4110064843483962
 10
23.60636545857631
 20
41.17387559177356
 10
23.63634504457161
 20
41.18507146083234
 42
-0.4174279297685614
 10
23.65570156012029
 20
41.17611277062841
 10
23.74861668762242
 20
40.91873678686371
 42
0.840215161469082
 10
23.77772545486767
 20
40.92383018325725
 10
23.77772545486767
 20
41.15873776163667
 42
-0.4142135623730951
 10
23.80872545486761
 20
41.18973776163667
 10
24.05872545486761
 20
41.18973776163667
  0
LWPOLYLINE
  5
184
330
2
100
AcDbEntity
  8
0
  6
HIDDEN2
100
AcDbPolyline
 90
        4
 70
     0
 43
0.02
 10
23.43447545486754
 20
36.78298776163473
 10
23.34540699948423
 20
36.78298776163473
 42
0.4142135623730951
 10
23.2989069994843
 20
36.73648776163475
 10
23.2989069994843
 20
35.84629616821528
  0
LWPOLYLINE
  5
185
330
2
100
AcDbEntity
  8
0
100
AcDbPolyline
 90
        2
 70
     1
 43
0.05859375
 10
23.37584250721932
 20
36.81228463663473
 42
1.0
 10
23.37584250721932
 20
36.75369088663473
 42
1.0
  0
HATCH
  5
186
330
2
100
AcDbEntity
  8
0
100
AcDbHatch
 10
0.0
 20
0.0
 30
0.0
210
0.0
220
0.0
230
1.0
  2
SOLID
 70
     1
 71
     0
 91
        1
 92
        7
 72
     0
 73
     1
 93
        4
 10
21.43234786605342
 20
36.84548776163473
 10
21.30734786605342
 20
36.84548776163476
 10
21.30734786605342
 20
36.72048776163473
 10
21.43234786605342
 20
36.72048776163473
 97
        0
 75
     1
 76
     1
 47
0.0019978748433788
 98
        1
 10
21.34544902091409
 20
36.79882903934532
1001
GradientColor1ACI
1070
     5
1001
GradientColor2ACI
1070
     2
1001
ACAD
1010
0.0
1020
0.0
1030
0.0
  0
HATCH
  5
187
330
2
100
AcDbEntity
  8
0
100
AcDbHatch
 10
0.0
 20
0.0
 30
0.0
210
0.0
220
0.0
230
1.0
  2
SOLID
 70
     1
 71
     0
 91
        1
 92
        7
 72
     1
 73
     1
 93
        2
 10
21.14960778731358
 20
36.59548776163473
 42
0.0
 10
21.14960778731336
 20
36.7829877616347
 42
0.6666666666666311
 97
        0
 75
     1
 76
     1
 47
0.0010014887122476
 98
        1
 10
21.10354771096661
 20
36.71039295767887
1001
GradientColor1ACI
1070
     5
1001
GradientColor2ACI
1070
     2
1001
ACAD
1010
0.0
1020
0.0
1030
0.0
  0
LWPOLYLINE
  5
188
330
2
100
AcDbEntity
  8
0
100
AcDbPolyline
 90
        4
 70
     0
 43
0.0
 10
21.30734786605342
 20
35.84538439349038
 10
21.30734786605342
 20
36.92398776163435
 10
21.14960778731336
 20
36.92398776163435
 10
21.14960778731336
 20
35.84538439349038
  0
LWPOLYLINE
  5
189
330
2
100
AcDbEntity
  8
0
100
AcDbPolyline
 90
        8
 70
     0
 43
0.0
 10
21.14960778731336
 20
37.03298776163473
 10
21.30734786605342
 20
37.03298776163473
 10
21.30734786605342
 20
36.92398776163435
 10
21.14960778731336
 20
36.92398776163435
 10
21.14960778731336
 20
37.03298776163473
 10
21.30734786605342
 20
36.92398776163435
 10
21.14960778731336
 20
36.92398776163435
 10
21.30734786605342
 20
37.03298776163473
  0
LWPOLYLINE
  5
18A
330
2
100
AcDbEntity
  8
0
  6
Continuous
100
AcDbPolyline
 90
       16
 70
     1
 43
0.0
 10
23.71522545485106
 20
23.43986010729327
 10
23.71522545485834
 20
22.9738601073002
 42
0.4142135623730951
 10
23.84022545485834
 20
22.8488601073002
 10
23.90322545486754
 20
22.8488601073002
 10
23.90322545486754
 20
22.59586010729959
 10
23.81022545488133
 20
22.59586010729959
 10
23.81022545488133
 20
22.66086010729828
 10
23.84122545486218
 20
22.66086010729828
 10
23.84122545486218
 20
22.78686010728393
 10
23.71522545485106
 20
22.78686010728393
 10
23.71522545485106
 20
22.66086010729828
 10
23.74622545488285
 20
22.66086010729828
 10
23.74622545488285
 20
22.59586010729959
 10
23.65322545486754
 20
22.59586010729959
 10
23.65322545486754
 20
23.47086010729959
 10
23.68422545486294
 20
23.47086010729328
 42
-0.4142135623730951
  0
LWPOLYLINE
  5
18B
330
2
100
AcDbEntity
  8
0
  6
Continuous
100
AcDbPolyline
 90
        2
 70
     0
 43
0.0
 10
23.71164850511275
 20
22.29668534671529
 10
23.74822545485665
 20
22.66086010729828
  0
LWPOLYLINE
  5
18C
330
2
100
AcDbEntity
  8
0
  6
Continuous
100
AcDbPolyline
 90
        2
 70
     0
 43
0.0
 10
23.78072545485668
 20
22.29668534671529
 10
23.78072545485668
 20
22.68586010729825
  0
LWPOLYLINE
  5
18D
330
2
100
AcDbEntity
  8
0
  6
Continuous
100
AcDbPolyline
 90
        2
 70
     0
 43
0.0
 10
23.7757254548568
 20
22.29668534671529
 10
23.7757254548568
 20
22.68586010729825
  0
LWPOLYLINE
  5
18E
330
2
100
AcDbEntity
  8
0
  6
Continuous
100
AcDbPolyline
 90
        3
 70
     0
 43
0.0
 10
23.77155878818996
 20
22.68586010729825
 10
23.77155878818996
 20
22.66086010729828
 10
23.76681649400063
 20
22.29668534671529
  0
LWPOLYLINE
  5
18F
330
2
100
AcDbEntity
  8
0
  6
Continuous
100
AcDbPolyline
 90
        3
 70
     0
 43
0.0
 10
23.76822545485663
 20
22.68586010729825
 10
23.76822545485663
 20
22.66086010729828
 10
23.75880339483081
 20
22.29668534671529
  0
LWPOLYLINE
  5
190
330
2
100
AcDbEntity
  8
0
  6
Continuous
100
AcDbPolyline
 90
        3
 70
     0
 43
0.0
 10
23.7648921215233
 20
22.68586010729825
 10
23.7648921215233
 20
22.66086010729828
 10
23.75083534007933
 20
22.29668534671529
  0
LWPOLYLINE
  5
191
330
2
100
AcDbEntity
  8
0
  6
Continuous
100
AcDbPolyline
 90
        3
 70
     0
 43
0.0
 10
23.76155878818997
 20
22.68586010729825
 10
23.76155878818997
 20
22.66086010729828
 10
23.74291168250818
 20
22.29668534671529
  0
LWPOLYLINE
  5
192
330
2
100
AcDbEntity
  8
0
  6
Continuous
100
AcDbPolyline
 90
        3
 70
     0
 43
0.0
 10
23.75822545485664
 20
22.68586010729825
 10
23.75822545485664
 20
22.66086010729828
 10
23.73503178722046
 20
22.29668534671529
  0
LWPOLYLINE
  5
193
330
2
100
AcDbEntity
  8
0
  6
Continuous
100
AcDbPolyline
 90
        3
 70
     0
 43
0.0
 10
23.75489212152331
 20
22.68586010729825
 10
23.75489212152331
 20
22.66086010729828
 10
23.72719503136739
 20
22.29668534671529
  0
LWPOLYLINE
  5
194
330
2
100
AcDbEntity
  8
0
  6
Continuous
100
AcDbPolyline
 90
        3
 70
     0
 43
0.0
 10
23.75155878818998
 20
22.68586010729825
 10
23.75155878818998
 20
22.66086010729828
 10
23.71940080386401
 20
22.29668534671529
  0
LWPOLYLINE
  5
195
330
2
100
AcDbEntity
  8
0
  6
Continuous
100
AcDbPolyline
 90
        3
 70
     0
 43
0.0
 10
23.78963441571284
 20
22.29668534671529
 10
23.78489212152329
 20
22.66086010729828
 10
23.78489212152329
 20
22.68586010729825
  0
LWPOLYLINE
  5
196
330
2
100
AcDbEntity
  8
0
  6
Continuous
100
AcDbPolyline
 90
        3
 70
     0
 43
0.0
 10
23.79764751488267
 20
22.29668534671529
 10
23.78822545485684
 20
22.66086010729828
 10
23.78822545485684
 20
22.68586010729825
  0
LWPOLYLINE
  5
197
330
2
100
AcDbEntity
  8
0
  6
Continuous
100
AcDbPolyline
 90
        3
 70
     0
 43
0.0
 10
23.80561556963392
 20
22.29668534671529
 10
23.79155878819017
 20
22.66086010729828
 10
23.79155878819017
 20
22.68586010729825
  0
LWPOLYLINE
  5
198
330
2
100
AcDbEntity
  8
0
  6
Continuous
100
AcDbPolyline
 90
        3
 70
     0
 43
0.0
 10
23.81353922720507
 20
22.29668534671529
 10
23.7948921215235
 20
22.66086010729828
 10
23.7948921215235
 20
22.68586010729825
  0
LWPOLYLINE
  5
199
330
2
100
AcDbEntity
  8
0
  6
Continuous
100
AcDbPolyline
 90
        3
 70
     0
 43
0.0
 10
23.82141912249301
 20
22.29668534671529
 10
23.79822545485684
 20
22.66086010729828
 10
23.79822545485684
 20
22.68586010729825
  0
LWPOLYLINE
  5
19A
330
2
100
AcDbEntity
  8
0
  6
Continuous
100
AcDbPolyline
 90
        3
 70
     0
 43
0.0
 10
23.82925587834609
 20
22.29668534671529
 10
23.80155878819016
 20
22.66086010729828
 10
23.80155878819016
 20
22.68586010729825
  0
LWPOLYLINE
  5
19B
330
2
100
AcDbEntity
  8
0
  6
Continuous
100
AcDbPolyline
 90
        3
 70
     0
 43
0.0
 10
23.83705010584947
 20
22.29668534671529
 10
23.80489212152349
 20
22.66086010729828
 10
23.80489212152349
 20
22.68586010729825
  0
LWPOLYLINE
  5
19C
330
2
100
AcDbEntity
  8
0
  6
Continuous
100
AcDbPolyline
 90
       10
 70
     0
 43
0.0
 10
23.87400357375407
 20
22.29668534671529
 10
23.80822545485683
 20
22.66086010729828
 10
23.84060045485683
 20
22.66086010729828
 10
23.84060045485683
 20
22.78523813040724
 10
23.71585045485665
 20
22.78523813040724
 10
23.71585045485665
 20
22.66086010729828
 10
23.74822545485665
 20
22.66086010729828
 10
23.74822545485665
 20
22.68586010729825
 10
23.80822545485683
 20
22.68586010729825
 10
23.80822545485683
 20
22.66086010729828
  0
LWPOLYLINE
  5
19D
330
2
100
AcDbEntity
  8
0
  6
Continuous
100
AcDbPolyline
 90
        3
 70
     0
 43
0.0
 10
23.8575465978339
 20
22.29668534671529
 10
23.80822545485683
 20
22.66086010729828
 10
23.84480240460073
 20
22.29668534671529
  0
LWPOLYLINE
  5
19E
330
2
100
AcDbEntity
  8
0
  6
Continuous
100
AcDbPolyline
 90
        2
 70
     0
 43
0.0
 10
23.86505892720391
 20
22.29668534671529
 10
23.80915594033297
 20
22.65750214323288
  0
LWPOLYLINE
  5
19F
330
2
100
AcDbEntity
  8
0
  6
Continuous
100
AcDbPolyline
 90
        3
 70
     0
 43
0.0
 10
23.68244733595941
 20
22.29668534671529
 10
23.74822545485665
 20
22.66086010729828
 10
23.69890431187958
 20
22.29668534671529
  0
LWPOLYLINE
  5
1A0
330
2
100
AcDbEntity
  8
0
  6
Continuous
100
AcDbPolyline
 90
        2
 70
     0
 43
0.0
 10
23.69139198250957
 20
22.29668534671529
 10
23.74729496938051
 20
22.65750214323288
  0
LWPOLYLINE
  5
1A1
330
2
100
AcDbEntity
  8
0
  6
Continuous
100
AcDbPolyline
 90
       24
 70
     1
 43
0.0
 10
23.68447545486754
 20
32.97199124855467
 10
23.68447545486754
 20
34.59560108787585
 10
23.58943650774938
 20
34.59560108788128
 42
0.389902449071936
 10
23.40443650774444
 20
34.79677393920565
 10
23.40443650774444
 20
34.84638116497945
 10
23.30947545486754
 20
34.84638116497945
 10
23.30947545486754
 20
34.59688116498137
 10
23.43447545486754
 20
34.59688116498137
 10
23.43447545486754
 20
34.47188116498137
 10
23.30947545486754
 20
34.47188116498137
 10
23.30947545486754
 20
34.28388116498136
 10
21.96572545485844
 20
34.28388116498136
 42
0.4142135623747382
 10
21.9344754548639
 20
34.25263116498115
 10
21.93447545485844
 20
33.31496117144934
 42
0.4142135623747382
 10
21.96572545485844
 20
33.28371117144917
 10
23.30947545486754
 20
33.28371117144917
 10
23.30947545486754
 20
33.09571117144918
 10
23.43447545486754
 20
33.09571117144916
 10
23.43447545486754
 20
32.97071117144915
 10
23.30947545486754
 20
32.97071117144915
 10
23.30947545486754
 20
32.72121117145108
 10
23.40443650774444
 20
32.72121117145108
 10
23.40443650774444
 20
32.77081839722487
 42
0.3899024490719359
 10
23.58943650774938
 20
32.97199124854925
  0
LWPOLYLINE
  5
1A2
330
2
100
AcDbEntity
  8
0
  6
HIDDEN2
100
AcDbPolyline
 90
        4
 70
     0
 43
0.02
 10
23.43447545486754
 20
33.03371117144917
 10
23.34540699948423
 20
33.03371117144917
 42
0.4142135623730951
 10
23.2989069994843
 20
32.98721117144919
 10
23.2989069994843
 20
32.09610780330482
  0
LWPOLYLINE
  5
1A3
330
2
100
AcDbEntity
  8
0
100
AcDbPolyline
 90
        2
 70
     1
 43
0.05859375
 10
23.37584250721932
 20
33.06300804644917
 42
1.0
 10
23.37584250721932
 20
33.00441429644917
 42
1.0
  0
LWPOLYLINE
  5
1A4
330
2
100
AcDbEntity
  8
0
  6
HIDDEN2
100
AcDbPolyline
 90
        4
 70
     0
 43
0.02
 10
23.43447545486754
 20
34.53388116498135
 10
23.34540699948423
 20
34.53388116498135
 42
-0.4142135623730951
 10
23.2989069994843
 20
34.58038116498133
 10
23.2989069994843
 20
35.47148453312571
  0
LWPOLYLINE
  5
1A5
330
2
100
AcDbEntity
  8
0
100
AcDbPolyline
 90
        2
 70
     1
 43
0.05859375
 10
23.37584250721932
 20
34.50458428998135
 42
-1.0
 10
23.37584250721932
 20
34.56317803998135
 42
-1.0
  0
LWPOLYLINE
  5
1A6
330
2
100
AcDbEntity
  8
0
  6
Continuous
100
AcDbPolyline
 90
       24
 70
     1
 43
0.0
 10
21.68234786605342
 20
32.97199124855467
 10
21.68234786605342
 20
34.59560108787585
 10
21.58730891893526
 20
34.59560108788128
 42
0.389902449071936
 10
21.40230891893032
 20
34.79677393920565
 10
21.40230891893032
 20
34.84638116497945
 10
21.30734786605342
 20
34.84638116497945
 10
21.30734786605342
 20
34.59688116498137
 10
21.43234786605342
 20
34.59688116498137
 10
21.43234786605342
 20
34.47188116498137
 10
21.30734786605342
 20
34.47188116498137
 10
21.30734786605342
 20
34.28388116498136
 10
19.96359786604432
 20
34.28388116498136
 42
0.4142135623747382
 10
19.93234786604978
 20
34.25263116498115
 10
19.93234786604432
 20
33.31496117144934
 42
0.4142135623747382
 10
19.96359786604432
 20
33.28371117144917
 10
21.30734786605342
 20
33.28371117144917
 10
21.30734786605342
 20
33.09571117144918
 10
21.43234786605342
 20
33.09571117144916
 10
21.43234786605342
 20
32.97071117144915
 10
21.30734786605342
 20
32.97071117144915
 10
21.30734786605342
 20
32.72121117145108
 10
21.40230891893032
 20
32.72121117145108
 10
21.40230891893032
 20
32.77081839722487
 42
0.3899024490719359
 10
21.58730891893526
 20
32.97199124854925
  0
HATCH
  5
1A7
330
2
100
AcDbEntity
  8
0
100
AcDbHatch
 10
0.0
 20
0.0
 30
0.0
210
0.0
220
0.0
230
1.0
  2
SOLID
 70
     1
 71
     0
 91
        1
 92
        7
 72
     0
 73
     1
 93
        4
 10
21.43234786605342
 20
34.47138116498135
 10
21.30734786605342
 20
34.47138116498133
 10
21.30734786605342
 20
34.59638116498136
 10
21.43234786605342
 20
34.59638116498136
 97
        0
 75
     1
 76
     1
 47
0.0019978748433788
 98
        1
 10
21.34544902091409
 20
34.51803988727076
1001
GradientColor1ACI
1070
     5
1001
GradientColor2ACI
1070
     2
1001
ACAD
1010
0.0
1020
0.0
1030
0.0
  0
HATCH
  5
1A8
330
2
100
AcDbEntity
  8
0
100
AcDbHatch
 10
0.0
 20
0.0
 30
0.0
210
0.0
220
0.0
230
1.0
  2
SOLID
 70
     1
 71
     0
 91
        1
 92
        7
 72
     1
 73
     1
 93
        2
 10
21.14960778731358
 20
34.72138116498135
 42
0.0
 10
21.14960778731336
 20
34.53388116498138
 42
-0.6666666666666311
 97
        0
 75
     1
 76
     1
 47
0.0010014887122476
 98
        1
 10
21.10354771096661
 20
34.60647596893722
1001
GradientColor1ACI
1070
     5
1001
GradientColor2ACI
1070
     2
1001
ACAD
1010
0.0
1020
0.0
1030
0.0
  0
LWPOLYLINE
  5
1A9
330
2
100
AcDbEntity
  8
0
100
AcDbPolyline
 90
        4
 70
     0
 43
0.0
 10
21.30734786605342
 20
35.47148453312571
 10
21.30734786605342
 20
34.39288116498173
 10
21.14960778731336
 20
34.39288116498173
 10
21.14960778731336
 20
35.47148453312571
  0
LWPOLYLINE
  5
1AA
330
2
100
AcDbEntity
  8
0
100
AcDbPolyline
 90
        8
 70
     0
 43
0.0
 10
21.14960778731336
 20
34.28388116498136
 10
21.30734786605342
 20
34.28388116498136
 10
21.30734786605342
 20
34.39288116498173
 10
21.14960778731336
 20
34.39288116498173
 10
21.14960778731336
 20
34.28388116498136
 10
21.30734786605342
 20
34.39288116498173
 10
21.14960778731336
 20
34.39288116498173
 10
21.30734786605342
 20
34.28388116498136
  0
HATCH
  5
1AB
330
2
100
AcDbEntity
  8
0
100
AcDbHatch
 10
0.0
 20
0.0
 30
0.0
210
0.0
220
0.0
230
1.0
  2
SOLID
 70
     1
 71
     0
 91
        1
 92
        7
 72
     0
 73
     1
 93
        4
 10
21.43234786605342
 20
33.09621117144917
 10
21.30734786605342
 20
33.0962111714492
 10
21.30734786605342
 20
32.97121117144917
 10
21.43234786605342
 20
32.97121117144917
 97
        0
 75
     1
 76
     1
 47
0.0019978748433788
 98
        1
 10
21.34544902091409
 20
33.04955244915976
1001
GradientColor1ACI
1070
     5
1001
GradientColor2ACI
1070
     2
1001
ACAD
1010
0.0
1020
0.0
1030
0.0
  0
HATCH
  5
1AC
330
2
100
AcDbEntity
  8
0
100
AcDbHatch
 10
0.0
 20
0.0
 30
0.0
210
0.0
220
0.0
230
1.0
  2
SOLID
 70
     1
 71
     0
 91
        1
 92
        7
 72
     1
 73
     1
 93
        2
 10
21.14960778731358
 20
32.84621117144917
 42
0.0
 10
21.14960778731336
 20
33.03371117144914
 42
0.6666666666666311
 97
        0
 75
     1
 76
     1
 47
0.0010014887122476
 98
        1
 10
21.10354771096661
 20
32.9611163674933
1001
GradientColor1ACI
1070
     5
1001
GradientColor2ACI
1070
     2
1001
ACAD
1010
0.0
1020
0.0
1030
0.0
  0
LWPOLYLINE
  5
1AD
330
2
100
AcDbEntity
  8
0
100
AcDbPolyline
 90
        4
 70
     0
 43
0.0
 10
21.30734786605342
 20
32.09610780330482
 10
21.30734786605342
 20
33.17471117144879
 10
21.14960778731336
 20
33.17471117144879
 10
21.14960778731336
 20
32.09610780330482
  0
LWPOLYLINE
  5
1AE
330
2
100
AcDbEntity
  8
0
100
AcDbPolyline
 90
        8
 70
     0
 43
0.0
 10
21.14960778731336
 20
33.28371117144917
 10
21.30734786605342
 20
33.28371117144917
 10
21.30734786605342
 20
33.17471117144879
 10
21.14960778731336
 20
33.17471117144879
 10
21.14960778731336
 20
33.28371117144917
 10
21.30734786605342
 20
33.17471117144879
 10
21.14960778731336
 20
33.17471117144879
 10
21.30734786605342
 20
33.28371117144917
  0
LINE
  5
1AF
330
2
100
AcDbEntity
  8
0
  6
HIDDEN2
100
AcDbLine
 10
21.14960778731336
 20
35.47148453312571
 30
0.0
 11
23.2989069994843
 21
35.47148453312571
 31
0.0
  0
LINE
  5
1B0
330
2
100
AcDbEntity
  8
0
  6
HIDDEN2
100
AcDbLine
 10
21.14960778731336
 20
32.09610780330482
 30
0.0
 11
23.2989069994843
 21
32.09610780330482
 31
0.0
  0
LWPOLYLINE
  5
1B1
330
2
100
AcDbEntity
  8
0
100
AcDbPolyline
 90
       58
 70
     1
 43
0.0
 10
19.51067006697974
 20
21.46864346143821
 10
19.51067006698247
 20
21.48464346143783
 42
0.4142135623730951
 10
19.47967006697979
 20
21.51564346143778
 10
19.36967006697921
 20
21.51564346143687
 42
-0.4142135623730951
 10
19.33867006697926
 20
21.54664346143954
 10
19.33867006697653
 20
21.96088499351072
 42
-0.3942343667532849
 10
19.36754229687028
 20
21.99181188463126
 10
20.80157753780475
 20
22.09047350920855
 42
-0.4344790572301746
 10
20.83470530791363
 20
22.05954661808982
 10
20.83470530791635
 20
21.46793708601444
 10
20.78870530791426
 20
21.46793708601444
 42
0.4142135623730951
 10
20.75770530791431
 20
21.4369370860154
 10
20.75770530791158
 20
21.42093708601578
 42
0.414213562373095
 10
20.78870530791426
 20
21.38993708601583
 10
20.94470530791693
 20
21.38993708601311
 42
0.4142135623730953
 10
20.97570530791688
 20
21.42093708601578
 10
20.97570530791234
 20
21.4369370860154
 42
0.4142135623730951
 10
20.94470530791693
 20
21.46793708601535
 10
20.89870530791484
 20
21.46793708601444
 10
20.89870530791484
 20
22.06821541808722
 42
-0.3942343667589309
 10
20.92757753780131
 20
22.09914230920777
 10
22.23757753780626
 20
22.18927030920941
 42
-0.4344790572290187
 10
22.27070530791514
 20
22.15834341808704
 10
22.27070530791059
 20
21.47293031019626
 42
-0.4240125356243142
 10
22.23970530791155
 20
21.44294698149542
 42
0.4240125356243143
 10
22.2087053079116
 20
21.41296365279459
 10
22.20870530791251
 20
21.38589480099881
 42
0.4142135623730951
 10
22.23870530791135
 20
21.35589480099907
 10
22.33270530791594
 20
21.35589480099634
 10
22.39470530791402
 20
21.35589480099634
 42
0.4142135623730953
 10
22.42470530791377
 20
21.38589480099881
 10
22.87693126222837
 20
21.5040500409018
 10
23.36570530791175
 20
21.5040500409018
 10
23.36570530791175
 20
21.5040500409018
 42
-0.4142135623730951
 10
23.3967053079117
 20
21.47305004090276
 10
23.44036964857912
 20
21.51422338348539
 42
0.6788458185167731
 10
23.41978817570305
 20
21.56605004090443
 10
22.86904603855908
 20
21.56605004090352
 10
22.41606747374624
 20
21.44893514775367
 10
22.36270530791478
 20
21.44893514775276
 42
-0.4142135623730951
 10
22.33270530791594
 20
21.47893514775251
 10
22.3327053079114
 20
22.16687461808806
 42
-0.3942343667515597
 10
22.36157753780242
 20
22.19780150920678
 10
23.27307854862045
 20
22.26051277875058
 42
0.476286245979241
 10
23.36570530791539
 20
22.15976126444684
 10
23.40268233800486
 20
22.15976126444684
 42
0.3101477582205477
 10
23.54108346080136
 20
22.2362050025481
 42
0.6346282873960475
 10
23.4822244312785
 20
22.25785764420698
 42
-0.2527834310209322
 10
23.41808473835806
 20
22.22113419490824
 10
23.36782855053423
 20
22.21768396108064
 42
-0.4344355510162874
 10
23.33470530791635
 20
22.24861116335933
 10
23.33470530791635
 20
22.26300599119759
 10
23.33470530791635
 20
22.34293708601445
 10
19.28954229686894
 20
22.06462987085479
 42
0.3942343667589309
 10
19.26067006698247
 20
22.03370297973425
 10
19.26067006697792
 20
21.46864346143821
 42
0.4142135623730951
 10
19.29167006697787
 20
21.43764346143826
 10
19.47967006697979
 20
21.43764346143917
 42
0.4142135623730951
  0
LWPOLYLINE
  5
1B2
102
{ACAD_REACTORS
330
279
102
}
330
2
100
AcDbEntity
  8
0
100
AcDbPolyline
 90
       10
 70
     1
 43
0.0
 10
21.14960778731336
 20
34.53388116498135
 10
21.14960778731336
 20
34.28388116498136
 10
20.14960778731336
 20
34.28388116498136
 10
20.14960778731336
 20
34.45748902031292
 42
-0.3738846794847955
 10
20.17629342118369
 20
34.48818733044394
 10
20.54013255559983
 20
34.53932158609217
 10
20.7188315927375
 20
34.77695328441334
 42
-0.2357304941617284
 10
20.74360778731341
 20
34.78932158609217
 10
21.14960778731336
 20
34.84638116498135
 10
21.14960778731336
 20
34.72138116498135
 42
0.6666666666666656
  0
LWPOLYLINE
  5
1B3
330
2
100
AcDbEntity
  8
0
100
AcDbPolyline
 90
       10
 70
     1
 43
0.0
 10
23.28825829635173
 20
34.53388116498135
 10
23.28825829635173
 20
34.28388116498136
 10
22.28825829635173
 20
34.28388116498136
 10
22.28825829635173
 20
34.45748902031292
 42
-0.3738846794847955
 10
22.31494393022183
 20
34.48818733044394
 10
22.6787830646382
 20
34.53932158609217
 10
22.85748210177565
 20
34.77695328441334
 42
-0.2357304941617284
 10
22.88225829635166
 20
34.78932158609217
 10
23.28825829635173
 20
34.84638116498135
 10
23.28825829635173
 20
34.72138116498135
 42
0.6666666666666656
  0
LWPOLYLINE
  5
1B4
330
2
100
AcDbEntity
  8
0
100
AcDbPolyline
 90
       10
 70
     1
 43
0.0
 10
23.28825829635173
 20
33.03371117144914
 10
23.28825829635173
 20
33.28371117144914
 10
22.28825829635173
 20
33.28371117144914
 10
22.28825829635173
 20
33.11010331611758
 42
0.3738846794847955
 10
22.31494393022183
 20
33.07940500598656
 10
22.6787830646382
 20
33.02827075033832
 10
22.85748210177565
 20
32.79063905201716
 42
0.2357304941617284
 10
22.88225829635166
 20
32.77827075033832
 10
23.28825829635173
 20
32.72121117144914
 10
23.28825829635173
 20
32.84621117144914
 42
-0.6666666666666656
  0
LWPOLYLINE
  5
1B5
102
{ACAD_REACTORS
330
279
102
}
330
2
100
AcDbEntity
  8
0
100
AcDbPolyline
 90
       10
 70
     1
 43
0.0
 10
21.14960778731336
 20
33.03371117144914
 10
21.14960778731336
 20
33.28371117144914
 10
20.14960778731336
 20
33.28371117144914
 10
20.14960778731336
 20
33.11010331611758
 42
0.3738846794847955
 10
20.17629342118369
 20
33.07940500598656
 10
20.54013255559983
 20
33.02827075033832
 10
20.7188315927375
 20
32.79063905201716
 42
0.2357304941617284
 10
20.74360778731341
 20
32.77827075033832
 10
21.14960778731336
 20
32.72121117144914
 10
21.14960778731336
 20
32.84621117144914
 42
-0.6666666666666656
  0
LWPOLYLINE
  5
1B6
330
2
100
AcDbEntity
  8
0
  6
Continuous
100
AcDbPolyline
 90
       25
 70
     0
 43
0.0
 10
21.30734786605342
 20
36.84548776163473
 10
21.43234786605342
 20
36.84548776163473
 10
21.43234786605342
 20
36.72048776163473
 10
21.30734786605342
 20
36.72048776163473
 10
21.30734786605342
 20
36.47098776163665
 10
21.40230891893032
 20
36.47098776163665
 10
21.40230891893032
 20
36.52059498741045
 42
0.3899024490719342
 10
21.58730891893526
 20
36.72176783873482
 10
21.68234786605342
 20
36.72176783874022
 10
21.68234786605342
 20
37.89198776163875
 42
0.4142135623730951
 10
21.65134786605802
 20
37.92298776163415
 10
21.27609786605342
 20
37.92298776163415
 10
21.27609786605342
 20
38.39173776163608
 42
0.4142135623730951
 10
21.24484786605342
 20
38.42298776163608
 10
21.24484786605342
 20
38.42298776163608
 10
21.24484786605342
 20
38.42298776163608
 10
21.24484786605342
 20
38.42298776163608
 10
21.24484786605342
 20
38.42298776163608
 10
21.24484786605342
 20
38.42298776163608
 10
19.99484786606251
 20
38.42298776163608
 10
19.93234786605524
 20
38.36048776163608
 10
19.93234786604796
 20
37.06398776163741
 42
0.4142135623730951
 10
19.96334786605791
 20
37.03298776163473
 10
21.30734786605342
 20
37.03298776163473
 10
21.30734786605342
 20
36.84548776163473
  0
LWPOLYLINE
  5
1B7
102
{ACAD_REACTORS
330
28A
102
}
330
2
100
AcDbEntity
  8
0
100
AcDbPolyline
 90
       10
 70
     1
 43
0.0
 10
21.14960778731336
 20
36.7829877616347
 10
21.14960778731336
 20
37.0329877616347
 10
20.14960778731336
 20
37.0329877616347
 10
20.14960778731336
 20
36.85937990630313
 42
0.3738846794847955
 10
20.17629342118369
 20
36.82868159617212
 10
20.54013255559983
 20
36.77754734052388
 10
20.7188315927375
 20
36.53991564220272
 42
0.2357304941617284
 10
20.74360778731341
 20
36.52754734052388
 10
21.14960778731336
 20
36.4704877616347
 10
21.14960778731336
 20
36.5954877616347
 42
-0.6666666666666656
  0
LWPOLYLINE
  5
1B8
330
2
100
AcDbEntity
  8
0
  6
Continuous
100
AcDbPolyline
 90
       25
 70
     0
 43
0.0
 10
23.30947545486754
 20
36.84548776163473
 10
23.43447545486754
 20
36.84548776163473
 10
23.43447545486754
 20
36.72048776163473
 10
23.30947545486754
 20
36.72048776163473
 10
23.30947545486754
 20
36.47098776163665
 10
23.40443650774444
 20
36.47098776163665
 10
23.40443650774444
 20
36.52059498741045
 42
0.3899024490719342
 10
23.58943650774938
 20
36.72176783873482
 10
23.68447545486754
 20
36.72176783874022
 10
23.68447545486754
 20
37.89198776163875
 42
0.4142135623730951
 10
23.65347545487214
 20
37.92298776163415
 10
23.27822545486754
 20
37.92298776163415
 10
23.27822545486754
 20
38.39173776163608
 42
0.4142135623730951
 10
23.24697545486754
 20
38.42298776163608
 10
23.24697545486754
 20
38.42298776163608
 10
23.24697545486754
 20
38.42298776163608
 10
23.24697545486754
 20
38.42298776163608
 10
23.24697545486754
 20
38.42298776163608
 10
23.24697545486754
 20
38.42298776163608
 10
21.99697545487663
 20
38.42298776163608
 10
21.93447545486936
 20
38.36048776163608
 10
21.93447545486208
 20
37.06398776163741
 42
0.4142135623730951
 10
21.96547545487204
 20
37.03298776163473
 10
23.30947545486754
 20
37.03298776163473
 10
23.30947545486754
 20
36.84548776163473
  0
LWPOLYLINE
  5
1B9
330
2
100
AcDbEntity
  8
0
100
AcDbPolyline
 90
       10
 70
     1
 43
0.0
 10
23.28784237511456
 20
36.7829877616347
 10
23.28784237511456
 20
37.0329877616347
 10
22.28784237511456
 20
37.0329877616347
 10
22.28784237511456
 20
36.85937990630313
 42
0.3738846794847955
 10
22.31452800898489
 20
36.82868159617212
 10
22.67836714340103
 20
36.77754734052388
 10
22.85706618053871
 20
36.53991564220272
 42
0.2357304941617284
 10
22.88184237511462
 20
36.52754734052388
 10
23.28784237511456
 20
36.4704877616347
 10
23.28784237511456
 20
36.5954877616347
 42
-0.6666666666666656
  0
LWPOLYLINE
  5
1BA
102
{ACAD_REACTORS
330
28A
330
2CE
102
}
330
2
100
AcDbEntity
  8
0
100
AcDbPolyline
 90
       12
 70
     1
 43
0.0
 10
21.90322545486754
 20
41.00223776163661
 10
21.90322545486754
 20
38.61211276163664
 10
21.96572545486754
 20
38.54961276163664
 10
23.15322545486754
 20
38.54961276163664
 10
23.16416153780835
 20
38.67461276163664
 10
23.27822545486754
 20
38.67461276163664
 10
23.27822545486754
 20
37.98711276163664
 10
23.59096328623684
 20
38.01447377653713
 10
23.65322545486754
 20
38.08242101045886
 10
23.65322545486754
 20
41.00223776163661
 42
0.4142135623730951
 10
23.59072545486754
 20
41.06473776163662
 10
21.96572545486754
 20
41.06473776163662
 42
0.414213562373094
  0
LWPOLYLINE
  5
1BB
102
{ACAD_REACTORS
330
259
102
}
330
2
100
AcDbEntity
  8
0
100
AcDbPolyline
 90
       12
 70
     1
 43
0.0
 10
21.90322545486754
 20
22.59586010729959
 10
21.90322545486754
 20
28.95547957479386
 10
21.96572545486754
 20
29.01797957479386
 10
23.15322545486754
 20
29.01797957479386
 10
23.16416153780835
 20
28.89297957479385
 10
23.27822545486754
 20
28.89297957479385
 10
23.27822545486754
 20
29.58047957479386
 10
23.59096328623684
 20
29.55311855989336
 10
23.65322545486754
 20
29.48517132597164
 10
23.65322545486754
 20
22.59586010729959
 42
-0.4142135623730951
 10
23.59072545486754
 20
22.53336010729959
 10
21.96572545486754
 20
22.53336010729959
 42
-0.414213562373094
  0
INSERT
  5
1BC
330
2
100
AcDbEntity
  8
0
100
AcDbBlockReference
  2
8 X 1.5 FH
 10
23.71543909724051
 20
41.70175938367271
 30
0.0
 50
63.4250392974013
  0
LWPOLYLINE
  5
22A
330
2
100
AcDbEntity
  8
0
  6
HIDDEN2
100
AcDbPolyline
 90
        4
 70
     0
 43
0.02
 10
23.43447545486754
 20
30.78460457479577
 10
23.34540699948423
 20
30.78460457479577
 42
-0.4142135623730951
 10
23.2989069994843
 20
30.83110457479575
 10
23.2989069994843
 20
31.72129616821522
  0
LWPOLYLINE
  5
22B
330
2
100
AcDbEntity
  8
0
100
AcDbPolyline
 90
        2
 70
     1
 43
0.05859375
 10
23.37584250721932
 20
30.75530769979577
 42
-1.0
 10
23.37584250721932
 20
30.81390144979577
 42
-1.0
  0
HATCH
  5
22C
330
2
100
AcDbEntity
  8
0
100
AcDbHatch
 10
0.0
 20
0.0
 30
0.0
210
0.0
220
0.0
230
1.0
  2
SOLID
 70
     1
 71
     0
 91
        1
 92
        7
 72
     0
 73
     1
 93
        4
 10
21.43234786605342
 20
30.72210457479576
 10
21.30734786605342
 20
30.72210457479574
 10
21.30734786605342
 20
30.84710457479577
 10
21.43234786605342
 20
30.84710457479577
 97
        0
 75
     1
 76
     1
 47
0.0019978748433788
 98
        1
 10
21.34544902091409
 20
30.76876329708517
1001
GradientColor1ACI
1070
     5
1001
GradientColor2ACI
1070
     2
1001
ACAD
1010
0.0
1020
0.0
1030
0.0
  0
HATCH
  5
22D
330
2
100
AcDbEntity
  8
0
100
AcDbHatch
 10
0.0
 20
0.0
 30
0.0
210
0.0
220
0.0
230
1.0
  2
SOLID
 70
     1
 71
     0
 91
        1
 92
        7
 72
     1
 73
     1
 93
        2
 10
21.14960778731358
 20
30.97210457479576
 42
0.0
 10
21.14960778731336
 20
30.78460457479579
 42
-0.6666666666666311
 97
        0
 75
     1
 76
     1
 47
0.0010014887122476
 98
        1
 10
21.10354771096661
 20
30.85719937875163
1001
GradientColor1ACI
1070
     5
1001
GradientColor2ACI
1070
     2
1001
ACAD
1010
0.0
1020
0.0
1030
0.0
  0
LWPOLYLINE
  5
22E
330
2
100
AcDbEntity
  8
0
100
AcDbPolyline
 90
        4
 70
     0
 43
0.0
 10
21.30734786605342
 20
31.72220794294012
 10
21.30734786605342
 20
30.64360457479614
 10
21.14960778731336
 20
30.64360457479614
 10
21.14960778731336
 20
31.72220794294012
  0
LWPOLYLINE
  5
22F
330
2
100
AcDbEntity
  8
0
100
AcDbPolyline
 90
        8
 70
     0
 43
0.0
 10
21.14960778731336
 20
30.53460457479577
 10
21.30734786605342
 20
30.53460457479577
 10
21.30734786605342
 20
30.64360457479614
 10
21.14960778731336
 20
30.64360457479614
 10
21.14960778731336
 20
30.53460457479577
 10
21.30734786605342
 20
30.64360457479614
 10
21.14960778731336
 20
30.64360457479614
 10
21.30734786605342
 20
30.53460457479577
  0
LWPOLYLINE
  5
230
330
2
100
AcDbEntity
  8
0
  6
Continuous
100
AcDbPolyline
 90
       25
 70
     0
 43
0.0
 10
21.30734786605342
 20
30.72210457479576
 10
21.43234786605342
 20
30.72210457479576
 10
21.43234786605342
 20
30.84710457479577
 10
21.30734786605342
 20
30.84710457479577
 10
21.30734786605342
 20
31.09660457479384
 10
21.40230891893032
 20
31.09660457479384
 10
21.40230891893032
 20
31.04699734902005
 42
-0.3899024490719342
 10
21.58730891893526
 20
30.84582449769567
 10
21.68234786605342
 20
30.84582449769027
 10
21.68234786605342
 20
29.67560457479175
 42
-0.4142135623730951
 10
21.65134786605802
 20
29.64460457479635
 10
21.27609786605342
 20
29.64460457479635
 10
21.27609786605342
 20
29.17585457479442
 42
-0.4142135623730951
 10
21.24484786605342
 20
29.14460457479441
 10
21.24484786605342
 20
29.14460457479441
 10
21.24484786605342
 20
29.14460457479441
 10
21.24484786605342
 20
29.14460457479441
 10
21.24484786605342
 20
29.14460457479441
 10
21.24484786605342
 20
29.14460457479441
 10
19.99484786606251
 20
29.14460457479441
 10
19.93234786605524
 20
29.20710457479442
 10
19.93234786604796
 20
30.50360457479309
 42
-0.4142135623730951
 10
19.96334786605791
 20
30.53460457479577
 10
21.30734786605342
 20
30.53460457479577
 10
21.30734786605342
 20
30.72210457479576
  0
LWPOLYLINE
  5
231
102
{ACAD_REACTORS
330
259
102
}
330
2
100
AcDbEntity
  8
0
100
AcDbPolyline
 90
       10
 70
     1
 43
0.0
 10
21.14960778731336
 20
30.78460457479579
 10
21.14960778731336
 20
30.53460457479579
 10
20.14960778731336
 20
30.53460457479579
 10
20.14960778731336
 20
30.70821243012736
 42
-0.3738846794847955
 10
20.17629342118369
 20
30.73891074025838
 10
20.54013255559983
 20
30.79004499590662
 10
20.7188315927375
 20
31.02767669422778
 42
-0.2357304941617284
 10
20.74360778731341
 20
31.04004499590661
 10
21.14960778731336
 20
31.09710457479579
 10
21.14960778731336
 20
30.9721045747958
 42
0.6666666666666656
  0
LWPOLYLINE
  5
232
330
2
100
AcDbEntity
  8
0
  6
Continuous
100
AcDbPolyline
 90
       25
 70
     0
 43
0.0
 10
23.30947545486754
 20
30.72210457479576
 10
23.43447545486754
 20
30.72210457479576
 10
23.43447545486754
 20
30.84710457479577
 10
23.30947545486754
 20
30.84710457479577
 10
23.30947545486754
 20
31.09660457479384
 10
23.40443650774444
 20
31.09660457479384
 10
23.40443650774444
 20
31.04699734902005
 42
-0.3899024490719342
 10
23.58943650774938
 20
30.84582449769567
 10
23.68447545486754
 20
30.84582449769027
 10
23.68447545486754
 20
29.67560457479175
 42
-0.4142135623730951
 10
23.65347545487214
 20
29.64460457479635
 10
23.27822545486754
 20
29.64460457479635
 10
23.27822545486754
 20
29.17585457479442
 42
-0.4142135623730951
 10
23.24697545486754
 20
29.14460457479441
 10
23.24697545486754
 20
29.14460457479441
 10
23.24697545486754
 20
29.14460457479441
 10
23.24697545486754
 20
29.14460457479441
 10
23.24697545486754
 20
29.14460457479441
 10
23.24697545486754
 20
29.14460457479441
 10
21.99697545487663
 20
29.14460457479441
 10
21.93447545486936
 20
29.20710457479442
 10
21.93447545486208
 20
30.50360457479309
 42
-0.4142135623730951
 10
21.96547545487204
 20
30.53460457479577
 10
23.30947545486754
 20
30.53460457479577
 10
23.30947545486754
 20
30.72210457479576
  0
LWPOLYLINE
  5
233
330
2
100
AcDbEntity
  8
0
100
AcDbPolyline
 90
       10
 70
     1
 43
0.0
 10
23.28784237511456
 20
30.78460457479579
 10
23.28784237511456
 20
30.53460457479579
 10
22.28784237511456
 20
30.53460457479579
 10
22.28784237511456
 20
30.70821243012736
 42
-0.3738846794847955
 10
22.31452800898489
 20
30.73891074025838
 10
22.67836714340103
 20
30.79004499590662
 10
22.85706618053871
 20
31.02767669422778
 42
-0.2357304941617284
 10
22.88184237511462
 20
31.04004499590661
 10
23.28784237511456
 20
31.09710457479579
 10
23.28784237511456
 20
30.9721045747958
 42
0.6666666666666656
  0
DIMENSION
  5
234
102
{ACAD_XDICTIONARY
360
235
102
}
102
{ACAD_REACTORS
330
236
102
}
330
2
100
AcDbEntity
  8
0
100
AcDbDimension
  2
*D4
 10
30.06662653130059
 20
23.72086010729959
 30
0.0
 11
30.06662653130058
 21
22.53336010730285
 31
0.0
 71
     5
 42
2.374999999993491
  3
Knife
100
AcDbAlignedDimension
 13
29.21545530792378
 23
21.34586010730609
 33
0.0
 14
28.96548747866814
 24
23.72086010729959
 34
0.0
 50
90.0
100
AcDbRotatedDimension
1001
ACAD
1000
DSTYLE
1002
{
1070
    40
1040
1.0
1002
}
  0
DIMENSION
  5
246
102
{ACAD_XDICTIONARY
360
247
102
}
102
{ACAD_REACTORS
330
248
102
}
330
2
100
AcDbEntity
  8
0
100
AcDbDimension
  2
*D5
 10
30.06662653130059
 20
31.09586010729959
 30
0.0
 11
30.06662653130058
 21
27.40836010729959
 31
0.0
 71
     5
 42
7.375
  3
Knife
100
AcDbAlignedDimension
 13
28.96548747866814
 23
23.72086010729959
 33
0.0
 14
28.68541636080545
 24
31.09586010729959
 34
0.0
 50
90.0
100
AcDbRotatedDimension
1001
ACAD
1000
DSTYLE
1002
{
1070
    40
1040
1.0
1002
}
  0
DIMENSION
  5
257
102
{ACAD_XDICTIONARY
360
258
102
}
102
{ACAD_REACTORS
330
259
102
}
330
2
100
AcDbEntity
  8
0
100
AcDbDimension
  2
*D6
 10
18.21316578786514
 20
22.53336010729959
 30
0.0
 11
18.21316578786513
 21
26.8152323410477
 31
0.0
 71
     5
 42
8.563744467496206
  3
Knife
100
AcDbAlignedDimension
 13
21.14960778731336
 23
31.09710457479579
 33
0.0
 14
21.96572545486754
 24
22.53336010729959
 34
0.0
 50
90.0
100
AcDbRotatedDimension
1001
ACAD
1000
DSTYLE
1002
{
1070
    40
1040
1.0
1002
}
  0
DIMENSION
  5
268
330
2
100
AcDbEntity
  8
0
100
AcDbDimension
  2
*D7
 10
18.21316578786513
 20
22.53336010729959
 30
0.0
 11
18.21316578786513
 21
21.93961010730284
 31
0.0
 71
     5
 42
1.187499999993491
  3
Knife
100
AcDbAlignedDimension
 13
23.36570530792255
 23
21.34586010730609
 33
0.0
 14
21.96572545486754
 24
22.53336010729959
 34
0.0
 50
90.0
100
AcDbRotatedDimension
1001
ACAD
1000
DSTYLE
1002
{
1070
    40
1040
1.0
1002
}
  0
DIMENSION
  5
277
102
{ACAD_XDICTIONARY
360
278
102
}
102
{ACAD_REACTORS
330
279
102
}
330
2
100
AcDbEntity
  8
0
100
AcDbDimension
  2
*D8
 10
18.21316578786514
 20
34.84638116498135
 30
0.0
 11
18.21316578786514
 21
33.78379616821526
 31
0.0
 71
     5
 42
2.12516999353221
  3
Knife
100
AcDbAlignedDimension
 13
21.14960778731336
 23
32.72121117144914
 33
0.0
 14
21.14960778731336
 24
34.84638116498135
 34
0.0
 50
90.0
100
AcDbRotatedDimension
1001
ACAD
1000
DSTYLE
1002
{
1070
    40
1040
1.0
1002
}
  0
DIMENSION
  5
288
102
{ACAD_XDICTIONARY
360
289
102
}
102
{ACAD_REACTORS
330
28A
102
}
330
2
100
AcDbEntity
  8
0
100
AcDbDimension
  2
*D9
 10
18.21316578786514
 20
41.06473776163662
 30
0.0
 11
18.21316578786514
 21
38.76761276163567
 31
0.0
 71
     5
 42
4.59425000000192
  3
Knife
100
AcDbAlignedDimension
 13
21.14960778731336
 23
36.4704877616347
 33
0.0
 14
21.96572545486754
 24
41.06473776163662
 34
0.0
 50
90.0
100
AcDbRotatedDimension
1001
ACAD
1000
DSTYLE
1002
{
1070
    40
1040
1.0
1002
}
  0
DIMENSION
  5
299
102
{ACAD_XDICTIONARY
360
29A
102
}
102
{ACAD_REACTORS
330
29B
102
}
330
2
100
AcDbEntity
  8
0
100
AcDbDimension
  2
*D10
 10
21.96522545486744
 20
43.08499677086078
 30
0.0
 11
25.46534038139555
 21
43.08499677086078
 31
0.0
 71
     5
 42
7.000229853056225
  3
Knife
100
AcDbAlignedDimension
 13
28.96545530792366
 23
41.87673776163632
 33
0.0
 14
21.96522545486744
 24
42.64273776163626
 34
0.0
100
AcDbRotatedDimension
1001
ACAD
1000
DSTYLE
1002
{
1070
    40
1040
1.0
1002
}
  0
DIMENSION
  5
2AA
102
{ACAD_XDICTIONARY
360
2AB
102
}
102
{ACAD_REACTORS
330
2AC
102
}
330
2
100
AcDbEntity
  8
0
100
AcDbDimension
  2
*D11
 10
30.06662653130059
 20
41.06373222913098
 30
0.0
 11
30.06662653130059
 21
38.76773222913098
 31
0.0
 71
     5
 42
4.592000000000012
  3
Knife
100
AcDbAlignedDimension
 13
28.68541636080545
 23
36.47173222913096
 33
0.0
 14
28.90345530792372
 24
41.06373222913098
 34
0.0
 50
90.0
100
AcDbRotatedDimension
1001
ACAD
1000
DSTYLE
1002
{
1070
    40
1040
1.0
1002
}
  0
DIMENSION
  5
2BB
102
{ACAD_XDICTIONARY
360
2BC
102
}
102
{ACAD_REACTORS
330
2BD
102
}
330
2
100
AcDbEntity
  8
0
100
AcDbDimension
  2
*D12
 10
28.96545530792366
 20
39.62310815093175
 30
0.0
 11
28.09045530792366
 21
39.62310815093175
 31
0.0
 71
     5
 42
1.75
  3
Knife
100
AcDbAlignedDimension
 13
27.21545530792366
 23
39.04873222913099
 33
0.0
 14
28.96545530792366
 24
39.04873222913099
 34
0.0
100
AcDbRotatedDimension
1001
ACAD
1000
DSTYLE
1002
{
1070
    40
1040
1.0
1002
}
  0
DIMENSION
  5
2CC
102
{ACAD_XDICTIONARY
360
2CD
102
}
102
{ACAD_REACTORS
330
2CE
102
}
330
2
100
AcDbEntity
  8
0
100
AcDbDimension
  2
*D13
 10
23.65322545486754
 20
39.62310815093175
 30
0.0
 11
22.77822545486754
 21
39.62310815093175
 31
0.0
 71
     5
 42
1.75
  3
Knife
100
AcDbAlignedDimension
 13
21.90322545486754
 23
39.80717526163663
 33
0.0
 14
23.65322545486754
 24
39.80717526163663
 34
0.0
100
AcDbRotatedDimension
1001
ACAD
1000
DSTYLE
1002
{
1070
    40
1040
1.0
1002
}
  0
DIMENSION
  5
2DD
102
{ACAD_XDICTIONARY
360
2DE
102
}
102
{ACAD_REACTORS
330
2DF
102
}
330
2
100
AcDbEntity
  8
0
100
AcDbDimension
  2
*D14
 10
30.06662653130059
 20
36.47173222913096
 30
0.0
 11
30.06662653130059
 21
33.78379616821528
 31
0.0
  1
DAYLIGHT\POPENING
 71
     5
 42
5.375872121831378
  3
Knife
100
AcDbAlignedDimension
 13
28.68541636080545
 23
31.09586010729959
 33
0.0
 14
28.68541636080706
 24
36.47173222913096
 34
0.0
 50
90.0
100
AcDbRotatedDimension
1001
ACAD
1000
DSTYLE
1002
{
1070
    40
1040
1.0
1002
}
  0
DIMENSION
  5
2ED
102
{ACAD_XDICTIONARY
360
2EE
102
}
102
{ACAD_REACTORS
330
2EF
102
}
330
2
100
AcDbEntity
  8
0
100
AcDbDimension
  2
*D15
 10
33.35110718949603
 20
21.34586010730609
 30
0.0
 11
33.35110718949602
 21
31.96485135876019
 31
0.0
 70
   128
  1
BOX
 71
     5
 42
20.53087765433023
  3
Knife
100
AcDbAlignedDimension
 13
28.96545530792366
 23
41.87673776163632
 33
0.0
 14
29.21545530792378
 24
21.34586010730609
 34
0.0
 50
90.0
100
AcDbRotatedDimension
1001
ACAD
1000
DSTYLE
1002
{
1070
    40
1040
1.0
1002
}
  0
DIMENSION
  5
2FD
330
2
100
AcDbEntity
  8
0
100
AcDbDimension
  2
*D16
 10
34.7057107798106
 20
42.62673776163632
 30
0.0
 11
34.70571077981059
 21
31.98629893447121
 31
0.0
  1
ROUGH\POPENING
 71
     5
 42
21.28087765433023
  3
Knife
100
AcDbAlignedDimension
 13
29.21545530792378
 23
21.34586010730609
 33
0.0
 14
28.96545530792366
 24
42.62673776163632
 34
0.0
 50
90.0
100
AcDbRotatedDimension
1001
ACAD
1000
DSTYLE
1002
{
1070
    40
1040
1.0
1002
}
  0
DIMENSION
  5
30B
330
2
100
AcDbEntity
  8
0
100
AcDbDimension
  2
*D17
 10
33.35110718949602
 20
42.62673776163632
 30
0.0
 11
34.03763264264431
 21
43.19219745820908
 31
0.0
 70
   128
 71
     5
 42
0.75
  3
Knife
100
AcDbAlignedDimension
 13
28.96545530792366
 23
41.87673776163632
 33
0.0
 14
28.96545530792366
 24
42.62673776163632
 34
0.0
 50
90.0
100
AcDbRotatedDimension
1001
ACAD
1000
DSTYLE
1002
{
1070
    40
1040
1.0
1002
}
  0
DIMENSION
  5
31A
102
{ACAD_XDICTIONARY
360
31B
102
}
102
{ACAD_REACTORS
330
31C
102
}
330
2
100
AcDbEntity
  8
0
100
AcDbDimension
  2
*D18
 10
27.46743409616579
 20
41.87673776163632
 30
0.0
 11
28.15395954931408
 21
42.41976169169828
 31
0.0
 70
   128
 71
     5
 42
0.6880110650106986
  3
Knife
100
AcDbAlignedDimension
 13
26.84045530792366
 23
41.18872669662562
 33
0.0
 14
26.84045530792366
 24
41.87673776163632
 34
0.0
 50
90.0
100
AcDbRotatedDimension
1001
ACAD
1000
DSTYLE
1002
{
1070
    40
1040
1.0
1002
}
  0
DIMENSION
  5
32B
102
{ACAD_XDICTIONARY
360
32C
102
}
102
{ACAD_REACTORS
330
32D
102
}
330
2
100
AcDbEntity
  8
0
100
AcDbDimension
  2
*D19
 10
25.71097809873345
 20
40.68872989747852
 30
0.0
 11
25.71097809873344
 21
41.28273382955742
 31
0.0
 71
     5
 42
1.188007864157796
  3
Knife
100
AcDbAlignedDimension
 13
25.55839803499168
 23
41.87673776163632
 33
0.0
 14
25.55839491822923
 24
40.68872989747852
 34
0.0
 50
90.0
100
AcDbRotatedDimension
1001
ACAD
1000
DSTYLE
1002
{
1070
    40
1040
1.0
1002
}
  0
DIMENSION
  5
33C
330
2
100
AcDbEntity
  8
0
100
AcDbDimension
  2
*D20
 10
31.8622993480845
 20
41.87673776163632
 30
0.0
 11
31.86229934808449
 21
39.99291532149648
 31
0.0
 70
   128
 71
     5
 42
5.405005532505356
  3
Knife
100
AcDbAlignedDimension
 13
28.68541636080545
 23
36.47173222913096
 33
0.0
 14
28.96545530792366
 24
41.87673776163632
 34
0.0
 50
90.0
100
AcDbRotatedDimension
1001
ACAD
1000
DSTYLE
1002
{
1070
    40
1040
1.0
1002
}
  0
DIMENSION
  5
34A
102
{ACAD_XDICTIONARY
360
34B
102
}
102
{ACAD_REACTORS
330
34C
102
}
330
2
100
AcDbEntity
  8
0
100
AcDbDimension
  2
*D21
 10
31.86229934808448
 20
21.34586010730609
 30
0.0
 11
31.86229934808448
 21
26.22086010730284
 31
0.0
 71
     5
 42
9.749999999993477
  3
Knife
100
AcDbAlignedDimension
 13
28.63793583436456
 23
31.09586010729957
 33
0.0
 14
29.21545530792378
 24
21.34586010730609
 34
0.0
 50
90.0
100
AcDbRotatedDimension
1001
ACAD
1000
DSTYLE
1002
{
1070
    40
1040
1.0
1002
}
  0
ENDSEC
  0
SECTION
  2
OBJECTS
  0
DICTIONARY
  5
B
330
0
100
AcDbDictionary
281
     1
  3
ACAD_COLOR
350
50
  3
ACAD_GROUP
350
3D
  3
ACAD_LAYOUT
350
18
  3
ACAD_MATERIAL
350
D
  3
ACAD_MLEADERSTYLE
350
53
  3
ACAD_MLINESTYLE
350
3E
  3
ACAD_PLOTSETTINGS
350
3F
  3
ACAD_PLOTSTYLENAME
350
A
  3
ACAD_SCALELIST
350
51
  3
ACAD_TABLESTYLE
350
52
  3
ACAD_VISUALSTYLE
350
31
  3
ACDB_RECOMPOSE_DATA
350
368
  3
AcDbVariableDictionary
350
35E
  0
DICTIONARY
  5
33
330
2E
100
AcDbDictionary
280
     1
281
     1
  0
DICTIONARY
  5
23
330
22
100
AcDbDictionary
280
     1
281
     1
  3
ACAD_LAYERSTATES
360
24
  0
DICTIONARY
  5
7
330
6
100
AcDbDictionary
280
     1
281
     1
  3
ADSK_XREC_LAYER_RECONCILED
360
8
  0
DICTIONARY
  5
E2
330
E1
100
AcDbDictionary
280
     1
281
     1
  0
DICTIONARY
  5
3
330
2
100
AcDbDictionary
280
     1
281
     1
  3
ACAD_SORTENTS
360
35B
  0
DICTIONARY
  5
235
330
234
100
AcDbDictionary
280
     1
281
     1
  3
ACAD_DIMASSOC
360
236
  0
DICTIONARY
  5
247
330
246
100
AcDbDictionary
280
     1
281
     1
  3
ACAD_DIMASSOC
360
248
  0
DICTIONARY
  5
258
330
257
100
AcDbDictionary
280
     1
281
     1
  3
ACAD_DIMASSOC
360
259
  0
DICTIONARY
  5
278
330
277
100
AcDbDictionary
280
     1
281
     1
  3
ACAD_DIMASSOC
360
279
  0
DICTIONARY
  5
289
330
288
100
AcDbDictionary
280
     1
281
     1
  3
ACAD_DIMASSOC
360
28A
  0
DICTIONARY
  5
29A
330
299
100
AcDbDictionary
280
     1
281
     1
  3
ACAD_DIMASSOC
360
29B
  0
DICTIONARY
  5
2AB
330
2AA
100
AcDbDictionary
280
     1
281
     1
  3
ACAD_DIMASSOC
360
2AC
  0
DICTIONARY
  5
2BC
330
2BB
100
AcDbDictionary
280
     1
281
     1
  3
ACAD_DIMASSOC
360
2BD
  0
DICTIONARY
  5
2CD
330
2CC
100
AcDbDictionary
280
     1
281
     1
  3
ACAD_DIMASSOC
360
2CE
  0
DICTIONARY
  5
2DE
330
2DD
100
AcDbDictionary
280
     1
281
     1
  3
ACAD_DIMASSOC
360
2DF
  0
DICTIONARY
  5
2EE
330
2ED
100
AcDbDictionary
280
     1
281
     1
  3
ACAD_DIMASSOC
360
2EF
  0
DICTIONARY
  5
31B
330
31A
100
AcDbDictionary
280
     1
281
     1
  3
ACAD_DIMASSOC
360
31C
  0
DICTIONARY
  5
32C
330
32B
100
AcDbDictionary
280
     1
281
     1
  3
ACAD_DIMASSOC
360
32D
  0
DICTIONARY
  5
34B
330
34A
100
AcDbDictionary
280
     1
281
     1
  3
ACAD_DIMASSOC
360
34C
  0
DICTIONARY
  5
50
102
{ACAD_REACTORS
330
B
102
}
330
B
100
AcDbDictionary
281
     1
  0
DICTIONARY
  5
3D
102
{ACAD_REACTORS
330
B
102
}
330
B
100
AcDbDictionary
281
     1
  0
DICTIONARY
  5
18
102
{ACAD_REACTORS
330
B
102
}
330
B
100
AcDbDictionary
281
     1
  3
Layout1
350
1F
  3
Model
350
17
  0
DICTIONARY
  5
D
102
{ACAD_REACTORS
330
B
102
}
330
B
100
AcDbDictionary
281
     1
  3
ByBlock
350
48
  3
ByLayer
350
40
  3
Global
350
C
  0
DICTIONARY
  5
53
102
{ACAD_REACTORS
330
B
102
}
330
B
100
AcDbDictionary
281
     1
  0
DICTIONARY
  5
3E
102
{ACAD_REACTORS
330
B
102
}
330
B
100
AcDbDictionary
281
     1
  3
Standard
350
54
  0
DICTIONARY
  5
3F
102
{ACAD_REACTORS
330
B
102
}
330
B
100
AcDbDictionary
281
     1
  0
ACDBDICTIONARYWDFLT
  5
A
102
{ACAD_REACTORS
330
B
102
}
330
B
100
AcDbDictionary
281
     1
  3
Normal
350
9
100
AcDbDictionaryWithDefault
340
9
  0
DICTIONARY
  5
51
102
{ACAD_REACTORS
330
B
102
}
330
B
100
AcDbDictionary
281
     1
  3
A0
350
59
  3
A1
350
5A
  3
A2
350
5B
  3
A3
350
5C
  3
A4
350
5D
  3
A5
350
5E
  3
A6
350
5F
  3
A7
350
60
  3
A8
350
61
  3
A9
350
62
  3
B0
350
63
  3
B1
350
64
  3
B2
350
65
  3
B3
350
66
  3
B4
350
67
  3
B5
350
68
  3
B6
350
69
  0
DICTIONARY
  5
52
102
{ACAD_REACTORS
330
B
102
}
330
B
100
AcDbDictionary
281
     1
  3
Standard
350
55
  0
DICTIONARY
  5
31
102
{ACAD_REACTORS
330
B
102
}
330
B
100
AcDbDictionary
281
     1
  3
2dWireframe
350
30
  3
Realistic
350
57
  3
Wireframe
350
58
  0
XRECORD
  5
368
102
{ACAD_REACTORS
330
B
102
}
330
B
100
AcDbXrecord
280
     1
 90
        1
330
55
  0
DICTIONARY
  5
35E
102
{ACAD_REACTORS
330
B
102
}
330
B
100
AcDbDictionary
281
     1
  3
CANNOSCALE
350
361
  3
CMLEADERSTYLE
350
360
  3
CTABLESTYLE
350
35F
  3
DIMASSOC
350
366
  3
HIDETEXT
350
364
  3
INDEXCTL
350
363
  3
SORTENTS
350
362
  3
XCLIPFRAME
350
365
  0
DICTIONARY
  5
24
102
{ACAD_REACTORS
330
23
102
}
330
23
100
AcDbDictionary
281
     1
  0
XRECORD
  5
8
102
{ACAD_REACTORS
330
7
102
}
330
7
100
AcDbXrecord
280
     1
290
     1
  0
SORTENTSTABLE
  5
35B
102
{ACAD_REACTORS
330
3
102
}
330
3
100
AcDbSortentsTable
330
2
  0
DIMASSOC
  5
236
102
{ACAD_REACTORS
330
235
102
}
330
235
100
AcDbDimAssoc
330
234
 90
        3
 70
     0
 71
     0
  1
AcDbOsnapPointRef
 72
     1
331
6F
 73
     2
 91
        4
 40
1.0
 10
0.0
 20
0.0
 30
2.000000000000000E+50
 75
     0
  1
AcDbOsnapPointRef
 72
    13
331
74
 73
     2
 91
        1
 40
0.0
 10
0.0
 20
0.0
 30
2.000000000000000E+50
 75
     0
  0
DIMASSOC
  5
248
102
{ACAD_REACTORS
330
247
102
}
330
247
100
AcDbDimAssoc
330
246
 90
        2
 70
     0
 71
     0
  1
AcDbOsnapPointRef
 72
     1
331
73
 73
     2
 91
       16
 40
1.0
 10
0.0
 20
0.0
 30
2.000000000000000E+50
 75
     0
  0
DIMASSOC
  5
259
102
{ACAD_REACTORS
330
258
102
}
330
258
100
AcDbDimAssoc
330
257
 90
        3
 70
     0
 71
     0
  1
AcDbOsnapPointRef
 72
     1
331
231
 73
     2
 91
        8
 40
1.0
 10
0.0
 20
0.0
 30
2.000000000000000E+50
 75
     0
  1
AcDbOsnapPointRef
 72
     1
331
1BB
 73
     2
 91
       11
 40
1.0
 10
0.0
 20
0.0
 30
2.000000000000000E+50
 75
     0
  0
DIMASSOC
  5
279
102
{ACAD_REACTORS
330
278
102
}
330
278
100
AcDbDimAssoc
330
277
 90
        3
 70
     0
 71
     0
  1
AcDbOsnapPointRef
 72
     1
331
1B5
 73
     2
 91
        8
 40
1.0
 10
0.0
 20
0.0
 30
2.000000000000000E+50
 75
     0
  1
AcDbOsnapPointRef
 72
     1
331
1B2
 73
     2
 91
        8
 40
1.0
 10
0.0
 20
0.0
 30
2.000000000000000E+50
 75
     0
  0
DIMASSOC
  5
28A
102
{ACAD_REACTORS
330
289
102
}
330
289
100
AcDbDimAssoc
330
288
 90
        3
 70
     0
 71
     0
  1
AcDbOsnapPointRef
 72
     1
331
1B7
 73
     2
 91
        8
 40
1.0
 10
0.0
 20
0.0
 30
2.000000000000000E+50
 75
     0
  1
AcDbOsnapPointRef
 72
     1
331
1BA
 73
     2
 91
       11
 40
1.0
 10
0.0
 20
0.0
 30
2.000000000000000E+50
 75
     0
  0
DIMASSOC
  5
29B
102
{ACAD_REACTORS
330
29A
102
}
330
29A
100
AcDbDimAssoc
330
299
 90
        3
 70
     0
 71
     0
  1
AcDbOsnapPointRef
 72
     1
331
6D
 73
     2
 91
       23
 40
1.0
 10
0.0
 20
0.0
 30
2.000000000000000E+50
 75
     0
  1
AcDbOsnapPointRef
 72
     1
331
D6
 73
     2
 91
        4
 40
1.0
 10
0.0
 20
0.0
 30
2.000000000000000E+50
 75
     0
  0
DIMASSOC
  5
2AC
102
{ACAD_REACTORS
330
2AB
102
}
330
2AB
100
AcDbDimAssoc
330
2AA
 90
        3
 70
     0
 71
     0
  1
AcDbOsnapPointRef
 72
     1
331
6C
 73
     2
 91
       16
 40
1.0
 10
0.0
 20
0.0
 30
2.000000000000000E+50
 75
     0
  1
AcDbOsnapPointRef
 72
     5
331
6C
 73
     2
 91
       11
 40
7.853981633974482
 10
0.0
 20
0.0
 30
0.0
 75
     0
  0
DIMASSOC
  5
2BD
102
{ACAD_REACTORS
330
2BC
102
}
330
2BC
100
AcDbDimAssoc
330
2BB
 90
        3
 70
     0
 71
     0
  1
AcDbOsnapPointRef
 72
     2
331
6C
 73
     2
 91
        8
 40
0.5
 10
0.0
 20
0.0
 30
0.0
 75
     0
  1
AcDbOsnapPointRef
 72
     8
331
6C
 73
     2
 91
       12
 40
0.4631012931988857
 10
0.0
 20
0.0
 30
0.0
 75
     1
  1
AcDbOsnapPointRef
 72
     2
331
6C
 73
     2
 91
        8
 40
0.5
 10
0.0
 20
0.0
 30
0.0
 75
     0
  0
DIMASSOC
  5
2CE
102
{ACAD_REACTORS
330
2CD
102
}
330
2CD
100
AcDbDimAssoc
330
2CC
 90
        3
 70
     0
 71
     0
  1
AcDbOsnapPointRef
 72
     2
331
1BA
 73
     2
 91
        1
 40
0.5
 10
0.0
 20
0.0
 30
0.0
 75
     0
  1
AcDbOsnapPointRef
 72
     8
331
1BA
 73
     2
 91
        9
 40
0.5907063347321571
 10
0.0
 20
0.0
 30
0.0
 75
     1
  1
AcDbOsnapPointRef
 72
     2
331
1BA
 73
     2
 91
        1
 40
0.5
 10
0.0
 20
0.0
 30
0.0
 75
     0
  0
DIMASSOC
  5
2DF
102
{ACAD_REACTORS
330
2DE
102
}
330
2DE
100
AcDbDimAssoc
330
2DD
 90
        2
 70
     0
 71
     0
  1
AcDbOsnapPointRef
 72
     8
331
6C
 73
     2
 91
       17
 40
0.0
 10
0.0
 20
0.0
 30
0.0
 75
     1
  1
AcDbOsnapPointRef
 72
     0
 40
0.0
 10
28.68541636080545
 20
31.09586010729959
 30
0.0
 75
     0
  0
DIMASSOC
  5
2EF
102
{ACAD_REACTORS
330
2EE
102
}
330
2EE
100
AcDbDimAssoc
330
2ED
 90
        1
 70
     0
 71
     0
  1
AcDbOsnapPointRef
 72
    13
331
6D
 73
     2
 91
       24
 40
0.0
 10
0.0
 20
0.0
 30
2.000000000000000E+50
 75
     0
  0
DIMASSOC
  5
31C
102
{ACAD_REACTORS
330
31B
102
}
330
31B
100
AcDbDimAssoc
330
31A
 90
        3
 70
     0
 71
     0
  1
AcDbOsnapPointRef
 72
     1
331
6D
 73
     2
 91
        1
 40
1.0
 10
0.0
 20
0.0
 30
2.000000000000000E+50
 75
     0
  1
AcDbOsnapPointRef
 72
     8
331
6D
 73
     2
 91
       21
 40
0.0808756333460816
 10
0.0
 20
0.0
 30
0.0
 75
     1
  1
AcDbOsnapPointRef
 72
     1
331
6D
 73
     2
 91
        1
 40
1.0
 10
0.0
 20
0.0
 30
2.000000000000000E+50
 75
     0
  0
DIMASSOC
  5
32D
102
{ACAD_REACTORS
330
32C
102
}
330
32C
100
AcDbDimAssoc
330
32B
 90
        3
 70
     0
 71
     0
  1
AcDbOsnapPointRef
 72
     1
331
6D
 73
     2
 91
       16
 40
6.283185307179586
 10
0.0
 20
0.0
 30
2.000000000000000E+50
 75
     0
  1
AcDbOsnapPointRef
 72
     8
331
6D
 73
     2
 91
        8
 40
0.5274795959702611
 10
0.0
 20
0.0
 30
0.0
 75
     1
  1
AcDbOsnapPointRef
 72
     1
331
6D
 73
     2
 91
       16
 40
6.283185307179586
 10
0.0
 20
0.0
 30
2.000000000000000E+50
 75
     0
  0
DIMASSOC
  5
34C
102
{ACAD_REACTORS
330
34B
102
}
330
34B
100
AcDbDimAssoc
330
34A
 90
        1
 70
     0
 71
     0
  1
AcDbOsnapPointRef
 72
     2
331
73
 73
     2
 91
       17
 40
0.5
 10
0.0
 20
0.0
 30
0.0
 75
     0
  0
LAYOUT
  5
1F
102
{ACAD_XDICTIONARY
360
20
102
}
102
{ACAD_REACTORS
330
18
102
}
330
18
100
AcDbPlotSettings
  1

  2
Default Windows System Printer.pc3
  4
Letter
  6

 40
4.857749938964843
 41
4.857737064361572
 42
4.85772705078125
 43
4.011077880859375
 44
279.3999938964844
 45
215.8999938964844
 46
-0.730858697408237
 47
-3.856245104248928
 48
0.0
 49
0.0
140
0.0
141
0.0
142
1.0
143
1.0
 70
   692
 72
     0
 73
     1
 74
     1
  7
monochrome.ctb
 75
    16
147
1.0
148
0.0083604749971762
149
0.0163435974585369
100
AcDbLayout
  1
Layout1
 70
     1
 71
     1
 10
-0.0064249311656545
 20
-0.1631194818509899
 11
8.493574828538456
 21
10.83688027785312
 12
0.0
 22
0.0
 32
0.0
 14
-0.0001993256062995
 24
-0.0006438736622698
 34
-0.0000000000112498
 15
8.45427583816383
 25
10.67440472088713
 35
0.0000000000002956
146
0.0
 13
0.0
 23
0.0
 33
0.0
 16
1.0
 26
0.0
 36
0.0
 17
0.0
 27
1.0
 37
0.0
 76
     0
330
1C
1001
ACAD_PSEXT
1000
Default Windows System Printer.pc3
1000
HP LaserJet Professional M1212nf MFP
1000
USB001
1000

1070
     0
  0
LAYOUT
  5
17
102
{ACAD_XDICTIONARY
360
19
102
}
102
{ACAD_REACTORS
330
18
102
}
330
18
100
AcDbPlotSettings
  1

  2
hp LaserJet 1000
  4
Letter
  6

 40
5.111750125885009
 41
5.11176061630249
 42
5.111740112304687
 43
5.11175537109375
 44
215.8999938964844
 45
279.3999938964844
 46
-1737.727141600119
 47
-1443.590822120185
 48
0.0
 49
0.0
140
0.0
141
0.0
142
1.0
143
1.0
 70
 11956
 72
     0
 73
     1
 74
     1
  7
monochrome.ctb
 75
    16
147
1.0
148
-1178909.293504616
149
-716480.0773740626
100
AcDbLayout
  1
Model
 70
     1
 71
     0
 10
0.0
 20
0.0
 11
12.0
 21
9.0
 12
0.0
 22
0.0
 32
0.0
 14
0.0
 24
0.0
 34
0.0
 15
0.0
 25
0.0
 35
0.0
146
0.0
 13
0.0
 23
0.0
 33
0.0
 16
1.0
 26
0.0
 36
0.0
 17
0.0
 27
1.0
 37
0.0
 76
     0
330
2
1001
ACAD_PSEXT
1000
hp LaserJet 1000
1000
hp LaserJet 1000
1000
USB001
1000

1070
     0
  0
MATERIAL
  5
48
102
{ACAD_XDICTIONARY
360
49
102
}
102
{ACAD_REACTORS
330
D
102
}
330
D
100
AcDbMaterial
  1
ByBlock
 72
     0
 43
0.0208333333333333
 43
0.0
 43
0.0
 43
0.0
 43
0.0
 43
0.0208333333333333
 43
0.0
 43
0.0
 43
0.0
 43
0.0
 43
1.0
 43
0.0
 43
0.0
 43
0.0
 43
0.0
 43
1.0
 77
     0
 47
0.0208333333333333
 47
0.0
 47
0.0
 47
0.0
 47
0.0
 47
0.0208333333333333
 47
0.0
 47
0.0
 47
0.0
 47
0.0
 47
1.0
 47
0.0
 47
0.0
 47
0.0
 47
0.0
 47
1.0
171
     0
 49
0.0208333333333333
 49
0.0
 49
0.0
 49
0.0
 49
0.0
 49
0.0208333333333333
 49
0.0
 49
0.0
 49
0.0
 49
0.0
 49
1.0
 49
0.0
 49
0.0
 49
0.0
 49
0.0
 49
1.0
175
     0
142
0.0208333333333333
142
0.0
142
0.0
142
0.0
142
0.0
142
0.0208333333333333
142
0.0
142
0.0
142
0.0
142
0.0
142
1.0
142
0.0
142
0.0
142
0.0
142
0.0
142
1.0
179
     0
144
0.0208333333333333
144
0.0
144
0.0
144
0.0
144
0.0
144
0.0208333333333333
144
0.0
144
0.0
144
0.0
144
0.0
144
1.0
144
0.0
144
0.0
144
0.0
144
0.0
144
1.0
147
0.0208333333333333
147
0.0
147
0.0
147
0.0
147
0.0
147
0.0208333333333333
147
0.0
147
0.0
147
0.0
147
0.0
147
1.0
147
0.0
147
0.0
147
0.0
147
0.0
147
1.0
  0
MATERIAL
  5
40
102
{ACAD_XDICTIONARY
360
41
102
}
102
{ACAD_REACTORS
330
D
102
}
330
D
100
AcDbMaterial
  1
ByLayer
 72
     0
 43
0.0208333333333333
 43
0.0
 43
0.0
 43
0.0
 43
0.0
 43
0.0208333333333333
 43
0.0
 43
0.0
 43
0.0
 43
0.0
 43
1.0
 43
0.0
 43
0.0
 43
0.0
 43
0.0
 43
1.0
 77
     0
 47
0.0208333333333333
 47
0.0
 47
0.0
 47
0.0
 47
0.0
 47
0.0208333333333333
 47
0.0
 47
0.0
 47
0.0
 47
0.0
 47
1.0
 47
0.0
 47
0.0
 47
0.0
 47
0.0
 47
1.0
171
     0
 49
0.0208333333333333
 49
0.0
 49
0.0
 49
0.0
 49
0.0
 49
0.0208333333333333
 49
0.0
 49
0.0
 49
0.0
 49
0.0
 49
1.0
 49
0.0
 49
0.0
 49
0.0
 49
0.0
 49
1.0
175
     0
142
0.0208333333333333
142
0.0
142
0.0
142
0.0
142
0.0
142
0.0208333333333333
142
0.0
142
0.0
142
0.0
142
0.0
142
1.0
142
0.0
142
0.0
142
0.0
142
0.0
142
1.0
179
     0
144
0.0208333333333333
144
0.0
144
0.0
144
0.0
144
0.0
144
0.0208333333333333
144
0.0
144
0.0
144
0.0
144
0.0
144
1.0
144
0.0
144
0.0
144
0.0
144
0.0
144
1.0
147
0.0208333333333333
147
0.0
147
0.0
147
0.0
147
0.0
147
0.0208333333333333
147
0.0
147
0.0
147
0.0
147
0.0
147
1.0
147
0.0
147
0.0
147
0.0
147
0.0
147
1.0
  0
MATERIAL
  5
C
102
{ACAD_XDICTIONARY
360
E
102
}
102
{ACAD_REACTORS
330
D
102
}
330
D
100
AcDbMaterial
  1
Global
 72
     0
 43
0.0208333333333333
 43
0.0
 43
0.0
 43
0.0
 43
0.0
 43
0.0208333333333333
 43
0.0
 43
0.0
 43
0.0
 43
0.0
 43
1.0
 43
0.0
 43
0.0
 43
0.0
 43
0.0
 43
1.0
 77
     0
 47
0.0208333333333333
 47
0.0
 47
0.0
 47
0.0
 47
0.0
 47
0.0208333333333333
 47
0.0
 47
0.0
 47
0.0
 47
0.0
 47
1.0
 47
0.0
 47
0.0
 47
0.0
 47
0.0
 47
1.0
171
     0
 49
0.0208333333333333
 49
0.0
 49
0.0
 49
0.0
 49
0.0
 49
0.0208333333333333
 49
0.0
 49
0.0
 49
0.0
 49
0.0
 49
1.0
 49
0.0
 49
0.0
 49
0.0
 49
0.0
 49
1.0
175
     0
142
0.0208333333333333
142
0.0
142
0.0
142
0.0
142
0.0
142
0.0208333333333333
142
0.0
142
0.0
142
0.0
142
0.0
142
1.0
142
0.0
142
0.0
142
0.0
142
0.0
142
1.0
179
     0
144
0.0208333333333333
144
0.0
144
0.0
144
0.0
144
0.0
144
0.0208333333333333
144
0.0
144
0.0
144
0.0
144
0.0
144
1.0
144
0.0
144
0.0
144
0.0
144
0.0
144
1.0
147
0.0208333333333333
147
0.0
147
0.0
147
0.0
147
0.0
147
0.0208333333333333
147
0.0
147
0.0
147
0.0
147
0.0
147
1.0
147
0.0
147
0.0
147
0.0
147
0.0
147
1.0
  0
MLINESTYLE
  5
54
102
{ACAD_REACTORS
330
3E
102
}
330
3E
100
AcDbMlineStyle
  2
STANDARD
 70
     0
  3

 62
   256
 51
90.0
 52
90.0
 71
     2
 49
0.5
 62
   256
  6
BYLAYER
 49
-0.5
 62
   256
  6
BYLAYER
  0
ACDBPLACEHOLDER
  5
9
102
{ACAD_REACTORS
330
A
102
}
330
A
  0
SCALE
  5
59
102
{ACAD_REACTORS
330
51
102
}
330
51
100
AcDbScale
 70
     0
300
1:1
140
1.0
141
1.0
290
     1
  0
SCALE
  5
5A
102
{ACAD_REACTORS
330
51
102
}
330
51
100
AcDbScale
 70
     0
300
1/128" = 1'-0"
140
0.0078125
141
12.0
290
     0
  0
SCALE
  5
5B
102
{ACAD_REACTORS
330
51
102
}
330
51
100
AcDbScale
 70
     0
300
1/64" = 1'-0"
140
0.015625
141
12.0
290
     0
  0
SCALE
  5
5C
102
{ACAD_REACTORS
330
51
102
}
330
51
100
AcDbScale
 70
     0
300
1/32" = 1'-0"
140
0.03125
141
12.0
290
     0
  0
SCALE
  5
5D
102
{ACAD_REACTORS
330
51
102
}
330
51
100
AcDbScale
 70
     0
300
1/16" = 1'-0"
140
0.0625
141
12.0
290
     0
  0
SCALE
  5
5E
102
{ACAD_REACTORS
330
51
102
}
330
51
100
AcDbScale
 70
     0
300
3/32" = 1'-0"
140
0.09375
141
12.0
290
     0
  0
SCALE
  5
5F
102
{ACAD_REACTORS
330
51
102
}
330
51
100
AcDbScale
 70
     0
300
1/8" = 1'-0"
140
0.125
141
12.0
290
     0
  0
SCALE
  5
60
102
{ACAD_REACTORS
330
51
102
}
330
51
100
AcDbScale
 70
     0
300
3/16" = 1'-0"
140
0.1875
141
12.0
290
     0
  0
SCALE
  5
61
102
{ACAD_REACTORS
330
51
102
}
330
51
100
AcDbScale
 70
     0
300
1/4" = 1'-0"
140
0.25
141
12.0
290
     0
  0
SCALE
  5
62
102
{ACAD_REACTORS
330
51
102
}
330
51
100
AcDbScale
 70
     0
300
3/8" = 1'-0"
140
0.375
141
12.0
290
     0
  0
SCALE
  5
63
102
{ACAD_REACTORS
330
51
102
}
330
51
100
AcDbScale
 70
     0
300
1/2" = 1'-0"
140
0.5
141
12.0
290
     0
  0
SCALE
  5
64
102
{ACAD_REACTORS
330
51
102
}
330
51
100
AcDbScale
 70
     0
300
3/4" = 1'-0"
140
0.75
141
12.0
290
     0
  0
SCALE
  5
65
102
{ACAD_REACTORS
330
51
102
}
330
51
100
AcDbScale
 70
     0
300
1" = 1'-0"
140
1.0
141
12.0
290
     0
  0
SCALE
  5
66
102
{ACAD_REACTORS
330
51
102
}
330
51
100
AcDbScale
 70
     0
300
1-1/2" = 1'-0"
140
1.5
141
12.0
290
     0
  0
SCALE
  5
67
102
{ACAD_REACTORS
330
51
102
}
330
51
100
AcDbScale
 70
     0
300
3" = 1'-0"
140
3.0
141
12.0
290
     0
  0
SCALE
  5
68
102
{ACAD_REACTORS
330
51
102
}
330
51
100
AcDbScale
 70
     0
300
6" = 1'-0"
140
6.0
141
12.0
290
     0
  0
SCALE
  5
69
102
{ACAD_REACTORS
330
51
102
}
330
51
100
AcDbScale
 70
     0
300
1'-0" = 1'-0"
140
12.0
141
12.0
290
     0
  0
TABLESTYLE
  5
55
102
{ACAD_XDICTIONARY
360
56
102
}
102
{ACAD_REACTORS
330
52
102
}
330
52
100
AcDbTableStyle
  3
Standard
 70
     0
 71
     0
 40
0.06
 41
0.06
280
     0
281
     0
  7
Standard
140
0.18
170
     2
 62
     0
 63
     7
283
     0
274
    -2
284
     1
 64
     0
275
    -2
285
     1
 65
     0
276
    -2
286
     1
 66
     0
277
    -2
287
     1
 67
     0
278
    -2
288
     1
 68
     0
279
    -2
289
     1
 69
     0
  7
Standard
140
0.25
170
     5
 62
     0
 63
     7
283
     0
274
    -2
284
     1
 64
     0
275
    -2
285
     1
 65
     0
276
    -2
286
     1
 66
     0
277
    -2
287
     1
 67
     0
278
    -2
288
     1
 68
     0
279
    -2
289
     1
 69
     0
  7
Standard
140
0.18
170
     5
 62
     0
 63
     7
283
     0
274
    -2
284
     1
 64
     0
275
    -2
285
     1
 65
     0
276
    -2
286
     1
 66
     0
277
    -2
287
     1
 67
     0
278
    -2
288
     1
 68
     0
279
    -2
289
     1
 69
     0
  0
VISUALSTYLE
  5
30
102
{ACAD_XDICTIONARY
360
36C
102
}
102
{ACAD_REACTORS
330
31
102
}
330
31
100
AcDbVisualStyle
  2
2dWireframe
 70
     4
 71
     0
 72
     2
 73
     0
 90
        0
 40
-0.6
 41
-30.0
 62
     5
 63
     7
 74
     1
 91
        4
 64
     7
 65
   257
 75
     1
175
     1
 42
1.0
 92
        0
 66
   257
 43
1.0
 76
     1
 77
     6
 78
     2
 67
     7
 79
     5
170
     0
171
     0
290
     0
174
     0
 93
        1
 44
0.0
173
     0
291
     0
 45
0.0
1001
ACAD
1000
AcDbSavedByObjectVersion
1070
     0
  0
VISUALSTYLE
  5
57
102
{ACAD_XDICTIONARY
360
371
102
}
102
{ACAD_REACTORS
330
31
102
}
330
31
100
AcDbVisualStyle
  2
Realistic
 70
     8
 71
     2
 72
     2
 73
     0
 90
        2
 40
-0.6
 41
30.0
 62
     5
 63
     7
 74
     0
 91
        0
 64
     7
 65
   257
 75
     1
175
     1
 42
1.0
 92
        8
 66
   257
 43
1.0
 76
     1
 77
     6
 78
     2
 67
     7
 79
     3
170
     0
171
     0
290
     0
174
     0
 93
       13
 44
0.0
173
     0
291
     0
 45
0.0
1001
ACAD
1000
AcDbSavedByObjectVersion
1070
     0
  0
VISUALSTYLE
  5
58
102
{ACAD_XDICTIONARY
360
373
102
}
102
{ACAD_REACTORS
330
31
102
}
330
31
100
AcDbVisualStyle
  2
Wireframe
 70
     5
 71
     0
 72
     2
 73
     0
 90
        0
 40
-0.6
 41
-30.0
 62
     5
 63
     7
 74
     1
 91
        4
 64
     7
 65
   257
 75
     1
175
     1
 42
1.0
 92
        0
 66
   257
 43
1.0
 76
     1
 77
     6
 78
     2
 67
     7
 79
     3
170
     0
171
     0
290
     0
174
     0
 93
        1
 44
0.0
173
     0
291
     0
 45
0.0
1001
ACAD
1000
AcDbSavedByObjectVersion
1070
     0
  0
DICTIONARYVAR
  5
361
102
{ACAD_REACTORS
330
35E
102
}
330
35E
100
DictionaryVariables
280
     0
  1
1:1
  0
DICTIONARYVAR
  5
360
102
{ACAD_REACTORS
330
35E
102
}
330
35E
100
DictionaryVariables
280
     0
  1
STANDARD
  0
DICTIONARYVAR
  5
35F
102
{ACAD_REACTORS
330
35E
102
}
330
35E
100
DictionaryVariables
280
     0
  1
STANDARD
  0
DICTIONARYVAR
  5
366
102
{ACAD_REACTORS
330
35E
102
}
330
35E
100
DictionaryVariables
280
     0
  1
2
  0
DICTIONARYVAR
  5
364
102
{ACAD_REACTORS
330
35E
102
}
330
35E
100
DictionaryVariables
280
     0
  1
1
  0
DICTIONARYVAR
  5
363
102
{ACAD_REACTORS
330
35E
102
}
330
35E
100
DictionaryVariables
280
     0
  1
0
  0
DICTIONARYVAR
  5
362
102
{ACAD_REACTORS
330
35E
102
}
330
35E
100
DictionaryVariables
280
     0
  1
127
  0
DICTIONARYVAR
  5
365
102
{ACAD_REACTORS
330
35E
102
}
330
35E
100
DictionaryVariables
280
     0
  1
0
  0
DICTIONARY
  5
20
330
1F
100
AcDbDictionary
280
     1
281
     1
  3
ACAD_XREC_ROUNDTRIP
360
36B
  3
ADSK_XREC_LAYOUTTHUMBNAIL
360
21
  0
DICTIONARY
  5
19
330
17
100
AcDbDictionary
280
     1
281
     1
  3
ACAD_XREC_ROUNDTRIP
360
36A
  3
ADSK_XREC_LAYOUTTHUMBNAIL
360
1A
  0
DICTIONARY
  5
49
330
48
100
AcDbDictionary
280
     1
281
     1
  3
ACAD_XREC_ROUNDTRIP
360
36F
  3
BUMPTILE
360
4A
  3
DIFFUSETILE
360
4B
  3
OPACITYTILE
360
4C
  3
REFLECTIONTILE
360
4D
  3
REFRACTIONTILE
360
4E
  3
SPECULARTILE
360
4F
  0
DICTIONARY
  5
41
330
40
100
AcDbDictionary
280
     1
281
     1
  3
ACAD_XREC_ROUNDTRIP
360
36E
  3
BUMPTILE
360
42
  3
DIFFUSETILE
360
43
  3
OPACITYTILE
360
44
  3
REFLECTIONTILE
360
45
  3
REFRACTIONTILE
360
46
  3
SPECULARTILE
360
47
  0
DICTIONARY
  5
E
330
C
100
AcDbDictionary
280
     1
281
     1
  3
ACAD_XREC_ROUNDTRIP
360
369
  3
BUMPTILE
360
F
  3
DIFFUSETILE
360
10
  3
OPACITYTILE
360
11
  3
REFLECTIONTILE
360
12
  3
REFRACTIONTILE
360
13
  3
SPECULARTILE
360
14
  0
DICTIONARY
  5
56
330
55
100
AcDbDictionary
280
     1
281
     1
  3
ACAD_ROUNDTRIP_2008_TABLESTYLE_CELLSTYLEMAP
360
367
  3
ACAD_XREC_ROUNDTRIP
360
370
  0
DICTIONARY
  5
36C
330
30
100
AcDbDictionary
280
     1
281
     1
  3
ACAD_XREC_ROUNDTRIP
360
36D
  0
DICTIONARY
  5
371
330
57
100
AcDbDictionary
280
     1
281
     1
  3
ACAD_XREC_ROUNDTRIP
360
372
  0
DICTIONARY
  5
373
330
58
100
AcDbDictionary
280
     1
281
     1
  3
ACAD_XREC_ROUNDTRIP
360
374
  0
XRECORD
  5
36B
102
{ACAD_REACTORS
330
20
102
}
330
20
100
AcDbXrecord
280
     1
102
SHADEPLOT
 70
     1
102
SHADEPLOTRESLEVEL
 70
     4
102
SHADEPLOTCUSTOMDPI
 70
   300
  0
XRECORD
  5
21
102
{ACAD_REACTORS
330
20
102
}
330
20
100
AcDbXrecord
280
     1
310
280000006B0000008C0000000100080000000000103B000000000000000000000001000000000000FFFFFF0000000000C8C8C8000000000000000000000000000000000000000000000000000000000000000000330000006600000099000000CC000000FF00000000330000333300006633000099330000CC330000FF3300
310
0000660000336600006666000099660000CC660000FF66000000990000339900006699000099990000CC990000FF99000000CC000033CC000066CC000099CC0000CCCC0000FFCC000000FF000033FF000066FF000099FF0000CCFF0000FFFF000000003300330033006600330099003300CC003300FF003300003333003333
310
33006633330099333300CC333300FF33330000663300336633006666330099663300CC663300FF66330000993300339933006699330099993300CC993300FF99330000CC330033CC330066CC330099CC3300CCCC3300FFCC330000FF330033FF330066FF330099FF3300CCFF3300FFFF330000006600330066006600660099
310
006600CC006600FF00660000336600333366006633660099336600CC336600FF33660000666600336666006666660099666600CC666600FF66660000996600339966006699660099996600CC996600FF99660000CC660033CC660066CC660099CC6600CCCC6600FFCC660000FF660033FF660066FF660099FF6600CCFF6600
310
FFFF660000009900330099006600990099009900CC009900FF00990000339900333399006633990099339900CC339900FF33990000669900336699006666990099669900CC669900FF66990000999900339999006699990099999900CC999900FF99990000CC990033CC990066CC990099CC9900CCCC9900FFCC990000FF99
310
0033FF990066FF990099FF9900CCFF9900FFFF99000000CC003300CC006600CC009900CC00CC00CC00FF00CC000033CC003333CC006633CC009933CC00CC33CC00FF33CC000066CC003366CC006666CC009966CC00CC66CC00FF66CC000099CC003399CC006699CC009999CC00CC99CC00FF99CC0000CCCC0033CCCC0066CC
310
CC0099CCCC00CCCCCC00FFCCCC0000FFCC0033FFCC0066FFCC0099FFCC00CCFFCC00FFFFCC000000FF003300FF006600FF009900FF00CC00FF00FF00FF000033FF003333FF006633FF009933FF00CC33FF00FF33FF000066FF003366FF006666FF009966FF00CC66FF00FF66FF000099FF003399FF006699FF009999FF00CC
310
99FF00FF99FF0000CCFF0033CCFF0066CCFF0099CCFF00CCCCFF00FFCCFF0000FFFF0033FFFF0066FFFF0099FFFF00CCFFFF00FFFFFF00000000000D0D0D001A1A1A00282828003535350043434300505050005D5D5D006B6B6B00787878008686860093939300A1A1A100AEAEAE00BBBBBB00C9C9C900D6D6D600E4E4E400
310
F1F1F100FFFFFF0000000000000000000000000000000000000000000000000000000000000000000000000000000000E2E2E2E2E2E2E2E2E2E2E2E2E2E2E2E2E2E2E2E2E2E2E2E2E2E2E2E2E2E2E2E2E2E2E2E2E2E2E2E2E2E2E2E2E2E2E2E2E2E2E2E2E2E2E2E2E2E2E2E2E2E2E2E2E2E2E2E2E2E2E2E2E2E2E2E2E2E2E2
310
E2E2E2E2E2E2E2E2E2E2E2E2E2E2E2E2E2E2E2E2E2E2E2E2E2E2E2E240E200000000000000000000000000000000000000000000000000000000000000000000000000000000000000000000000000000000000000000000000000000000000000000000000000000000000000000000000000000000000000000000000000
310
000000000000000000B8E20000000000000000000000000000000000000000000000000000000000000000000000000000000000000000000000000000000000000000000000000000000000000000000000000000000000000000000000000000000000000000000000000000000000000000000030E2E2E2E2E2E2E2E2E2
310
E2E2000000000000000000E2E2E2E2E2E2E2E2E2E2E2E2E2E2E2E200000000000000000000E2E2E2E2E2E2E2E2E2E2E2E2E2E2E2E200000000000000000000E2E2E2E2E2E2E2E2E2E2E2E2E2E2E2E2000000000000000000E2E2E2E2E2E2E2E2E2007EE200E200000000000000000000000000000000000000000000000000
310
0000000000000000000000000000000000000000000000000000000000000000000000000000000000000000000000000000000000000000000000000000000000000000000000000000000000E20000E200E20000000000000000000000000000000000000000000000000000000000000000000000000000000000000000
310
0000000000E2E2E20000000000000000000000000000000000000000000000000000000000000000000000000000000000000000000000000000E20001E200E200000000000000000000000000000000000000000000000000000000000000000000000000000000000000000000000000E2E2E20000000000000000000000
310
000000000000000000000000000000000000000000000000000000000000000000000000000000E20019E200E200000000000000000000000000000000000000000000000000000000000000000000000000000000000000000000000000000000000000000000000000000000000000000000000000000000000000000000
310
0000000000000000000000000000000000000000E20001E200E2000000000000000000000000000000000000000000000000000000000000000000000000000000000000000000000000E2E2E2E2E2000000000000000000000000000000000000000000000000000000000000000000000000000000000000000000000000
310
00E20000E200E2000000000000000000000000000000000000000000000000000000000000000000000000000000000000000000000000E2E2E2E2E200000000000000000000000000000000000000000000000000000000000000000000000000000000000000000000000000E20000E200E2000000000000000000000000
310
000000000000000000000000000000000000000000000000000000000000000000000000000000000000000000000000000000000000000000000000000000000000000000000000000000000000000000000000000000000000E20001E200E200000000000000000000000000000000000000000000000000000000000000
310
0000000000000000000000000000000000000000000000000000000000000000000000000000000000000000000000000000000000000000000000000000000000000000000000E20000E200000000000000000000000000000000000000000000000000000000000000000000000000000000000000000000000000000000
310
00000000000000000000000000000000000000000000000000000000000000000000000000000000000000000000000000000000000000E20000000000000000000000000000000000000000000000000000000000000000000000000000000000000000000000000000000000000000000000000000000000000000000000
310
000000000000000000000000000000000000000000000000000000000000000000000000E2000000000000000000000000000000000000000000000000000000000000000000000000000000000000000000000000000000000000000000000000000000000000000000000000000000000000000000000000000000000000
310
0000000000000000000000000000000000E20000000000000000000000000000000000000000000000000000000000000000000000000000000000000000000000000000000000000000000000000000000000000000000000000000000000000000000000000000000000000000000000000000000000000000000000E200
310
00000000000000000000000000000000000000000000000000000000000000000000000000000000000000000000000000000000000000000000000000000000000000000000000000000000000000000000000000000000000000000000000000000000000000000000E20000000000000000000000000000000000000000
310
000000000000000000000000000000000000000000000000000000000000000000000000000000000000000000000000000000000000000000000000000000000000000000000000000000000000000000000000000002E2000000000000000000000000000000000000000000000000000000000000000000000000000000
310
0000000000000000000000000000000000000000000000000000000000000000000000000000000000000000000000000000000000000000000000000000000000000002E200000000000000000000000000000000000000000000000000000000000000000000000000000000000000000000000000000000000000000000
310
000000000000000000000000000000000000000000000000000000000000000000000000000000000000000000000000FFE20000000000000000000000000000000000000000000000000000000000000000000000000000000000000000000000000000000000000000000000000000000000000000000000000000000000
310
000000000000000000000000000000000000000000000000000000000000E2000000000000000000000000000000000000000000000000000000000000000000000000000000000000000000000000000000000000000000000000000000000000000000000000000000000000000000000000000000000000000000000000
310
0000000000000000000099E200E2000000000000000000000000000000000000000000000000000000000000000000000000000000000000000000000000000000000000000000000000000000000000000000000000000000000000000000000000000000000000000000000000000000000000E20066E200E20000000000
310
00000000000000000000000000000000000000000000000000000000000000000000000000000000000000000000000000000000000000000000000000000000000000000000000000000000000000000000000000000000000000000000000000E20066E200E2000000000000000000000000000000000000000000000000
310
000000000000000000000000000000000000000000000000000000000000000000000000000000000000000000000000000000000000000000000000000000000000000000000000000000000000E20066E200E200000000000000000000000000000000000000000000000000000000000000000000000000000000000000
310
0000000000000000000000000000000000000000000000000000000000000000000000000000000000000000000000000000000000000000000000E20000E200E20000000000000000000000000000000000000000000000000000000000000000000000000000000000000000000000000000000000000000000000000000
310
00000000000000000000000000000000000000000000000000000000000000000000000000000000E20099E200E2000000000000000000000000000000000000000000000000000000000000000000000000000000000000000000000000000000000000000000000000000000000000000000000000000000000000000000
310
000000000000000000000000000000000000000000E20000E200E200000000000000000000000000000000000000000000000000000000000000000000000000000000000000000000000000000000000000000000000000000000000000000000000000000000000000000000000000000000000000000000000000000000
310
0000E200FFE200E2000000000000000000000000000000000000000000000000000000000000000000000000000000000000000000000000000000000000000000000000000000000000000000000000000000000000000000000000000000000000000000000000000000000000E20000E200E20000000000000000000000
310
000000000000000000000000E20000000000000000000000000000000000000000000000000000000000000000000000000000000000E20000000000E200000000E200000000E20000000000000000000000000000000000000000E20000E200E2000000000000000000000000000000000000000000E2E2E2E2E2E2E2E2E2
310
E2E2E2E2E2E2E2E2E2E2E2E2E2E2E2E2E2E2E2E2E2E2E2E2E2E2E2E2E2E2E2E2E2E2E2E2E2E2E2E2E2E2E2E2E2E2E2E2E2E2E2E20000000000000000000000000000000000000000E20000E200E2000000000000000000000000000000000000000000E2E2E20000E2E200000000E200000000E2000000E2E2E2E200000000
310
000000000000000000000000E20000E2000000000000E200000000E200000000E20000000000000000000000000000000000000000E20000E200E2000000000000000000000000000000000000000000E2E2E2E200E2E2E2E2E2E2E2E2E20000E2000000E2E2000000000000000000000000000000000000E200E2E2E20000
310
000000E200000000E200000000E20000000000000000000000000000000000000000E2000FE200E20000000000000000000000000000000000000000000000E200000000000000000000E2E2E2E2E2E2E2E2E2E2E2E2E2E2E20000000000000000000000E2E200E2E2E20000000000E200000000E200000000E20000000000
310
000000000000000000000000000000E20000E200E20000000000000000000000000000000000000000000000E2E2E2E2E2E2E2E2E2E2E2E2E2E2E2E2E2E2E2E2E2E2E2E2E2E2E2E2E2E2E2E2E2E2E2E2E2E2E200E2E2E20000000000E200000000E200000000E20000000000000000000000000000000000000000E20000E2
310
00E20000000000000000000000000000000000000000000000E2000000000000000000000000E20000000000E2E20000E200000000000000E2E2E2E2E2E200E200E2E2E20000000000E200000000E200000000E20000000000000000000000000000000000000000E20000E200E20000000000000000000000000000000000
310
000000000000E2000000000000000000000000E20000000000E2E20000E200000000000000E2E2E2E2E2E2E2E20000E2000000000000E200000000E200000000E20000000000000000000000000000000000000000E20000E200E20000000000000000000000000000000000000000000000E2000000000000000000000000
310
E20000000000E2E20000E20000E2E2E2E2E2E2E2E200E200E2000000E2000000000000E200000000E200000000E20000000000000000000000000000000000000000E2000FE200000000000000000000000000000000000000000000000000E2000000000000000000000000E20000000000E2E20000E20000E2E200E2E2E2
310
E2E2E2E2E2E2E2E2E2E2E20000000000E200000000E200000000E20000000000000000000000000000000000000000000000E200000000000000000000000000000000000000000000000000E2000000000000000000000000E20000000000E2E20000E20000E2E200E200E2000000000000E20000E2000000000000E20000
310
0000E200000000E200000000000000000000000000000000000000000000F5E200000000000000000000000000000000000000000000000000E2000000000000000000000000E20000000000E2E20000E20000E2E200E200E2000000000000E20000E2000000000000E200000000E200000000E20000000000000000000000
310
000000000000000000000000E200000000000000000000000000000000000000000000000000E2000000000000000000000000E20000000000E2E20000E20000E2E200E2E2E2000000000000E20000E2000000000000E200000000E200000000E20000000000000000000000000000000000000000000000E2000000000000
310
00000000000000000000000000000000000000E2000000000000000000000000E20000000000E2E20000E20000E2E200E2E2E2000000000000E20000E2000000000000E200000000E200000000E20000000000000000000000000000000000000000000000E200000000000000000000000000000000000000000000000000
310
E2000000000000000000000000E20000000000E2E20000E20000E2E200E2E2E2000000000000E20000E2000000000000E200000000E200000000E20000000000000000000000000000000000000000000000E200000000000000000000000000000000000000000000000000E2000000000000000000000000E20000000000
310
E2E20000E20000E2E200E2E2E2000000000000E20000E2000000000000E200000000E200000000E2000000000000000000000000000000000000000000000FE200000000000000000000000000000000000000000000000000E2000000000000000000000000E20000000000E2E20000E20000E2E200E2E2E2000000000000
310
E20000E200000000E2E2E200000000E200000000E20000000000000000000000000000000000000000000000E200000000000000000000000000000000000000000000000000E2000000000000000000000000E20000000000E2E20000E20000E2E200E2E2E2000000000000E20000E200000000E2E2E2E2000000E2000000
310
00E20000000000000000000000000000000000000000000000E200E2000000000000000000000000000000000000000000E2E2E2000000000000000000000000E20000000000E2E20000E20000E2E200E2E2E2000000000000E20000E200000000E2E2E200000000E200000000E20000000000000000000000000000000000
310
000000E20000E200E2000000000000000000000000000000000000000000E2E2E2E20000000000000000000000E20000000000E2E20000E20000E2E200E2E2E2000000000000E20000E200000000E2E2E200000000E200000000E20000000000000000000000000000000000000000E20000E200E200000000000000000000
310
0000000000000000000000E2E2E2E20000000000000000000000E20000000000E2E20000E20000E2E200E2E2E2000000000000E200E2E2E20000000000E200000000E200000000E20000000000000000000000000000000000000000E200F5E200E2000000000000000000000000000000000000000000E2E2E2E200000000
310
00000000000000E20000000000E2E20000E20000E2E200E2E2E2000000000000E200E2E2E20000000000E200000000E200000000E20000000000000000000000000000000000000000E20000E200E20000000000000000000000000000000000000000000000E2000000000000000000000000E20000000000E2E20000E200
310
00E2E200E2E2E2000000000000E200E2E2E20000000000E200000000E200000000E20000000000000000000000000000000000000000E20000E200E20000000000000000000000000000000000000000000000E2000000000000000000000000E20000000000E2E20000E20000E2E200E2E2E2000000000000E200E2E2E200
310
00000000E200000000E200000000E20000000000000000000000000000000000000000E20000E200E20000000000000000000000000000000000000000000000E2000000000000000000000000E20000000000E2E20000E20000E2E200E2E2E2000000000000E20000E2000000000000E200000000E200000000E200000000
310
00000000000000000000000000000000E20000E200E20000000000000000000000000000000000000000000000E2000000000000000000000000E20000000000E2E20000E20000E2E200E2E2E2000000000000E20000E2000000000000E200000000E200000000E20000000000000000000000000000000000000000E200F5
310
E200E20000000000000000000000000000000000000000000000E2000000000000000000000000E20000000000E2E20000E20000E2E200E2E2E2000000000000E20000E2000000000000E200000000E200000000E20000000000000000000000000000000000000000E20000E200E200000000000000000000000000000000
310
00000000000000E2000000000000000000000000E2000000E2E2E2E20000E20000E2E200E2E2E2000000000000E20000E2000000000000E200000000E200000000E20000000000000000000000000000000000000000E200F5E200E20000000000000000000000000000000000000000000000E20000000000E2E2E2E2E2E2
310
00E2E2E2E2E2E2E2E20000E20000E2E200E2E2E2000000000000E20000E2000000000000E200000000E200000000E20000000000000000000000000000000000000000E20000E200E20000000000000000000000000000000000000000000000E20000000000E200000000E200E200000000E2E2E20000E20000E2E200E2E2
310
E2000000000000E20000E2000000000000E200000000E200000000E20000000000000000000000000000000000000000E20000E200E20000000000000000000000000000000000000000000000E20000000000E200000000E2E2E200000000E2E2E20000E20000E2E200E2E2E2000000000000E20000E2000000000000E200
310
000000E200000000E20000000000000000000000000000000000000000E20000E200E20000000000000000000000000000000000000000000000E20000000000E20000000000E2E20000000000E2E20000E20000E2E200E2E2E2000000000000E20000E2000000000000E200000000E200000000E200000000000000000000
310
00000000000000000000E20000E200E20000000000000000000000000000000000000000000000E20000000000E20000000000E2E20000000000E2E20000E20000E2E200E2E2E2000000E20000E20000E2000000000000E200000000E200000000E20000000000000000000000000000000000000000E200F5E200E2000000
310
0000000000000000000000000000000000000000E20000000000E2E2E2E2E2E2E2E2E2E2E2E2E2E2E20000E20000E2E200E2E2E2E2E2E2E2E200E20000E2000000000000E200000000E200000000E20000000000000000000000000000000000000000E20000E200E200000000000000000000000000000000000000000000
310
00E2000000000000E2E200E2E2E200E2E200E2E2E2E20000E20000E2E200E2E200E2E2E2E2E2E2E20000E2000000000000E200000000E200000000E20000000000000000000000000000000000000000E20000E200000000000000000000000000000000000000000000000000E2E2E2E2E2E2E2E2E2E2E2E2E2000000E2E2
310
E2E2E20000E20000E2E200E2E20000E2E2E2E2E2E2E2E2E2E2E2E2E2E2E2E200000000E200000000E20000000000000000000000000000000000000000000000E20000000000000000000000000000000000000000000000000000000000000000000000E2E2000000000000E200E20000E20000E2E200E2E20000E2E200E2
310
00000000E20000000000000000000000E20000E2E2E20000000000000000000000000000000000000000000000E20000000000000000000000000000000000000000000000000000000000000000000000E2E2E2E2E2E2E2E2E2E2E2E2E2E2E2E2E2E2E2E2E2E2E2E2E2E2E200000000E200000000000000000000E2E20000
310
E2E2E200000000000000000000000000000000000000000000F5E2000000000000000000000000000000000000000000000000000000000000000000000000000000000000000000000000000000000000000000000000000000000000E200000000000000000000E2E20000E2E2E200000000000000000000000000000000
310
00000000000000E20000000000000000000000000000000000000000000000000000000000000000000000E2E2E2E2E2E2E2E2E200000000000000000000000000000000000000000000E20000000000000000000000E20000E2E2E20000000000000000000000000000000000000000000000E20000000000000000000000
310
000000000000000000000000000000000000000000000000E2E2000000000000E200000000000000000000000000000000000000000000E20000000000000000000000E200000000E20000000000000000000000000000000000000000000000E200000000000000000000000000000000000000000000000000E2E2E2E2E2
310
E2E2E2E2E2E2E2E2000000E2E2E2E2000000000000000000000000000000000000000000E20000000000000000000000E200000000E20000000000000000000000000000000000000000000000E200000000000000000000000000000000000000000000000000E2000000000000E2E200E2E2E200E2E200E2E2E200000000
310
0000000000000000000000000000000000E20000000000000000000000E200000000E200000000000000000000000000000000000000000000F5E20000000000000000000000000000000000000000000000E2E2E20000000000E2E2E2E2E2E2E2E2E2E2E2E2E2E20000000000000000000000000000000000000000E2E2E2
310
00000000000000000000E200000000E20000000000000000000000000000000000000000000000E2000000000000000000000000000000000000E2E2E2E2E2E2E2E20000000000E20000000000E2E20000000000E20000E2E2E2E2E2E2000000000000000000000000E2E2E200000000000000000000E200000000E2000000
310
00000000000000000000000000000000000000F5E200E200000000000000000000000000000000E2E2E2E2E2E2E2E20000000000E20000000000E2E20000000000E20000E2E2E2E2E2000000000000000000000000E2E2E2E200000000000000000000E200000000E20000000000000000000000000000000000000000E200
310
00E200E20000000000000000000000000000000000000000000000E20000000000E2E2E2E2E2E2E2E2E2E2E2E2E2E200000000000000000000000000000000000000E2E2E2E200000000000000000000E200000000E20000000000000000000000000000000000000000E20000E200E2000000000000000000000000000000
310
0000000000000000E2000000000000E2E200E2E2E200E2E200E2E2E2000000000000000000000000000000000000000000E20000000000000000000000E200000000E20000000000000000000000000000000000000000E2007FE200E20000000000000000000000000000000000000000000000E2E2E2E2E2E2E2E2E2E2E2
310
E2E2000000E2E2E2E2000000000000000000000000000000000000000000E20000000000000000000000E200000000E20000000000000000000000000000000000000000E20000E200E20000000000000000000000000000000000000000000000E2000000000000000000E2E2000000000000E20000000000000000000000
310
0000000000000000000000E20000000000000000000000E200000000E20000000000000000000000000000000000000000E200F5E200E2000000000000000000000000000000000000000000000000000000000000000000E2E2000000000000E200000000000000000000000000000000000000000000E200000000000000
310
00000000E200000000E20000000000000000000000000000000000000000E20000E200E2000000000000000000000000000000000000000000000000000000000000000000E2E2E2E2E2E2E2E2E200000000000000000000000000000000000000000000E20000000000000000000000E200000000E2000000000000000000
310
0000000000000000000000E20000E200E2000000000000000000000000000000000000000000000000000000000000000000E2E2E2E2E2E2E2E2E2E2E2E2E2E2E2E2E2E2E2E2E2E2E2E2E2E2E200000000E20000000000000000000000E200000000E20000000000000000000000000000000000000000E20000E200E20000
310
00000000000000000000000000000000000000000000000000000000000000E2E2000000000000E200E20000E20000E2E200E2E20000E2E200E200000000E20000000000000000000000E200000000E20000000000000000000000000000000000000000E20036E200E2000000000000000000000000000000000000000000
310
0000E2E2E2E2E2E2E2E2E2E2E2E200000000E2E2E200E20000E20000E2E200E2E20000E2E2E2E2E2E2E2E2E2E2E2E2E2E2E2E200000000E200000000E20000000000000000000000000000000000000000E200F5E200E20000000000000000000000000000000000000000000000E2000000000000E2E200E2E2E200E2E200
310
E2E2E2E20000E20000E2E200E2E200E2E2E2E2E2E2E20000E2000000000000E200000000E200000000E20000000000000000000000000000000000000000E20000E200E20000000000000000000000000000000000000000000000E20000000000E2E2E2E2E2E2E2E2E2E2E2E2E2E2E20000E20000E2E200E2E2E2E2E2E2E2
310
E200E20000E2000000000000E200000000E200000000E20000000000000000000000000000000000000000E200F5E200E20000000000000000000000000000000000000000000000E20000000000E20000000000E2E20000000000E2E20000E20000E2E200E2E2E2000000E2E200E20000E2000000000000E200000000E200
310
000000E20000000000000000000000000000000000000000E20000E200E20000000000000000000000000000000000000000000000E20000000000E20000000000E2E20000000000E2E20000E20000E2E200E2E2E2000000000000E20000E2000000000000E200000000E200000000E2000000000000000000000000000000
310
0000000000E20000E200E20000000000000000000000000000000000000000000000E20000000000E200000000E2E2E200000000E2E2E20000E20000E2E200E2E2E2000000000000E20000E2000000000000E200000000E200000000E20000000000000000000000000000000000000000E200F5E200E20000000000000000
310
000000000000000000000000000000E20000000000E200000000E200E200000000E2E2E20000E20000E2E200E2E2E2000000000000E20000E2000000000000E200000000E200000000E20000000000000000000000000000000000000000E20000E200E2000000000000000000000000000000000000000000E2E2E2000000
310
0000E2E2E2E2E2E200E2E2E2E2E2E2E2E20000E20000E2E200E2E2E2000000000000E200E2E2E20000000000E200000000E200000000E20000000000000000000000000000000000000000E200F5E20000000000000000000000000000000000000000000000E2E2E2E20000000000000000000000E2000000E2E2E2E20000
310
E20000E2E200E2E2E2000000000000E2E2E2E2E20000000000E200000000E200000000E20000000000000000000000000000000000000000000000E20000000000000000000000000000000000000000000000E2E2E2E20000000000000000000000E20000000000E2E20000E20000E2E200E2E2E2000000000000E200E2E2
310
E20000000000E200000000E200000000E20000000000000000000000000000000000000000000000E200000000000000000000000000000000000000000000000000E2000000000000000000000000E2E2E2E20000E2E20000E20000E2E200E2E2E200E2E2E20000E20000E2000000000000E200000000E200000000E20000
310
000000000000000000000000000000000000000000E200000000000000000000000000000000000000000000000000E20000000000000000000000E2E2E2E2E2E2E2E2E20000E20000E2E200E2E2E2E2E2E2E2E2E2E20000E200000000E2E2E2E2000000E200000000E2000000000000000000000000000000000000000000
310
0000E200000000000000000000000000000000000000000000000000E2000000000000000000000000E2E2E2E20000E2E20000E20000E2E200E2E2E2E2E2E2E20000E20000E200000000E2E2E2E2000000E200000000E20000000000000000000000000000000000000000000000E200000000000000000000000000000000
310
000000000000000000E2000000000000000000000000E20000000000E2E20000E20000E2E200E2E2E2000000000000E20000E200000000E2E2E2E2000000E200000000E20000000000000000000000000000000000000000000000E200000000000000000000000000000000000000000000000000E2000000000000000000
310
000000E20000000000E2E2E2E2E20000E2E2E2E2E2E2000000000000E20000E2000000000000E200000000E200000000E20000000000000000000000000000000000000000000000E200000000000000000000000000000000000000000000000000E2000000000000000000000000E20000000000E2E2E2E2E2E2E2E2E2E2
310
E2E2E2000000000000E20000E2000000000000E200000000E200000000E20000000000000000000000000000000000000000000000E200000000000000000000000000000000000000000000000000E2E2E2E2E2E2E2E2E2E2E2E2E2E2E2E2E2E2E2E2E2E2E2E2E2E2E2E2E2E2E2E2E2E2E2E2E2E2E2E2E2E2E20000000000
310
E200000000E200000000E20000000000000000000000000000000000000000000000E200E20000000000000000000000000000000000000000000000E2000000000000000000E2E2E2E2E2E2E2E2E2E2E2E2E2E2E2E2E2E2E2E2E2E2E2E2E2E2E2E2E20000E2000000000000E200000000E200000000E20000000000000000
310
000000000000000000000000E200F5E200E20000000000000000000000000000000000000000000000000000000000000000E2E20000E2E200000000E2E2E2E200E2E2E2E200000000E20000000000E2000000000000000000E200000000E200000000E20000000000000000000000000000000000000000E20000E200E200
310
00000000000000000000000000000000000000000000000000000000000000E2000000E2E2E2E2E2E2E2E2E2E2E2E2E2E2E2E2E2E2E2E2E2E2E2E2E2E2E2E2E2E2E2E2E2E2E2E2E2E2E2E2E200000000E20000000000000000000000000000000000000000E200F5E200E20000000000000000000000000000000000000000
310
000000000000000000000000E2E2E2E2E2E20000000000000000000000000000000000E2E2E2E2E200E20000000000000000000000000000E200000000E20000000000000000000000000000000000000000E20000E200E20000000000000000000000000000000000000000000000000000000000000000E200E2E2E20000
310
00000000000000000000000000000000E2E2E2E20000E20000000000000000000000000000E200000000E20000000000000000000000000000000000000000E20000E200E20000000000000000000000000000000000000000000000000000000000000000E2000000E2000000000000000000E2E2E2E2000000000000E2E2
310
E20000E2E2E2E2E2E2E2E2E2E2E2E2E2E2E2E2E2E2E2E2E20000000000000000000000000000000000000000E200F5E200E20000000000000000000000000000000000000000000000000000000000000000E2000000E2E2E2E2E2E2E2E2E2E2E2E2E2E2E2E2E2E2E2E2E2E2E2E2E2E20000000000000000000000000000E2
310
E2E2E200000000000000000000000000000000000000000000E20000E200E20000000000000000000000000000000000000000000000000000000000000000E2E2E2E2E20000000000000000000000E2000000000000000000000000E20000000000000000000000000000E2E2E20000000000000000000000000000000000
310
000000000000E20000E200E20000000000000000000000000000000000000000000000000000000000000000000000000000000000000000000000000000000000000000000000000000000000000000000000000000000000E2E20000000000000000000000000000000000000000000000E20000E200E200000000000000
310
0000000000000000000000000000000000000000000000000000000000000000000000000000000000000000000000000000000000000000000000000000000000000000000000000000000000000000000000000000000000000000000000E20000E200E20000000000000000000000000000000000000000000000000000
310
00000000000000000000000000000000000000000000000000000000000000000000000000000000000000000000000000000000000000000000000000000000000000000000000000000000E20000E200E2000000000000000000000000000000000000000000000000000000000000000000000000000000000000000000
310
000000000000000000000000000000000000000000000000000000000000000000000000000000000000000000000000000000000000000000E20000E200E200000000000000000000000000000000000000000000000000000000000000000000000000000000000000000000000000000000000000000000000000000000
310
0000000000000000000000000000000000000000000000000000000000000000000000000000E20000E200E20000000000000000000000000000000000000000000000000000000000000000000000000000000000000000000000000000000000000000000000000000000000000000000000000000000000000000000000
310
00000000000000000000000000000000000000E20000E200E2000000000000000000000000000000000000000000000000000000000000000000000000000000000000000000000000000000000000000000000000000000000000000000000000000000000000000000000000000000000000000000000000000000000000
310
E20000E200E2000000000000000000000000000000000000000000000000000000000000000000000000000000000000000000000000000000000000000000000000000000000000000000000000000000000000000000000000000000000000000000000000000000000000E20000E200E200000000E2E2E2E2E2E2E2E2E2
310
E2E2E2E2E2E2E2E2E2E2E2E2E2E2E2E2E2E2E2E2E2E2E2E2E2E2E2E2E2E2E2E2E2E2E2E2E2E2E2E2E2E2E2E2E2E2E2E2E2E2E2E2E2E2E2E2E2E2E2E2E2E2000000000000000000000000000000000000000000000000000000E20000E2000000000000E2E2E2E2E2E2E2E2E2E2E2E2E2E2E2E2E2E2E2E2E2E2E2E2E2E2E2E2
310
E2E2E2E2E2E2E2E2E2E2E2E2E2E2E2E2E2E2E2E2E2E2E2E2E2E2E2E2E2E2E2E2E2E2E2E2E2E2E2E2E2E2E2000000000000000000000000000000000000000000000000000000000000E2000000000000E2E2E2E2E2E2E2E2E2E2E2E2E2E2E2E2E2E2E2E2E2E2E2E2E2E2E2E2E2E2E2E2E2E2E2E2E2E2E2E2E2E2E2E2E2E2E2
310
E2E2E2E2E2E2E2E2E2E2E2E2E2E2E2E2E2E2E2E2E2E2E2E2000000000000000000000000000000000000000000000000000000000000E2000000000000E2E2E2E2E2E2E2E2E2E2E2E2E2E2E2E2E2E2E2E2E2E2E2E2E2E2E2E2E2E2E2E2E2E2E2E2E2E2E2E2E2E2E2E2E2E2E2E2E2E2E2E2E2E2E2E2E2E2E2E2E2E2E2E2E2E2
310
E2E2E2E2E20000000000000000000000000000000000000000000000000000000000F5E20000000000E2E2E2E2E2E2E2E2E2E2E2E2E2E2E2E2E2E2E2E2E2E2E2E2E2E2E2E2E2E2E2E2E2E2E2E2E2E2E2E2E2E2E2E2E2E2E2E2E2E2E2E2E2E2E2E2E2E2E2E2E2E2E2E2E2E2E2E2E2E2E2E2E2E2E2E2E2E2E2E2E2E2E2E2E2E2
310
E2E2E2E2E2E2E2E2E2E2E2E2E2000000E2000000000000E2E2E2E2E2E2E2E2E2E2E2E2E2E2E2E2E2E2E2E2E2E2E2E2E2E2E2E2E2E2E2E2000000000000000000000000000000000000000000000000000000000000000000000000000000000000000000000000000000000000000000000000000000000000000000E20000
310
00000000E2E2E2E2E2E2E2E2E2E2E2E2E2E2E2E2E2E2E2E2E2E2E2E2E2E2E2E2E2E2E2E20000000000000000000000000000000000000000000000000000000000000000000000000000000000000000000000000000000000000000000000000000000000000000F5E2000000000000E2E2E2E2E2E2E2E2E2E2E2E2E2E2E2
310
E2E2E2E2E2E2E2E2E2E2E2E2E2E2E2E2E2000000000000000000000000000000000000000000000000000000000000000000000000E2E2E2E2E2E2E2E2E2E2E2E2E2E2E2E2E2E2E2E2E2E2E2E2E2E2E2E2E200000000E2000000000000E2E2E2E2E2E2E2E2E2E2E2E2E2E2E2E2E2E2E2E2E2E2E2E2E2E2E2E2E2E2E2E20000
310
00000000000000000000000000000000000000000000000000000000000000000000E2000000000000000000000000000000000000000000000000000000E2000000F5E20000000000000000000000000000000000000000000000000000000000000000000000000000000000000000000000000000000000000000000000
310
000000000000000000000000000000E20000E5E5E5E5E500E5E5E5E5E5E5E5E5E5E000E50025E525E5E500E200000000E20000000000000000000000000000000000000000000000000000000000000000000000000000000000000000000000000000000000000000000000000000000000000000000000000000E200E500
310
0000000000000000000000000000000000000000000000E5E200000000E200E2000000000000000000000000000000000000000000000000000000000000000000000000000000000000000000000000000000000000000000000000000000000000000000000000E2E5E50000000000E50000000000000000000000000000
310
0000E50000E200E20000E200E2000000000000000000000000000000000000000000000000000000000000000000000000000000000000000000000000000000000000000000000000000000000000000000000000E2E5E50000000000E500000000000000000000000000000000E50000E200E20000E200E2000000000000
310
000000000000000000000000000000000000000000000000000000000000000000000000000000000000000000000000000000000000000000000000000000000000E2E5E50000E500000000000000000000E50000000000000000E00000E200E200F5E200E200000000000000000000000000000000000000000000000000
310
0000000000000000000000000000000000000000000000000000000000000000000000000000000000000000000000E2000000000000E0000000040000E500000004002000E500000000E4E200E20000E200E20000000000000000000000000000000000000000000000000000000000000000000000000000000000000000
310
00000000000000000000000000000000000000000000000000000000E20000000000000000C0C00000000000000000C0C000000000000000E200E20000E200E2000000000000000000000000000000000000000000000000000000000000000000000000000000000000000000000000000000000000000000000000000000
310
000000000000000000E2000000000000000000000000000000000000000000000000000000E200E20000E200E2000000000000000000000000000000000000000000000000000000000000000000000000000000000000000000000000000000000000000000000000000000000000000000000000E2000000000000000000
310
000000000000000000000000000000000000E200E20000E200E2000000000000000000000000000000000000000000000000000000000000000000000000000000000000000000000000000000000000000000000000000000000000000000000000E2E2E2E2E2E2E2E2E2E2E2E2E2E2E2E2E2E2E2E2E2E2E2E2E2E2E2E2E2
310
00E200F5E200E2E2E2E2E2E2E2E2E2000000000000000000E2E2E2E2E2E2E2E2E2E2E2E2E2E2E2E200000000000000000000E2E2E2E2E2E2E2E2E2E2E2E2E2E2E2E200000000000000000000E2E2E2E2E2E2E2E2E2E2E2E2E2E2E2E2000000000000000000E2E2E2E2E2E2E2E2E2E200E20000000000000000000000000000
310
00000000000000000000000000000000000000000000000000000000000000000000000000000000000000000000000000000000000000000000000000000000000000000000000000000000000000000000000000000000000000E2F5E2000000000000000000000000000000000000000000000000000000000000000000
310
0000000000000000000000000000000000000000000000000000000000000000000000000000000000000000000000000000000000000000000000000000000000000000000000000000E2E2E2E2E2E2E2E2E2E2E2E2E2E2E2E2E2E2E2E2E2E2E2E2E2E2E2E2E2E2E2E2E2E2E2E2E2E2E2E2E2E2E2E2E2E2E2E2E2E2E2E2E2
310
E2E2E2E2E2E2E2E2E2E2E2E2E2E2E2E2E2E2E2E2E2E2E2E2E2E2E2E2E2E2E2E2E2E2E2E2E2E2E2E2E2E2E2E2E2E2E2E2E2E2E2E2E2E200
  0
XRECORD
  5
36A
102
{ACAD_REACTORS
330
19
102
}
330
19
100
AcDbXrecord
280
     1
102
SHADEPLOT
 70
     0
102
SHADEPLOTRESLEVEL
 70
     2
102
SHADEPLOTCUSTOMDPI
 70
   300
  0
XRECORD
  5
1A
102
{ACAD_REACTORS
330
19
102
}
330
19
100
AcDbXrecord
280
     1
310
280000000001000076000000010008000000000000760000000000000000000000010000000000000000000000000000C8C8C8000000000000000000000000000000000000000000000000000000000000000000330000006600000099000000CC000000FF00000000330000333300006633000099330000CC330000FF3300
310
0000660000336600006666000099660000CC660000FF66000000990000339900006699000099990000CC990000FF99000000CC000033CC000066CC000099CC0000CCCC0000FFCC000000FF000033FF000066FF000099FF0000CCFF0000FFFF000000003300330033006600330099003300CC003300FF003300003333003333
310
33006633330099333300CC333300FF33330000663300336633006666330099663300CC663300FF66330000993300339933006699330099993300CC993300FF99330000CC330033CC330066CC330099CC3300CCCC3300FFCC330000FF330033FF330066FF330099FF3300CCFF3300FFFF330000006600330066006600660099
310
006600CC006600FF00660000336600333366006633660099336600CC336600FF33660000666600336666006666660099666600CC666600FF66660000996600339966006699660099996600CC996600FF99660000CC660033CC660066CC660099CC6600CCCC6600FFCC660000FF660033FF660066FF660099FF6600CCFF6600
310
FFFF660000009900330099006600990099009900CC009900FF00990000339900333399006633990099339900CC339900FF33990000669900336699006666990099669900CC669900FF66990000999900339999006699990099999900CC999900FF99990000CC990033CC990066CC990099CC9900CCCC9900FFCC990000FF99
310
0033FF990066FF990099FF9900CCFF9900FFFF99000000CC003300CC006600CC009900CC00CC00CC00FF00CC000033CC003333CC006633CC009933CC00CC33CC00FF33CC000066CC003366CC006666CC009966CC00CC66CC00FF66CC000099CC003399CC006699CC009999CC00CC99CC00FF99CC0000CCCC0033CCCC0066CC
310
CC0099CCCC00CCCCCC00FFCCCC0000FFCC0033FFCC0066FFCC0099FFCC00CCFFCC00FFFFCC000000FF003300FF006600FF009900FF00CC00FF00FF00FF000033FF003333FF006633FF009933FF00CC33FF00FF33FF000066FF003366FF006666FF009966FF00CC66FF00FF66FF000099FF003399FF006699FF009999FF00CC
310
99FF00FF99FF0000CCFF0033CCFF0066CCFF0099CCFF00CCCCFF00FFCCFF0000FFFF0033FFFF0066FFFF0099FFFF00CCFFFF00FFFFFF00000000000D0D0D001A1A1A00282828003535350043434300505050005D5D5D006B6B6B00787878008686860093939300A1A1A100AEAEAE00BBBBBB00C9C9C900D6D6D600E4E4E400
310
F1F1F100FFFFFF000000000000000000000000000000000000000000000000000000000000000000000000000000000000000000000000000000000000000000000000000000000000000000000000000000000000000000000000000000000000000000000000000000000000000000000000000000000000000000000000
310
00000000000000000000000000000000000000000000000000000000000000000000000000000000000000000000000000000000000000000000000000000000000000000000000000000000000000000000000000000000000000000000000000000000000000000000000000000000000000000000000000000000000000
310
00000000000000000000000000000000000000000000000000000000000000000000000000000000000000000000000000000000000000000000000000000000000000000000000000000000000000000000000000000000000000000000000000000000000000000000000000000000000000000000000000000000000000
310
00000000000000000000000000000000000000000000000000000000000000000000000000000000000000000000000000000000000000000000000000000000000000000000000000000000000000000000000000000000000000000000000000000000000000000000000000000000000000000000000000000000000000
310
00000000000000000000000000000000000000000000000000000000000000000000000000000000000000000000000000000000000000000000000000000000000000000000000000000000000000000000000000000000000000000000000000000000000000000000000000000000000000000000000000000000000000
310
00000000000000000000000000000000000000000000000000000000000000000000000000000000000000000000000000000000000000000000000000000000000000000000000000000000000000000000000000000000000000000000000000000000000000000000000000000000000000000000000000000000000000
310
00000000000000000000000000000000000000000000000000000000000000000000000000000000000000000000000000000000000000000000000000000000000000000000000000000000000000000000000000000000000000000000000000000000000000000000000000000000000000000000000000000000000000
310
00000000000000000000000000000000000000000000000000000000000000000000000000000000000000000000000000000000000000000000000000000000000000000000000000000000000000000000000000000000000000000000000000000000000000000000000000000000000000000000000000000000000000
310
00000000000000000000000000000000000000000000000000000000000000000000000000000000000000000000000000000000000000000000000000000000000000000000000000000000000000000000000000000000000000000000000000000000000000000000000000000000000000000000000000000000000000
310
00000000000000000000000000000000000000000000000000000000000000000000000000000000000000000000000000000000000000000000000000000000000000000000000000000000000000000000000000000000000000000000000000000000000000000000000000000000000000000000000000000000000000
310
00000000000000000000000000000000000000000000000000000000000000000000000000000000000000000000000000000000000000000000000000000000000000000000000000000000000000000000000000000000000000000000000000000000000000000000000000000000000000000000000000000000000000
310
00000000000000000000000000000000000000000000000000000000000000000000000000000000000000000000000000000000000000000000000000000000000000000000000000000000000000000000000000000000000000000000000000000000000000000000000000000000000000000000000000000000000000
310
00000000000000000000000000000000000000000000000000000000000000000000000000000000000000000000000000000000000000000000000000000000000000000000000000000000000000000000000000000000000000000000000000000000000000000000000000000000000000000000000000000000000000
310
00000000000000000000000000000000000000000000000000000000000000000000000000000000000000000000000000000000000000000000000000000000000000000000000000000000000000000000000000000000000000000000000000000000000000000000000000000000000000000000000000000000000000
310
00000000000000000000000000000000000000000000000000000000000000000000000000000000000000000000000000000000000000000000000000000000000000000000000000000000000000000000000000000000000000000000000000000000000000000000000000000000000000000000000000000000000000
310
00000000000000000000000000000000000000000000000000000000000000000000000000000000000000000000000000000000000000000000000000000000000000000000000000000000000000000000000000000000000000000000000000000000000000000000000000000000000000000000000000000000000000
310
00000000000000000000000000000000000000000000000000000000000000000000000000000000000000000000000000000000000000000000000000000000000000000000000000000000000000000000000000000000000000000000000000000000000000000000000000000000000000000000000000000000000000
310
00000000000000000000000000000000000000000000000000000000000000000000000000000000000000000000000000000000000000000000000000000000000000000000000000000000000000000000000000000000000000000000000000000000000000000000000000000000000000000000000000000000000000
310
00000000000000000000000000000000000000000000000000000000000000000000000000000000000000000000000000000000000000000000000000000000000000000000000000000000000000000000000000000000000000000000000000000000000000000000000000000000000000000000000000000000000000
310
00000000000000000000000000000000000000000000000000000000000000000000000000000000000000000000000000000000000000000000000000000000000000000000000000000000000000000000000000000000000000000000000000000000000000000000000000000000000000000000000000000000000000
310
00000000000000000000000000000000000000000000000000000000000000000000000000000000000000000000000000000000000000000000000000000000000000000000000000000000000000000000000000000000000000000000000000000000000000000000000000000000000000000000000000000000000000
310
00000000000000000000000000000000000000000000000000000000000000000000000000000000000000000000000000000000000000000000000000000000000000000000000000000000000000000000000000000000000000000000000000000000000000000000000000000000000000000000000000000000000000
310
00000000000000000000000000000000000000000000000000000000000000000000000000000000000000000000000000000000000000000000000000000000000000000000000000000000000000000000000000000000000000000000000000000000000000000000000000000000000000000000000000000000000000
310
00000000000000000000000000000000000000000000000000000000000000000000000000000000000000000000000000000000000000000000000000000000000000000000000000000000000000000000000000000000000000000000000000000000000000000000000000000000000000000000000000000000000000
310
00000000000000000000000000000000000000000000000000000000000000000000000000000000000000000000000000000000000000000000000000000000000000000000000000000000000000000000000000000000000000000000000000000000000000000000000000000000000000000000000000000000000000
310
00000000000000000000000000000000000000000000000000000000000000000000000000000000000000000000000000000000000000000000000000000000000000000000000000000000000000000000000000000000000000000000000000000000000000000000000000000000000000000000000000000000000000
310
00000000000000000000000000000000000000000000000000000000000000000000000000000000000000000000000000000000000000000000000000000000000000000000000000000000000000000000000000000000000000000000000000000000000000000000000000000000000000000000000000000000000000
310
00000000000000000000000000000000000000000000000000000000000000000000000000000000000000000000000000000000000000000000000000000000000000000000000000000000000000000000000000000000000000000000000000000000000000000000000000000000000000000000000000000000000000
310
00000000000000000000000000000000000000000000000000000000000000000000000000000000000000000000000000000000000000000000000000000000000000000000000000000000000000000000000000000000000000000000000000000000000000000000000000000000000000000000000000000000000000
310
00000000000000000000000000000000000000000000000000000000000000000000000000000000000000000000000000000000000000000000000000000000000000000000000000000000000000000000000000000000000000000000000000000000000000000000000000000000000000000000000000000000000000
310
00000000000000000000000000000000000000000000000000000000000000000000000000000000000000000000000000000000000000000000000000000000000000000000000000000000000000000000000000000000000000000000000000000000000000000000000000000000000000000000000000000000000000
310
00000000000000000000000000000000000000000000000000000000000000000000000000000000000000000000000000000000000000000000000000000000000000000000000000000000000000000000000000000000000000000000000000000000000000000000000000000000000000000000000000000000000000
310
00000000000000000000000000000000000000000000000000000000000000000000000000000000000000000000000000000000000000000000000000000000000000000000000000000000000000000000000000000000000000000000000000000000000000000000000000000000000000000000000000000000000000
310
00000000000000000000000000000000000000000000000000000000000000000000000000000000000000000000000000000000000000000000000000000000000000000000000000000000000000000000000000000000000000000000000000000000000000000000000000000000000000000000000000000000000000
310
00000000000000000000000000000000000000000000000000000000000000000000000000000000000000000000000000000000000000000000000000000000000000000000000000000000000000000000000000000000000000000000000000000000000000000000000000000000000000000000000000000000000000
310
00000000000000000000000000000000000000000000000000000000000000000000000000000000000000000000000000000000000000000000000000000000000000000000000000000000000000000000000000000000000000000000000000000000000000000000000000000000000000000000000000000000000000
310
00000000000000000000000000000000000000000000000000000000000000000000000000000000000000000000000000000000000000000000000000000000000000000000000000000000000000000000000000000000000000000000000000000000000000000000000000000000000000000000000000000000000000
310
00000000000000000000000000000000000000000000000000000000000000000000000000000000000000000000000000000000000000000000000000000000000000000000000000000000000000000000000000000000000000000000000000000000000000000000000000000000000000000000000000000000000000
310
00000000000000000000000000000000000000000000000000000000000000000000000000000000000000000000000000000000000000000000000000000000000000000000000000000000000000000000000000000000000000000000000000000000000000000000000000000000000000000000000000000000000000
310
00000000000000000000000000000000000000000000000000000000000000000000000000000000000000000000000000000000000000000000000000000000000000000000000000000000000000000000000000000000000000000000000000000000000000000000000000000000000000000000000000000000000000
310
00000000000000000000000000000000000000000000000000000000000000000000000000000000000000000000000000000000000000000000000000000000000000000000000000000000000000000000000000000000000000000000000000000000000000000000000000000000000000000000000000000000000000
310
0000000000F50000000000000000000000000000000000000000000000000000000000000000000000000000000000000000000000F5000000000000F50000000000F500000000F500000000000000000000000000000000000000000000000000000000000000000000000000000000000000000000000000000000000000
310
00000000000000000000000000000000000000000000000000000000000000000000000000000000000000000000000000000000000000000000000000000000000000000000000000000000000000000000000000000000000000000000000000000000000000000000000000000000000000000000000000000000000000
310
0000000000F5F5F5F5F5F5F5F5F5F5F5F5F5F5F5F5F5F5F5F5F5F5F5F5F5F5F5F5F5F5F5F5F5F5F5F5F5F5F5F5F5F5F5F5F5F5F5F5F5F5F5F5F5F5F5F5F5F5F5F5F5F5F5F5F5F5F5F5F50000000000000000000000000000000000000000000000000000000000000000000000000000000000000000000000000000000000
310
00000000000000000000000000000000000000000000000000000000000000000000000000000000000000000000000000000000000000000000000000000000000000000000000000000000000000000000000000000000000000000000000000000000000000000000000000000000000000000000000000000000000000
310
00000000000000F5F5F5F50000F50000000000F5F500000000F5000000F5F5F5F5F5000000000000000000000000000000000000F5F50000F500000000000000F50000000000F500000000F5000000000000000000000000000000000000000000000000000000000000000000000000000000000000000000000000000000
310
00000000000000000000000000000000000000000000000000000000000000000000000000000000000000000000000000000000000000000000000000000000000000000000000000000000000000000000000000000000000000000000000000000000000000000000000000000000000000000000000000000000000000
310
000000000000000000F5F5F5F50000F5F5F5F5F5F5F5F500000000F5000000F5F5F50000000000000000000000000000000000000000F5F500F5F5F5000000000000F50000000000F500000000F500000000000000000000000000000000000000000000000000000000000000000000000000000000000000000000000000
310
00000000000000000000000000000000000000000000000000000000000000000000000000000000000000000000000000000000000000000000000000000000000000000000000000000000000000000000000000000000000000000000000000000000000000000000000000000000000000000000000000000000000000
310
0000000000000000000000F5F5F5F5000000000000000000F5F5F5F5F5F5F5F5F5F5F5F5F5F5F5F5000000000000000000000000000000F5F5F500F5F5F5000000000000F50000000000F500000000F50000000000000000000000000000000000000000000000000000000000000000000000000000000000000000000000
310
00000000000000000000000000000000000000000000000000000000000000000000000000000000000000000000000000000000000000000000000000000000000000000000000000000000000000000000000000000000000000000000000000000000000000000000000000000000000000000000000000000000000000
310
000000000000000000000000000000F5F5F5F5F5F5F5F5F5F5F5F5F5F5F5F5F5F5F5F5F5F5F5F5F5F5F5F5F5F5F5F5F5F5F5F5F5F5F5F5F5F5F5F5F500F5F5F5000000000000F50000000000F500000000F5000000000000000000000000000000000000000000000000000000000000000000000000000000000000000000
310
00000000000000000000000000000000000000000000000000000000000000000000000000000000000000000000000000000000000000000000000000000000000000000000000000000000000000000000000000000000000000000000000000000000000000000000000000000000000000000000000000000000000000
310
0000000000000000000000000000000000F50000000000000000000000000000F5000000000000F5F50000F5F50000000000F5F5F5F5F5F5F5F5F500F5F500F5F5F5000000000000F50000000000F500000000F500000000000000000000000000000000000000000000000000000000000000000000000000000000000000
310
00000000000000000000000000000000000000000000000000000000000000000000000000000000000000000000000000000000000000000000000000000000000000000000000000000000000000000000000000000000000000000000000000000000000000000000000000000000000000000000000000000000000000
310
00000000000000000000000000000000000000F50000000000000000000000000000F5000000000000F5F50000F5F5000000000000000000F50000F5F500F5000000F500000000000000F50000000000F500000000F50000000000000000000000000000000000000000000000000000000000000000000000000000000000
310
00000000000000000000000000000000000000000000000000000000000000000000000000000000000000000000000000000000000000000000000000000000000000000000000000000000000000000000000000000000000000000000000000000000000000000000000000000000000000000000000000000000000000
310
000000000000000000000000000000000000000000F50000000000000000000000000000F5000000000000F5F50000F5F500000000000000F5F5F5F5F5F5F5F5F5000000F500000000000000F50000000000F500000000F5000000000000000000000000000000000000000000000000000000000000000000000000000000
310
00000000000000000000000000000000000000000000000000000000000000000000000000000000000000000000000000000000000000000000000000000000000000000000000000000000000000000000000000000000000000000000000000000000000000000000000000000000000000000000000000000000000000
310
0000000000000000000000000000000000000000000000F50000000000000000000000000000F5000000000000F5F50000F5F50000F5F5F5F5F5F5F500F500F500F500000000F500000000000000F50000000000F500000000F500000000000000000000000000000000000000000000000000000000000000000000000000
310
00000000000000000000000000000000000000000000000000000000000000000000000000000000000000000000000000000000000000000000000000000000000000000000000000000000000000000000000000000000000000000000000000000000000000000000000000000000000000000000000000000000000000
310
00000000000000000000000000000000000000000000000000F50000000000000000000000000000F5000000000000F5F50000F5F50000F5F50000F5F5F5F5F5F5F5F5F5F5F5F5F5F5F5000000000000F50000000000F500000000F50000000000000000000000000000000000000000000000000000000000000000000000
310
00000000000000000000000000000000000000000000000000000000000000000000000000000000000000000000000000000000000000000000000000000000000000000000000000000000000000000000000000000000000000000000000000000000000000000000000000000000000000000000000000000000000000
310
000000000000000000000000000000000000000000000000000000F50000000000000000000000000000F5000000000000F5F50000F5F50000F5F50000F500F5000000000000F5000000F500000000000000F50000000000F500000000F5000000000000000000000000000000000000000000000000000000000000000000
310
00000000000000000000000000000000000000000000000000000000000000000000000000000000000000000000000000000000000000000000000000000000000000000000000000000000000000000000000000000000000000000000000000000000000000000000000000000000000000000000000000000000000000
310
0000000000000000000000000000000000000000000000000000000000F50000000000000000000000000000F5000000000000F5F50000F5F50000F5F50000F500F5000000000000F5000000F500000000000000F50000000000F500000000F500000000000000000000000000000000000000000000000000000000000000
310
00000000000000000000000000000000000000000000000000000000000000000000000000000000000000000000000000000000000000000000000000000000000000000000000000000000000000000000000000000000000000000000000000000000000000000000000000000000000000000000000000000000000000
310
00000000000000000000000000000000000000000000000000000000000000F50000000000000000000000000000F5000000000000F5F50000F5F50000F5F50000F5F5F5000000000000F5000000F500000000000000F50000000000F500000000F50000000000000000000000000000000000000000000000000000000000
310
00000000000000000000000000000000000000000000000000000000000000000000000000000000000000000000000000000000000000000000000000000000000000000000000000000000000000000000000000000000000000000000000000000000000000000000000000000000000000000000000000000000000000
310
000000000000000000000000000000000000000000000000000000000000000000F50000000000000000000000000000F5000000000000F5F50000F5F50000F5F50000F5F5F5000000000000F5000000F500000000000000F50000000000F500000000F5000000000000000000000000000000000000000000000000000000
310
00000000000000000000000000000000000000000000000000000000000000000000000000000000000000000000000000000000000000000000000000000000000000000000000000000000000000000000000000000000000000000000000000000000000000000000000000000000000000000000000000000000000000
310
0000000000000000000000000000000000000000000000000000000000000000000000F50000000000000000000000000000F5000000000000F5F50000F5F50000F5F50000F5F5F5000000000000F5000000F500000000000000F50000000000F500000000F500000000000000000000000000000000000000000000000000
310
00000000000000000000000000000000000000000000000000000000000000000000000000000000000000000000000000000000000000000000000000000000000000000000000000000000000000000000000000000000000000000000000000000000000000000000000000000000000000000000000000000000000000
310
00000000000000000000000000000000000000000000000000000000000000000000000000F50000000000000000000000000000F5000000000000F5F50000F5F50000F5F50000F5F5F5000000000000F5000000F500000000000000F50000000000F500000000F50000000000000000000000000000000000000000000000
310
00000000000000000000000000000000000000000000000000000000000000000000000000000000000000000000000000000000000000000000000000000000000000000000000000000000000000000000000000000000000000000000000000000000000000000000000000000000000000000000000000000000000000
310
000000000000000000000000000000000000000000000000000000000000000000000000000000F50000000000000000000000000000F5000000000000F5F50000F5F50000F5F50000F5F5F5000000000000F5000000F500000000000000F50000000000F500000000F5000000000000000000000000000000000000000000
310
00000000000000000000000000000000000000000000000000000000000000000000000000000000000000000000000000000000000000000000000000000000000000000000000000000000000000000000000000000000000000000000000000000000000000000000000000000000000000000000000000000000000000
310
0000000000000000000000000000000000000000000000000000000000000000000000000000000000F50000000000000000000000000000F5000000000000F5F50000F5F50000F5F50000F5F5F5000000000000F5000000F50000000000F5F5F5F500000000F500000000F500000000000000000000000000000000000000
310
00000000000000000000000000000000000000000000000000000000000000000000000000000000000000000000000000000000000000000000000000000000000000000000000000000000000000000000000000000000000000000000000000000000000000000000000000000000000000000000000000000000000000
310
00000000000000000000000000000000000000000000000000000000000000000000000000000000000000F50000000000000000000000000000F5000000000000F5F50000F5F50000F5F50000F5F5F5000000000000F5000000F50000000000F5F5F5F500000000F500000000F50000000000000000000000000000000000
310
00000000000000000000000000000000000000000000000000000000000000000000000000000000000000000000000000000000000000000000000000000000000000000000000000000000000000000000000000000000000000000000000000000000000000000000000000000000000000000000000000000000000000
310
000000000000000000000000000000000000000000000000000000000000000000000000000000000000000000F50000000000000000000000000000F5000000000000F5F50000F5F50000F5F50000F5F5F5000000000000F5000000F50000000000F5F5F50000000000F500000000F5000000000000000000000000000000
310
00000000000000000000000000000000000000000000000000000000000000000000000000000000000000000000000000000000000000000000000000000000000000000000000000000000000000000000000000000000000000000000000000000000000000000000000000000000000000000000000000000000000000
310
000000000000000000000000000000000000000000000000000000000000000000000000000000000000000000F5F5F5F500000000000000000000000000F5000000000000F5F50000F5F50000F5F50000F5F5F5000000000000F5000000F50000000000F5F5F5F500000000F500000000F500000000000000000000000000
310
00000000000000000000000000000000000000000000000000000000000000000000000000000000000000000000000000000000000000000000000000000000000000000000000000000000000000000000000000000000000000000000000000000000000000000000000000000000000000000000000000000000000000
310
0000000000000000000000000000000000000000000000000000000000000000000000000000000000000000000000F5F5F5F500000000000000000000000000F5000000000000F5F50000F5F50000F5F50000F5F5F5000000000000F5000000F500000000000000F50000000000F500000000F50000000000000000000000
310
00000000000000000000000000000000000000000000000000000000000000000000000000000000000000000000000000000000000000000000000000000000000000000000000000000000000000000000000000000000000000000000000000000000000000000000000000000000000000000000000000000000000000
310
00000000000000000000000000000000000000000000000000000000000000000000000000000000000000000000000000F5F5F5F500000000000000000000000000F5000000000000F5F50000F5F50000F5F50000F5F5F5000000000000F500F5F5F5F5000000000000F50000000000F500000000F5000000000000000000
310
00000000000000000000000000000000000000000000000000000000000000000000000000000000000000000000000000000000000000000000000000000000000000000000000000000000000000000000000000000000000000000000000000000000000000000000000000000000000000000000000000000000000000
310
0000000000000000000000000000000000000000000000000000000000000000000000000000000000000000000000000000000000F50000000000000000000000000000F5000000000000F5F50000F5F50000F5F50000F5F5F5000000000000F50000F5F5F5F50000000000F50000000000F500000000F500000000000000
310
00000000000000000000000000000000000000000000000000000000000000000000000000000000000000000000000000000000000000000000000000000000000000000000000000000000000000000000000000000000000000000000000000000000000000000000000000000000000000000000000000000000000000
310
00000000000000000000000000000000000000000000000000000000000000000000000000000000000000000000000000000000000000F50000000000000000000000000000F5000000000000F5F50000F5F50000F5F50000F5F5F5000000000000F50000F5F5F5000000000000F50000000000F500000000F50000000000
310
00000000000000000000000000000000000000000000000000000000000000000000000000000000000000000000000000000000000000000000000000000000000000000000000000000000000000000000000000000000000000000000000000000000000000000000000000000000000000000000000000000000000000
310
000000000000000000000000000000000000000000000000000000000000000000000000000000000000000000000000000000000000000000F50000000000000000000000000000F5000000000000F5F50000F5F50000F5F50000F5F5F5000000000000F50000F5F5F5000000000000F50000000000F500000000F5000000
310
00000000000000000000000000000000000000000000000000000000000000000000000000000000000000000000000000000000000000000000000000000000000000000000000000000000000000000000000000000000000000000000000000000000000000000000000000000000000000000000000000000000000000
310
0000000000000000000000000000000000000000000000000000000000000000000000000000000000000000000000000000000000000000000000F50000000000000000000000000000F5000000000000F5F50000F5F50000F5F50000F5F5F5000000000000F5000000F500000000000000F50000000000F500000000F500
310
00000000000000000000000000000000000000000000000000000000000000000000000000000000000000000000000000000000000000000000000000000000000000000000000000000000000000000000000000000000000000000000000000000000000000000000000000000000000000000000000000000000000000
310
00000000000000000000000000000000000000000000000000000000000000000000000000000000000000000000000000000000000000000000000000F50000000000000000000000000000F5000000000000F5F50000F5F50000F5F50000F5F5F5000000000000F5000000F500000000000000F50000000000F500000000
310
F5000000000000000000000000000000000000000000000000000000000000000000000000000000000000000000000000000000000000000000000000000000000000000000000000000000000000000000000000000000000000000000000000000000000000000000000000000000000000000000000000000000000000
310
000000000000000000000000000000000000000000000000000000000000000000000000000000000000000000000000000000000000000000000000000000F50000000000000000000000000000F5000000000000F5F50000F5F50000F5F50000F5F5F5000000000000F5000000F500000000000000F50000000000F50000
310
0000F500000000000000000000000000000000000000000000000000000000000000000000000000000000000000000000000000000000000000000000000000000000000000000000000000000000000000000000000000000000000000000000000000000000000000000000000000000000000000000000000000000000
310
0000000000000000000000000000000000000000000000000000000000000000000000000000000000000000000000000000000000000000000000000000000000F50000000000000000000000000000F5000000000000F5F50000F5F50000F5F50000F5F5F5000000000000F5000000F500000000000000F50000000000F5
310
00000000F50000000000000000000000000000000000000000000000000000000000000000000000000000000000000000000000000000000000000000000000000000000000000000000000000000000000000000000000000000000000000000000000000000000000000000000000000000000000000000000000000000
310
00000000000000000000000000000000000000000000000000000000000000000000000000000000000000000000000000000000000000000000000000000000000000F50000000000000000000000000000F5F5F5F5F5F500F5F50000F5F50000F5F50000F5F5F5000000000000F5000000F500000000000000F500000000
310
00F500000000F5000000000000000000000000000000000000000000000000000000000000000000000000000000000000000000000000000000000000000000000000000000000000000000000000000000000000000000000000000000000000000000000000000000000000000000000000000000000000000000000000
310
000000000000000000000000000000000000000000000000000000000000000000000000000000000000000000000000000000000000000000000000000000000000000000F5000000000000F5F5F5F5F5F50000F5F5F5F5F5F500F5F50000F5F50000F5F50000F5F5F5000000000000F5000000F500000000000000F50000
310
000000F500000000F500000000000000000000000000000000000000000000000000000000000000000000000000000000000000000000000000000000000000000000000000000000000000000000000000000000000000000000000000000000000000000000000000000000000000000000000000000000000000000000
310
0000000000000000000000000000000000000000000000000000000000000000000000000000000000000000000000000000000000000000000000000000000000000000000000F5000000000000F500000000F50000F500000000F5F5F5F50000F5F50000F5F50000F5F5F5000000000000F5000000F500000000000000F5
310
0000000000F500000000F50000000000000000000000000000000000000000000000000000000000000000000000000000000000000000000000000000000000000000000000000000000000000000000000000000000000000000000000000000000000000000000000000000000000000000000000000000000000000000
310
00000000000000000000000000000000000000000000000000000000000000000000000000000000000000000000000000000000000000000000000000000000000000000000000000F5000000000000F500000000F5F5F5F500000000F5F5F5F50000F5F50000F5F50000F5F5F5000000000000F5000000F5000000000000
310
00F50000000000F500000000F5000000000000000000000000000000000000000000000000000000000000000000000000000000000000000000000000000000000000000000000000000000000000000000000000000000000000000000000000000000000000000000000000000000000000000000000000000000000000
310
000000000000000000000000000000000000000000000000000000000000000000000000000000000000000000000000000000000000000000000000000000000000000000000000000000F5000000000000F5000000000000F5F5000000000000F5F50000F5F50000F5F50000F5F5F5000000000000F5000000F500000000
310
000000F50000000000F500000000F500000000000000000000000000000000000000000000000000000000000000000000000000000000000000000000000000000000000000000000000000000000000000000000000000000000000000000000000000000000000000000000000000000000000000000000000000000000
310
0000000000000000000000000000000000000000000000000000000000000000000000000000000000000000000000000000000000000000000000000000000000000000000000000000000000F5000000000000F5000000000000F5F5000000000000F5F50000F5F50000F5F50000F5F5F5000000F50000F5000000F50000
310
0000000000F50000000000F500000000F50000000000000000000000000000000000000000000000000000000000000000000000000000000000000000000000000000000000000000000000000000000000000000000000000000000000000000000000000000000000000000000000000000000000000000000000000000
310
00000000000000000000000000000000000000000000000000000000000000000000000000000000000000000000000000000000000000000000000000000000000000000000000000000000000000F5000000000000F5F5F5F5F5F500F5F5F5F5F5F5F500F5F50000F5F50000F5F50000F5F5F5F5F5F5F5F5F5F5000000F5
310
00000000000000F50000000000F500000000F5000000000000000000000000000000000000000000000000000000000000000000000000000000000000000000000000000000000000000000000000000000000000000000000000000000000000000000000000000000000000000000000000000000000000000000000000
310
000000000000000000000000000000000000000000000000000000000000000000000000000000000000000000000000000000000000000000000000000000000000000000000000000000000000000000F500000000000000F5F500F5F5F5F500F5F5F500F5F5F5F50000F5F50000F5F50000F5F5F5F5F5F5F5F5F5F50000
310
00F500000000000000F50000000000F500000000F500000000000000000000000000000000000000000000000000000000000000000000000000000000000000000000000000000000000000000000000000000000000000000000000000000000000000000000000000000000000000000000000000000000000000000000
310
0000000000000000000000000000000000000000000000000000000000000000000000000000000000000000000000000000000000000000000000000000000000000000000000000000000000000000000000F5F5F5F5F5F5F5F5F5F5F5F5F5F50000000000F5F5F5F5F50000F5F50000F5F50000F5F500F5F5F5F5F5F5F5
310
F5F5F5F5F5F5F5F5F5F5F5F50000000000F500000000F50000000000000000000000000000000000000000000000000000000000000000000000000000000000000000000000000000000000000000000000000000000000000000000000000000000000000000000000000000000000000000000000000000000000000000
310
00000000000000000000000000000000000000000000000000000000000000000000000000000000000000000000000000000000000000000000000000000000000000000000000000000000000000000000000000F50000000000000000000000F500000000000000F500F5F50000F5F50000F5F50000F5F50000F5F500F5
310
F500000000F5000000000000F5000000000000F500000000F5000000000000000000000000000000000000000000000000000000000000000000000000000000000000000000000000000000000000000000000000000000000000000000000000000000000000000000000000000000000000000000000000000000000000
310
000000000000000000000000000000000000000000000000000000000000000000000000000000000000000000000000000000000000000000000000000000000000000000000000000000000000000000000000000000000000000000000000000000F500000000000000F500F5F50000F5F50000F5F50000F5F50000F5F5
310
00F5F500000000F500000000000000000000000000F50000F5F5F5F5000000000000000000000000000000000000000000000000000000000000000000000000000000000000000000000000000000000000000000000000000000000000000000000000000000000000000000000000000000000000000000000000000000
310
0000000000000000000000000000000000000000000000000000000000000000000000000000000000000000000000000000000000000000000000000000000000000000000000000000000000000000000000000000000000000000000000000000000000F5F5F5F5F5F5F5F5F5F5F5F5F5F5F5F5F5F5F5F5F5F5F5F5F5F5
310
F5F5F5F5F500000000F5000000000000000000000000F5F50000F5F5F5F500000000000000000000000000000000000000000000000000000000000000000000000000000000000000000000000000000000000000000000000000000000000000000000000000000000000000000000000000000000000000000000000000
310
00000000000000000000000000000000000000000000000000000000000000000000000000000000000000000000000000000000000000000000000000000000000000000000000000000000000000000000000000000000000000000000000000000000000000F5F5F5F5F5F5F5F5F5000000000000000000000000000000
310
0000000000000000000000F5000000000000000000000000F5F5000000F5F5000000000000000000000000000000000000000000000000000000000000000000000000000000000000000000000000000000000000000000000000000000000000000000000000000000000000000000000000000000000000000000000000
310
000000000000000000000000000000000000000000000000000000000000000000000000000000000000000000000000000000000000000000000000000000000000000000000000000000000000000000000000000000000000000000000000000000000000000000F500000000000000F500000000000000000000000000
310
00000000000000000000000000F500000000000000000000000000F5000000F5F5F5000000000000000000000000000000000000000000000000000000000000000000000000000000000000000000000000000000000000000000000000000000000000000000000000000000000000000000000000000000000000000000
310
0000000000000000000000000000000000000000000000000000000000000000000000000000000000000000000000000000000000000000000000000000000000000000000000000000000000000000000000000000000000000000000000000000000000000000000000F500000000000000F50000000000000000000000
310
000000000000000000000000000000F500000000000000000000000000F500000000F50000000000000000000000000000000000000000000000000000000000000000000000000000000000000000000000000000000000000000000000000000000000000000000000000000000000000000000000000000000000000000
310
00000000000000000000000000000000000000000000000000000000000000000000000000000000000000000000000000000000000000000000000000000000000000000000000000000000000000000000000000000000000000000000000000F5F5F5F5F5F5F5F5F5F5F5F5F5F50000000000F5F5F50000000000000000
310
0000000000000000000000000000000000F500000000000000000000000000F500000000F5000000000000000000000000000000000000000000000000000000000000000000000000000000000000000000000000000000000000000000000000000000000000000000000000000000000000000000000000000000000000
310
000000000000000000000000000000000000000000000000000000000000000000000000000000000000000000000000000000000000000000000000000000000000000000000000000000000000000000000000000000000000000000000000000000F500000000000000F5F500F5F5F5F500F5F5F500F5F5F50000000000
310
00000000000000000000000000000000000000F500000000000000000000000000F500000000F500000000000000000000000000000000000000000000000000000000000000000000000000000000000000000000000000000000000000000000000000000000000000000000000000000000000000000000000000000000
310
000000000000000000000000000000000000000000000000000000000000000000000000000000000000000000000000000000000000000000000000000000000000000000000000000000000000000000000000000000000000000000000000000000F5F5F5F50000000000F5F5F5F5F5F500F5F5F5F5F5F5F500F5000000
310
00000000000000000000000000000000000000F5F5F5F5000000000000000000000000F500000000F50000000000000000000000000000000000000000000000000000000000000000000000000000000000000000000000000000000000000000000000000000000000000000000000000000000000000000000000000000
310
0000000000000000000000000000000000000000000000000000000000000000000000000000000000000000000000000000000000000000000000000000000000000000000000000000000000000000000000000000000000000000000000000000000000F5F5F5F50000000000F5000000000000F5F5000000000000F500
310
00000000000000000000000000000000000000000000F5F5F5F50000000000000000000000F500000000F5000000000000000000000000000000000000000000000000000000000000000000000000000000000000000000000000000000000000000000000000000000000000000000000000000000000000000000000000
310
00000000000000000000000000000000000000000000000000000000000000000000000000000000000000000000000000000000000000000000000000000000000000000000000000000000000000000000000000000000000000000000000000F5F5F5F5F5F5F5F5F5F50000000000F5000000000000F5F5000000000000
310
F50000F5F5F5F5F5F5F500000000000000000000000000F5F5F5F5F50000000000000000000000F500000000F500000000000000000000000000000000000000000000000000000000000000000000000000000000000000000000000000000000000000000000000000000000000000000000000000000000000000000000
310
000000000000000000000000000000000000000000000000000000000000000000000000000000000000000000000000000000000000000000000000000000000000000000000000000000000000000000000000000000000000000000000000000000000000000000F5F5F5F50000000000F5000000000000F5F500000000
310
0000F500000000000000000000000000000000000000000000F5F5F5F5F50000000000000000000000F500000000F50000000000000000000000000000000000000000000000000000000000000000000000000000000000000000000000000000000000000000000000000000000000000000000000000000000000000000
310
00000000000000000000000000000000000000000000000000000000000000000000000000000000000000000000000000000000000000000000000000000000000000000000000000000000000000000000000000000000000000000000000000000000000000000000000000F5000000000000F5F5F5F5F5F500F5F5F5F5
310
F5F5F500F5000000000000000000000000000000000000000000000000F500000000000000000000000000F500000000F5000000000000000000000000000000000000000000000000000000000000000000000000000000000000000000000000000000000000000000000000000000000000000000000000000000000000
310
000000000000000000000000000000000000000000000000000000000000000000000000000000000000000000000000000000000000000000000000000000000000000000000000000000000000000000000000000000000000000000000000000000000000000000000000000000F500000000000000F5F500F5F5F5F500
310
F5F5F500F5F5F5000000000000000000000000000000000000000000000000F500000000000000000000000000F500000000F500000000000000000000000000000000000000000000000000000000000000000000000000000000000000000000000000000000000000000000000000000000000000000000000000000000
310
0000000000000000000000000000000000000000000000000000000000000000000000000000000000000000000000000000000000000000000000000000000000000000000000000000000000000000000000000000000000000000000000000000000000000000000000000000000000F5F5F5F5F5F5F5F5F5F5F5F5F5F5
310
0000000000F5F5F500000000000000000000000000000000000000000000000000F500000000000000000000000000F500000000F50000000000000000000000000000000000000000000000000000000000000000000000000000000000000000000000000000000000000000000000000000000000000000000000000000
310
00000000000000000000000000000000000000000000000000000000000000000000000000000000000000000000000000000000000000000000000000000000000000000000000000000000000000000000000000000000000000000000000000000000000000000000000000000000000000F50000000000000000000000
310
F500000000000000F50000000000000000000000000000000000000000000000000000F500000000000000000000000000F500000000F5000000000000000000000000000000000000000000000000000000000000000000000000000000000000000000000000000000000000000000000000000000000000000000000000
310
00000000000000000000000000000000000000000000000000000000000000000000000000000000000000000000000000000000000000000000000000000000000000000000000000000000000000000000000000000000000000000000000000000000000000000000000000000000000000000000000000000000000000
310
0000F500000000000000F50000000000000000000000000000000000000000000000000000F500000000000000000000000000F500000000F500000000000000000000000000000000000000000000000000000000000000000000000000000000000000000000000000000000000000000000000000000000000000000000
310
00000000000000000000000000000000000000000000000000000000000000000000000000000000000000000000000000000000000000000000000000000000000000000000000000000000000000000000000000000000000000000000000000000000000000000000000000000000000000000000000000000000000000
310
00000000F5F5F5F5F5F5F5F5F50000000000000000000000000000000000000000000000000000F500000000000000000000000000F500000000F50000000000000000000000000000000000000000000000000000000000000000000000000000000000000000000000000000000000000000000000000000000000000000
310
00000000000000000000000000000000000000000000000000000000000000000000000000000000000000000000000000000000000000000000000000000000000000000000000000000000000000000000000000000000000000000000000000000000000000000000000000000000000000000000000000000000000000
310
000000000000F5F5F5F5F5F5F5F5F5F5F5F5F5F5F5F5F5F5F5F5F5F5F5F5F5F5F5F5F5F5F500000000F500000000000000000000000000F500000000F5000000000000000000000000000000000000000000000000000000000000000000000000000000000000000000000000000000000000000000000000000000000000
310
00000000000000000000000000000000000000000000000000000000000000000000000000000000000000000000000000000000000000000000000000000000000000000000000000000000000000000000000000000000000000000000000000000000000000000000000000000000000000000000000000000000000000
310
0000000000000000F500000000000000F500F5F50000F5F50000F5F50000F5F50000F5F500F5F500000000F500000000000000000000000000F500000000F500000000000000000000000000000000000000000000000000000000000000000000000000000000000000000000000000000000000000000000000000000000
310
00000000000000000000000000000000000000000000000000000000000000000000000000000000000000000000000000000000000000000000000000000000000000000000000000000000000000000000000000000000000000000000000000000000000000000000000000000000000000000000000000000000000000
310
00000000000000000000F500000000000000F500F5F50000F5F50000F5F50000F5F50000F5F500F5F500000000F500000000000000000000000000F500000000F50000000000000000000000000000000000000000000000000000000000000000000000000000000000000000000000000000000000000000000000000000
310
00000000000000000000000000000000000000000000000000000000000000000000000000000000000000000000000000000000000000000000000000000000000000000000000000000000000000000000000000000000000000000000000000000000000000000000000000000000000000000000000000000000000000
310
F5F5F5F5F5F5F5F5F5F5F5F5F5F50000000000F5F5F5F5F50000F5F50000F5F50000F5F500F5F5F5F5F5F5F5F5F5F5F5F5F5F5F5F5F5F5F50000000000F500000000F5000000000000000000000000000000000000000000000000000000000000000000000000000000000000000000000000000000000000000000000000
310
00000000000000000000000000000000000000000000000000000000000000000000000000000000000000000000000000000000000000000000000000000000000000000000000000000000000000000000000000000000000000000000000000000000000000000000000000000000000000000000000000000000000000
310
0000F500000000000000F5F500F5F5F5F500F5F5F500F5F5F5F50000F5F50000F5F50000F5F5F5F5F5F5F5F5F5F5000000F500000000000000F50000000000F500000000F500000000000000000000000000000000000000000000000000000000000000000000000000000000000000000000000000000000000000000000
310
00000000000000000000000000000000000000000000000000000000000000000000000000000000000000000000000000000000000000000000000000000000000000000000000000000000000000000000000000000000000000000000000000000000000000000000000000000000000000000000000000000000000000
310
00000000F5000000000000F5F5F5F5F5F500F5F5F5F5F5F5F500F5F50000F5F50000F5F50000F5F5F5F5F5F5F5F5F5F5000000F500000000000000F50000000000F500000000F50000000000000000000000000000000000000000000000000000000000000000000000000000000000000000000000000000000000000000
310
00000000000000000000000000000000000000000000000000000000000000000000000000000000000000000000000000000000000000000000000000000000000000000000000000000000000000000000000000000000000000000000000000000000000000000000000000000000000000000000000000000000000000
310
000000000000F5000000000000F5000000000000F5F5000000000000F5F50000F5F50000F5F50000F5F5F5000000F5F500F5000000F500000000000000F50000000000F500000000F5000000000000000000000000000000000000000000000000000000000000000000000000000000000000000000000000000000000000
310
00000000000000000000000000000000000000000000000000000000000000000000000000000000000000000000000000000000000000000000000000000000000000000000000000000000000000000000000000000000000000000000000000000000000000000000000000000000000000000000000000000000000000
310
0000000000000000F5000000000000F5000000000000F5F5000000000000F5F50000F5F50000F5F50000F5F5F5000000000000F5000000F500000000000000F50000000000F500000000F500000000000000000000000000000000000000000000000000000000000000000000000000000000000000000000000000000000
310
00000000000000000000000000000000000000000000000000000000000000000000000000000000000000000000000000000000000000000000000000000000000000000000000000000000000000000000000000000000000000000000000000000000000000000000000000000000000000000000000000000000000000
310
00000000000000000000F5000000000000F5000000000000F5F5000000000000F5F50000F5F50000F5F50000F5F5F5000000000000F5000000F500000000000000F50000000000F500000000F50000000000000000000000000000000000000000000000000000000000000000000000000000000000000000000000000000
310
00000000000000000000000000000000000000000000000000000000000000000000000000000000000000000000000000000000000000000000000000000000000000000000000000000000000000000000000000000000000000000000000000000000000000000000000000000000000000000000000000000000000000
310
000000000000000000000000F5000000000000F500000000F5F5F5F500000000F5F5F5F50000F5F50000F5F50000F5F5F5000000000000F5000000F500000000000000F50000000000F500000000F5000000000000000000000000000000000000000000000000000000000000000000000000000000000000000000000000
310
00000000000000000000000000000000000000000000000000000000000000000000000000000000000000000000000000000000000000000000000000000000000000000000000000000000000000000000000000000000000000000000000000000000000000000000000000000000000000000000000000000000000000
310
000000000000000000000000F5F5F5F50000000000F500000000F50000F500000000F500F5F50000F5F50000F5F50000F5F5F5000000000000F500F5F5F5F5000000000000F50000000000F500000000F500000000000000000000000000000000000000000000000000000000000000000000000000000000000000000000
310
00000000000000000000000000000000000000000000000000000000000000000000000000000000000000000000000000000000000000000000000000000000000000000000000000000000000000000000000000000000000000000000000000000000000000000000000000000000000000000000000000000000000000
310
0000000000000000000000000000F5F5F5F50000000000F5F5F5F5F5F50000F5F5F5F5F5F500F5F50000F5F50000F5F50000F5F5F5000000000000F50000F5F5F5F50000000000F50000000000F500000000F50000000000000000000000000000000000000000000000000000000000000000000000000000000000000000
310
00000000000000000000000000000000000000000000000000000000000000000000000000000000000000000000000000000000000000000000000000000000000000000000000000000000000000000000000000000000000000000000000000000000000000000000000000000000000000000000000000000000000000
310
00000000000000000000000000000000F5F5F5F500000000000000000000000000F500000000F500F5F50000F5F50000F5F50000F5F5F5000000000000F500F5F5F5F5F5000000F5F5F5F500000000F500000000F5000000000000000000000000000000000000000000000000000000000000000000000000000000000000
310
00000000000000000000000000000000000000000000000000000000000000000000000000000000000000000000000000000000000000000000000000000000000000000000000000000000000000000000000000000000000000000000000000000000000000000000000000000000000000000000000000000000000000
310
000000000000000000000000000000000000F5F5F5F500000000000000000000000000F5000000000000F5F50000F5F50000F5F50000F5F5F5000000000000F500F5F5F5F5F5000000F5F5F5F500000000F500000000F500000000000000000000000000000000000000000000000000000000000000000000000000000000
310
00000000000000000000000000000000000000000000000000000000000000000000000000000000000000000000000000000000000000000000000000000000000000000000000000000000000000000000000000000000000000000000000000000000000000000000000000000000000000000000000000000000000000
310
00000000000000000000000000000000000000000000F50000000000000000000000000000F5F5F5F5F50000F5F50000F5F50000F5F50000F5F5F500F5F5F50000F5000000F500000000F5F5F5F5F500000000F500000000F50000000000000000000000000000000000000000000000000000000000000000000000000000
310
00000000000000000000000000000000000000000000000000000000000000000000000000000000000000000000000000000000000000000000000000000000000000000000000000000000000000000000000000000000000000000000000000000000000000000000000000000000000000000000000000000000000000
310
000000000000000000000000000000000000000000000000F500000000000000000000000000F5F5F5F5F5F500F5F5F50000F5F50000F5F50000F5F5F500F5F5F50000F5000000F50000000000F5F5F5F500000000F500000000F5000000000000000000000000000000000000000000000000000000000000000000000000
310
00000000000000000000000000000000000000000000000000000000000000000000000000000000000000000000000000000000000000000000000000000000000000000000000000000000000000000000000000000000000000000000000000000000000000000000000000000000000000000000000000000000000000
310
0000000000000000000000000000000000000000000000000000F50000000000000000000000000000F5F5F5F5F5F5F5F5F50000F5F50000F5F50000F5F5F5F5F5F5F5F5F5F5000000F500000000000000F50000000000F500000000F500000000000000000000000000000000000000000000000000000000000000000000
310
00000000000000000000000000000000000000000000000000000000000000000000000000000000000000000000000000000000000000000000000000000000000000000000000000000000000000000000000000000000000000000000000000000000000000000000000000000000000000000000000000000000000000
310
00000000000000000000000000000000000000000000000000000000F50000000000000000000000000000F500F5F5F50000F5F50000F5F50000F5F50000F5F5F500F5F5F50000F5000000F500000000000000F50000000000F500000000F50000000000000000000000000000000000000000000000000000000000000000
310
00000000000000000000000000000000000000000000000000000000000000000000000000000000000000000000000000000000000000000000000000000000000000000000000000000000000000000000000000000000000000000000000000000000000000000000000000000000000000000000000000000000000000
310
000000000000000000000000000000000000000000000000000000000000F50000000000000000000000000000F5000000000000F5F50000F5F50000F5F50000F5F5F5000000000000F5000000F500000000000000F50000000000F500000000F5000000000000000000000000000000000000000000000000000000000000
310
00000000000000000000000000000000000000000000000000000000000000000000000000000000000000000000000000000000000000000000000000000000000000000000000000000000000000000000000000000000000000000000000000000000000000000000000000000000000000000000000000000000000000
310
0000000000000000000000000000000000000000000000000000000000000000F50000000000000000000000000000F5000000000000F5F5F5F5F5F50000F5F5F5F5F5F5F5000000000000F5000000F500000000000000F50000000000F500000000F500000000000000000000000000000000000000000000000000000000
310
00000000000000000000000000000000000000000000000000000000000000000000000000000000000000000000000000000000000000000000000000000000000000000000000000000000000000000000000000000000000000000000000000000000000000000000000000000000000000000000000000000000000000
310
00000000000000000000000000000000000000000000000000000000000000000000F50000000000000000000000000000F5000000000000F5F5F5F5F5F5F5F5F5F5F5F5F5F5F5000000000000F5000000F500000000000000F50000000000F500000000F50000000000000000000000000000000000000000000000000000
310
00000000000000000000000000000000000000000000000000000000000000000000000000000000000000000000000000000000000000000000000000000000000000000000000000000000000000000000000000000000000000000000000000000000000000000000000000000000000000000000000000000000000000
310
000000000000000000000000000000000000000000000000000000000000000000000000F5F5F5F5F5F5F5F5F5F5F5F5F5F5F5F5F5F5F5F5F5F5F5F500F5F5F5F5F5F5F500F5F5F5F5F5F5F5F5F5F5F5F5F5F5F5F5000000000000F50000000000F500000000F5000000000000000000000000000000000000000000000000
310
00000000000000000000000000000000000000000000000000000000000000000000000000000000000000000000000000000000000000000000000000000000000000000000000000000000000000000000000000000000000000000000000000000000000000000000000000000000000000000000000000000000000000
310
0000000000000000000000000000000000000000000000000000000000000000000000000000F50000000000000000000000000000F5F5F5F5F5F5F5F5F5F5F5F5F5F5F5F5F500F5F5F5F5F5F5F5F5F5F5F5000000F500000000000000F50000000000F500000000F500000000000000000000000000000000000000000000
310
00000000000000000000000000000000000000000000000000000000000000000000000000000000000000000000000000000000000000000000000000000000000000000000000000000000000000000000000000000000000000000000000000000000000000000000000000000000000000000000000000000000000000
310
000000000000000000000000000000000000000000000000000000000000000000000000000000000000000000000000000000F5F5F5F5F5F50000000000F5F5F5F50000F5F5F5F50000000000F50000000000F50000000000000000000000F50000000000F500000000F50000000000000000000000000000000000000000
310
00000000000000000000000000000000000000000000000000000000000000000000000000000000000000000000000000000000000000000000000000000000000000000000000000000000000000000000000000000000000000000000000000000000000000000000000000000000000000000000000000000000000000
310
0000000000000000000000000000000000000000000000000000000000000000000000000000000000000000000000000000000000F5000000F5F5F5F5F5F5F5F5F5F5F5F5F5F5F5F5F5F5F5F50000F50000F5F500F50000000000000000000000F50000000000F500000000F5000000000000000000000000000000000000
310
00000000000000000000000000000000000000000000000000000000000000000000000000000000000000000000000000000000000000000000000000000000000000000000000000000000000000000000000000000000000000000000000000000000000000000000000000000000000000000000000000000000000000
310
00000000000000000000000000000000000000000000000000000000000000000000000000000000000000000000000000000000000000F5000000F5F5F5000000000000000000F5F5F5F5F5F5F5F5F5F5F5F5F5F5F5F5F5F5F5F5F5F5F5F5F5F5F5F5F5F5F5F5F5F5F500000000F500000000000000000000000000000000
310
00000000000000000000000000000000000000000000000000000000000000000000000000000000000000000000000000000000000000000000000000000000000000000000000000000000000000000000000000000000000000000000000000000000000000000000000000000000000000000000000000000000000000
310
000000000000000000000000000000000000000000000000000000000000000000000000000000000000000000000000000000000000000000F5F5F5F5F5000000000000000000000000000000000000000000F5F5F5F5F500F50000000000000000000000000000000000F500000000F50000000000000000000000000000
310
00000000000000000000000000000000000000000000000000000000000000000000000000000000000000000000000000000000000000000000000000000000000000000000000000000000000000000000000000000000000000000000000000000000000000000000000000000000000000000000000000000000000000
310
0000000000000000000000000000000000000000000000000000000000000000000000000000000000000000000000000000000000000000000000F5000000F5000000000000000000000000000000000000000000F5F5F5F50000F50000000000000000000000000000000000F500000000F5000000000000000000000000
310
00000000000000000000000000000000000000000000000000000000000000000000000000000000000000000000000000000000000000000000000000000000000000000000000000000000000000000000000000000000000000000000000000000000000000000000000000000000000000000000000000000000000000
310
000000000000000000000000000000000000000000000000000000000000000000000000000000000000000000000000000000000000000000000000F5F5000000F50000000000000000000000F5F5F5F500000000000000F5F5F5F500F5F5F5F5F5F5F5F5F5F5F5F5F5F5F5F5F5F5F5F5F5F5F5F500000000000000000000
310
00000000000000000000000000000000000000000000000000000000000000000000000000000000000000000000000000000000000000000000000000000000000000000000000000000000000000000000000000000000000000000000000000000000000000000000000000000000000000000000000000000000000000
310
0000000000000000000000000000000000000000000000000000000000000000000000000000000000000000000000000000000000000000000000000000F500000000F5F5F5F5F5F5F5F5F5F5F5F5F5F5F5F5F5F5F5F5F5F5F5F5F5F5F5F5F50000000000000000000000000000000000F5F5F5F5F5000000000000000000
310
00000000000000000000000000000000000000000000000000000000000000000000000000000000000000000000000000000000000000000000000000000000000000000000000000000000000000000000000000000000000000000000000000000000000000000000000000000000000000000000000000000000000000
310
00000000000000000000000000000000000000000000000000000000000000000000000000000000000000000000000000000000000000000000000000000000F5F5F5F5F5F500000000000000000000000000F500000000000000000000000000F50000000000000000000000000000000000F5F5F5000000000000000000
310
00000000000000000000000000000000000000000000000000000000000000000000000000000000000000000000000000000000000000000000000000000000000000000000000000000000000000000000000000000000000000000000000000000000000000000000000000000000000000000000000000000000000000
310
00000000000000000000000000000000000000000000000000000000000000000000000000000000000000000000000000000000000000000000000000000000000000000000000000000000000000000000000000000000000000000000000000000000000000000000000000000000000000000000F5F5F5000000000000
310
00000000000000000000000000000000000000000000000000000000000000000000000000000000000000000000000000000000000000000000000000000000000000000000000000000000000000000000000000000000000000000000000000000000000000000000000000000000000000000000000000000000000000
310
00000000000000000000000000000000000000000000000000000000000000000000000000000000000000000000000000000000000000000000000000000000000000000000000000000000000000000000000000000000000000000000000000000000000000000000000000000000000000000000000000000000000000
310
00000000000000000000000000000000000000000000000000000000000000000000000000000000000000000000000000000000000000000000000000000000000000000000000000000000000000000000000000000000000000000000000000000000000000000000000000000000000000000000000000000000000000
310
00000000000000000000000000000000000000000000000000000000000000000000000000000000000000000000000000000000000000000000000000000000000000000000000000000000000000000000000000000000000000000000000000000000000000000000000000000000000000000000000000000000000000
310
00000000000000000000000000000000000000000000000000000000000000000000000000000000000000000000000000000000000000000000000000000000000000000000000000000000000000000000000000000000000000000000000000000000000000000000000000000000000000000000000000000000000000
310
00000000000000000000000000000000000000000000000000000000000000000000000000000000000000000000000000000000000000000000000000000000000000000000000000000000000000000000000000000000000000000000000000000000000000000000000000000000000000000000000000000000000000
310
00000000000000000000000000000000000000000000000000000000000000000000000000000000000000000000000000000000000000000000000000000000000000000000000000000000000000000000000000000000000000000000000000000000000000000000000000000000000000000000000000000000000000
310
00000000000000000000000000000000000000000000000000000000000000000000000000000000000000000000000000000000000000000000000000000000000000000000000000000000000000000000000000000000000000000000000000000000000000000000000000000000000000000000000000000000000000
310
00000000000000000000000000000000000000000000000000000000000000000000000000000000000000000000000000000000000000000000000000000000000000000000000000000000000000000000000000000000000000000000000000000000000000000000000000000000000000000000000000000000000000
310
00000000000000000000000000000000000000000000000000000000000000000000000000000000000000000000000000000000000000000000000000000000000000000000000000000000000000000000000000000000000000000000000000000000000000000000000000000000000000000000000000000000000000
310
00000000000000000000000000000000000000000000000000000000000000000000000000000000000000000000000000000000000000000000000000000000000000000000000000000000000000000000000000000000000000000000000000000000000000000000000000000000000000000000000000000000000000
310
00000000000000000000000000000000000000000000000000000000000000000000000000000000000000000000000000000000000000000000000000000000000000000000000000000000000000000000000000000000000000000000000000000000000000000000000000000000000000000000000000000000000000
310
00000000000000000000000000000000000000000000000000000000000000000000000000000000000000000000000000000000000000000000000000000000000000000000000000000000000000000000000000000000000000000000000000000000000000000000000000000000000000000000000000000000000000
310
00000000000000000000000000000000000000000000000000000000000000000000000000000000000000000000000000000000000000000000000000000000000000000000000000000000000000000000000000000000000000000000000000000000000000000000000000000000000000000000000000000000000000
310
00000000000000000000000000000000000000000000000000000000000000000000000000000000000000000000000000000000000000000000000000000000000000000000000000000000000000000000000000000000000000000000000000000000000000000000000000000000000000000000000000000000000000
310
00000000000000000000000000000000000000000000000000000000000000000000000000000000000000000000000000000000000000000000000000000000000000000000000000000000000000000000000000000000000000000000000000000000000000000000000000000000000000000000000000000000000000
310
00000000000000000000000000000000000000000000000000000000000000000000000000000000000000000000000000000000000000000000000000000000000000000000000000000000000000000000000000000000000000000000000000000000000000000000000000000000000000000000000000000000000000
310
000000000000000000000000000000000000000000000000000000000000
  0
XRECORD
  5
36F
102
{ACAD_REACTORS
330
49
102
}
330
49
100
AcDbXrecord
280
     1
102
MATERIAL
148
0.0
149
0.0
149
0.0
 93
        0
 94
      127
282
     0
 72
     0
 77
     0
171
     0
175
     0
179
     0
273
     0
  0
XRECORD
  5
4A
102
{ACAD_REACTORS
330
49
102
}
330
49
100
AcDbXrecord
280
     1
270
     1
271
     1
  0
XRECORD
  5
4B
102
{ACAD_REACTORS
330
49
102
}
330
49
100
AcDbXrecord
280
     1
270
     1
271
     1
  0
XRECORD
  5
4C
102
{ACAD_REACTORS
330
49
102
}
330
49
100
AcDbXrecord
280
     1
270
     1
271
     1
  0
XRECORD
  5
4D
102
{ACAD_REACTORS
330
49
102
}
330
49
100
AcDbXrecord
280
     1
270
     1
271
     1
  0
XRECORD
  5
4E
102
{ACAD_REACTORS
330
49
102
}
330
49
100
AcDbXrecord
280
     1
270
     1
271
     1
  0
XRECORD
  5
4F
102
{ACAD_REACTORS
330
49
102
}
330
49
100
AcDbXrecord
280
     1
270
     1
271
     1
  0
XRECORD
  5
36E
102
{ACAD_REACTORS
330
41
102
}
330
41
100
AcDbXrecord
280
     1
102
MATERIAL
148
0.0
149
0.0
149
0.0
 93
        0
 94
      127
282
     0
 72
     0
 77
     0
171
     0
175
     0
179
     0
273
     0
  0
XRECORD
  5
42
102
{ACAD_REACTORS
330
41
102
}
330
41
100
AcDbXrecord
280
     1
270
     1
271
     1
  0
XRECORD
  5
43
102
{ACAD_REACTORS
330
41
102
}
330
41
100
AcDbXrecord
280
     1
270
     1
271
     1
  0
XRECORD
  5
44
102
{ACAD_REACTORS
330
41
102
}
330
41
100
AcDbXrecord
280
     1
270
     1
271
     1
  0
XRECORD
  5
45
102
{ACAD_REACTORS
330
41
102
}
330
41
100
AcDbXrecord
280
     1
270
     1
271
     1
  0
XRECORD
  5
46
102
{ACAD_REACTORS
330
41
102
}
330
41
100
AcDbXrecord
280
     1
270
     1
271
     1
  0
XRECORD
  5
47
102
{ACAD_REACTORS
330
41
102
}
330
41
100
AcDbXrecord
280
     1
270
     1
271
     1
  0
XRECORD
  5
369
102
{ACAD_REACTORS
330
E
102
}
330
E
100
AcDbXrecord
280
     1
102
MATERIAL
148
0.0
149
0.0
149
0.0
 93
        0
 94
      127
282
     0
 72
     0
 77
     0
171
     0
175
     0
179
     0
273
     0
  0
XRECORD
  5
F
102
{ACAD_REACTORS
330
E
102
}
330
E
100
AcDbXrecord
280
     1
270
     1
271
     1
  0
XRECORD
  5
10
102
{ACAD_REACTORS
330
E
102
}
330
E
100
AcDbXrecord
280
     1
270
     1
271
     1
  0
XRECORD
  5
11
102
{ACAD_REACTORS
330
E
102
}
330
E
100
AcDbXrecord
280
     1
270
     1
271
     1
  0
XRECORD
  5
12
102
{ACAD_REACTORS
330
E
102
}
330
E
100
AcDbXrecord
280
     1
270
     1
271
     1
  0
XRECORD
  5
13
102
{ACAD_REACTORS
330
E
102
}
330
E
100
AcDbXrecord
280
     1
270
     1
271
     1
  0
XRECORD
  5
14
102
{ACAD_REACTORS
330
E
102
}
330
E
100
AcDbXrecord
280
     1
270
     1
271
     1
  0
CELLSTYLEMAP
  5
367
102
{ACAD_REACTORS
330
56
102
}
330
56
100
AcDbCellStyleMap
 90
        3
300
CELLSTYLE
  1
TABLEFORMAT_BEGIN
 90
        5
170
     1
 91
        0
 92
    32768
 62
   257
 93
        1
300
CONTENTFORMAT
  1
CONTENTFORMAT_BEGIN
 90
        0
 91
        0
 92
        4
 93
        0
300

 40
0.0
140
1.0
 94
        5
 62
     0
340
26
144
0.25
309
CONTENTFORMAT_END
171
     1
301
MARGIN
  1
CELLMARGIN_BEGIN
 40
0.06
 40
0.06
 40
0.06
 40
0.06
 40
0.18
 40
0.18
309
CELLMARGIN_END
 94
        6
 95
        1
302
GRIDFORMAT
  1
GRIDFORMAT_BEGIN
 90
        0
 91
        1
 62
     0
 92
       -2
340
0
 93
        0
 40
0.045
309
GRIDFORMAT_END
 95
        2
302
GRIDFORMAT
  1
GRIDFORMAT_BEGIN
 90
        0
 91
        1
 62
     0
 92
       -2
340
0
 93
        0
 40
0.045
309
GRIDFORMAT_END
 95
        4
302
GRIDFORMAT
  1
GRIDFORMAT_BEGIN
 90
        0
 91
        1
 62
     0
 92
       -2
340
0
 93
        0
 40
0.045
309
GRIDFORMAT_END
 95
        8
302
GRIDFORMAT
  1
GRIDFORMAT_BEGIN
 90
        0
 91
        1
 62
     0
 92
       -2
340
0
 93
        0
 40
0.045
309
GRIDFORMAT_END
 95
       16
302
GRIDFORMAT
  1
GRIDFORMAT_BEGIN
 90
        0
 91
        1
 62
     0
 92
       -2
340
0
 93
        0
 40
0.045
309
GRIDFORMAT_END
 95
       32
302
GRIDFORMAT
  1
GRIDFORMAT_BEGIN
 90
        0
 91
        1
 62
     0
 92
       -2
340
0
 93
        0
 40
0.045
309
GRIDFORMAT_END
309
TABLEFORMAT_END
  1
CELLSTYLE_BEGIN
 90
        1
 91
        1
300
_TITLE
309
CELLSTYLE_END
300
CELLSTYLE
  1
TABLEFORMAT_BEGIN
 90
        5
170
     1
 91
        0
 92
        0
 62
   257
 93
        1
300
CONTENTFORMAT
  1
CONTENTFORMAT_BEGIN
 90
        0
 91
        0
 92
        4
 93
        0
300

 40
0.0
140
1.0
 94
        5
 62
     0
340
26
144
0.18
309
CONTENTFORMAT_END
171
     1
301
MARGIN
  1
CELLMARGIN_BEGIN
 40
0.06
 40
0.06
 40
0.06
 40
0.06
 40
0.18
 40
0.18
309
CELLMARGIN_END
 94
        6
 95
        1
302
GRIDFORMAT
  1
GRIDFORMAT_BEGIN
 90
        0
 91
        1
 62
     0
 92
       -2
340
0
 93
        0
 40
0.045
309
GRIDFORMAT_END
 95
        2
302
GRIDFORMAT
  1
GRIDFORMAT_BEGIN
 90
        0
 91
        1
 62
     0
 92
       -2
340
0
 93
        0
 40
0.045
309
GRIDFORMAT_END
 95
        4
302
GRIDFORMAT
  1
GRIDFORMAT_BEGIN
 90
        0
 91
        1
 62
     0
 92
       -2
340
0
 93
        0
 40
0.045
309
GRIDFORMAT_END
 95
        8
302
GRIDFORMAT
  1
GRIDFORMAT_BEGIN
 90
        0
 91
        1
 62
     0
 92
       -2
340
0
 93
        0
 40
0.045
309
GRIDFORMAT_END
 95
       16
302
GRIDFORMAT
  1
GRIDFORMAT_BEGIN
 90
        0
 91
        1
 62
     0
 92
       -2
340
0
 93
        0
 40
0.045
309
GRIDFORMAT_END
 95
       32
302
GRIDFORMAT
  1
GRIDFORMAT_BEGIN
 90
        0
 91
        1
 62
     0
 92
       -2
340
0
 93
        0
 40
0.045
309
GRIDFORMAT_END
309
TABLEFORMAT_END
  1
CELLSTYLE_BEGIN
 90
        2
 91
        1
300
_HEADER
309
CELLSTYLE_END
300
CELLSTYLE
  1
TABLEFORMAT_BEGIN
 90
        5
170
     1
 91
        0
 92
        0
 62
   257
 93
        1
300
CONTENTFORMAT
  1
CONTENTFORMAT_BEGIN
 90
        0
 91
        0
 92
        4
 93
        0
300

 40
0.0
140
1.0
 94
        2
 62
     0
340
26
144
0.18
309
CONTENTFORMAT_END
171
     1
301
MARGIN
  1
CELLMARGIN_BEGIN
 40
0.06
 40
0.06
 40
0.06
 40
0.06
 40
0.18
 40
0.18
309
CELLMARGIN_END
 94
        6
 95
        1
302
GRIDFORMAT
  1
GRIDFORMAT_BEGIN
 90
        0
 91
        1
 62
     0
 92
       -2
340
0
 93
        0
 40
0.045
309
GRIDFORMAT_END
 95
        2
302
GRIDFORMAT
  1
GRIDFORMAT_BEGIN
 90
        0
 91
        1
 62
     0
 92
       -2
340
0
 93
        0
 40
0.045
309
GRIDFORMAT_END
 95
        4
302
GRIDFORMAT
  1
GRIDFORMAT_BEGIN
 90
        0
 91
        1
 62
     0
 92
       -2
340
0
 93
        0
 40
0.045
309
GRIDFORMAT_END
 95
        8
302
GRIDFORMAT
  1
GRIDFORMAT_BEGIN
 90
        0
 91
        1
 62
     0
 92
       -2
340
0
 93
        0
 40
0.045
309
GRIDFORMAT_END
 95
       16
302
GRIDFORMAT
  1
GRIDFORMAT_BEGIN
 90
        0
 91
        1
 62
     0
 92
       -2
340
0
 93
        0
 40
0.045
309
GRIDFORMAT_END
 95
       32
302
GRIDFORMAT
  1
GRIDFORMAT_BEGIN
 90
        0
 91
        1
 62
     0
 92
       -2
340
0
 93
        0
 40
0.045
309
GRIDFORMAT_END
309
TABLEFORMAT_END
  1
CELLSTYLE_BEGIN
 90
        3
 91
        2
300
_DATA
309
CELLSTYLE_END
  0
XRECORD
  5
370
102
{ACAD_REACTORS
330
56
102
}
330
56
100
AcDbXrecord
280
     1
102
ACAD_ROUNDTRIP_PRE2007_TABLESTYLE
 90
        4
 91
        0
  1

 92
        4
 93
        0
  2

 94
        4
 95
        0
  3

  0
XRECORD
  5
36D
102
{ACAD_REACTORS
330
36C
102
}
330
36C
100
AcDbXrecord
280
     1
102
RTVSPropertyOp0
 70
     1
102
RTVSPropertyOp1
 70
     1
102
RTVSPropertyOp2
 70
     1
102
RTVSPropertyOp3
 70
     1
102
RTVSPropertyOp4
 70
     1
102
RTVSPropertyOp5
 70
     1
102
RTVSPropertyOp6
 70
     1
102
RTVSPropertyOp7
 70
     1
102
RTVSPropertyOp8
 70
     1
102
RTVSPropertyOp9
 70
     1
102
RTVSPropertyOp10
 70
     1
102
RTVSPropertyOp11
 70
     1
102
RTVSPropertyOp12
 70
     1
102
RTVSPropertyOp13
 70
     1
102
RTVSPropertyOp14
 70
     1
102
RTVSPropertyOp15
 70
     1
102
RTVSPropertyOp16
 70
     1
102
RTVSPropertyOp17
 70
     1
102
RTVSPropertyOp18
 70
     1
102
RTVSPropertyOp19
 70
     1
102
RTVSPropertyOp20
 70
     1
102
RTVSPropertyOp21
 70
     1
102
RTVSPropertyOp22
 70
     1
102
RTVSPropertyOp23
 70
     1
102
RTVSPropertyOp24
 70
     1
102
RTVSPropertyOp25
 70
     1
102
RTVSPropertyOp26
 70
     1
102
RTVSPropertyOp27
 70
     1
102
RTVSPropertyOp28
 70
     1
102
RTVSPropertyOp29
 70
     1
102
RTVSPropertyOp30
 70
     1
102
RTVSPropertyOp31
 70
     1
102
RTVSPropertyOp32
 70
     1
  0
XRECORD
  5
372
102
{ACAD_REACTORS
330
371
102
}
330
371
100
AcDbXrecord
280
     1
102
RTVSPropertyOp0
 70
     1
102
RTVSPropertyOp1
 70
     1
102
RTVSPropertyOp2
 70
     1
102
RTVSPropertyOp3
 70
     1
102
RTVSPropertyOp4
 70
     1
102
RTVSPropertyOp5
 70
     1
102
RTVSPropertyOp6
 70
     1
102
RTVSPropertyOp7
 70
     1
102
RTVSPropertyOp8
 70
     1
102
RTVSPropertyOp9
 70
     1
102
RTVSPropertyOp10
 70
     1
102
RTVSPropertyOp11
 70
     1
102
RTVSPropertyOp12
 70
     1
102
RTVSPropertyOp13
 70
     1
102
RTVSPropertyOp14
 70
     1
102
RTVSPropertyOp15
 70
     1
102
RTVSPropertyOp16
 70
     1
102
RTVSPropertyOp17
 70
     1
102
RTVSPropertyOp18
 70
     1
102
RTVSPropertyOp19
 70
     1
102
RTVSPropertyOp20
 70
     1
102
RTVSPropertyOp21
 70
     1
102
RTVSPropertyOp22
 70
     1
102
RTVSPropertyOp23
 70
     1
102
RTVSPropertyOp24
 70
     1
102
RTVSPropertyOp25
 70
     1
102
RTVSPropertyOp26
 70
     1
102
RTVSPropertyOp27
 70
     1
102
RTVSPropertyOp28
 70
     1
102
RTVSPropertyOp29
 70
     1
102
RTVSPropertyOp30
 70
     1
102
RTVSPropertyOp31
 70
     1
102
RTVSPropertyOp32
 70
     1
  0
XRECORD
  5
374
102
{ACAD_REACTORS
330
373
102
}
330
373
100
AcDbXrecord
280
     1
102
RTVSPropertyOp0
 70
     1
102
RTVSPropertyOp1
 70
     1
102
RTVSPropertyOp2
 70
     1
102
RTVSPropertyOp3
 70
     1
102
RTVSPropertyOp4
 70
     1
102
RTVSPropertyOp5
 70
     1
102
RTVSPropertyOp6
 70
     1
102
RTVSPropertyOp7
 70
     1
102
RTVSPropertyOp8
 70
     1
102
RTVSPropertyOp9
 70
     1
102
RTVSPropertyOp10
 70
     1
102
RTVSPropertyOp11
 70
     1
102
RTVSPropertyOp12
 70
     1
102
RTVSPropertyOp13
 70
     1
102
RTVSPropertyOp14
 70
     1
102
RTVSPropertyOp15
 70
     1
102
RTVSPropertyOp16
 70
     1
102
RTVSPropertyOp17
 70
     1
102
RTVSPropertyOp18
 70
     1
102
RTVSPropertyOp19
 70
     1
102
RTVSPropertyOp20
 70
     1
102
RTVSPropertyOp21
 70
     1
102
RTVSPropertyOp22
 70
     1
102
RTVSPropertyOp23
 70
     1
102
RTVSPropertyOp24
 70
     1
102
RTVSPropertyOp25
 70
     1
102
RTVSPropertyOp26
 70
     1
102
RTVSPropertyOp27
 70
     1
102
RTVSPropertyOp28
 70
     1
102
RTVSPropertyOp29
 70
     1
102
RTVSPropertyOp30
 70
     1
102
RTVSPropertyOp31
 70
     1
102
RTVSPropertyOp32
 70
     1
  0
ENDSEC
  0
EOF
