  0
SECTION
  2
HEADER
  9
$ACADVER
  1
AC1015
  9
$ACADMAINTVER
 70
    18
  9
$DWGCODEPAGE
  3
ANSI_1252
  9
$INSBASE
 10
-6.282727600984514
 20
52.70214507093432
 30
0.0
  9
$EXTMIN
 10
-13.58606289755259
 20
42.91448941948232
 30
0.0
  9
$EXTMAX
 10
2.906748240822296
 20
70.57952377914961
 30
0.0
  9
$LIMMIN
 10
0.0
 20
0.0
  9
$LIMMAX
 10
10000.0
 20
10000.0
  9
$ORTHOMODE
 70
     1
  9
$REGENMODE
 70
     1
  9
$FILLMODE
 70
     1
  9
$QTEXTMODE
 70
     0
  9
$MIRRTEXT
 70
     0
  9
$LTSCALE
 40
0.5
  9
$ATTMODE
 70
     1
  9
$TEXTSIZE
 40
0.25
  9
$TRACEWID
 40
0.05
  9
$TEXTSTYLE
  7
Standard
  9
$CLAYER
  8
0
  9
$CELTYPE
  6
ByLayer
  9
$CECOLOR
 62
   256
  9
$CELTSCALE
 40
1.0
  9
$DISPSILH
 70
     0
  9
$DIMSCALE
 40
0.0
  9
$DIMASZ
 40
0.156
  9
$DIMEXO
 40
0.04
  9
$DIMDLI
 40
0.38
  9
$DIMRND
 40
0.0
  9
$DIMDLE
 40
0.0
  9
$DIMEXE
 40
0.03
  9
$DIMTP
 40
0.0
  9
$DIMTM
 40
0.0
  9
$DIMTXT
 40
0.3125
  9
$DIMCEN
 40
0.0
  9
$DIMTSZ
 40
0.0
  9
$DIMTOL
 70
     0
  9
$DIMLIM
 70
     0
  9
$DIMTIH
 70
     1
  9
$DIMTOH
 70
     1
  9
$DIMSE1
 70
     0
  9
$DIMSE2
 70
     0
  9
$DIMTAD
 70
     0
  9
$DIMZIN
 70
     0
  9
$DIMBLK
  1
ArchTick
  9
$DIMASO
 70
     1
  9
$DIMSHO
 70
     1
  9
$DIMPOST
  1
\X
  9
$DIMAPOST
  1
mm
  9
$DIMALT
 70
     1
  9
$DIMALTD
 70
     0
  9
$DIMALTF
 40
25.4
  9
$DIMLFAC
 40
1.0
  9
$DIMTOFL
 70
     0
  9
$DIMTVP
 40
0.0
  9
$DIMTIX
 70
     0
  9
$DIMSOXD
 70
     0
  9
$DIMSAH
 70
     0
  9
$DIMBLK1
  1

  9
$DIMBLK2
  1

  9
$DIMSTYLE
  2
Knife
  9
$DIMCLRD
 70
     0
  9
$DIMCLRE
 70
     0
  9
$DIMCLRT
 70
     0
  9
$DIMTFAC
 40
1.0
  9
$DIMGAP
 40
0.04
  9
$DIMJUST
 70
     0
  9
$DIMSD1
 70
     0
  9
$DIMSD2
 70
     0
  9
$DIMTOLJ
 70
     1
  9
$DIMTZIN
 70
     0
  9
$DIMALTZ
 70
     0
  9
$DIMALTTZ
 70
     0
  9
$DIMUPT
 70
     0
  9
$DIMDEC
 70
     5
  9
$DIMTDEC
 70
     5
  9
$DIMALTU
 70
     2
  9
$DIMALTTD
 70
     0
  9
$DIMTXSTY
  7
Standard
  9
$DIMAUNIT
 70
     0
  9
$DIMADEC
 70
     1
  9
$DIMALTRND
 40
0.0
  9
$DIMAZIN
 70
     0
  9
$DIMDSEP
 70
    46
  9
$DIMATFIT
 70
     3
  9
$DIMFRAC
 70
     2
  9
$DIMLDRBLK
  1

  9
$DIMLUNIT
 70
     4
  9
$DIMLWD
 70
    -2
  9
$DIMLWE
 70
    -2
  9
$DIMTMOVE
 70
     0
  9
$LUNITS
 70
     2
  9
$LUPREC
 70
     4
  9
$SKETCHINC
 40
0.1
  9
$FILLETRAD
 40
0.0
  9
$AUNITS
 70
     0
  9
$AUPREC
 70
     0
  9
$MENU
  1
.
  9
$ELEVATION
 40
0.0
  9
$PELEVATION
 40
0.0
  9
$THICKNESS
 40
0.0
  9
$LIMCHECK
 70
     0
  9
$CHAMFERA
 40
0.0
  9
$CHAMFERB
 40
0.0
  9
$CHAMFERC
 40
0.0
  9
$CHAMFERD
 40
0.0
  9
$SKPOLY
 70
     0
  9
$TDCREATE
 40
2454538.540644179
  9
$TDUCREATE
 40
2454538.665644178
  9
$TDUPDATE
 40
2456098.433016308
  9
$TDUUPDATE
 40
2456098.558016308
  9
$TDINDWG
 40
0.3739595833
  9
$TDUSRTIMER
 40
0.3739595833
  9
$USRTIMER
 70
     1
  9
$ANGBASE
 50
0.0
  9
$ANGDIR
 70
     0
  9
$PDMODE
 70
     3
  9
$PDSIZE
 40
0.0
  9
$PLINEWID
 40
0.0
  9
$SPLFRAME
 70
     0
  9
$SPLINETYPE
 70
     6
  9
$SPLINESEGS
 70
    12
  9
$HANDSEED
  5
34C
  9
$SURFTAB1
 70
     6
  9
$SURFTAB2
 70
     6
  9
$SURFTYPE
 70
     6
  9
$SURFU
 70
     6
  9
$SURFV
 70
     6
  9
$UCSBASE
  2

  9
$UCSNAME
  2

  9
$UCSORG
 10
0.0
 20
0.0
 30
0.0
  9
$UCSXDIR
 10
1.0
 20
0.0
 30
0.0
  9
$UCSYDIR
 10
0.0
 20
1.0
 30
0.0
  9
$UCSORTHOREF
  2

  9
$UCSORTHOVIEW
 70
     0
  9
$UCSORGTOP
 10
0.0
 20
0.0
 30
0.0
  9
$UCSORGBOTTOM
 10
0.0
 20
0.0
 30
0.0
  9
$UCSORGLEFT
 10
0.0
 20
0.0
 30
0.0
  9
$UCSORGRIGHT
 10
0.0
 20
0.0
 30
0.0
  9
$UCSORGFRONT
 10
0.0
 20
0.0
 30
0.0
  9
$UCSORGBACK
 10
0.0
 20
0.0
 30
0.0
  9
$PUCSBASE
  2

  9
$PUCSNAME
  2

  9
$PUCSORG
 10
0.0
 20
0.0
 30
0.0
  9
$PUCSXDIR
 10
1.0
 20
0.0
 30
0.0
  9
$PUCSYDIR
 10
0.0
 20
1.0
 30
0.0
  9
$PUCSORTHOREF
  2

  9
$PUCSORTHOVIEW
 70
     0
  9
$PUCSORGTOP
 10
0.0
 20
0.0
 30
0.0
  9
$PUCSORGBOTTOM
 10
0.0
 20
0.0
 30
0.0
  9
$PUCSORGLEFT
 10
0.0
 20
0.0
 30
0.0
  9
$PUCSORGRIGHT
 10
0.0
 20
0.0
 30
0.0
  9
$PUCSORGFRONT
 10
0.0
 20
0.0
 30
0.0
  9
$PUCSORGBACK
 10
0.0
 20
0.0
 30
0.0
  9
$USERI1
 70
     0
  9
$USERI2
 70
     0
  9
$USERI3
 70
     0
  9
$USERI4
 70
     0
  9
$USERI5
 70
     0
  9
$USERR1
 40
0.0
  9
$USERR2
 40
0.0
  9
$USERR3
 40
0.0
  9
$USERR4
 40
0.0
  9
$USERR5
 40
0.0
  9
$WORLDVIEW
 70
     1
  9
$SHADEDGE
 70
     3
  9
$SHADEDIF
 70
    70
  9
$TILEMODE
 70
     1
  9
$MAXACTVP
 70
    64
  9
$PINSBASE
 10
0.0
 20
0.0
 30
0.0
  9
$PLIMCHECK
 70
     0
  9
$PEXTMIN
 10
0.0000000075458644
 20
0.0000000082145277
 30
0.0
  9
$PEXTMAX
 10
8.454000007545857
 20
10.67400000821453
 30
0.0
  9
$PLIMMIN
 10
-0.0064249311656545
 20
-0.1631194818509899
  9
$PLIMMAX
 10
8.493574828538456
 20
10.83688027785312
  9
$UNITMODE
 70
     0
  9
$VISRETAIN
 70
     1
  9
$PLINEGEN
 70
     0
  9
$PSLTSCALE
 70
     1
  9
$TREEDEPTH
 70
  3020
  9
$CMLSTYLE
  2
Standard
  9
$CMLJUST
 70
     0
  9
$CMLSCALE
 40
1.0
  9
$PROXYGRAPHICS
 70
     1
  9
$MEASUREMENT
 70
     0
  9
$CELWEIGHT
370
    -1
  9
$ENDCAPS
280
     0
  9
$JOINSTYLE
280
     0
  9
$LWDISPLAY
290
     0
  9
$INSUNITS
 70
     1
  9
$HYPERLINKBASE
  1

  9
$STYLESHEET
  1

  9
$XEDIT
290
     1
  9
$CEPSNTYPE
380
     0
  9
$PSTYLEMODE
290
     1
  9
$FINGERPRINTGUID
  2
{4613C6C0-47BB-4848-9259-4D396A1099BF}
  9
$VERSIONGUID
  2
{B7D945A7-926F-4717-BB7B-B2BD75088C48}
  9
$EXTNAMES
290
     1
  9
$PSVPSCALE
 40
0.0
  9
$OLESTARTUP
290
     0
  0
ENDSEC
  0
SECTION
  2
CLASSES
  0
CLASS
  1
ACDBDICTIONARYWDFLT
  2
AcDbDictionaryWithDefault
  3
ObjectDBX Classes
 90
        0
280
     0
281
     0
  0
CLASS
  1
ACDBPLACEHOLDER
  2
AcDbPlaceHolder
  3
ObjectDBX Classes
 90
        0
280
     0
281
     0
  0
CLASS
  1
LAYOUT
  2
AcDbLayout
  3
ObjectDBX Classes
 90
        0
280
     0
281
     0
  0
CLASS
  1
DICTIONARYVAR
  2
AcDbDictionaryVar
  3
ObjectDBX Classes
 90
        0
280
     0
281
     0
  0
CLASS
  1
TABLESTYLE
  2
AcDbTableStyle
  3
ObjectDBX Classes
 90
     4095
280
     0
281
     0
  0
CLASS
  1
SORTENTSTABLE
  2
AcDbSortentsTable
  3
ObjectDBX Classes
 90
        0
280
     0
281
     0
  0
CLASS
  1
DIMASSOC
  2
AcDbDimAssoc
  3
"AcDbDimAssoc|Product Desc:     AcDim ARX App For Dimension|Company:          Autodesk, Inc.|WEB Address:      www.autodesk.com"
 90
        0
280
     0
281
     0
  0
CLASS
  1
MATERIAL
  2
AcDbMaterial
  3
ObjectDBX Classes
 90
     1153
280
     0
281
     0
  0
CLASS
  1
VISUALSTYLE
  2
AcDbVisualStyle
  3
ObjectDBX Classes
 90
     4095
280
     0
281
     0
  0
CLASS
  1
SCALE
  2
AcDbScale
  3
ObjectDBX Classes
 90
     1153
280
     0
281
     0
  0
CLASS
  1
MLEADERSTYLE
  2
AcDbMLeaderStyle
  3
ACDB_MLEADERSTYLE_CLASS
 90
    36863
280
     0
281
     0
  0
CLASS
  1
CELLSTYLEMAP
  2
AcDbCellStyleMap
  3
ObjectDBX Classes
 90
     1152
280
     0
281
     0
  0
ENDSEC
  0
SECTION
  2
TABLES
  0
TABLE
  2
VPORT
  5
2E
102
{ACAD_XDICTIONARY
360
33
102
}
330
0
100
AcDbSymbolTable
 70
     1
  0
VPORT
  5
2F
330
2E
100
AcDbSymbolTableRecord
100
AcDbViewportTableRecord
  2
*Active
 70
     0
 10
0.0
 20
0.0
 11
1.0
 21
1.0
 12
-1.023264543708982
 22
56.4274136080639
 13
0.0
 23
0.0
 14
0.5
 24
0.5
 15
0.5
 25
0.5
 16
0.0
 26
0.0
 36
1.0
 17
0.0
 27
0.0
 37
0.0
 40
30.28998099115622
 41
2.183284457478005
 42
50.0
 43
0.0
 44
0.0
 50
0.0
 51
0.0
 71
     0
 72
  5000
 73
     1
 74
     3
 75
     0
 76
     0
 77
     0
 78
     0
281
     0
 65
     1
110
0.0
120
0.0
130
0.0
111
1.0
121
0.0
131
0.0
112
0.0
122
1.0
132
0.0
 79
     0
146
0.0
1001
ACAD_NAV_VCDISPLAY
1070
     3
  0
ENDTAB
  0
TABLE
  2
LTYPE
  5
29
330
0
100
AcDbSymbolTable
 70
     3
  0
LTYPE
  5
2A
330
29
100
AcDbSymbolTableRecord
100
AcDbLinetypeTableRecord
  2
ByBlock
 70
     0
  3

 72
    65
 73
     0
 40
0.0
  0
LTYPE
  5
2B
330
29
100
AcDbSymbolTableRecord
100
AcDbLinetypeTableRecord
  2
ByLayer
 70
     0
  3

 72
    65
 73
     0
 40
0.0
  0
LTYPE
  5
15
330
29
100
AcDbSymbolTableRecord
100
AcDbLinetypeTableRecord
  2
Continuous
 70
     0
  3
Solid line
 72
    65
 73
     0
 40
0.0
  0
LTYPE
  5
C6
330
29
100
AcDbSymbolTableRecord
100
AcDbLinetypeTableRecord
  2
CENTER
 70
     0
  3
____ _ ____ _ ____ _ ____ _ ____ _ ____ 
 72
    65
 73
     4
 40
2.0
 49
1.25
 74
     0
 49
-0.25
 74
     0
 49
0.25
 74
     0
 49
-0.25
 74
     0
  0
LTYPE
  5
143
330
29
100
AcDbSymbolTableRecord
100
AcDbLinetypeTableRecord
  2
HIDDEN2
 70
     0
  3
Hidden (.5x) _ _ _ _ _ _ _ _ _ _ _ _ _ _ _ _ _
 72
    65
 73
     2
 40
0.1875
 49
0.125
 74
     0
 49
-0.0625
 74
     0
  0
ENDTAB
  0
TABLE
  2
LAYER
  5
22
102
{ACAD_XDICTIONARY
360
23
102
}
330
0
100
AcDbSymbolTable
 70
     3
  0
LAYER
  5
6
102
{ACAD_XDICTIONARY
360
7
102
}
330
22
100
AcDbSymbolTableRecord
100
AcDbLayerTableRecord
  2
0
 70
     0
 62
     7
  6
Continuous
370
    18
390
9
  0
LAYER
  5
1A4
330
22
100
AcDbSymbolTableRecord
100
AcDbLayerTableRecord
  2
Defpoints
 70
     0
 62
     7
  6
Continuous
290
     0
370
    18
390
9
  0
LAYER
  5
7E
102
{ACAD_XDICTIONARY
360
7F
102
}
330
22
100
AcDbSymbolTableRecord
100
AcDbLayerTableRecord
  2
Screw
 70
     0
 62
     7
  6
Continuous
370
    18
390
9
  0
ENDTAB
  0
TABLE
  2
STYLE
  5
25
330
0
100
AcDbSymbolTable
 70
     1
  0
STYLE
  5
26
330
25
100
AcDbSymbolTableRecord
100
AcDbTextStyleTableRecord
  2
Standard
 70
     0
 40
0.0
 41
0.55
 50
5.0
 71
     0
 42
0.25
  3
lc______.ttf
  4

1001
ACAD
1000
Letter Gothic
1071
       50
  0
ENDTAB
  0
TABLE
  2
VIEW
  5
2C
330
0
100
AcDbSymbolTable
 70
     0
  0
ENDTAB
  0
TABLE
  2
UCS
  5
2D
330
0
100
AcDbSymbolTable
 70
     0
  0
ENDTAB
  0
TABLE
  2
APPID
  5
34
330
0
100
AcDbSymbolTable
 70
     5
  0
APPID
  5
27
330
34
100
AcDbSymbolTableRecord
100
AcDbRegAppTableRecord
  2
ACAD
 70
     0
  0
APPID
  5
1B
330
34
100
AcDbSymbolTableRecord
100
AcDbRegAppTableRecord
  2
ACAD_PSEXT
 70
     0
  0
APPID
  5
32
330
34
100
AcDbSymbolTableRecord
100
AcDbRegAppTableRecord
  2
ACAD_NAV_VCDISPLAY
 70
     0
  0
APPID
  5
11F
330
34
100
AcDbSymbolTableRecord
100
AcDbRegAppTableRecord
  2
GradientColor1ACI
 70
     0
  0
APPID
  5
120
330
34
100
AcDbSymbolTableRecord
100
AcDbRegAppTableRecord
  2
GradientColor2ACI
 70
     0
  0
ENDTAB
  0
TABLE
  2
DIMSTYLE
  5
35
330
0
100
AcDbSymbolTable
 70
     2
100
AcDbDimStyleTable
 71
     2
340
36
340
3B
  0
DIMSTYLE
105
3B
330
35
100
AcDbSymbolTableRecord
100
AcDbDimStyleTableRecord
  2
Standard
 70
     0
  3
"
 40
0.0
 41
0.095
 42
0.04
 44
0.04
140
0.125
141
0.0
147
0.04
179
     1
271
     6
272
     6
276
     2
277
     5
340
26
  0
DIMSTYLE
105
36
102
{ACAD_REACTORS
330
197
330
1A8
330
1B9
330
1CA
330
1DA
330
1E8
330
1F7
330
208
330
219
330
22A
330
23A
330
24B
330
25B
330
26A
330
279
330
287
330
298
330
2A7
330
2B6
330
2C4
330
2D5
330
2E5
330
2F7
330
306
330
315
330
324
102
}
330
35
100
AcDbSymbolTableRecord
100
AcDbDimStyleTableRecord
  2
Knife
 70
     0
  3
\X
  4
mm
 40
0.0
 41
0.156
 42
0.04
 44
0.03
140
0.3125
141
0.0
147
0.04
170
     1
171
     0
179
     1
271
     5
272
     5
274
     0
276
     2
277
     4
340
26
342
37
  0
ENDTAB
  0
TABLE
  2
BLOCK_RECORD
  5
1
330
0
100
AcDbSymbolTable
 70
    29
  0
BLOCK_RECORD
  5
2
102
{ACAD_XDICTIONARY
360
3
102
}
330
1
100
AcDbSymbolTableRecord
100
AcDbBlockTableRecord
  2
*Model_Space
340
17
  0
BLOCK_RECORD
  5
1C
330
1
100
AcDbSymbolTableRecord
100
AcDbBlockTableRecord
  2
*Paper_Space
340
1F
  0
BLOCK_RECORD
  5
37
330
1
100
AcDbSymbolTableRecord
100
AcDbBlockTableRecord
  2
_ArchTick
340
0
102
{BLKREFS
331
1A0
331
1A1
331
1B2
331
1B3
331
1C2
331
1C3
331
1D3
331
1D4
331
1E1
331
1E2
331
1F0
331
1F1
331
200
331
201
331
211
331
212
331
222
331
223
331
233
331
234
331
243
331
244
331
254
331
255
331
262
331
263
331
271
331
272
331
280
331
281
331
290
331
291
331
29F
331
2A0
331
2AE
331
2AF
331
2BD
331
2BE
331
2CD
331
2CE
331
2DE
331
2DF
331
2EE
331
2EF
331
2FE
331
2FF
331
30D
331
30E
331
31C
331
31D
331
32B
331
32C
102
}
  0
BLOCK_RECORD
  5
7B
330
1
100
AcDbSymbolTableRecord
100
AcDbBlockTableRecord
  2
8 x .75 FH
340
0
310
2800000020000000200000000100080000000000000400000000000000000000000000000000000000000000000080000080000000808000800000008000800080800000C0C0C000C0DCC000F0CAA6000020400000206000002080000020A0000020C0000020E00000400000004020000040400000406000004080000040A0
310
000040C0000040E00000600000006020000060400000606000006080000060A0000060C0000060E00000800000008020000080400000806000008080000080A0000080C0000080E00000A0000000A0200000A0400000A0600000A0800000A0A00000A0C00000A0E00000C0000000C0200000C0400000C0600000C0800000C0
310
A00000C0C00000C0E00000E0000000E0200000E0400000E0600000E0800000E0A00000E0C00000E0E00040000000400020004000400040006000400080004000A0004000C0004000E00040200000402020004020400040206000402080004020A0004020C0004020E000404000004040200040404000404060004040800040
310
40A0004040C0004040E00040600000406020004060400040606000406080004060A0004060C0004060E00040800000408020004080400040806000408080004080A0004080C0004080E00040A0000040A0200040A0400040A0600040A0800040A0A00040A0C00040A0E00040C0000040C0200040C0400040C0600040C08000
310
40C0A00040C0C00040C0E00040E0000040E0200040E0400040E0600040E0800040E0A00040E0C00040E0E00080000000800020008000400080006000800080008000A0008000C0008000E00080200000802020008020400080206000802080008020A0008020C0008020E00080400000804020008040400080406000804080
310
008040A0008040C0008040E00080600000806020008060400080606000806080008060A0008060C0008060E00080800000808020008080400080806000808080008080A0008080C0008080E00080A0000080A0200080A0400080A0600080A0800080A0A00080A0C00080A0E00080C0000080C0200080C0400080C0600080C0
310
800080C0A00080C0C00080C0E00080E0000080E0200080E0400080E0600080E0800080E0A00080E0C00080E0E000C0000000C0002000C0004000C0006000C0008000C000A000C000C000C000E000C0200000C0202000C0204000C0206000C0208000C020A000C020C000C020E000C0400000C0402000C0404000C0406000C0
310
408000C040A000C040C000C040E000C0600000C0602000C0604000C0606000C0608000C060A000C060C000C060E000C0800000C0802000C0804000C0806000C0808000C080A000C080C000C080E000C0A00000C0A02000C0A04000C0A06000C0A08000C0A0A000C0A0C000C0A0E000C0C00000C0C02000C0C04000C0C06000
310
C0C08000C0C0A000F0FBFF00A4A0A000808080000000FF0000FF000000FFFF00FF000000FF00FF00FFFF0000FFFFFF0007070707070707070707070707070707070707070707070707070707070707070707070707070707070707070707070700070707070707070707070707070707070707070707070707070707070707
310
07000707070707070707070707070707070707070707070707070707070707070700070707070707070707070707070707070707070707070707070707070707070007070707070707070707070707070707070707070707070707070707070000000707070707070707070707070707070707070707070707070707070707
310
07000000070707070707070707070707070707070707070707070707070707000007000007070707070707070707070707070707070707070707070707070707000000000007070707070707070707070707070707070707070707070707070700070000000707070707070707070707070707070707070707070707070707
310
00000000000707070707070707070707070707070707070707070707070707070700070000000707070707070707070707070707070707070707070707070707000000000007070707070707070707070707070707070707070707070707070707000700000007070707070707070707070707070707070707070707070707
310
07000000000007070707070707070707070707070707070707070707070707070707000700000007070707070707070707070707070707070707070707070707070000000000070707070707070707070707070707070707070707070707070707070007000000070707070707070707070707070707070707070707070707
310
07070000000000070707070707070707070707070707070707070707070707070707070007000000070707070707070707070707070707070707070707070707070707000700000707070707070707070707070707070707070707070707070707070000000000070707070707070707070707070707070707070707070707
310
07070707000700000007070707070707070707070707070707070707070707070707070700000000070707070707070707070707070707070707070707070707070707000707000700070707070707070707070707070707070707070707070707070007070700070700070707070707070707070707070707070707070707
310
07070007070707000707070007070707070707070707070707070707070707070700000000000000000000000007070707070707070707070707070707070707070000000000000000000000000707070707070707070707070707070707070707070707070707000707070707070707070707070707070707070707070707
310
0707070707070707000707070707070707070707070707070707070707070707070707070707070707070707070707070707070707070707
102
{BLKREFS
331
7A
331
14E
331
170
102
}
  0
BLOCK_RECORD
  5
C9
330
1
100
AcDbSymbolTableRecord
100
AcDbBlockTableRecord
  2
8 X .625 PH
340
0
310
2800000020000000200000000100080000000000000400000000000000000000000000000000000000000000000080000080000000808000800000008000800080800000C0C0C000C0DCC000F0CAA6000020400000206000002080000020A0000020C0000020E00000400000004020000040400000406000004080000040A0
310
000040C0000040E00000600000006020000060400000606000006080000060A0000060C0000060E00000800000008020000080400000806000008080000080A0000080C0000080E00000A0000000A0200000A0400000A0600000A0800000A0A00000A0C00000A0E00000C0000000C0200000C0400000C0600000C0800000C0
310
A00000C0C00000C0E00000E0000000E0200000E0400000E0600000E0800000E0A00000E0C00000E0E00040000000400020004000400040006000400080004000A0004000C0004000E00040200000402020004020400040206000402080004020A0004020C0004020E000404000004040200040404000404060004040800040
310
40A0004040C0004040E00040600000406020004060400040606000406080004060A0004060C0004060E00040800000408020004080400040806000408080004080A0004080C0004080E00040A0000040A0200040A0400040A0600040A0800040A0A00040A0C00040A0E00040C0000040C0200040C0400040C0600040C08000
310
40C0A00040C0C00040C0E00040E0000040E0200040E0400040E0600040E0800040E0A00040E0C00040E0E00080000000800020008000400080006000800080008000A0008000C0008000E00080200000802020008020400080206000802080008020A0008020C0008020E00080400000804020008040400080406000804080
310
008040A0008040C0008040E00080600000806020008060400080606000806080008060A0008060C0008060E00080800000808020008080400080806000808080008080A0008080C0008080E00080A0000080A0200080A0400080A0600080A0800080A0A00080A0C00080A0E00080C0000080C0200080C0400080C0600080C0
310
800080C0A00080C0C00080C0E00080E0000080E0200080E0400080E0600080E0800080E0A00080E0C00080E0E000C0000000C0002000C0004000C0006000C0008000C000A000C000C000C000E000C0200000C0202000C0204000C0206000C0208000C020A000C020C000C020E000C0400000C0402000C0404000C0406000C0
310
408000C040A000C040C000C040E000C0600000C0602000C0604000C0606000C0608000C060A000C060C000C060E000C0800000C0802000C0804000C0806000C0808000C080A000C080C000C080E000C0A00000C0A02000C0A04000C0A06000C0A08000C0A0A000C0A0C000C0A0E000C0C00000C0C02000C0C04000C0C06000
310
C0C08000C0C0A000F0FBFF00A4A0A000808080000000FF0000FF000000FFFF00FF000000FF00FF00FFFF0000FFFFFF0007070707070707070707070707070707070707070707070707070707070707070707070707070707070707070707070700070707070707070707070707070707070707070707070707070707070707
310
07000707070707070707070707070707070707070707070707070707070707070700070707070707070707070707070707070707070707070707070707070707070007070707070707070707070707070707070707070707070707070707070000000707070707070707070707070707070707070707070707070707070707
310
00000000070707070707070707070707070707070707070707070707070707070007000007070707070707070707070707070707070707070707070707070700000000000007070707070707070707070707070707070707070707070707070007070000000707070707070707070707070707070707070707070707070707
310
00000000070007070707070707070707070707070707070707070707070707070007070000000707070707070707070707070707070707070707070707070707000000000700070707070707070707070707070707070707070707070707070700070700000007070707070707070707070707070707070707070707070707
310
07000000000700070707070707070707070707070707070707070707070707070700070700000007070707070707070707070707070707070707070707070707070007070007000707070707070707070707070707070707070707070707070707000000000700070707070707070707070707070707070707070707070707
310
07070007070000000707070707070707070707070707070707070707070707070707000000000700070707070707070707070707070707070707070707070707070700070700000007070707070707070707070707070707070707070707070707070000000007000707070707070707070707070707070707070707070707
310
07070700070700000007070707070707070707070707070707070707070707070707070000000007000707070707070707070707070707070707070707070707070000000000000000000007070707070707070707070707070707070707070700070707070700070707070007070707070707070707070707070707070707
310
07000000000000000000000000070707070707070707070707070707070707070707000007070700070700000707070707070707070707070707070707070707070707070000000000000707070707070707070707070707070707070707070707070707070707000707070707070707070707070707070707070707070707
310
0707070707070707000707070707070707070707070707070707070707070707070707070707070707070707070707070707070707070707
102
{BLKREFS
331
C8
331
14F
331
171
102
}
  0
BLOCK_RECORD
  5
19A
330
1
100
AcDbSymbolTableRecord
100
AcDbBlockTableRecord
  2
*D3
340
0
  0
BLOCK_RECORD
  5
1AB
330
1
100
AcDbSymbolTableRecord
100
AcDbBlockTableRecord
  2
*D4
340
0
  0
BLOCK_RECORD
  5
1BC
330
1
100
AcDbSymbolTableRecord
100
AcDbBlockTableRecord
  2
*D5
340
0
  0
BLOCK_RECORD
  5
1CD
330
1
100
AcDbSymbolTableRecord
100
AcDbBlockTableRecord
  2
*D6
340
0
  0
BLOCK_RECORD
  5
1DB
330
1
100
AcDbSymbolTableRecord
100
AcDbBlockTableRecord
  2
*D7
340
0
  0
BLOCK_RECORD
  5
1E9
330
1
100
AcDbSymbolTableRecord
100
AcDbBlockTableRecord
  2
*D8
340
0
  0
BLOCK_RECORD
  5
1FA
330
1
100
AcDbSymbolTableRecord
100
AcDbBlockTableRecord
  2
*D9
340
0
  0
BLOCK_RECORD
  5
20B
330
1
100
AcDbSymbolTableRecord
100
AcDbBlockTableRecord
  2
*D10
340
0
  0
BLOCK_RECORD
  5
21C
330
1
100
AcDbSymbolTableRecord
100
AcDbBlockTableRecord
  2
*D11
340
0
  0
BLOCK_RECORD
  5
22D
330
1
100
AcDbSymbolTableRecord
100
AcDbBlockTableRecord
  2
*D12
340
0
  0
BLOCK_RECORD
  5
23D
330
1
100
AcDbSymbolTableRecord
100
AcDbBlockTableRecord
  2
*D13
340
0
  0
BLOCK_RECORD
  5
24E
330
1
100
AcDbSymbolTableRecord
100
AcDbBlockTableRecord
  2
*D14
340
0
  0
BLOCK_RECORD
  5
25C
330
1
100
AcDbSymbolTableRecord
100
AcDbBlockTableRecord
  2
*D15
340
0
  0
BLOCK_RECORD
  5
26B
330
1
100
AcDbSymbolTableRecord
100
AcDbBlockTableRecord
  2
*D16
340
0
  0
BLOCK_RECORD
  5
27A
330
1
100
AcDbSymbolTableRecord
100
AcDbBlockTableRecord
  2
*D17
340
0
  0
BLOCK_RECORD
  5
28A
330
1
100
AcDbSymbolTableRecord
100
AcDbBlockTableRecord
  2
*D18
340
0
  0
BLOCK_RECORD
  5
299
330
1
100
AcDbSymbolTableRecord
100
AcDbBlockTableRecord
  2
*D19
340
0
  0
BLOCK_RECORD
  5
2A8
330
1
100
AcDbSymbolTableRecord
100
AcDbBlockTableRecord
  2
*D20
340
0
  0
BLOCK_RECORD
  5
2B7
330
1
100
AcDbSymbolTableRecord
100
AcDbBlockTableRecord
  2
*D21
340
0
  0
BLOCK_RECORD
  5
2C7
330
1
100
AcDbSymbolTableRecord
100
AcDbBlockTableRecord
  2
*D22
340
0
  0
BLOCK_RECORD
  5
2D8
330
1
100
AcDbSymbolTableRecord
100
AcDbBlockTableRecord
  2
*D23
340
0
  0
BLOCK_RECORD
  5
2E8
330
1
100
AcDbSymbolTableRecord
100
AcDbBlockTableRecord
  2
*D24
340
0
  0
BLOCK_RECORD
  5
2F8
330
1
100
AcDbSymbolTableRecord
100
AcDbBlockTableRecord
  2
*D25
340
0
  0
BLOCK_RECORD
  5
307
330
1
100
AcDbSymbolTableRecord
100
AcDbBlockTableRecord
  2
*D26
340
0
  0
BLOCK_RECORD
  5
316
330
1
100
AcDbSymbolTableRecord
100
AcDbBlockTableRecord
  2
*D27
340
0
  0
BLOCK_RECORD
  5
325
330
1
100
AcDbSymbolTableRecord
100
AcDbBlockTableRecord
  2
*D28
340
0
  0
ENDTAB
  0
ENDSEC
  0
SECTION
  2
BLOCKS
  0
BLOCK
  5
5
330
2
100
AcDbEntity
  8
0
100
AcDbBlockBegin
  2
*Model_Space
 70
     0
 10
0.0
 20
0.0
 30
0.0
  3
*Model_Space
  1

  0
ENDBLK
  5
16
330
2
100
AcDbEntity
  8
0
100
AcDbBlockEnd
  0
BLOCK
  5
1D
330
1C
100
AcDbEntity
 67
     1
  8
0
100
AcDbBlockBegin
  2
*Paper_Space
 70
     0
 10
0.0
 20
0.0
 30
0.0
  3
*Paper_Space
  1

  0
ENDBLK
  5
1E
330
1C
100
AcDbEntity
 67
     1
  8
0
100
AcDbBlockEnd
  0
BLOCK
  5
38
330
37
100
AcDbEntity
  8
0
100
AcDbBlockBegin
  2
_ArchTick
 70
     0
 10
0.0
 20
0.0
 30
0.0
  3
_ArchTick
  1

  0
LWPOLYLINE
  5
39
330
37
100
AcDbEntity
  8
0
  6
ByBlock
 62
     0
100
AcDbPolyline
 90
        2
 70
     0
 43
0.15
 10
-0.5
 20
-0.5
 10
0.5
 20
0.5
  0
ENDBLK
  5
3A
330
37
100
AcDbEntity
  8
0
100
AcDbBlockEnd
  0
BLOCK
  5
7C
330
7B
100
AcDbEntity
  8
0
 62
     7
370
     9
100
AcDbBlockBegin
  2
8 x .75 FH
 70
     0
 10
0.0
 20
0.0
 30
0.0
  3
8 x .75 FH
  1

  0
LINE
  5
7D
330
7B
100
AcDbEntity
  8
Screw
 62
     7
370
     9
100
AcDbLine
 10
0.0550146141445112
 20
-0.6503624430697528
 30
0.0
 11
-0.040994238129656
 21
-0.6842106249981726
 31
0.0
  0
LINE
  5
80
330
7B
100
AcDbEntity
  8
Screw
 62
     7
370
     9
100
AcDbLine
 10
0.082499999998845
 20
-0.5862344890166469
 30
0.0
 11
-0.0718750000007731
 21
-0.6184212499980504
 31
0.0
  0
LINE
  5
81
330
7B
100
AcDbEntity
  8
Screw
 62
     7
370
     9
100
AcDbLine
 10
0.0439236020391718
 20
-0.6439590442452073
 30
0.0
 11
0.0490410471671794
 21
-0.6316044388123601
 31
0.0
  0
LINE
  5
82
330
7B
100
AcDbEntity
  8
Screw
 62
     7
370
     9
100
AcDbLine
 10
0.029903226022725
 20
-0.6778072261735133
 30
0.0
 11
0.0229311243443817
 21
-0.6946393686034753
 31
0.0
  0
LINE
  5
83
330
7B
100
AcDbEntity
  8
Screw
 62
     7
370
     9
100
AcDbLine
 10
0.0578546239828484
 20
-0.6103265821309379
 30
0.0
 11
0.0490410471671794
 21
-0.6316044388123601
 31
0.0
  0
LINE
  5
84
330
7B
100
AcDbEntity
  8
Screw
 62
     7
370
     9
100
AcDbLine
 10
-0.0000000000006821
 20
-0.749999999998181
 30
0.0
 11
-0.0229311243459733
 21
-0.6946393686034753
 31
0.0
  0
LINE
  5
85
330
7B
100
AcDbEntity
  8
Screw
 62
     7
370
     9
100
AcDbLine
 10
-0.0718750000007731
 20
-0.6184212499980504
 30
0.0
 11
-0.0600000000014234
 21
-0.6115652155518774
 31
0.0
  0
LINE
  5
86
330
7B
100
AcDbEntity
  8
Screw
 62
     7
370
     9
100
AcDbLine
 10
-0.0718750000007731
 20
-0.6184212499981641
 30
0.0
 11
-0.0490410471686573
 21
-0.6316044388123601
 31
0.0
  0
LINE
  5
87
330
7B
100
AcDbEntity
  8
Screw
 62
     7
370
     9
100
AcDbLine
 10
-0.040994238129656
 20
-0.6842106249981726
 30
0.0
 11
-0.0299032260242029
 21
-0.6778072261735133
 31
0.0
  0
LINE
  5
88
330
7B
100
AcDbEntity
  8
Screw
 62
     7
370
     9
100
AcDbLine
 10
-0.040994238129656
 20
-0.6842106249981726
 30
0.0
 11
-0.0229311243459733
 21
-0.6946393686034753
 31
0.0
  0
LINE
  5
89
330
7B
100
AcDbEntity
  8
Screw
 62
     7
370
     9
100
AcDbLine
 10
-0.0299032260242029
 20
-0.6778072261735133
 30
0.0
 11
-0.0490410471686573
 21
-0.6316044388123601
 31
0.0
  0
LINE
  5
8A
330
7B
100
AcDbEntity
  8
Screw
 62
     7
370
     9
100
AcDbLine
 10
0.029903226022725
 20
-0.6778072261735133
 30
0.0
 11
0.0369515003608285
 21
-0.6607911866751693
 31
0.0
  0
LINE
  5
8B
330
7B
100
AcDbEntity
  8
Screw
 62
     7
370
     9
100
AcDbLine
 10
0.0578546239828484
 20
-0.6103265821309379
 30
0.0
 11
0.0632241464040817
 21
-0.5973634082783974
 31
0.0
  0
LINE
  5
8C
330
7B
100
AcDbEntity
  8
Screw
 62
     7
370
     9
100
AcDbLine
 10
0.0550146141445112
 20
-0.6503624430697528
 30
0.0
 11
0.0369515003608285
 21
-0.6607911866751693
 31
0.0
  0
LINE
  5
8D
330
7B
100
AcDbEntity
  8
Screw
 62
     7
370
     9
100
AcDbLine
 10
0.0550146141445112
 20
-0.6503624430697528
 30
0.0
 11
0.0439236020391718
 21
-0.6439590442452073
 31
0.0
  0
LINE
  5
8E
330
7B
100
AcDbEntity
  8
Screw
 62
     7
370
     9
100
AcDbLine
 10
0.0824999999986176
 20
-0.5862344890166469
 30
0.0
 11
0.063224146403968
 21
-0.5973634082782838
 31
0.0
  0
LINE
  5
8F
330
7B
100
AcDbEntity
  8
Screw
 62
     7
370
     9
100
AcDbLine
 10
0.0824999999986176
 20
-0.5862344890166469
 30
0.0
 11
0.0684796239821708
 21
-0.5781398211494207
 31
0.0
  0
LINE
  5
90
330
7B
100
AcDbEntity
  8
Screw
 62
     7
370
     9
100
AcDbLine
 10
-0.0000000000006821
 20
-0.749999999998181
 30
0.0
 11
0.0229311243443817
 21
-0.6946393686034753
 31
0.0
  0
LINE
  5
91
330
7B
100
AcDbEntity
  8
Screw
 62
     7
370
     9
100
AcDbLine
 10
0.0599999999988086
 20
-0.4018567450733599
 30
0.0
 11
0.0599999999988086
 21
-0.4416653579600052
 31
0.0
  0
LINE
  5
92
330
7B
100
AcDbEntity
  8
Screw
 62
     7
370
     9
100
AcDbLine
 10
0.0824999999987313
 20
-0.3888663640167351
 30
0.0
 11
0.0599999999988086
 21
-0.4018567450733599
 31
0.0
  0
LINE
  5
93
330
7B
100
AcDbEntity
  8
Screw
 62
     7
370
     9
100
AcDbLine
 10
0.0599999999988086
 20
-0.4676461200734821
 30
0.0
 11
0.0599999999988086
 21
-0.5074547329599
 31
0.0
  0
LINE
  5
94
330
7B
100
AcDbEntity
  8
Screw
 62
     7
370
     9
100
AcDbLine
 10
0.0824999999987313
 20
-0.5204451140167521
 30
0.0
 11
0.0599999999988086
 21
-0.5334354950734906
 31
0.0
  0
LINE
  5
95
330
7B
100
AcDbEntity
  8
Screw
 62
     7
370
     9
100
AcDbLine
 10
0.0824999999987313
 20
-0.5204451140167521
 30
0.0
 11
0.0599999999986949
 21
-0.5074547329599
 31
0.0
  0
LINE
  5
96
330
7B
100
AcDbEntity
  8
Screw
 62
     7
370
     9
100
AcDbLine
 10
0.0824999999987313
 20
-0.45465573901663
 30
0.0
 11
0.0599999999988086
 21
-0.4676461200734821
 31
0.0
  0
LINE
  5
97
330
7B
100
AcDbEntity
  8
Screw
 62
     7
370
     9
100
AcDbLine
 10
0.0824999999987313
 20
-0.45465573901663
 30
0.0
 11
0.0599999999988086
 21
-0.4416653579600052
 31
0.0
  0
LINE
  5
98
330
7B
100
AcDbEntity
  8
Screw
 62
     7
370
     9
100
AcDbLine
 10
0.0824999999987313
 20
-0.3888663640167351
 30
0.0
 11
-0.0825000000013461
 21
-0.4176219848775418
 31
0.0
  0
LINE
  5
99
330
7B
100
AcDbEntity
  8
Screw
 62
     7
370
     9
100
AcDbLine
 10
0.0824999999987313
 20
-0.5204451140167521
 30
0.0
 11
-0.0825000000013461
 21
-0.5492007348775588
 31
0.0
  0
LINE
  5
9A
330
7B
100
AcDbEntity
  8
Screw
 62
     7
370
     9
100
AcDbLine
 10
0.0824999999987313
 20
-0.45465573901663
 30
0.0
 11
-0.0825000000013461
 21
-0.4834113598775503
 31
0.0
  0
LINE
  5
9B
330
7B
100
AcDbEntity
  8
Screw
 62
     7
370
     9
100
AcDbLine
 10
0.0824999999987313
 20
-0.3888663640167351
 30
0.0
 11
0.0599999999988086
 21
-0.3758759829599967
 31
0.0
  0
LINE
  5
9C
330
7B
100
AcDbEntity
  8
Screw
 62
     7
370
     9
100
AcDbLine
 10
0.0824999999987313
 20
-0.5862344890167606
 30
0.0
 11
0.0599999999986949
 21
-0.5732441079599085
 31
0.0
  0
LINE
  5
9D
330
7B
100
AcDbEntity
  8
Screw
 62
     7
370
     9
100
AcDbLine
 10
0.0599999999988086
 20
-0.5334354950734906
 30
0.0
 11
0.0599999999988086
 21
-0.5732441079599085
 31
0.0
  0
LINE
  5
9E
330
7B
100
AcDbEntity
  8
Screw
 62
     7
370
     9
100
AcDbLine
 10
-0.0825000000012324
 20
-0.4834113598774366
 30
0.0
 11
-0.0600000000013097
 21
-0.4704209788208118
 31
0.0
  0
LINE
  5
9F
330
7B
100
AcDbEntity
  8
Screw
 62
     7
370
     9
100
AcDbLine
 10
-0.0825000000012324
 20
-0.483411359877664
 30
0.0
 11
-0.0600000000013097
 21
-0.4964017409342887
 31
0.0
  0
LINE
  5
A0
330
7B
100
AcDbEntity
  8
Screw
 62
     7
370
     9
100
AcDbLine
 10
-0.0825000000012324
 20
-0.5492007348775588
 30
0.0
 11
-0.0600000000013097
 21
-0.5362103538207066
 31
0.0
  0
LINE
  5
A1
330
7B
100
AcDbEntity
  8
Screw
 62
     7
370
     9
100
AcDbLine
 10
-0.0825000000012324
 20
-0.5492007348775588
 30
0.0
 11
-0.0600000000013097
 21
-0.5621911159342972
 31
0.0
  0
LINE
  5
A2
330
7B
100
AcDbEntity
  8
Screw
 62
     7
370
     9
100
AcDbLine
 10
-0.0825000000012324
 20
-0.4176219848775418
 30
0.0
 11
-0.0600000000013097
 21
-0.4306123659343939
 31
0.0
  0
LINE
  5
A3
330
7B
100
AcDbEntity
  8
Screw
 62
     7
370
     9
100
AcDbLine
 10
-0.0825000000012324
 20
-0.4176219848775418
 30
0.0
 11
-0.0600000000013097
 21
-0.4046316038208034
 31
0.0
  0
LINE
  5
A4
330
7B
100
AcDbEntity
  8
Screw
 62
     7
370
     9
100
AcDbLine
 10
-0.0600000000013097
 20
-0.5621911159342972
 30
0.0
 11
-0.0600000000013097
 21
-0.6115652155519911
 31
0.0
  0
LINE
  5
A5
330
7B
100
AcDbEntity
  8
Screw
 62
     7
370
     9
100
AcDbLine
 10
-0.0600000000013097
 20
-0.496401740934175
 30
0.0
 11
-0.0600000000013097
 21
-0.5362103538205929
 31
0.0
  0
LINE
  5
A6
330
7B
100
AcDbEntity
  8
Screw
 62
     7
370
     9
100
AcDbLine
 10
-0.0600000000013097
 20
-0.4306123659340529
 30
0.0
 11
-0.0600000000013097
 21
-0.4704209788206981
 31
0.0
  0
LINE
  5
A7
330
7B
100
AcDbEntity
  8
Screw
 62
     7
370
     9
100
AcDbLine
 10
0.0824999999987313
 20
-0.2572876140167182
 30
0.0
 11
0.0599999999988086
 21
-0.2442972329599797
 31
0.0
  0
LINE
  5
A8
330
7B
100
AcDbEntity
  8
Screw
 62
     7
370
     9
100
AcDbLine
 10
0.0824999999987313
 20
-0.323076989016613
 30
0.0
 11
-0.0825000000013461
 21
-0.3518326098775333
 31
0.0
  0
LINE
  5
A9
330
7B
100
AcDbEntity
  8
Screw
 62
     7
370
     9
100
AcDbLine
 10
0.0824999999987313
 20
-0.2572876140167182
 30
0.0
 11
-0.0825000000013461
 21
-0.2860432348775248
 31
0.0
  0
LINE
  5
AA
330
7B
100
AcDbEntity
  8
Screw
 62
     7
370
     9
100
AcDbLine
 10
0.0824999999987313
 20
-0.323076989016613
 30
0.0
 11
0.0599999999988086
 21
-0.3100866079599882
 31
0.0
  0
LINE
  5
AB
330
7B
100
AcDbEntity
  8
Screw
 62
     7
370
     9
100
AcDbLine
 10
0.0824999999987313
 20
-0.323076989016613
 30
0.0
 11
0.0599999999988086
 21
-0.3360673700734651
 31
0.0
  0
LINE
  5
AC
330
7B
100
AcDbEntity
  8
Screw
 62
     7
370
     9
100
AcDbLine
 10
0.0599999999988086
 20
-0.3360673700734651
 30
0.0
 11
0.0599999999988086
 21
-0.375875982959883
 31
0.0
  0
LINE
  5
AD
330
7B
100
AcDbEntity
  8
Screw
 62
     7
370
     9
100
AcDbLine
 10
0.0824999999987313
 20
-0.2572876140167182
 30
0.0
 11
0.0599999999988086
 21
-0.2702779950733429
 31
0.0
  0
LINE
  5
AE
330
7B
100
AcDbEntity
  8
Screw
 62
     7
370
     9
100
AcDbLine
 10
0.0599999999988086
 20
-0.2702779950733429
 30
0.0
 11
0.0599999999988086
 21
-0.3100866079599882
 31
0.0
  0
LINE
  5
AF
330
7B
100
AcDbEntity
  8
Screw
 62
     7
370
     9
100
AcDbLine
 10
-0.0600000000013097
 20
-0.2990336159340359
 30
0.0
 11
-0.0600000000013097
 21
-0.3388422288206812
 31
0.0
  0
LINE
  5
B0
330
7B
100
AcDbEntity
  8
Screw
 62
     7
370
     9
100
AcDbLine
 10
-0.0600000000013097
 20
-0.364822990934158
 30
0.0
 11
-0.0600000000013097
 21
-0.404631603820576
 31
0.0
  0
LINE
  5
B1
330
7B
100
AcDbEntity
  8
Screw
 62
     7
370
     9
100
AcDbLine
 10
-0.0825000000012324
 20
-0.2860432348775248
 30
0.0
 11
-0.0600000000013097
 21
-0.2730528538207864
 31
0.0
  0
LINE
  5
B2
330
7B
100
AcDbEntity
  8
Screw
 62
     7
370
     9
100
AcDbLine
 10
-0.0825000000012324
 20
-0.2860432348775248
 30
0.0
 11
-0.0600000000013097
 21
-0.2990336159343769
 31
0.0
  0
LINE
  5
B3
330
7B
100
AcDbEntity
  8
Screw
 62
     7
370
     9
100
AcDbLine
 10
-0.0825000000012324
 20
-0.351832609877647
 30
0.0
 11
-0.0600000000013097
 21
-0.3648229909342717
 31
0.0
  0
LINE
  5
B4
330
7B
100
AcDbEntity
  8
Screw
 62
     7
370
     9
100
AcDbLine
 10
-0.0825000000012324
 20
-0.3518326098774196
 30
0.0
 11
-0.0600000000013097
 21
-0.3388422288207948
 31
0.0
  0
LINE
  5
B5
330
7B
100
AcDbEntity
  8
Screw
 62
     7
370
     9
100
AcDbLine
 10
0.0599999999988086
 20
-0.2044886200734481
 30
0.0
 11
0.0599999999988086
 21
-0.244297232959866
 31
0.0
  0
LINE
  5
B6
330
7B
100
AcDbEntity
  8
Screw
 62
     7
370
     9
100
AcDbLine
 10
-0.0600000000013097
 20
-0.2332442409341411
 30
0.0
 11
-0.0600000000013097
 21
-0.273052853820559
 31
0.0
  0
LINE
  5
B7
330
7B
100
AcDbEntity
  8
Screw
 62
     7
370
     9
100
AcDbLine
 10
-0.0600000000013097
 20
-0.1430000000002565
 30
0.0
 11
-0.0600000000013097
 21
-0.2072634788206642
 31
0.0
  0
LINE
  5
B8
330
7B
100
AcDbEntity
  8
Screw
 62
     7
370
     9
100
AcDbLine
 10
-0.0825000000012324
 20
-0.22025385987763
 30
0.0
 11
-0.0600000000013097
 21
-0.2332442409342548
 31
0.0
  0
LINE
  5
B9
330
7B
100
AcDbEntity
  8
Screw
 62
     7
370
     9
100
AcDbLine
 10
-0.0825000000012324
 20
-0.2202538598774026
 30
0.0
 11
-0.0600000000013097
 21
-0.2072634788207779
 31
0.0
  0
LINE
  5
BA
330
7B
100
AcDbEntity
  8
Screw
 62
     7
370
     9
100
AcDbLine
 10
0.0824999999987313
 20
-0.191498239016596
 30
0.0
 11
-0.0825000000013461
 21
-0.2202538598775163
 31
0.0
  0
LINE
  5
BB
330
7B
100
AcDbEntity
  8
Screw
 62
     7
370
     9
100
AcDbLine
 10
0.0824999999987313
 20
-0.191498239016596
 30
0.0
 11
0.0599999999988086
 21
-0.1785078579599713
 31
0.0
  0
LINE
  5
BC
330
7B
100
AcDbEntity
  8
Screw
 62
     7
370
     9
100
AcDbLine
 10
0.0824999999987313
 20
-0.191498239016596
 30
0.0
 11
0.0599999999988086
 21
-0.2044886200734481
 31
0.0
  0
LINE
  5
BD
330
7B
100
AcDbEntity
  8
Screw
 62
     7
370
     9
100
AcDbLine
 10
0.0599999999989223
 20
-0.1430000000002565
 30
0.0
 11
0.0599999999988086
 21
-0.1785078579599713
 31
0.0
  0
LINE
  5
BE
330
7B
100
AcDbEntity
  8
Screw
 62
     7
370
     9
100
AcDbLine
 10
-0.1550000000002001
 20
0.0000000000001137
 30
0.0
 11
-0.1550000000020191
 21
-0.015999999999849
 31
0.0
  0
LINE
  5
BF
330
7B
100
AcDbEntity
  8
Screw
 62
     7
370
     9
100
AcDbLine
 10
0.1549999999986085
 20
0.0
 30
0.0
 11
0.1549999999986085
 21
-0.0159999999999627
 31
0.0
  0
LINE
  5
C0
330
7B
100
AcDbEntity
  8
Screw
 62
     7
370
     9
100
AcDbLine
 10
0.1549999999987222
 20
-0.0160000000006448
 30
0.0
 11
-0.155000000001337
 21
-0.0159999999999627
 31
0.0
  0
LINE
  5
C1
330
7B
100
AcDbEntity
  8
Screw
 62
     7
370
     9
100
AcDbLine
 10
0.1549999999987222
 20
0.0
 30
0.0
 11
-0.155000000001337
 21
0.0
 31
0.0
  0
LINE
  5
C2
330
7B
100
AcDbEntity
  8
Screw
 62
     7
370
     9
100
AcDbLine
 10
0.0599999999989223
 20
-0.1430000000000291
 30
0.0
 11
-0.0600000000013097
 21
-0.1430000000000291
 31
0.0
  0
LINE
  5
C3
330
7B
100
AcDbEntity
  8
Screw
 62
     7
370
     9
100
AcDbLine
 10
0.1549999999986085
 20
-0.0160000000006448
 30
0.0
 11
0.0599999999988086
 21
-0.1430000000001428
 31
0.0
  0
LINE
  5
C4
330
7B
100
AcDbEntity
  8
Screw
 62
     7
370
     9
100
AcDbLine
 10
-0.1550000000020191
 20
-0.0159999999999627
 30
0.0
 11
-0.0600000000013097
 21
-0.1430000000001428
 31
0.0
  0
LINE
  5
C5
330
7B
100
AcDbEntity
  8
Screw
  6
CENTER
 62
     7
370
     9
100
AcDbLine
 10
0.0
 20
0.0516137131638743
 30
0.0
 11
0.0
 21
-0.8012116686045374
 31
0.0
  0
ENDBLK
  5
C7
330
7B
100
AcDbEntity
  8
0
 62
     7
370
     9
100
AcDbBlockEnd
  0
BLOCK
  5
CA
330
C9
100
AcDbEntity
  8
0
 62
     5
100
AcDbBlockBegin
  2
8 X .625 PH
 70
     0
 10
0.0
 20
0.0
 30
0.0
  3
8 X .625 PH
  1

  0
LINE
  5
CB
330
C9
100
AcDbEntity
  8
Screw
  6
CENTER
 62
     7
370
     9
100
AcDbLine
 10
0.0
 20
0.1516137131640107
 30
0.0
 11
-0.0000000000001137
 21
-0.6762116686043101
 31
0.0
  0
LINE
  5
CC
330
C9
100
AcDbEntity
  8
Screw
 62
     7
370
     9
100
AcDbLine
 10
0.1549999999987222
 20
0.0400000000003047
 30
0.0
 11
0.1549999999986085
 21
0.0100000000001046
 31
0.0
  0
LINE
  5
CD
330
C9
100
AcDbEntity
  8
Screw
 62
     7
370
     9
100
AcDbLine
 10
-0.1550000000386262
 20
0.0400000000013279
 30
0.0
 11
-0.1550000000420368
 21
0.0100000000010141
 31
0.0
  0
LINE
  5
CE
330
C9
100
AcDbEntity
  8
Screw
 62
     7
370
     9
100
AcDbLine
 10
0.0599999999986949
 20
-0.0136992450730986
 30
0.0
 11
0.0599999999986949
 21
-0.0535078579597439
 31
0.0
  0
LINE
  5
CF
330
C9
100
AcDbEntity
  8
Screw
 62
     7
370
     9
100
AcDbLine
 10
0.0824999999986176
 20
-0.0007088640164739
 30
0.0
 11
0.0599999999986949
 21
-0.0136992450730986
 31
0.0
  0
LINE
  5
D0
330
C9
100
AcDbEntity
  8
Screw
 62
     7
370
     9
100
AcDbLine
 10
0.0824999999986176
 20
-0.0664982390163687
 30
0.0
 11
0.0599999999986949
 21
-0.0794886200732208
 31
0.0
  0
LINE
  5
D1
330
C9
100
AcDbEntity
  8
Screw
 62
     7
370
     9
100
AcDbLine
 10
0.0824999999986176
 20
-0.0664982390163687
 30
0.0
 11
0.0599999999986949
 21
-0.0535078579597439
 31
0.0
  0
LINE
  5
D2
330
C9
100
AcDbEntity
  8
Screw
 62
     7
370
     9
100
AcDbLine
 10
0.0824999999986176
 20
-0.0007088640164739
 30
0.0
 11
-0.0825000000014598
 21
-0.0294644848772805
 31
0.0
  0
LINE
  5
D3
330
C9
100
AcDbEntity
  8
Screw
 62
     7
370
     9
100
AcDbLine
 10
0.0824999999986176
 20
-0.0664982390163687
 30
0.0
 11
-0.0825000000014598
 21
-0.095253859877289
 31
0.0
  0
LINE
  5
D4
330
C9
100
AcDbEntity
  8
Screw
 62
     7
370
     9
100
AcDbLine
 10
0.0824999999986176
 20
-0.0007088640164739
 30
0.0
 11
0.0812722115064162
 21
0.0000000000001137
 31
0.0
  0
LINE
  5
D5
330
C9
100
AcDbEntity
  8
Screw
 62
     7
370
     9
100
AcDbLine
 10
-0.0825000000013461
 20
-0.0952538598771753
 30
0.0
 11
-0.0600000000014234
 21
-0.0822634788205505
 31
0.0
  0
LINE
  5
D6
330
C9
100
AcDbEntity
  8
Screw
 62
     7
370
     9
100
AcDbLine
 10
-0.0825000000013461
 20
-0.0952538598774027
 30
0.0
 11
-0.0600000000014234
 21
-0.1082442409340274
 31
0.0
  0
LINE
  5
D7
330
C9
100
AcDbEntity
  8
Screw
 62
     7
370
     9
100
AcDbLine
 10
-0.0825000000013461
 20
-0.0294644848772805
 30
0.0
 11
-0.0600000000014234
 21
-0.0424548659341326
 31
0.0
  0
LINE
  5
D8
330
C9
100
AcDbEntity
  8
Screw
 62
     7
370
     9
100
AcDbLine
 10
-0.0825000000013461
 20
-0.0294644848772805
 30
0.0
 11
-0.0600000000014234
 21
-0.0164741038205421
 31
0.0
  0
LINE
  5
D9
330
C9
100
AcDbEntity
  8
Screw
 62
     7
370
     9
100
AcDbLine
 10
-0.0600000000014234
 20
-0.0424548659337916
 30
0.0
 11
-0.0600000000014234
 21
-0.0822634788204369
 31
0.0
  0
LINE
  5
DA
330
C9
100
AcDbEntity
  8
Screw
 62
     7
370
     9
100
AcDbLine
 10
-0.0600000000015371
 20
0.0
 30
0.0
 11
-0.0600000000014234
 21
-0.0164741038203147
 31
0.0
  0
LINE
  5
DB
330
C9
100
AcDbEntity
  8
Screw
 62
     7
370
     9
100
AcDbLine
 10
-0.0600000000014234
 20
-0.1082442409339137
 30
0.0
 11
-0.0600000000014234
 21
-0.1480528538203316
 31
0.0
  0
LINE
  5
DC
330
C9
100
AcDbEntity
  8
Screw
 62
     7
370
     9
100
AcDbLine
 10
0.0599999999986949
 20
-0.0794886200732208
 30
0.0
 11
0.0599999999986949
 21
-0.1192972329596387
 31
0.0
  0
LINE
  5
DD
330
C9
100
AcDbEntity
  8
Screw
 62
     7
370
     9
100
AcDbLine
 10
-0.0825000000013461
 20
-0.2268326098771922
 30
0.0
 11
-0.0600000000014234
 21
-0.2138422288205675
 31
0.0
  0
LINE
  5
DE
330
C9
100
AcDbEntity
  8
Screw
 62
     7
370
     9
100
AcDbLine
 10
-0.0825000000013461
 20
-0.2268326098774196
 30
0.0
 11
-0.0600000000014234
 21
-0.2398229909340443
 31
0.0
  0
LINE
  5
DF
330
C9
100
AcDbEntity
  8
Screw
 62
     7
370
     9
100
AcDbLine
 10
-0.0825000000013461
 20
-0.1610432348772974
 30
0.0
 11
-0.0600000000014234
 21
-0.1740336159341496
 31
0.0
  0
LINE
  5
E0
330
C9
100
AcDbEntity
  8
Screw
 62
     7
370
     9
100
AcDbLine
 10
-0.0825000000013461
 20
-0.1610432348772974
 30
0.0
 11
-0.0600000000014234
 21
-0.148052853820559
 31
0.0
  0
LINE
  5
E1
330
C9
100
AcDbEntity
  8
Screw
 62
     7
370
     9
100
AcDbLine
 10
-0.0600000000014234
 20
-0.2398229909339307
 30
0.0
 11
-0.0600000000014234
 21
-0.2796316038203486
 31
0.0
  0
LINE
  5
E2
330
C9
100
AcDbEntity
  8
Screw
 62
     7
370
     9
100
AcDbLine
 10
-0.0600000000014234
 20
-0.1740336159338085
 30
0.0
 11
-0.0600000000014234
 21
-0.2138422288204538
 31
0.0
  0
LINE
  5
E3
330
C9
100
AcDbEntity
  8
Screw
 62
     7
370
     9
100
AcDbLine
 10
0.0599999999986949
 20
-0.1452779950731156
 30
0.0
 11
0.0599999999986949
 21
-0.1850866079597608
 31
0.0
  0
LINE
  5
E4
330
C9
100
AcDbEntity
  8
Screw
 62
     7
370
     9
100
AcDbLine
 10
0.0824999999986176
 20
-0.1322876140164908
 30
0.0
 11
0.0599999999986949
 21
-0.1452779950731156
 31
0.0
  0
LINE
  5
E5
330
C9
100
AcDbEntity
  8
Screw
 62
     7
370
     9
100
AcDbLine
 10
0.0599999999986949
 20
-0.2110673700732377
 30
0.0
 11
0.0599999999986949
 21
-0.2508759829596556
 31
0.0
  0
LINE
  5
E6
330
C9
100
AcDbEntity
  8
Screw
 62
     7
370
     9
100
AcDbLine
 10
0.0824999999986176
 20
-0.1980769890163856
 30
0.0
 11
0.0599999999986949
 21
-0.2110673700732377
 31
0.0
  0
LINE
  5
E7
330
C9
100
AcDbEntity
  8
Screw
 62
     7
370
     9
100
AcDbLine
 10
0.0824999999986176
 20
-0.1980769890163856
 30
0.0
 11
0.0599999999986949
 21
-0.1850866079597608
 31
0.0
  0
LINE
  5
E8
330
C9
100
AcDbEntity
  8
Screw
 62
     7
370
     9
100
AcDbLine
 10
0.0824999999986176
 20
-0.1322876140164908
 30
0.0
 11
-0.0825000000014598
 21
-0.1610432348772974
 31
0.0
  0
LINE
  5
E9
330
C9
100
AcDbEntity
  8
Screw
 62
     7
370
     9
100
AcDbLine
 10
0.0824999999986176
 20
-0.1980769890163856
 30
0.0
 11
-0.0825000000014598
 21
-0.2268326098773059
 31
0.0
  0
LINE
  5
EA
330
C9
100
AcDbEntity
  8
Screw
 62
     7
370
     9
100
AcDbLine
 10
0.0824999999986176
 20
-0.1322876140164908
 30
0.0
 11
0.0599999999986949
 21
-0.1192972329597524
 31
0.0
  0
LINE
  5
EB
330
C9
100
AcDbEntity
  8
Screw
 62
     7
370
     9
100
AcDbLine
 10
-0.0600000000014234
 20
-0.3056123659338255
 30
0.0
 11
-0.0600000000014234
 21
-0.3454209788204707
 31
0.0
  0
LINE
  5
EC
330
C9
100
AcDbEntity
  8
Screw
 62
     7
370
     9
100
AcDbLine
 10
-0.0600000000014234
 20
-0.3714017409339476
 30
0.0
 11
-0.0600000000014234
 21
-0.4112103538203656
 31
0.0
  0
LINE
  5
ED
330
C9
100
AcDbEntity
  8
Screw
 62
     7
370
     9
100
AcDbLine
 10
-0.0600000000014234
 20
-0.4371911159340698
 30
0.0
 11
-0.0600000000014234
 21
-0.4865652155517637
 31
0.0
  0
LINE
  5
EE
330
C9
100
AcDbEntity
  8
Screw
 62
     7
370
     9
100
AcDbLine
 10
-0.0825000000013461
 20
-0.2926219848773144
 30
0.0
 11
-0.0600000000014234
 21
-0.2796316038205759
 31
0.0
  0
LINE
  5
EF
330
C9
100
AcDbEntity
  8
Screw
 62
     7
370
     9
100
AcDbLine
 10
-0.0825000000013461
 20
-0.2926219848773144
 30
0.0
 11
-0.0600000000014234
 21
-0.3056123659341665
 31
0.0
  0
LINE
  5
F0
330
C9
100
AcDbEntity
  8
Screw
 62
     7
370
     9
100
AcDbLine
 10
-0.0825000000013461
 20
-0.4242007348773314
 30
0.0
 11
-0.0600000000014234
 21
-0.4371911159340698
 31
0.0
  0
LINE
  5
F1
330
C9
100
AcDbEntity
  8
Screw
 62
     7
370
     9
100
AcDbLine
 10
-0.0825000000013461
 20
-0.4242007348773314
 30
0.0
 11
-0.0600000000014234
 21
-0.4112103538204793
 31
0.0
  0
LINE
  5
F2
330
C9
100
AcDbEntity
  8
Screw
 62
     7
370
     9
100
AcDbLine
 10
-0.0825000000013461
 20
-0.3584113598774365
 30
0.0
 11
-0.0600000000014234
 21
-0.3714017409340613
 31
0.0
  0
LINE
  5
F3
330
C9
100
AcDbEntity
  8
Screw
 62
     7
370
     9
100
AcDbLine
 10
-0.0825000000013461
 20
-0.3584113598772092
 30
0.0
 11
-0.0600000000014234
 21
-0.3454209788205844
 31
0.0
  0
LINE
  5
F4
330
C9
100
AcDbEntity
  8
Screw
 62
     7
370
     9
100
AcDbLine
 10
0.0599999999986949
 20
-0.4084354950732632
 30
0.0
 11
0.0599999999986949
 21
-0.4482441079596811
 31
0.0
  0
LINE
  5
F5
330
C9
100
AcDbEntity
  8
Screw
 62
     7
370
     9
100
AcDbLine
 10
0.0824999999986176
 20
-0.4612344890165332
 30
0.0
 11
0.0599999999985812
 21
-0.4482441079596811
 31
0.0
  0
LINE
  5
F6
330
C9
100
AcDbEntity
  8
Screw
 62
     7
370
     9
100
AcDbLine
 10
0.0824999999986176
 20
-0.2638663640165078
 30
0.0
 11
0.0599999999986949
 21
-0.2508759829597693
 31
0.0
  0
LINE
  5
F7
330
C9
100
AcDbEntity
  8
Screw
 62
     7
370
     9
100
AcDbLine
 10
0.0824999999986176
 20
-0.3296557390164025
 30
0.0
 11
-0.0825000000014598
 21
-0.3584113598773229
 31
0.0
  0
LINE
  5
F8
330
C9
100
AcDbEntity
  8
Screw
 62
     7
370
     9
100
AcDbLine
 10
0.0824999999986176
 20
-0.3954451140165247
 30
0.0
 11
-0.0825000000014598
 21
-0.4242007348773314
 31
0.0
  0
LINE
  5
F9
330
C9
100
AcDbEntity
  8
Screw
 62
     7
370
     9
100
AcDbLine
 10
0.0824999999986176
 20
-0.2638663640165078
 30
0.0
 11
-0.0825000000014598
 21
-0.2926219848773144
 31
0.0
  0
LINE
  5
FA
330
C9
100
AcDbEntity
  8
Screw
 62
     7
370
     9
100
AcDbLine
 10
0.0824999999986176
 20
-0.3296557390164025
 30
0.0
 11
0.0599999999986949
 21
-0.3166653579597778
 31
0.0
  0
LINE
  5
FB
330
C9
100
AcDbEntity
  8
Screw
 62
     7
370
     9
100
AcDbLine
 10
0.0824999999986176
 20
-0.3296557390164025
 30
0.0
 11
0.0599999999986949
 21
-0.3426461200732547
 31
0.0
  0
LINE
  5
FC
330
C9
100
AcDbEntity
  8
Screw
 62
     7
370
     9
100
AcDbLine
 10
0.0824999999986176
 20
-0.3954451140165247
 30
0.0
 11
0.0599999999985812
 21
-0.3824547329596726
 31
0.0
  0
LINE
  5
FD
330
C9
100
AcDbEntity
  8
Screw
 62
     7
370
     9
100
AcDbLine
 10
0.0824999999986176
 20
-0.3954451140165247
 30
0.0
 11
0.0599999999986949
 21
-0.4084354950732632
 31
0.0
  0
LINE
  5
FE
330
C9
100
AcDbEntity
  8
Screw
 62
     7
370
     9
100
AcDbLine
 10
0.0599999999986949
 20
-0.3426461200732547
 30
0.0
 11
0.0599999999986949
 21
-0.3824547329596726
 31
0.0
  0
LINE
  5
FF
330
C9
100
AcDbEntity
  8
Screw
 62
     7
370
     9
100
AcDbLine
 10
0.0824999999986176
 20
-0.2638663640165078
 30
0.0
 11
0.0599999999986949
 21
-0.2768567450731325
 31
0.0
  0
LINE
  5
100
330
C9
100
AcDbEntity
  8
Screw
 62
     7
370
     9
100
AcDbLine
 10
0.0599999999986949
 20
-0.2768567450731325
 30
0.0
 11
0.0599999999986949
 21
-0.3166653579597778
 31
0.0
  0
LINE
  5
101
330
C9
100
AcDbEntity
  8
Screw
 62
     7
370
     9
100
AcDbLine
 10
-0.0000000000007958
 20
-0.6249999999979537
 30
0.0
 11
0.022931124344268
 21
-0.569639368603248
 31
0.0
  0
LINE
  5
102
330
C9
100
AcDbEntity
  8
Screw
 62
     7
370
     9
100
AcDbLine
 10
0.0824999999985039
 20
-0.4612344890164195
 30
0.0
 11
0.0684796239820571
 21
-0.4531398211491933
 31
0.0
  0
LINE
  5
103
330
C9
100
AcDbEntity
  8
Screw
 62
     7
370
     9
100
AcDbLine
 10
0.0824999999985039
 20
-0.4612344890164195
 30
0.0
 11
0.0632241464038543
 21
-0.4723634082780564
 31
0.0
  0
LINE
  5
104
330
C9
100
AcDbEntity
  8
Screw
 62
     7
370
     9
100
AcDbLine
 10
0.0550146141443975
 20
-0.5253624430695254
 30
0.0
 11
0.0439236020390581
 21
-0.5189590442449799
 31
0.0
  0
LINE
  5
105
330
C9
100
AcDbEntity
  8
Screw
 62
     7
370
     9
100
AcDbLine
 10
0.0550146141443975
 20
-0.5253624430695254
 30
0.0
 11
0.0369515003607148
 21
-0.5357911866749419
 31
0.0
  0
LINE
  5
106
330
C9
100
AcDbEntity
  8
Screw
 62
     7
370
     9
100
AcDbLine
 10
0.0578546239827347
 20
-0.4853265821307105
 30
0.0
 11
0.063224146403968
 21
-0.4723634082781701
 31
0.0
  0
LINE
  5
107
330
C9
100
AcDbEntity
  8
Screw
 62
     7
370
     9
100
AcDbLine
 10
0.0299032260226113
 20
-0.552807226173286
 30
0.0
 11
0.0369515003607148
 21
-0.5357911866749419
 31
0.0
  0
LINE
  5
108
330
C9
100
AcDbEntity
  8
Screw
 62
     7
370
     9
100
AcDbLine
 10
-0.0299032260243166
 20
-0.552807226173286
 30
0.0
 11
-0.049041047168771
 21
-0.5066044388121327
 31
0.0
  0
LINE
  5
109
330
C9
100
AcDbEntity
  8
Screw
 62
     7
370
     9
100
AcDbLine
 10
-0.0409942381297697
 20
-0.5592106249979452
 30
0.0
 11
-0.022931124346087
 21
-0.569639368603248
 31
0.0
  0
LINE
  5
10A
330
C9
100
AcDbEntity
  8
Screw
 62
     7
370
     9
100
AcDbLine
 10
-0.0409942381297697
 20
-0.5592106249979452
 30
0.0
 11
-0.0299032260243166
 21
-0.552807226173286
 31
0.0
  0
LINE
  5
10B
330
C9
100
AcDbEntity
  8
Screw
 62
     7
370
     9
100
AcDbLine
 10
-0.0718750000008868
 20
-0.4934212499979367
 30
0.0
 11
-0.049041047168771
 21
-0.5066044388121327
 31
0.0
  0
LINE
  5
10C
330
C9
100
AcDbEntity
  8
Screw
 62
     7
370
     9
100
AcDbLine
 10
-0.0718750000008868
 20
-0.493421249997823
 30
0.0
 11
-0.0600000000015371
 21
-0.48656521555165
 31
0.0
  0
LINE
  5
10D
330
C9
100
AcDbEntity
  8
Screw
 62
     7
370
     9
100
AcDbLine
 10
-0.0000000000007958
 20
-0.6249999999979537
 30
0.0
 11
-0.022931124346087
 21
-0.569639368603248
 31
0.0
  0
LINE
  5
10E
330
C9
100
AcDbEntity
  8
Screw
 62
     7
370
     9
100
AcDbLine
 10
0.0578546239827347
 20
-0.4853265821307105
 30
0.0
 11
0.0490410471670657
 21
-0.5066044388121327
 31
0.0
  0
LINE
  5
10F
330
C9
100
AcDbEntity
  8
Screw
 62
     7
370
     9
100
AcDbLine
 10
0.0299032260226113
 20
-0.552807226173286
 30
0.0
 11
0.022931124344268
 21
-0.569639368603248
 31
0.0
  0
LINE
  5
110
330
C9
100
AcDbEntity
  8
Screw
 62
     7
370
     9
100
AcDbLine
 10
0.0439236020390581
 20
-0.5189590442449799
 30
0.0
 11
0.0490410471670657
 21
-0.5066044388121327
 31
0.0
  0
LINE
  5
111
330
C9
100
AcDbEntity
  8
Screw
 62
     7
370
     9
100
AcDbLine
 10
0.0824999999987313
 20
-0.4612344890164195
 30
0.0
 11
-0.0718750000008868
 21
-0.493421249997823
 31
0.0
  0
LINE
  5
112
330
C9
100
AcDbEntity
  8
Screw
 62
     7
370
     9
100
AcDbLine
 10
0.0550146141443975
 20
-0.5253624430695254
 30
0.0
 11
-0.0409942381297697
 21
-0.5592106249979452
 31
0.0
  0
LINE
  5
113
330
C9
100
AcDbEntity
  8
Screw
 62
     7
370
     9
100
AcDbLine
 10
-0.1450000000420459
 20
-0.0000000000001137
 30
0.0
 11
0.1449999999986176
 21
0.0000000000001137
 31
0.0
  0
LINE
  5
114
330
C9
100
AcDbEntity
  8
Screw
 62
     7
370
     9
100
AcDbLine
 10
-0.1450000000385216
 20
0.0500000000004093
 30
0.0
 11
0.1449999999986176
 21
0.050000000000523
 31
0.0
  0
ARC
  5
115
330
C9
100
AcDbEntity
  8
Screw
 62
     7
370
     9
100
AcDbCircle
 10
0.1449999999986176
 20
0.0100000000001046
 30
0.0
 40
0.01
100
AcDbArc
 50
270.0
 51
0.0
  0
ARC
  5
116
330
C9
100
AcDbEntity
  8
Screw
 62
     7
370
     9
100
AcDbCircle
 10
-0.1450000000420459
 20
0.0099999999998772
 30
0.0
 40
0.01
100
AcDbArc
 50
179.9999999934667
 51
270.0
  0
LINE
  5
117
330
C9
100
AcDbEntity
  8
Screw
 62
     7
370
     9
100
AcDbLine
 10
-0.0570000000392383
 20
0.1000000000004775
 30
0.0
 11
0.0569999999995616
 21
0.1000000000003638
 31
0.0
  0
ARC
  5
118
330
C9
100
AcDbEntity
  8
Screw
 62
     7
370
     9
100
AcDbCircle
 10
0.1449999999986176
 20
0.0400000000003047
 30
0.0
 40
0.01
100
AcDbArc
 50
0.0
 51
90.0
  0
ARC
  5
119
330
C9
100
AcDbEntity
  8
Screw
 62
     7
370
     9
100
AcDbCircle
 10
-0.1450000000385216
 20
0.040000000000191
 30
0.0
 40
0.01
100
AcDbArc
 50
90.0
 51
179.9999999934862
  0
ARC
  5
11A
330
C9
100
AcDbEntity
  8
Screw
 62
     7
370
     9
100
AcDbCircle
 10
-0.0000000000198952
 20
-0.1142505253642412
 30
0.0
 40
0.2217031520327291
100
AcDbArc
 50
46.77058113432305
 51
75.10191228261263
  0
ARC
  5
11B
330
C9
100
AcDbEntity
  8
Screw
 62
     7
370
     9
100
AcDbCircle
 10
-0.0000000000198952
 20
-0.1142505253642412
 30
0.0
 40
0.2217031520327291
100
AcDbArc
 50
104.8980877173874
 51
133.2294188657414
  0
ENDBLK
  5
11C
330
C9
100
AcDbEntity
  8
0
 62
     5
100
AcDbBlockEnd
  0
BLOCK
  5
19B
330
19A
100
AcDbEntity
  8
0
100
AcDbBlockBegin
  2
*D3
 70
     1
 10
0.0
 20
0.0
 30
0.0
  3
*D3
  1

  0
LINE
  5
19C
330
19A
100
AcDbEntity
  8
0
 62
     0
370
    -2
100
AcDbLine
 10
-1.919916922777332
 20
68.70960560890704
 30
0.0
 11
-1.919916922777332
 21
70.00255286770237
 31
0.0
  0
LINE
  5
19D
330
19A
100
AcDbEntity
  8
0
 62
     0
370
    -2
100
AcDbLine
 10
-6.420416922777304
 20
69.57160560890706
 30
0.0
 11
-6.420416922777304
 21
70.00255286770237
 31
0.0
  0
LINE
  5
19E
330
19A
100
AcDbEntity
  8
0
 62
     0
370
    -2
100
AcDbLine
 10
-1.919916922777332
 20
69.97255286770237
 30
0.0
 11
-3.057355134731127
 21
69.97255286770237
 31
0.0
  0
LINE
  5
19F
330
19A
100
AcDbEntity
  8
0
 62
     0
370
    -2
100
AcDbLine
 10
-6.420416922777304
 20
69.97255286770237
 30
0.0
 11
-4.260460092809833
 21
69.97255286770237
 31
0.0
  0
INSERT
  5
1A0
330
19A
100
AcDbEntity
  8
0
 62
     0
370
    -2
100
AcDbBlockReference
  2
_ArchTick
 10
-1.919916922777332
 20
69.97255286770237
 30
0.0
 41
0.156
 42
0.156
 43
0.156
  0
INSERT
  5
1A1
330
19A
100
AcDbEntity
  8
0
 62
     0
370
    -2
100
AcDbBlockReference
  2
_ArchTick
 10
-6.420416922777304
 20
69.97255286770237
 30
0.0
 41
0.156
 42
0.156
 43
0.156
 50
180.0
  0
MTEXT
  5
1A2
330
19A
100
AcDbEntity
  8
0
 62
     0
100
AcDbMText
 10
-3.65890761377048
 20
69.97255286770237
 30
0.0
 40
0.3125
 41
0.0
 71
     5
 72
     1
  1
\A1;4 1/2"\P [114mm]
 73
     1
 44
1.0
1001
ACAD
1000
MTEXTBEGIN
1070
    73
1070
     1
1070
    44
1040
1.0
1070
    74
1070
     0
1000
MTEXTEND
  0
POINT
  5
1A3
330
19A
100
AcDbEntity
  8
Defpoints
 62
     0
100
AcDbPoint
 10
-1.919916922777332
 20
68.66960560890703
 30
0.0
  0
POINT
  5
1A5
330
19A
100
AcDbEntity
  8
Defpoints
 62
     0
100
AcDbPoint
 10
-6.420416922777304
 20
69.53160560890705
 30
0.0
  0
POINT
  5
1A6
330
19A
100
AcDbEntity
  8
Defpoints
 62
     0
100
AcDbPoint
 10
-6.420416922777304
 20
69.97255286770237
 30
0.0
  0
ENDBLK
  5
1A7
330
19A
100
AcDbEntity
  8
0
100
AcDbBlockEnd
  0
BLOCK
  5
1AC
330
1AB
100
AcDbEntity
  8
0
100
AcDbBlockBegin
  2
*D4
 70
     1
 10
0.0
 20
0.0
 30
0.0
  3
*D4
  1

  0
LINE
  5
1AD
330
1AB
100
AcDbEntity
  8
0
 62
     0
370
    -2
100
AcDbLine
 10
-5.428916922777397
 20
68.0316000764017
 30
0.0
 11
-5.67855446319612
 21
68.0316000764017
 31
0.0
  0
LINE
  5
1AE
330
1AB
100
AcDbEntity
  8
0
 62
     0
370
    -2
100
AcDbLine
 10
-5.428916922777397
 20
68.71960560890705
 30
0.0
 11
-5.67855446319612
 21
68.71960560890705
 31
0.0
  0
LINE
  5
1AF
330
1AB
100
AcDbEntity
  8
0
 62
     0
370
    -2
100
AcDbLine
 10
-5.64855446319612
 20
68.0316000764017
 30
0.0
 11
-5.64855446319612
 21
68.71960560890705
 31
0.0
  0
LINE
  5
1B0
330
1AB
100
AcDbEntity
  8
0
 62
     0
370
    -2
100
AcDbLine
 10
-5.64855446319612
 20
68.71960560890705
 30
0.0
 11
-5.64855446319612
 21
69.23392578857558
 31
0.0
  0
LINE
  5
1B1
330
1AB
100
AcDbEntity
  8
0
 62
     0
370
    -2
100
AcDbLine
 10
-5.64855446319612
 20
69.23392578857558
 30
0.0
 11
-5.49255446319612
 21
69.23392578857558
 31
0.0
  0
INSERT
  5
1B2
330
1AB
100
AcDbEntity
  8
0
 62
     0
370
    -2
100
AcDbBlockReference
  2
_ArchTick
 10
-5.64855446319612
 20
68.0316000764017
 30
0.0
 41
0.156
 42
0.156
 43
0.156
 50
270.0
  0
INSERT
  5
1B3
330
1AB
100
AcDbEntity
  8
0
 62
     0
370
    -2
100
AcDbBlockReference
  2
_ArchTick
 10
-5.64855446319612
 20
68.71960560890705
 30
0.0
 41
0.156
 42
0.156
 43
0.156
 50
90.0
  0
MTEXT
  5
1B4
330
1AB
100
AcDbEntity
  8
0
 62
     0
100
AcDbMText
 10
-4.962029010047833
 20
69.23392578857558
 30
0.0
 40
0.3125
 41
0.0
 71
     5
 72
     1
  1
\A1;11/16"\P [17mm]
 73
     1
 44
1.0
1001
ACAD
1000
MTEXTBEGIN
1070
    73
1070
     1
1070
    44
1040
1.0
1070
    74
1070
     0
1000
MTEXTEND
  0
POINT
  5
1B5
330
1AB
100
AcDbEntity
  8
Defpoints
 62
     0
100
AcDbPoint
 10
-5.388916922777397
 20
68.0316000764017
 30
0.0
  0
POINT
  5
1B6
330
1AB
100
AcDbEntity
  8
Defpoints
 62
     0
100
AcDbPoint
 10
-5.388916922777397
 20
68.71960560890705
 30
0.0
  0
POINT
  5
1B7
330
1AB
100
AcDbEntity
  8
Defpoints
 62
     0
100
AcDbPoint
 10
-5.64855446319612
 20
68.71960560890705
 30
0.0
  0
ENDBLK
  5
1B8
330
1AB
100
AcDbEntity
  8
0
100
AcDbBlockEnd
  0
BLOCK
  5
1BD
330
1BC
100
AcDbEntity
  8
0
100
AcDbBlockBegin
  2
*D5
 70
     1
 10
0.0
 20
0.0
 30
0.0
  3
*D5
  1

  0
LINE
  5
1BE
330
1BC
100
AcDbEntity
  8
0
 62
     0
370
    -2
100
AcDbLine
 10
-3.446433008149617
 20
68.71960560890705
 30
0.0
 11
-3.258077352719199
 21
68.71960560890705
 31
0.0
  0
LINE
  5
1BF
330
1BC
100
AcDbEntity
  8
0
 62
     0
370
    -2
100
AcDbLine
 10
-3.446429891384329
 20
67.53159666629006
 30
0.0
 11
-3.258077352719199
 21
67.53159666629006
 31
0.0
  0
LINE
  5
1C0
330
1BC
100
AcDbEntity
  8
0
 62
     0
370
    -2
100
AcDbLine
 10
-3.288077352719199
 20
68.71960560890705
 30
0.0
 11
-3.288077352719199
 21
68.54783802394691
 31
0.0
  0
LINE
  5
1C1
330
1BC
100
AcDbEntity
  8
0
 62
     0
370
    -2
100
AcDbLine
 10
-3.288077352719199
 20
67.53159666629006
 30
0.0
 11
-3.288077352719199
 21
67.70336425125019
 31
0.0
  0
INSERT
  5
1C2
330
1BC
100
AcDbEntity
  8
0
 62
     0
370
    -2
100
AcDbBlockReference
  2
_ArchTick
 10
-3.288077352719199
 20
68.71960560890705
 30
0.0
 41
0.156
 42
0.156
 43
0.156
 50
90.0
  0
INSERT
  5
1C3
330
1BC
100
AcDbEntity
  8
0
 62
     0
370
    -2
100
AcDbBlockReference
  2
_ArchTick
 10
-3.288077352719199
 20
67.53159666629006
 30
0.0
 41
0.156
 42
0.156
 43
0.156
 50
270.0
  0
MTEXT
  5
1C4
330
1BC
100
AcDbEntity
  8
0
 62
     0
100
AcDbMText
 10
-3.28807735271921
 20
68.32794562313991
 30
0.0
 40
0.3125
 41
0.0
 71
     5
 72
     1
  1
\A1;1 3/16"
 73
     1
 44
1.0
1001
ACAD
1000
MTEXTBEGIN
1070
    73
1070
     1
1070
    44
1040
1.0
1070
    74
1070
     0
1000
MTEXTEND
  0
MTEXT
  5
1C5
330
1BC
100
AcDbEntity
  8
0
 62
     0
100
AcDbMText
 10
-3.28807735271921
 20
67.90570873679155
 30
0.0
 40
0.3125
 41
0.0
 71
     5
 72
     1
  1
\A1;[30mm]
 73
     1
 44
1.0
1001
ACAD
1000
MTEXTBEGIN
1070
    73
1070
     1
1070
    44
1040
1.0
1070
    74
1070
     0
1000
MTEXTEND
  0
POINT
  5
1C6
330
1BC
100
AcDbEntity
  8
Defpoints
 62
     0
100
AcDbPoint
 10
-3.486433008149617
 20
68.71960560890705
 30
0.0
  0
POINT
  5
1C7
330
1BC
100
AcDbEntity
  8
Defpoints
 62
     0
100
AcDbPoint
 10
-3.486429891384329
 20
67.53159666629006
 30
0.0
  0
POINT
  5
1C8
330
1BC
100
AcDbEntity
  8
Defpoints
 62
     0
100
AcDbPoint
 10
-3.288077352719199
 20
67.53159666629006
 30
0.0
  0
ENDBLK
  5
1C9
330
1BC
100
AcDbEntity
  8
0
100
AcDbBlockEnd
  0
BLOCK
  5
1CE
330
1CD
100
AcDbEntity
  8
0
100
AcDbBlockBegin
  2
*D6
 70
     1
 10
0.0
 20
0.0
 30
0.0
  3
*D6
  1

  0
LINE
  5
1CF
330
1CD
100
AcDbEntity
  8
0
 62
     0
370
    -2
100
AcDbLine
 10
-2.566916922777344
 20
68.71960560890705
 30
0.0
 11
-0.8181329038822287
 21
68.71960560890705
 31
0.0
  0
LINE
  5
1D0
330
1CD
100
AcDbEntity
  8
0
 62
     0
370
    -2
100
AcDbLine
 10
-1.630260776508342
 20
53.25122794465253
 30
0.0
 11
-0.8181329038822321
 21
53.25122794465253
 31
0.0
  0
LINE
  5
1D1
330
1CD
100
AcDbEntity
  8
0
 62
     0
370
    -2
100
AcDbLine
 10
-0.8481329038822288
 20
68.71960560890705
 30
0.0
 11
-0.8481329038822304
 21
61.56983356314833
 31
0.0
  0
LINE
  5
1D2
330
1CD
100
AcDbEntity
  8
0
 62
     0
370
    -2
100
AcDbLine
 10
-0.8481329038822321
 20
53.25122794465253
 30
0.0
 11
-0.8481329038822305
 21
61.16514459206562
 31
0.0
  0
INSERT
  5
1D3
330
1CD
100
AcDbEntity
  8
0
 62
     0
370
    -2
100
AcDbBlockReference
  2
_ArchTick
 10
-0.8481329038822288
 20
68.71960560890705
 30
0.0
 41
0.156
 42
0.156
 43
0.156
 50
90.0
  0
INSERT
  5
1D4
330
1CD
100
AcDbEntity
  8
0
 62
     0
370
    -2
100
AcDbBlockReference
  2
_ArchTick
 10
-0.8481329038822321
 20
53.25122794465253
 30
0.0
 41
0.156
 42
0.156
 43
0.156
 50
270.0
  0
MTEXT
  5
1D5
330
1CD
100
AcDbEntity
  8
0
 62
     0
100
AcDbMText
 10
-0.8481329038822401
 20
61.36748907760697
 30
0.0
 40
0.3125
 41
0.0
 71
     5
 72
     1
  1
\A1;BOX
 73
     1
 44
1.0
1001
ACAD
1000
MTEXTBEGIN
1070
    73
1070
     1
1070
    44
1040
1.0
1070
    74
1070
     0
1000
MTEXTEND
  0
POINT
  5
1D6
330
1CD
100
AcDbEntity
  8
Defpoints
 62
     0
100
AcDbPoint
 10
-2.606916922777344
 20
68.71960560890705
 30
0.0
  0
POINT
  5
1D7
330
1CD
100
AcDbEntity
  8
Defpoints
 62
     0
100
AcDbPoint
 10
-1.670260776508342
 20
53.25122794465253
 30
0.0
  0
POINT
  5
1D8
330
1CD
100
AcDbEntity
  8
Defpoints
 62
     0
100
AcDbPoint
 10
-0.8481329038822321
 20
53.25122794465253
 30
0.0
  0
ENDBLK
  5
1D9
330
1CD
100
AcDbEntity
  8
0
100
AcDbBlockEnd
  0
BLOCK
  5
1DC
330
1DB
100
AcDbEntity
  8
0
100
AcDbBlockBegin
  2
*D7
 70
     1
 10
0.0
 20
0.0
 30
0.0
  3
*D7
  1

  0
LINE
  5
1DD
330
1DB
100
AcDbEntity
  8
0
 62
     0
370
    -2
100
AcDbLine
 10
-1.630260776508342
 20
53.25122794465253
 30
0.0
 11
0.3929471409487304
 21
53.25122794465253
 31
0.0
  0
LINE
  5
1DE
330
1DB
100
AcDbEntity
  8
0
 62
     0
370
    -2
100
AcDbLine
 10
-2.566916922777344
 20
69.46960560890705
 30
0.0
 11
0.3929471409487339
 21
69.46960560890705
 31
0.0
  0
LINE
  5
1DF
330
1DB
100
AcDbEntity
  8
0
 62
     0
370
    -2
100
AcDbLine
 10
0.3629471409487305
 20
53.25122794465253
 30
0.0
 11
0.3629471409487323
 21
60.89460838180109
 31
0.0
  0
LINE
  5
1E0
330
1DB
100
AcDbEntity
  8
0
 62
     0
370
    -2
100
AcDbLine
 10
0.3629471409487341
 20
69.46960560890705
 30
0.0
 11
0.3629471409487324
 21
61.82622517175849
 31
0.0
  0
INSERT
  5
1E1
330
1DB
100
AcDbEntity
  8
0
 62
     0
370
    -2
100
AcDbBlockReference
  2
_ArchTick
 10
0.3629471409487305
 20
53.25122794465253
 30
0.0
 41
0.156
 42
0.156
 43
0.156
 50
270.0
  0
INSERT
  5
1E2
330
1DB
100
AcDbEntity
  8
0
 62
     0
370
    -2
100
AcDbBlockReference
  2
_ArchTick
 10
0.3629471409487341
 20
69.46960560890705
 30
0.0
 41
0.156
 42
0.156
 43
0.156
 50
90.0
  0
MTEXT
  5
1E3
330
1DB
100
AcDbEntity
  8
0
 62
     0
100
AcDbMText
 10
0.3629471409487225
 20
61.36041677677979
 30
0.0
 40
0.3125
 41
0.0
 71
     5
 72
     1
  1
\A1;ROUGH\POPENING
 73
     1
 44
1.0
1001
ACAD
1000
MTEXTBEGIN
1070
    73
1070
     1
1070
    44
1040
1.0
1070
    74
1070
     0
1000
MTEXTEND
  0
POINT
  5
1E4
330
1DB
100
AcDbEntity
  8
Defpoints
 62
     0
100
AcDbPoint
 10
-1.670260776508342
 20
53.25122794465253
 30
0.0
  0
POINT
  5
1E5
330
1DB
100
AcDbEntity
  8
Defpoints
 62
     0
100
AcDbPoint
 10
-2.606916922777344
 20
69.46960560890705
 30
0.0
  0
POINT
  5
1E6
330
1DB
100
AcDbEntity
  8
Defpoints
 62
     0
100
AcDbPoint
 10
0.3629471409487341
 20
69.46960560890705
 30
0.0
  0
ENDBLK
  5
1E7
330
1DB
100
AcDbEntity
  8
0
100
AcDbBlockEnd
  0
BLOCK
  5
1EA
330
1E9
100
AcDbEntity
  8
0
100
AcDbBlockBegin
  2
*D8
 70
     1
 10
0.0
 20
0.0
 30
0.0
  3
*D8
  1

  0
LINE
  5
1EB
330
1E9
100
AcDbEntity
  8
0
 62
     0
370
    -2
100
AcDbLine
 10
-2.566916922777344
 20
68.71960560890705
 30
0.0
 11
-0.8181329038822287
 21
68.71960560890705
 31
0.0
  0
LINE
  5
1EC
330
1E9
100
AcDbEntity
  8
0
 62
     0
370
    -2
100
AcDbLine
 10
-2.566916922777344
 20
69.46960560890705
 30
0.0
 11
-0.8181329038822285
 21
69.46960560890705
 31
0.0
  0
LINE
  5
1ED
330
1E9
100
AcDbEntity
  8
0
 62
     0
370
    -2
100
AcDbLine
 10
-0.8481329038822288
 20
68.71960560890705
 30
0.0
 11
-0.8481329038822286
 21
69.46960560890705
 31
0.0
  0
LINE
  5
1EE
330
1E9
100
AcDbEntity
  8
0
 62
     0
370
    -2
100
AcDbLine
 10
-0.8481329038822286
 20
69.46960560890705
 30
0.0
 11
-0.8481329038822284
 21
70.01921639291333
 31
0.0
  0
LINE
  5
1EF
330
1E9
100
AcDbEntity
  8
0
 62
     0
370
    -2
100
AcDbLine
 10
-0.8481329038822284
 20
70.01921639291333
 30
0.0
 11
-0.6921329038822285
 21
70.01921639291333
 31
0.0
  0
INSERT
  5
1F0
330
1E9
100
AcDbEntity
  8
0
 62
     0
370
    -2
100
AcDbBlockReference
  2
_ArchTick
 10
-0.8481329038822288
 20
68.71960560890705
 30
0.0
 41
0.156
 42
0.156
 43
0.156
 50
270.0
  0
INSERT
  5
1F1
330
1E9
100
AcDbEntity
  8
0
 62
     0
370
    -2
100
AcDbBlockReference
  2
_ArchTick
 10
-0.8481329038822286
 20
69.46960560890705
 30
0.0
 41
0.156
 42
0.156
 43
0.156
 50
90.0
  0
MTEXT
  5
1F2
330
1E9
100
AcDbEntity
  8
0
 62
     0
100
AcDbMText
 10
-0.1616074507339423
 20
70.01921639291333
 30
0.0
 40
0.3125
 41
0.0
 71
     5
 72
     1
  1
\A1;3/4"\P [19mm]
 73
     1
 44
1.0
1001
ACAD
1000
MTEXTBEGIN
1070
    73
1070
     1
1070
    44
1040
1.0
1070
    74
1070
     0
1000
MTEXTEND
  0
POINT
  5
1F3
330
1E9
100
AcDbEntity
  8
Defpoints
 62
     0
100
AcDbPoint
 10
-2.606916922777344
 20
68.71960560890705
 30
0.0
  0
POINT
  5
1F4
330
1E9
100
AcDbEntity
  8
Defpoints
 62
     0
100
AcDbPoint
 10
-2.606916922777344
 20
69.46960560890705
 30
0.0
  0
POINT
  5
1F5
330
1E9
100
AcDbEntity
  8
Defpoints
 62
     0
100
AcDbPoint
 10
-0.8481329038822286
 20
69.46960560890705
 30
0.0
  0
ENDBLK
  5
1F6
330
1E9
100
AcDbEntity
  8
0
100
AcDbBlockEnd
  0
BLOCK
  5
1FB
330
1FA
100
AcDbEntity
  8
0
100
AcDbBlockBegin
  2
*D9
 70
     1
 10
0.0
 20
0.0
 30
0.0
  3
*D9
  1

  0
LINE
  5
1FC
330
1FA
100
AcDbEntity
  8
0
 62
     0
370
    -2
100
AcDbLine
 10
-6.460416922777405
 20
54.56372795457031
 30
0.0
 11
-8.555280765569618
 21
54.56372795457031
 31
0.0
  0
LINE
  5
1FD
330
1FA
100
AcDbEntity
  8
0
 62
     0
370
    -2
100
AcDbLine
 10
-6.134171848544019
 20
61.93906064734164
 30
0.0
 11
-8.555280765569616
 21
61.93906064734164
 31
0.0
  0
LINE
  5
1FE
330
1FA
100
AcDbEntity
  8
0
 62
     0
370
    -2
100
AcDbLine
 10
-8.525280765569618
 20
54.56372795457031
 30
0.0
 11
-8.525280765569618
 21
57.82915741460763
 31
0.0
  0
LINE
  5
1FF
330
1FA
100
AcDbEntity
  8
0
 62
     0
370
    -2
100
AcDbLine
 10
-8.525280765569617
 20
61.93906064734164
 30
0.0
 11
-8.525280765569618
 21
58.67363118730433
 31
0.0
  0
INSERT
  5
200
330
1FA
100
AcDbEntity
  8
0
 62
     0
370
    -2
100
AcDbBlockReference
  2
_ArchTick
 10
-8.525280765569618
 20
54.56372795457031
 30
0.0
 41
0.156
 42
0.156
 43
0.156
 50
270.0
  0
INSERT
  5
201
330
1FA
100
AcDbEntity
  8
0
 62
     0
370
    -2
100
AcDbBlockReference
  2
_ArchTick
 10
-8.525280765569617
 20
61.93906064734164
 30
0.0
 41
0.156
 42
0.156
 43
0.156
 50
90.0
  0
MTEXT
  5
202
330
1FA
100
AcDbEntity
  8
0
 62
     0
100
AcDbMText
 10
-8.525280765569627
 20
58.45373878649734
 30
0.0
 40
0.3125
 41
0.0
 71
     5
 72
     1
  1
\A1;7 3/8"
 73
     1
 44
1.0
1001
ACAD
1000
MTEXTBEGIN
1070
    73
1070
     1
1070
    44
1040
1.0
1070
    74
1070
     0
1000
MTEXTEND
  0
MTEXT
  5
203
330
1FA
100
AcDbEntity
  8
0
 62
     0
100
AcDbMText
 10
-8.525280765569627
 20
58.03150190014899
 30
0.0
 40
0.3125
 41
0.0
 71
     5
 72
     1
  1
\A1;[187mm]
 73
     1
 44
1.0
1001
ACAD
1000
MTEXTBEGIN
1070
    73
1070
     1
1070
    44
1040
1.0
1070
    74
1070
     0
1000
MTEXTEND
  0
POINT
  5
204
330
1FA
100
AcDbEntity
  8
Defpoints
 62
     0
100
AcDbPoint
 10
-6.420416922777405
 20
54.56372795457031
 30
0.0
  0
POINT
  5
205
330
1FA
100
AcDbEntity
  8
Defpoints
 62
     0
100
AcDbPoint
 10
-6.094171848544019
 20
61.93906064734164
 30
0.0
  0
POINT
  5
206
330
1FA
100
AcDbEntity
  8
Defpoints
 62
     0
100
AcDbPoint
 10
-8.525280765569617
 20
61.93906064734164
 30
0.0
  0
ENDBLK
  5
207
330
1FA
100
AcDbEntity
  8
0
100
AcDbBlockEnd
  0
BLOCK
  5
20C
330
20B
100
AcDbEntity
  8
0
100
AcDbBlockBegin
  2
*D10
 70
     1
 10
0.0
 20
0.0
 30
0.0
  3
*D10
  1

  0
LINE
  5
20D
330
20B
100
AcDbEntity
  8
0
 62
     0
370
    -2
100
AcDbLine
 10
-6.46041692277742
 20
54.56372795457031
 30
0.0
 11
-8.555280765569618
 21
54.56372795457031
 31
0.0
  0
LINE
  5
20E
330
20B
100
AcDbEntity
  8
0
 62
     0
370
    -2
100
AcDbLine
 10
-7.490535988559067
 20
53.25122795457031
 30
0.0
 11
-8.555280765569618
 21
53.25122795457031
 31
0.0
  0
LINE
  5
20F
330
20B
100
AcDbEntity
  8
0
 62
     0
370
    -2
100
AcDbLine
 10
-8.525280765569618
 20
54.56372795457031
 30
0.0
 11
-8.525280765569618
 21
54.32971484091866
 31
0.0
  0
LINE
  5
210
330
20B
100
AcDbEntity
  8
0
 62
     0
370
    -2
100
AcDbLine
 10
-8.525280765569618
 20
53.25122795457031
 30
0.0
 11
-8.525280765569618
 21
53.48524106822196
 31
0.0
  0
INSERT
  5
211
330
20B
100
AcDbEntity
  8
0
 62
     0
370
    -2
100
AcDbBlockReference
  2
_ArchTick
 10
-8.525280765569618
 20
54.56372795457031
 30
0.0
 41
0.156
 42
0.156
 43
0.156
 50
90.0
  0
INSERT
  5
212
330
20B
100
AcDbEntity
  8
0
 62
     0
370
    -2
100
AcDbBlockReference
  2
_ArchTick
 10
-8.525280765569618
 20
53.25122795457031
 30
0.0
 41
0.156
 42
0.156
 43
0.156
 50
270.0
  0
MTEXT
  5
213
330
20B
100
AcDbEntity
  8
0
 62
     0
100
AcDbMText
 10
-8.525280765569627
 20
54.10982244011167
 30
0.0
 40
0.3125
 41
0.0
 71
     5
 72
     1
  1
\A1;1 5/16"
 73
     1
 44
1.0
1001
ACAD
1000
MTEXTBEGIN
1070
    73
1070
     1
1070
    44
1040
1.0
1070
    74
1070
     0
1000
MTEXTEND
  0
MTEXT
  5
214
330
20B
100
AcDbEntity
  8
0
 62
     0
100
AcDbMText
 10
-8.525280765569627
 20
53.68758555376332
 30
0.0
 40
0.3125
 41
0.0
 71
     5
 72
     1
  1
\A1;[33mm]
 73
     1
 44
1.0
1001
ACAD
1000
MTEXTBEGIN
1070
    73
1070
     1
1070
    44
1040
1.0
1070
    74
1070
     0
1000
MTEXTEND
  0
POINT
  5
215
330
20B
100
AcDbEntity
  8
Defpoints
 62
     0
100
AcDbPoint
 10
-6.42041692277742
 20
54.56372795457031
 30
0.0
  0
POINT
  5
216
330
20B
100
AcDbEntity
  8
Defpoints
 62
     0
100
AcDbPoint
 10
-7.450535988559067
 20
53.25122795457031
 30
0.0
  0
POINT
  5
217
330
20B
100
AcDbEntity
  8
Defpoints
 62
     0
100
AcDbPoint
 10
-8.525280765569618
 20
53.25122795457031
 30
0.0
  0
ENDBLK
  5
218
330
20B
100
AcDbEntity
  8
0
100
AcDbBlockEnd
  0
BLOCK
  5
21D
330
21C
100
AcDbEntity
  8
0
100
AcDbBlockBegin
  2
*D11
 70
     1
 10
0.0
 20
0.0
 30
0.0
  3
*D11
  1

  0
LINE
  5
21E
330
21C
100
AcDbEntity
  8
0
 62
     0
370
    -2
100
AcDbLine
 10
-6.134171848543993
 20
63.31426738363035
 30
0.0
 11
-8.555280765569618
 21
63.31426738363035
 31
0.0
  0
LINE
  5
21F
330
21C
100
AcDbEntity
  8
0
 62
     0
370
    -2
100
AcDbLine
 10
-6.460416922777405
 20
67.9066000764017
 30
0.0
 11
-8.555280765569618
 21
67.9066000764017
 31
0.0
  0
LINE
  5
220
330
21C
100
AcDbEntity
  8
0
 62
     0
370
    -2
100
AcDbLine
 10
-8.525280765569618
 20
63.31426738363035
 30
0.0
 11
-8.525280765569618
 21
65.18819684366767
 31
0.0
  0
LINE
  5
221
330
21C
100
AcDbEntity
  8
0
 62
     0
370
    -2
100
AcDbLine
 10
-8.525280765569618
 20
67.9066000764017
 30
0.0
 11
-8.525280765569618
 21
66.03267061636438
 31
0.0
  0
INSERT
  5
222
330
21C
100
AcDbEntity
  8
0
 62
     0
370
    -2
100
AcDbBlockReference
  2
_ArchTick
 10
-8.525280765569618
 20
63.31426738363035
 30
0.0
 41
0.156
 42
0.156
 43
0.156
 50
270.0
  0
INSERT
  5
223
330
21C
100
AcDbEntity
  8
0
 62
     0
370
    -2
100
AcDbBlockReference
  2
_ArchTick
 10
-8.525280765569618
 20
67.9066000764017
 30
0.0
 41
0.156
 42
0.156
 43
0.156
 50
90.0
  0
MTEXT
  5
224
330
21C
100
AcDbEntity
  8
0
 62
     0
100
AcDbMText
 10
-8.525280765569629
 20
65.81277821555739
 30
0.0
 40
0.3125
 41
0.0
 71
     5
 72
     1
  1
\A1;4 19/32"
 73
     1
 44
1.0
1001
ACAD
1000
MTEXTBEGIN
1070
    73
1070
     1
1070
    44
1040
1.0
1070
    74
1070
     0
1000
MTEXTEND
  0
MTEXT
  5
225
330
21C
100
AcDbEntity
  8
0
 62
     0
100
AcDbMText
 10
-8.525280765569629
 20
65.39054132920902
 30
0.0
 40
0.3125
 41
0.0
 71
     5
 72
     1
  1
\A1;[117mm]
 73
     1
 44
1.0
1001
ACAD
1000
MTEXTBEGIN
1070
    73
1070
     1
1070
    44
1040
1.0
1070
    74
1070
     0
1000
MTEXTEND
  0
POINT
  5
226
330
21C
100
AcDbEntity
  8
Defpoints
 62
     0
100
AcDbPoint
 10
-6.094171848543993
 20
63.31426738363035
 30
0.0
  0
POINT
  5
227
330
21C
100
AcDbEntity
  8
Defpoints
 62
     0
100
AcDbPoint
 10
-6.420416922777405
 20
67.9066000764017
 30
0.0
  0
POINT
  5
228
330
21C
100
AcDbEntity
  8
Defpoints
 62
     0
100
AcDbPoint
 10
-8.525280765569618
 20
67.9066000764017
 30
0.0
  0
ENDBLK
  5
229
330
21C
100
AcDbEntity
  8
0
100
AcDbBlockEnd
  0
BLOCK
  5
22E
330
22D
100
AcDbEntity
  8
0
100
AcDbBlockBegin
  2
*D12
 70
     1
 10
0.0
 20
0.0
 30
0.0
  3
*D12
  1

  0
LINE
  5
22F
330
22D
100
AcDbEntity
  8
0
 62
     0
370
    -2
100
AcDbLine
 10
-6.13417184854399
 20
63.31426738363035
 30
0.0
 11
-8.555280765569618
 21
63.31426738363035
 31
0.0
  0
LINE
  5
230
330
22D
100
AcDbEntity
  8
0
 62
     0
370
    -2
100
AcDbLine
 10
-6.134171848544021
 20
61.93906064734164
 30
0.0
 11
-8.555280765569618
 21
61.93906064734164
 31
0.0
  0
LINE
  5
231
330
22D
100
AcDbEntity
  8
0
 62
     0
370
    -2
100
AcDbLine
 10
-8.525280765569618
 20
63.31426738363035
 30
0.0
 11
-8.525280765569618
 21
62.82900850102736
 31
0.0
  0
LINE
  5
232
330
22D
100
AcDbEntity
  8
0
 62
     0
370
    -2
100
AcDbLine
 10
-8.525280765569618
 20
61.93906064734164
 30
0.0
 11
-8.525280765569618
 21
62.42431952994464
 31
0.0
  0
INSERT
  5
233
330
22D
100
AcDbEntity
  8
0
 62
     0
370
    -2
100
AcDbBlockReference
  2
_ArchTick
 10
-8.525280765569618
 20
63.31426738363035
 30
0.0
 41
0.156
 42
0.156
 43
0.156
 50
90.0
  0
INSERT
  5
234
330
22D
100
AcDbEntity
  8
0
 62
     0
370
    -2
100
AcDbBlockReference
  2
_ArchTick
 10
-8.525280765569618
 20
61.93906064734164
 30
0.0
 41
0.156
 42
0.156
 43
0.156
 50
270.0
  0
MTEXT
  5
235
330
22D
100
AcDbEntity
  8
0
 62
     0
100
AcDbMText
 10
-8.525280765569629
 20
62.62666401548599
 30
0.0
 40
0.3125
 41
0.0
 71
     5
 72
     1
  1
\A1;DAYLIGHT OPENING
 73
     1
 44
1.0
1001
ACAD
1000
MTEXTBEGIN
1070
    73
1070
     1
1070
    44
1040
1.0
1070
    74
1070
     0
1000
MTEXTEND
  0
POINT
  5
236
330
22D
100
AcDbEntity
  8
Defpoints
 62
     0
100
AcDbPoint
 10
-6.09417184854399
 20
63.31426738363035
 30
0.0
  0
POINT
  5
237
330
22D
100
AcDbEntity
  8
Defpoints
 62
     0
100
AcDbPoint
 10
-6.094171848544021
 20
61.93906064734164
 30
0.0
  0
POINT
  5
238
330
22D
100
AcDbEntity
  8
Defpoints
 62
     0
100
AcDbPoint
 10
-8.525280765569618
 20
61.93906064734164
 30
0.0
  0
ENDBLK
  5
239
330
22D
100
AcDbEntity
  8
0
100
AcDbBlockEnd
  0
BLOCK
  5
23E
330
23D
100
AcDbEntity
  8
0
100
AcDbBlockBegin
  2
*D13
 70
     1
 10
0.0
 20
0.0
 30
0.0
  3
*D13
  1

  0
LINE
  5
23F
330
23D
100
AcDbEntity
  8
0
 62
     0
370
    -2
100
AcDbLine
 10
-6.482416922777417
 20
58.01022795457029
 30
0.0
 11
-6.482416922777417
 21
58.15583791602127
 31
0.0
  0
LINE
  5
240
330
23D
100
AcDbEntity
  8
0
 62
     0
370
    -2
100
AcDbLine
 10
-4.732416922777417
 20
58.16583791602127
 30
0.0
 11
-4.732416922777417
 21
58.15583791602127
 31
0.0
  0
LINE
  5
241
330
23D
100
AcDbEntity
  8
0
 62
     0
370
    -2
100
AcDbLine
 10
-6.482416922777417
 20
58.12583791602127
 30
0.0
 11
-6.050355180795375
 21
58.12583791602127
 31
0.0
  0
LINE
  5
242
330
23D
100
AcDbEntity
  8
0
 62
     0
370
    -2
100
AcDbLine
 10
-4.732416922777417
 20
58.12583791602127
 30
0.0
 11
-5.164478664759459
 21
58.12583791602127
 31
0.0
  0
INSERT
  5
243
330
23D
100
AcDbEntity
  8
0
 62
     0
370
    -2
100
AcDbBlockReference
  2
_ArchTick
 10
-6.482416922777417
 20
58.12583791602127
 30
0.0
 41
0.156
 42
0.156
 43
0.156
 50
180.0
  0
INSERT
  5
244
330
23D
100
AcDbEntity
  8
0
 62
     0
370
    -2
100
AcDbBlockReference
  2
_ArchTick
 10
-4.732416922777417
 20
58.12583791602127
 30
0.0
 41
0.156
 42
0.156
 43
0.156
  0
MTEXT
  5
245
330
23D
100
AcDbEntity
  8
0
 62
     0
100
AcDbMText
 10
-5.607416922777417
 20
58.32818240156263
 30
0.0
 40
0.3125
 41
0.0
 71
     5
 72
     1
  1
\A1;1 3/4"
 73
     1
 44
1.0
1001
ACAD
1000
MTEXTBEGIN
1070
    73
1070
     1
1070
    44
1040
1.0
1070
    74
1070
     0
1000
MTEXTEND
  0
MTEXT
  5
246
330
23D
100
AcDbEntity
  8
0
 62
     0
100
AcDbMText
 10
-5.607416922777417
 20
57.90594551521428
 30
0.0
 40
0.3125
 41
0.0
 71
     5
 72
     1
  1
\A1;[44mm]
 73
     1
 44
1.0
1001
ACAD
1000
MTEXTBEGIN
1070
    73
1070
     1
1070
    44
1040
1.0
1070
    74
1070
     0
1000
MTEXTEND
  0
POINT
  5
247
330
23D
100
AcDbEntity
  8
Defpoints
 62
     0
100
AcDbPoint
 10
-6.482416922777417
 20
57.97022795457029
 30
0.0
  0
POINT
  5
248
330
23D
100
AcDbEntity
  8
Defpoints
 62
     0
100
AcDbPoint
 10
-4.732416922777417
 20
58.12583791602127
 30
0.0
  0
POINT
  5
249
330
23D
100
AcDbEntity
  8
Defpoints
 62
     0
100
AcDbPoint
 10
-4.732416922777417
 20
58.12583791602127
 30
0.0
  0
ENDBLK
  5
24A
330
23D
100
AcDbEntity
  8
0
100
AcDbBlockEnd
  0
BLOCK
  5
24F
330
24E
100
AcDbEntity
  8
0
100
AcDbBlockBegin
  2
*D14
 70
     1
 10
0.0
 20
0.0
 30
0.0
  3
*D14
  1

  0
LINE
  5
250
330
24E
100
AcDbEntity
  8
0
 62
     0
370
    -2
100
AcDbLine
 10
-11.82676566831531
 20
49.3794085844657
 30
0.0
 11
-11.82676566831531
 21
50.80177288116551
 31
0.0
  0
LINE
  5
251
330
24E
100
AcDbEntity
  8
0
 62
     0
370
    -2
100
AcDbLine
 10
1.359117518526772
 20
49.3794085844657
 30
0.0
 11
1.359117518526772
 21
50.80177288116551
 31
0.0
  0
LINE
  5
252
330
24E
100
AcDbEntity
  8
0
 62
     0
370
    -2
100
AcDbLine
 10
-11.82676566831531
 20
50.7717728811655
 30
0.0
 11
-5.475239762300259
 21
50.7717728811655
 31
0.0
  0
LINE
  5
253
330
24E
100
AcDbEntity
  8
0
 62
     0
370
    -2
100
AcDbLine
 10
1.359117518526772
 20
50.7717728811655
 30
0.0
 11
-4.992408387488285
 21
50.7717728811655
 31
0.0
  0
INSERT
  5
254
330
24E
100
AcDbEntity
  8
0
 62
     0
370
    -2
100
AcDbBlockReference
  2
_ArchTick
 10
-11.82676566831531
 20
50.7717728811655
 30
0.0
 41
0.156
 42
0.156
 43
0.156
 50
180.0
  0
INSERT
  5
255
330
24E
100
AcDbEntity
  8
0
 62
     0
370
    -2
100
AcDbBlockReference
  2
_ArchTick
 10
1.359117518526772
 20
50.7717728811655
 30
0.0
 41
0.156
 42
0.156
 43
0.156
  0
MTEXT
  5
256
330
24E
100
AcDbEntity
  8
0
 62
     0
100
AcDbMText
 10
-5.233824074894272
 20
50.7717728811655
 30
0.0
 40
0.3125
 41
0.0
 71
     5
 72
     1
  1
\A1;BOX
 73
     1
 44
1.0
1001
ACAD
1000
MTEXTBEGIN
1070
    73
1070
     1
1070
    44
1040
1.0
1070
    74
1070
     0
1000
MTEXTEND
  0
POINT
  5
257
330
24E
100
AcDbEntity
  8
Defpoints
 62
     0
100
AcDbPoint
 10
-11.82676566831531
 20
49.3394085844657
 30
0.0
  0
POINT
  5
258
330
24E
100
AcDbEntity
  8
Defpoints
 62
     0
100
AcDbPoint
 10
1.359117518526772
 20
49.3394085844657
 30
0.0
  0
POINT
  5
259
330
24E
100
AcDbEntity
  8
Defpoints
 62
     0
100
AcDbPoint
 10
1.359117518526772
 20
50.7717728811655
 30
0.0
  0
ENDBLK
  5
25A
330
24E
100
AcDbEntity
  8
0
100
AcDbBlockEnd
  0
BLOCK
  5
25D
330
25C
100
AcDbEntity
  8
0
100
AcDbBlockBegin
  2
*D15
 70
     1
 10
0.0
 20
0.0
 30
0.0
  3
*D15
  1

  0
LINE
  5
25E
330
25C
100
AcDbEntity
  8
0
 62
     0
370
    -2
100
AcDbLine
 10
-11.82676566831531
 20
50.1305907328156
 30
0.0
 11
-11.82676566831531
 21
50.80177288116551
 31
0.0
  0
LINE
  5
25F
330
25C
100
AcDbEntity
  8
0
 62
     0
370
    -2
100
AcDbLine
 10
-12.32676566831532
 20
50.1305907328156
 30
0.0
 11
-12.32676566831532
 21
50.80177288116551
 31
0.0
  0
LINE
  5
260
330
25C
100
AcDbEntity
  8
0
 62
     0
370
    -2
100
AcDbLine
 10
-11.82676566831531
 20
50.7717728811655
 30
0.0
 11
-12.32676566831532
 21
50.7717728811655
 31
0.0
  0
LINE
  5
261
330
25C
100
AcDbEntity
  8
0
 62
     0
370
    -2
100
AcDbLine
 10
-12.32676566831532
 20
50.7717728811655
 30
0.0
 11
-12.48276566831531
 21
50.7717728811655
 31
0.0
  0
INSERT
  5
262
330
25C
100
AcDbEntity
  8
0
 62
     0
370
    -2
100
AcDbBlockReference
  2
_ArchTick
 10
-11.82676566831531
 20
50.7717728811655
 30
0.0
 41
0.156
 42
0.156
 43
0.156
  0
INSERT
  5
263
330
25C
100
AcDbEntity
  8
0
 62
     0
370
    -2
100
AcDbBlockReference
  2
_ArchTick
 10
-12.32676566831532
 20
50.7717728811655
 30
0.0
 41
0.156
 42
0.156
 43
0.156
 50
180.0
  0
MTEXT
  5
264
330
25C
100
AcDbEntity
  8
0
 62
     0
100
AcDbMText
 10
-12.92299795143111
 20
50.97411736670686
 30
0.0
 40
0.3125
 41
0.0
 71
     5
 72
     1
  1
\A1;1/2"
 73
     1
 44
1.0
1001
ACAD
1000
MTEXTBEGIN
1070
    73
1070
     1
1070
    44
1040
1.0
1070
    74
1070
     0
1000
MTEXTEND
  0
MTEXT
  5
265
330
25C
100
AcDbEntity
  8
0
 62
     0
100
AcDbMText
 10
-12.92299795143111
 20
50.55188048035851
 30
0.0
 40
0.3125
 41
0.0
 71
     5
 72
     1
  1
\A1;[13mm]
 73
     1
 44
1.0
1001
ACAD
1000
MTEXTBEGIN
1070
    73
1070
     1
1070
    44
1040
1.0
1070
    74
1070
     0
1000
MTEXTEND
  0
POINT
  5
266
330
25C
100
AcDbEntity
  8
Defpoints
 62
     0
100
AcDbPoint
 10
-11.82676566831531
 20
50.0905907328156
 30
0.0
  0
POINT
  5
267
330
25C
100
AcDbEntity
  8
Defpoints
 62
     0
100
AcDbPoint
 10
-12.32676566831532
 20
50.0905907328156
 30
0.0
  0
POINT
  5
268
330
25C
100
AcDbEntity
  8
Defpoints
 62
     0
100
AcDbPoint
 10
-12.32676566831532
 20
50.7717728811655
 30
0.0
  0
ENDBLK
  5
269
330
25C
100
AcDbEntity
  8
0
100
AcDbBlockEnd
  0
BLOCK
  5
26C
330
26B
100
AcDbEntity
  8
0
100
AcDbBlockBegin
  2
*D16
 70
     1
 10
0.0
 20
0.0
 30
0.0
  3
*D16
  1

  0
LINE
  5
26D
330
26B
100
AcDbEntity
  8
0
 62
     0
370
    -2
100
AcDbLine
 10
1.359117518526772
 20
50.1305907328156
 30
0.0
 11
1.359117518526772
 21
50.80177288116551
 31
0.0
  0
LINE
  5
26E
330
26B
100
AcDbEntity
  8
0
 62
     0
370
    -2
100
AcDbLine
 10
1.859117518526772
 20
50.1305907328156
 30
0.0
 11
1.859117518526772
 21
50.80177288116551
 31
0.0
  0
LINE
  5
26F
330
26B
100
AcDbEntity
  8
0
 62
     0
370
    -2
100
AcDbLine
 10
1.359117518526772
 20
50.7717728811655
 30
0.0
 11
1.859117518526772
 21
50.7717728811655
 31
0.0
  0
LINE
  5
270
330
26B
100
AcDbEntity
  8
0
 62
     0
370
    -2
100
AcDbLine
 10
1.859117518526772
 20
50.7717728811655
 30
0.0
 11
2.015117518526773
 21
50.7717728811655
 31
0.0
  0
INSERT
  5
271
330
26B
100
AcDbEntity
  8
0
 62
     0
370
    -2
100
AcDbBlockReference
  2
_ArchTick
 10
1.359117518526772
 20
50.7717728811655
 30
0.0
 41
0.156
 42
0.156
 43
0.156
 50
180.0
  0
INSERT
  5
272
330
26B
100
AcDbEntity
  8
0
 62
     0
370
    -2
100
AcDbBlockReference
  2
_ArchTick
 10
1.859117518526772
 20
50.7717728811655
 30
0.0
 41
0.156
 42
0.156
 43
0.156
  0
MTEXT
  5
273
330
26B
100
AcDbEntity
  8
0
 62
     0
100
AcDbMText
 10
2.455349801642566
 20
50.97411736670686
 30
0.0
 40
0.3125
 41
0.0
 71
     5
 72
     1
  1
\A1;1/2"
 73
     1
 44
1.0
1001
ACAD
1000
MTEXTBEGIN
1070
    73
1070
     1
1070
    44
1040
1.0
1070
    74
1070
     0
1000
MTEXTEND
  0
MTEXT
  5
274
330
26B
100
AcDbEntity
  8
0
 62
     0
100
AcDbMText
 10
2.455349801642566
 20
50.55188048035851
 30
0.0
 40
0.3125
 41
0.0
 71
     5
 72
     1
  1
\A1;[13mm]
 73
     1
 44
1.0
1001
ACAD
1000
MTEXTBEGIN
1070
    73
1070
     1
1070
    44
1040
1.0
1070
    74
1070
     0
1000
MTEXTEND
  0
POINT
  5
275
330
26B
100
AcDbEntity
  8
Defpoints
 62
     0
100
AcDbPoint
 10
1.359117518526772
 20
50.0905907328156
 30
0.0
  0
POINT
  5
276
330
26B
100
AcDbEntity
  8
Defpoints
 62
     0
100
AcDbPoint
 10
1.859117518526772
 20
50.0905907328156
 30
0.0
  0
POINT
  5
277
330
26B
100
AcDbEntity
  8
Defpoints
 62
     0
100
AcDbPoint
 10
1.859117518526772
 20
50.7717728811655
 30
0.0
  0
ENDBLK
  5
278
330
26B
100
AcDbEntity
  8
0
100
AcDbBlockEnd
  0
BLOCK
  5
27B
330
27A
100
AcDbEntity
  8
0
100
AcDbBlockBegin
  2
*D17
 70
     1
 10
0.0
 20
0.0
 30
0.0
  3
*D17
  1

  0
LINE
  5
27C
330
27A
100
AcDbEntity
  8
0
 62
     0
370
    -2
100
AcDbLine
 10
1.859117518526772
 20
49.97409177814192
 30
0.0
 11
1.859117518526773
 21
51.79805783797286
 31
0.0
  0
LINE
  5
27D
330
27A
100
AcDbEntity
  8
0
 62
     0
370
    -2
100
AcDbLine
 10
-12.32676566831532
 20
49.97409177814192
 30
0.0
 11
-12.32676566831532
 21
51.79805783797286
 31
0.0
  0
LINE
  5
27E
330
27A
100
AcDbEntity
  8
0
 62
     0
370
    -2
100
AcDbLine
 10
1.859117518526773
 20
51.76805783797286
 30
0.0
 11
-4.701387543166427
 21
51.76805783797286
 31
0.0
  0
LINE
  5
27F
330
27A
100
AcDbEntity
  8
0
 62
     0
370
    -2
100
AcDbLine
 10
-12.32676566831532
 20
51.76805783797286
 30
0.0
 11
-5.766260606622116
 21
51.76805783797286
 31
0.0
  0
INSERT
  5
280
330
27A
100
AcDbEntity
  8
0
 62
     0
370
    -2
100
AcDbBlockReference
  2
_ArchTick
 10
1.859117518526773
 20
51.76805783797286
 30
0.0
 41
0.156
 42
0.156
 43
0.156
  0
INSERT
  5
281
330
27A
100
AcDbEntity
  8
0
 62
     0
370
    -2
100
AcDbBlockReference
  2
_ArchTick
 10
-12.32676566831532
 20
51.76805783797286
 30
0.0
 41
0.156
 42
0.156
 43
0.156
 50
180.0
  0
MTEXT
  5
282
330
27A
100
AcDbEntity
  8
0
 62
     0
100
AcDbMText
 10
-5.233824074894272
 20
51.76805783797286
 30
0.0
 40
0.3125
 41
0.0
 71
     5
 72
     1
  1
\A1;ROUGH\POPENING
 73
     1
 44
1.0
1001
ACAD
1000
MTEXTBEGIN
1070
    73
1070
     1
1070
    44
1040
1.0
1070
    74
1070
     0
1000
MTEXTEND
  0
POINT
  5
283
330
27A
100
AcDbEntity
  8
Defpoints
 62
     0
100
AcDbPoint
 10
1.859117518526772
 20
49.93409177814192
 30
0.0
  0
POINT
  5
284
330
27A
100
AcDbEntity
  8
Defpoints
 62
     0
100
AcDbPoint
 10
-12.32676566831532
 20
49.93409177814192
 30
0.0
  0
POINT
  5
285
330
27A
100
AcDbEntity
  8
Defpoints
 62
     0
100
AcDbPoint
 10
-12.32676566831532
 20
51.76805783797286
 30
0.0
  0
ENDBLK
  5
286
330
27A
100
AcDbEntity
  8
0
100
AcDbBlockEnd
  0
BLOCK
  5
28B
330
28A
100
AcDbEntity
  8
0
100
AcDbBlockBegin
  2
*D18
 70
     1
 10
0.0
 20
0.0
 30
0.0
  3
*D18
  1

  0
LINE
  5
28C
330
28A
100
AcDbEntity
  8
0
 62
     0
370
    -2
100
AcDbLine
 10
-8.883150174358966
 20
47.21390858446558
 30
0.0
 11
-8.873150174358967
 21
47.21390858446558
 31
0.0
  0
LINE
  5
28D
330
28A
100
AcDbEntity
  8
0
 62
     0
370
    -2
100
AcDbLine
 10
-8.883150174358966
 20
45.46390858446557
 30
0.0
 11
-8.873150174358967
 21
45.46390858446557
 31
0.0
  0
LINE
  5
28E
330
28A
100
AcDbEntity
  8
0
 62
     0
370
    -2
100
AcDbLine
 10
-8.843150174358967
 20
47.21390858446558
 30
0.0
 11
-8.843150174358967
 21
46.76114547081392
 31
0.0
  0
LINE
  5
28F
330
28A
100
AcDbEntity
  8
0
 62
     0
370
    -2
100
AcDbLine
 10
-8.843150174358967
 20
45.46390858446557
 30
0.0
 11
-8.843150174358967
 21
45.91667169811723
 31
0.0
  0
INSERT
  5
290
330
28A
100
AcDbEntity
  8
0
 62
     0
370
    -2
100
AcDbBlockReference
  2
_ArchTick
 10
-8.843150174358967
 20
47.21390858446558
 30
0.0
 41
0.156
 42
0.156
 43
0.156
 50
90.0
  0
INSERT
  5
291
330
28A
100
AcDbEntity
  8
0
 62
     0
370
    -2
100
AcDbBlockReference
  2
_ArchTick
 10
-8.843150174358967
 20
45.46390858446557
 30
0.0
 41
0.156
 42
0.156
 43
0.156
 50
270.0
  0
MTEXT
  5
292
330
28A
100
AcDbEntity
  8
0
 62
     0
100
AcDbMText
 10
-8.843150174358974
 20
46.54125307000693
 30
0.0
 40
0.3125
 41
0.0
 71
     5
 72
     1
  1
\A1;1 3/4"
 73
     1
 44
1.0
1001
ACAD
1000
MTEXTBEGIN
1070
    73
1070
     1
1070
    44
1040
1.0
1070
    74
1070
     0
1000
MTEXTEND
  0
MTEXT
  5
293
330
28A
100
AcDbEntity
  8
0
 62
     0
100
AcDbMText
 10
-8.843150174358974
 20
46.11901618365858
 30
0.0
 40
0.3125
 41
0.0
 71
     5
 72
     1
  1
\A1;[44mm]
 73
     1
 44
1.0
1001
ACAD
1000
MTEXTBEGIN
1070
    73
1070
     1
1070
    44
1040
1.0
1070
    74
1070
     0
1000
MTEXTEND
  0
POINT
  5
294
330
28A
100
AcDbEntity
  8
Defpoints
 62
     0
100
AcDbPoint
 10
-8.843150174358967
 20
47.21390858446558
 30
0.0
  0
POINT
  5
295
330
28A
100
AcDbEntity
  8
Defpoints
 62
     0
100
AcDbPoint
 10
-8.843150174358967
 20
45.46390858446557
 30
0.0
  0
POINT
  5
296
330
28A
100
AcDbEntity
  8
Defpoints
 62
     0
100
AcDbPoint
 10
-8.843150174358967
 20
45.46390858446557
 30
0.0
  0
ENDBLK
  5
297
330
28A
100
AcDbEntity
  8
0
100
AcDbBlockEnd
  0
BLOCK
  5
29A
330
299
100
AcDbEntity
  8
0
100
AcDbBlockBegin
  2
*D19
 70
     1
 10
0.0
 20
0.0
 30
0.0
  3
*D19
  1

  0
LINE
  5
29B
330
299
100
AcDbEntity
  8
0
 62
     0
370
    -2
100
AcDbLine
 10
-11.01376013580994
 20
45.48590858446558
 30
0.0
 11
-11.01376013580994
 21
44.47443134738321
 31
0.0
  0
LINE
  5
29C
330
299
100
AcDbEntity
  8
0
 62
     0
370
    -2
100
AcDbLine
 10
-6.421427443038624
 20
45.81215365869899
 30
0.0
 11
-6.421427443038624
 21
44.47443134738321
 31
0.0
  0
LINE
  5
29D
330
299
100
AcDbEntity
  8
0
 62
     0
370
    -2
100
AcDbLine
 10
-11.01376013580994
 20
44.50443134738321
 30
0.0
 11
-9.311254979520251
 21
44.50443134738321
 31
0.0
  0
LINE
  5
29E
330
299
100
AcDbEntity
  8
0
 62
     0
370
    -2
100
AcDbLine
 10
-6.421427443038624
 20
44.50443134738321
 30
0.0
 11
-8.123932599328318
 21
44.50443134738321
 31
0.0
  0
INSERT
  5
29F
330
299
100
AcDbEntity
  8
0
 62
     0
370
    -2
100
AcDbBlockReference
  2
_ArchTick
 10
-11.01376013580994
 20
44.50443134738321
 30
0.0
 41
0.156
 42
0.156
 43
0.156
 50
180.0
  0
INSERT
  5
2A0
330
299
100
AcDbEntity
  8
0
 62
     0
370
    -2
100
AcDbBlockReference
  2
_ArchTick
 10
-6.421427443038624
 20
44.50443134738321
 30
0.0
 41
0.156
 42
0.156
 43
0.156
  0
MTEXT
  5
2A1
330
299
100
AcDbEntity
  8
0
 62
     0
100
AcDbMText
 10
-8.717593789424284
 20
44.70677583292458
 30
0.0
 40
0.3125
 41
0.0
 71
     5
 72
     1
  1
\A1;4 19/32"
 73
     1
 44
1.0
1001
ACAD
1000
MTEXTBEGIN
1070
    73
1070
     1
1070
    44
1040
1.0
1070
    74
1070
     0
1000
MTEXTEND
  0
MTEXT
  5
2A2
330
299
100
AcDbEntity
  8
0
 62
     0
100
AcDbMText
 10
-8.717593789424284
 20
44.28453894657622
 30
0.0
 40
0.3125
 41
0.0
 71
     5
 72
     1
  1
\A1;[117mm]
 73
     1
 44
1.0
1001
ACAD
1000
MTEXTBEGIN
1070
    73
1070
     1
1070
    44
1040
1.0
1070
    74
1070
     0
1000
MTEXTEND
  0
POINT
  5
2A3
330
299
100
AcDbEntity
  8
Defpoints
 62
     0
100
AcDbPoint
 10
-11.01376013580994
 20
45.52590858446558
 30
0.0
  0
POINT
  5
2A4
330
299
100
AcDbEntity
  8
Defpoints
 62
     0
100
AcDbPoint
 10
-6.421427443038624
 20
45.85215365869899
 30
0.0
  0
POINT
  5
2A5
330
299
100
AcDbEntity
  8
Defpoints
 62
     0
100
AcDbPoint
 10
-6.421427443038624
 20
44.50443134738321
 30
0.0
  0
ENDBLK
  5
2A6
330
299
100
AcDbEntity
  8
0
100
AcDbBlockEnd
  0
BLOCK
  5
2A9
330
2A8
100
AcDbEntity
  8
0
100
AcDbBlockBegin
  2
*D20
 70
     1
 10
0.0
 20
0.0
 30
0.0
  3
*D20
  1

  0
LINE
  5
2AA
330
2A8
100
AcDbEntity
  8
0
 62
     0
370
    -2
100
AcDbLine
 10
0.5461119860214012
 20
45.48590858446558
 30
0.0
 11
0.5461119860214012
 21
44.47443134738321
 31
0.0
  0
LINE
  5
2AB
330
2A8
100
AcDbEntity
  8
0
 62
     0
370
    -2
100
AcDbLine
 10
-4.04622070674992
 20
45.81215365869899
 30
0.0
 11
-4.04622070674992
 21
44.47443134738321
 31
0.0
  0
LINE
  5
2AC
330
2A8
100
AcDbEntity
  8
0
 62
     0
370
    -2
100
AcDbLine
 10
0.5461119860214012
 20
44.50443134738321
 30
0.0
 11
-1.156393170268292
 21
44.50443134738321
 31
0.0
  0
LINE
  5
2AD
330
2A8
100
AcDbEntity
  8
0
 62
     0
370
    -2
100
AcDbLine
 10
-4.04622070674992
 20
44.50443134738321
 30
0.0
 11
-2.343715550460227
 21
44.50443134738321
 31
0.0
  0
INSERT
  5
2AE
330
2A8
100
AcDbEntity
  8
0
 62
     0
370
    -2
100
AcDbBlockReference
  2
_ArchTick
 10
0.5461119860214012
 20
44.50443134738321
 30
0.0
 41
0.156
 42
0.156
 43
0.156
  0
INSERT
  5
2AF
330
2A8
100
AcDbEntity
  8
0
 62
     0
370
    -2
100
AcDbBlockReference
  2
_ArchTick
 10
-4.04622070674992
 20
44.50443134738321
 30
0.0
 41
0.156
 42
0.156
 43
0.156
 50
180.0
  0
MTEXT
  5
2B0
330
2A8
100
AcDbEntity
  8
0
 62
     0
100
AcDbMText
 10
-1.750054360364259
 20
44.70677583292458
 30
0.0
 40
0.3125
 41
0.0
 71
     5
 72
     1
  1
\A1;4 19/32"
 73
     1
 44
1.0
1001
ACAD
1000
MTEXTBEGIN
1070
    73
1070
     1
1070
    44
1040
1.0
1070
    74
1070
     0
1000
MTEXTEND
  0
MTEXT
  5
2B1
330
2A8
100
AcDbEntity
  8
0
 62
     0
100
AcDbMText
 10
-1.750054360364259
 20
44.28453894657622
 30
0.0
 40
0.3125
 41
0.0
 71
     5
 72
     1
  1
\A1;[117mm]
 73
     1
 44
1.0
1001
ACAD
1000
MTEXTBEGIN
1070
    73
1070
     1
1070
    44
1040
1.0
1070
    74
1070
     0
1000
MTEXTEND
  0
POINT
  5
2B2
330
2A8
100
AcDbEntity
  8
Defpoints
 62
     0
100
AcDbPoint
 10
0.5461119860214012
 20
45.52590858446558
 30
0.0
  0
POINT
  5
2B3
330
2A8
100
AcDbEntity
  8
Defpoints
 62
     0
100
AcDbPoint
 10
-4.04622070674992
 20
45.85215365869899
 30
0.0
  0
POINT
  5
2B4
330
2A8
100
AcDbEntity
  8
Defpoints
 62
     0
100
AcDbPoint
 10
-4.04622070674992
 20
44.50443134738321
 30
0.0
  0
ENDBLK
  5
2B5
330
2A8
100
AcDbEntity
  8
0
100
AcDbBlockEnd
  0
BLOCK
  5
2B8
330
2B7
100
AcDbEntity
  8
0
100
AcDbBlockBegin
  2
*D21
 70
     1
 10
0.0
 20
0.0
 30
0.0
  3
*D21
  1

  0
LINE
  5
2B9
330
2B7
100
AcDbEntity
  8
0
 62
     0
370
    -2
100
AcDbLine
 10
-6.421427443038624
 20
45.81215365869899
 30
0.0
 11
-6.421427443038624
 21
44.47443134738321
 31
0.0
  0
LINE
  5
2BA
330
2B7
100
AcDbEntity
  8
0
 62
     0
370
    -2
100
AcDbLine
 10
-4.04622070674992
 20
45.81215365869903
 30
0.0
 11
-4.04622070674992
 21
44.47443134738321
 31
0.0
  0
LINE
  5
2BB
330
2B7
100
AcDbEntity
  8
0
 62
     0
370
    -2
100
AcDbLine
 10
-6.421427443038624
 20
44.50443134738321
 30
0.0
 11
-5.833900236409204
 21
44.50443134738321
 31
0.0
  0
LINE
  5
2BC
330
2B7
100
AcDbEntity
  8
0
 62
     0
370
    -2
100
AcDbLine
 10
-4.04622070674992
 20
44.50443134738321
 30
0.0
 11
-4.63374791337934
 21
44.50443134738321
 31
0.0
  0
INSERT
  5
2BD
330
2B7
100
AcDbEntity
  8
0
 62
     0
370
    -2
100
AcDbBlockReference
  2
_ArchTick
 10
-6.421427443038624
 20
44.50443134738321
 30
0.0
 41
0.156
 42
0.156
 43
0.156
 50
180.0
  0
INSERT
  5
2BE
330
2B7
100
AcDbEntity
  8
0
 62
     0
370
    -2
100
AcDbBlockReference
  2
_ArchTick
 10
-4.04622070674992
 20
44.50443134738321
 30
0.0
 41
0.156
 42
0.156
 43
0.156
  0
MTEXT
  5
2BF
330
2B7
100
AcDbEntity
  8
0
 62
     0
100
AcDbMText
 10
-5.233824074894272
 20
44.50443134738321
 30
0.0
 40
0.3125
 41
0.0
 71
     5
 72
     1
  1
\A1;DAYLIGHT\POPENING
 73
     1
 44
1.0
1001
ACAD
1000
MTEXTBEGIN
1070
    73
1070
     1
1070
    44
1040
1.0
1070
    74
1070
     0
1000
MTEXTEND
  0
POINT
  5
2C0
330
2B7
100
AcDbEntity
  8
Defpoints
 62
     0
100
AcDbPoint
 10
-6.421427443038624
 20
45.85215365869899
 30
0.0
  0
POINT
  5
2C1
330
2B7
100
AcDbEntity
  8
Defpoints
 62
     0
100
AcDbPoint
 10
-4.04622070674992
 20
45.85215365869903
 30
0.0
  0
POINT
  5
2C2
330
2B7
100
AcDbEntity
  8
Defpoints
 62
     0
100
AcDbPoint
 10
-4.04622070674992
 20
44.50443134738321
 30
0.0
  0
ENDBLK
  5
2C3
330
2B7
100
AcDbEntity
  8
0
100
AcDbBlockEnd
  0
BLOCK
  5
2C8
330
2C7
100
AcDbEntity
  8
0
100
AcDbBlockBegin
  2
*D22
 70
     1
 10
0.0
 20
0.0
 30
0.0
  3
*D22
  1

  0
LINE
  5
2C9
330
2C7
100
AcDbEntity
  8
0
 62
     0
370
    -2
100
AcDbLine
 10
0.6711119860214297
 20
46.59740858446563
 30
0.0
 11
0.6711119860214297
 21
46.69947956460703
 31
0.0
  0
LINE
  5
2CA
330
2C7
100
AcDbEntity
  8
0
 62
     0
370
    -2
100
AcDbLine
 10
1.359117518526772
 20
46.59740858446563
 30
0.0
 11
1.359117518526772
 21
46.69947956460703
 31
0.0
  0
LINE
  5
2CB
330
2C7
100
AcDbEntity
  8
0
 62
     0
370
    -2
100
AcDbLine
 10
0.6711119860214297
 20
46.66947956460703
 30
0.0
 11
1.359117518526772
 21
46.66947956460703
 31
0.0
  0
LINE
  5
2CC
330
2C7
100
AcDbEntity
  8
0
 62
     0
370
    -2
100
AcDbLine
 10
1.359117518526772
 20
46.66947956460703
 30
0.0
 11
1.515117518526773
 21
46.66947956460703
 31
0.0
  0
INSERT
  5
2CD
330
2C7
100
AcDbEntity
  8
0
 62
     0
370
    -2
100
AcDbBlockReference
  2
_ArchTick
 10
0.6711119860214297
 20
46.66947956460703
 30
0.0
 41
0.156
 42
0.156
 43
0.156
 50
180.0
  0
INSERT
  5
2CE
330
2C7
100
AcDbEntity
  8
0
 62
     0
370
    -2
100
AcDbBlockReference
  2
_ArchTick
 10
1.359117518526772
 20
46.66947956460703
 30
0.0
 41
0.156
 42
0.156
 43
0.156
  0
MTEXT
  5
2CF
330
2C7
100
AcDbEntity
  8
0
 62
     0
100
AcDbMText
 10
1.95805577654473
 20
46.87182405014839
 30
0.0
 40
0.3125
 41
0.0
 71
     5
 72
     1
  1
\A1;11/16"
 73
     1
 44
1.0
1001
ACAD
1000
MTEXTBEGIN
1070
    73
1070
     1
1070
    44
1040
1.0
1070
    74
1070
     0
1000
MTEXTEND
  0
MTEXT
  5
2D0
330
2C7
100
AcDbEntity
  8
0
 62
     0
100
AcDbMText
 10
1.95805577654473
 20
46.44958716380004
 30
0.0
 40
0.3125
 41
0.0
 71
     5
 72
     1
  1
\A1;[17mm]
 73
     1
 44
1.0
1001
ACAD
1000
MTEXTBEGIN
1070
    73
1070
     1
1070
    44
1040
1.0
1070
    74
1070
     0
1000
MTEXTEND
  0
POINT
  5
2D1
330
2C7
100
AcDbEntity
  8
Defpoints
 62
     0
100
AcDbPoint
 10
0.6711119860214297
 20
46.55740858446563
 30
0.0
  0
POINT
  5
2D2
330
2C7
100
AcDbEntity
  8
Defpoints
 62
     0
100
AcDbPoint
 10
1.359117518526772
 20
46.55740858446563
 30
0.0
  0
POINT
  5
2D3
330
2C7
100
AcDbEntity
  8
Defpoints
 62
     0
100
AcDbPoint
 10
1.359117518526772
 20
46.66947956460703
 30
0.0
  0
ENDBLK
  5
2D4
330
2C7
100
AcDbEntity
  8
0
100
AcDbBlockEnd
  0
BLOCK
  5
2D9
330
2D8
100
AcDbEntity
  8
0
100
AcDbBlockBegin
  2
*D23
 70
     1
 10
0.0
 20
0.0
 30
0.0
  3
*D23
  1

  0
LINE
  5
2DA
330
2D8
100
AcDbEntity
  8
0
 62
     0
370
    -2
100
AcDbLine
 10
0.1711094876172297
 20
48.76740866429366
 30
0.0
 11
0.1711094876172297
 21
48.66786996746009
 31
0.0
  0
LINE
  5
2DB
330
2D8
100
AcDbEntity
  8
0
 62
     0
370
    -2
100
AcDbLine
 10
1.359117518526772
 20
48.76740866429366
 30
0.0
 11
1.359117518526772
 21
48.66786996746009
 31
0.0
  0
LINE
  5
2DC
330
2D8
100
AcDbEntity
  8
0
 62
     0
370
    -2
100
AcDbLine
 10
0.1711094876172297
 20
48.69786996746009
 30
0.0
 11
1.359117518526772
 21
48.69786996746009
 31
0.0
  0
LINE
  5
2DD
330
2D8
100
AcDbEntity
  8
0
 62
     0
370
    -2
100
AcDbLine
 10
1.359117518526772
 20
48.69786996746009
 30
0.0
 11
1.515117518526772
 21
48.69786996746009
 31
0.0
  0
INSERT
  5
2DE
330
2D8
100
AcDbEntity
  8
0
 62
     0
370
    -2
100
AcDbBlockReference
  2
_ArchTick
 10
0.1711094876172297
 20
48.69786996746009
 30
0.0
 41
0.156
 42
0.156
 43
0.156
 50
180.0
  0
INSERT
  5
2DF
330
2D8
100
AcDbEntity
  8
0
 62
     0
370
    -2
100
AcDbBlockReference
  2
_ArchTick
 10
1.359117518526772
 20
48.69786996746009
 30
0.0
 41
0.156
 42
0.156
 43
0.156
  0
MTEXT
  5
2E0
330
2D8
100
AcDbEntity
  8
0
 62
     0
100
AcDbMText
 10
2.04564297167507
 20
48.69786996746009
 30
0.0
 40
0.3125
 41
0.0
 71
     5
 72
     1
  1
\A1;1 3/16"\P [30mm]
 73
     1
 44
1.0
1001
ACAD
1000
MTEXTBEGIN
1070
    73
1070
     1
1070
    44
1040
1.0
1070
    74
1070
     0
1000
MTEXTEND
  0
POINT
  5
2E1
330
2D8
100
AcDbEntity
  8
Defpoints
 62
     0
100
AcDbPoint
 10
0.1711094876172297
 20
48.80740866429366
 30
0.0
  0
POINT
  5
2E2
330
2D8
100
AcDbEntity
  8
Defpoints
 62
     0
100
AcDbPoint
 10
1.359117518526772
 20
48.80740866429366
 30
0.0
  0
POINT
  5
2E3
330
2D8
100
AcDbEntity
  8
Defpoints
 62
     0
100
AcDbPoint
 10
1.359117518526772
 20
48.69786996746009
 30
0.0
  0
ENDBLK
  5
2E4
330
2D8
100
AcDbEntity
  8
0
100
AcDbBlockEnd
  0
BLOCK
  5
2E9
330
2E8
100
AcDbEntity
  8
0
100
AcDbBlockBegin
  2
*D24
 70
     1
 10
0.0
 20
0.0
 30
0.0
  3
*D24
  1

  0
LINE
  5
2EA
330
2E8
100
AcDbEntity
  8
0
 62
     0
370
    -2
100
AcDbLine
 10
-11.8167656683153
 20
50.02640858446572
 30
0.0
 11
-13.09761142288373
 21
50.02640858446572
 31
0.0
  0
LINE
  5
2EB
330
2E8
100
AcDbEntity
  8
0
 62
     0
370
    -2
100
AcDbLine
 10
-12.67878393225101
 20
45.5259085844657
 30
0.0
 11
-13.09761142288373
 21
45.5259085844657
 31
0.0
  0
LINE
  5
2EC
330
2E8
100
AcDbEntity
  8
0
 62
     0
370
    -2
100
AcDbLine
 10
-13.06761142288374
 20
50.02640858446572
 30
0.0
 11
-13.06761142288374
 21
48.19839547081405
 31
0.0
  0
LINE
  5
2ED
330
2E8
100
AcDbEntity
  8
0
 62
     0
370
    -2
100
AcDbLine
 10
-13.06761142288374
 20
45.5259085844657
 30
0.0
 11
-13.06761142288374
 21
47.35392169811735
 31
0.0
  0
INSERT
  5
2EE
330
2E8
100
AcDbEntity
  8
0
 62
     0
370
    -2
100
AcDbBlockReference
  2
_ArchTick
 10
-13.06761142288374
 20
50.02640858446572
 30
0.0
 41
0.156
 42
0.156
 43
0.156
 50
90.0
  0
INSERT
  5
2EF
330
2E8
100
AcDbEntity
  8
0
 62
     0
370
    -2
100
AcDbBlockReference
  2
_ArchTick
 10
-13.06761142288374
 20
45.5259085844657
 30
0.0
 41
0.156
 42
0.156
 43
0.156
 50
270.0
  0
MTEXT
  5
2F0
330
2E8
100
AcDbEntity
  8
0
 62
     0
100
AcDbMText
 10
-13.06761142288374
 20
47.97850307000707
 30
0.0
 40
0.3125
 41
0.0
 71
     5
 72
     1
  1
\A1;4 1/2"
 73
     1
 44
1.0
1001
ACAD
1000
MTEXTBEGIN
1070
    73
1070
     1
1070
    44
1040
1.0
1070
    74
1070
     0
1000
MTEXTEND
  0
MTEXT
  5
2F1
330
2E8
100
AcDbEntity
  8
0
 62
     0
100
AcDbMText
 10
-13.06761142288374
 20
47.55626618365871
 30
0.0
 40
0.3125
 41
0.0
 71
     5
 72
     1
  1
\A1;[114mm]
 73
     1
 44
1.0
1001
ACAD
1000
MTEXTBEGIN
1070
    73
1070
     1
1070
    44
1040
1.0
1070
    74
1070
     0
1000
MTEXTEND
  0
POINT
  5
2F2
330
2E8
100
AcDbEntity
  8
Defpoints
 62
     0
100
AcDbPoint
 10
-11.7767656683153
 20
50.02640858446572
 30
0.0
  0
POINT
  5
2F3
330
2E8
100
AcDbEntity
  8
Defpoints
 62
     0
100
AcDbPoint
 10
-12.63878393225101
 20
45.5259085844657
 30
0.0
  0
POINT
  5
2F4
330
2E8
100
AcDbEntity
  8
Defpoints
 62
     0
100
AcDbPoint
 10
-13.06761142288374
 20
45.5259085844657
 30
0.0
  0
ENDBLK
  5
2F5
330
2E8
100
AcDbEntity
  8
0
100
AcDbBlockEnd
  0
BLOCK
  5
2F9
330
2F8
100
AcDbEntity
  8
0
100
AcDbBlockBegin
  2
*D25
 70
     1
 10
0.0
 20
0.0
 30
0.0
  3
*D25
  1

  0
LINE
  5
2FA
330
2F8
100
AcDbEntity
  8
0
 62
     0
370
    -2
100
AcDbLine
 10
-7.461416922777337
 20
68.71960560890705
 30
0.0
 11
-10.18762740986926
 21
68.71960560890705
 31
0.0
  0
LINE
  5
2FB
330
2F8
100
AcDbEntity
  8
0
 62
     0
370
    -2
100
AcDbLine
 10
-6.13417184854399
 20
63.31426738363035
 30
0.0
 11
-10.18762740986926
 21
63.31426738363035
 31
0.0
  0
LINE
  5
2FC
330
2F8
100
AcDbEntity
  8
0
 62
     0
370
    -2
100
AcDbLine
 10
-10.15762740986926
 20
68.71960560890705
 30
0.0
 11
-10.15762740986926
 21
66.43917338261705
 31
0.0
  0
LINE
  5
2FD
330
2F8
100
AcDbEntity
  8
0
 62
     0
370
    -2
100
AcDbLine
 10
-10.15762740986926
 20
63.31426738363035
 30
0.0
 11
-10.15762740986926
 21
65.59469960992034
 31
0.0
  0
INSERT
  5
2FE
330
2F8
100
AcDbEntity
  8
0
 62
     0
370
    -2
100
AcDbBlockReference
  2
_ArchTick
 10
-10.15762740986926
 20
68.71960560890705
 30
0.0
 41
0.156
 42
0.156
 43
0.156
 50
90.0
  0
INSERT
  5
2FF
330
2F8
100
AcDbEntity
  8
0
 62
     0
370
    -2
100
AcDbBlockReference
  2
_ArchTick
 10
-10.15762740986926
 20
63.31426738363035
 30
0.0
 41
0.156
 42
0.156
 43
0.156
 50
270.0
  0
MTEXT
  5
300
330
2F8
100
AcDbEntity
  8
0
 62
     0
100
AcDbMText
 10
-10.15762740986927
 20
66.21928098181006
 30
0.0
 40
0.3125
 41
0.0
 71
     5
 72
     1
  1
\A1;5 13/32"
 73
     1
 44
1.0
1001
ACAD
1000
MTEXTBEGIN
1070
    73
1070
     1
1070
    44
1040
1.0
1070
    74
1070
     0
1000
MTEXTEND
  0
MTEXT
  5
301
330
2F8
100
AcDbEntity
  8
0
 62
     0
100
AcDbMText
 10
-10.15762740986927
 20
65.7970440954617
 30
0.0
 40
0.3125
 41
0.0
 71
     5
 72
     1
  1
\A1;[137mm]
 73
     1
 44
1.0
1001
ACAD
1000
MTEXTBEGIN
1070
    73
1070
     1
1070
    44
1040
1.0
1070
    74
1070
     0
1000
MTEXTEND
  0
POINT
  5
302
330
2F8
100
AcDbEntity
  8
Defpoints
 62
     0
100
AcDbPoint
 10
-7.421416922777337
 20
68.71960560890705
 30
0.0
  0
POINT
  5
303
330
2F8
100
AcDbEntity
  8
Defpoints
 62
     0
100
AcDbPoint
 10
-6.09417184854399
 20
63.31426738363035
 30
0.0
  0
POINT
  5
304
330
2F8
100
AcDbEntity
  8
Defpoints
 62
     0
100
AcDbPoint
 10
-10.15762740986926
 20
63.31426738363035
 30
0.0
  0
ENDBLK
  5
305
330
2F8
100
AcDbEntity
  8
0
100
AcDbBlockEnd
  0
BLOCK
  5
308
330
307
100
AcDbEntity
  8
0
100
AcDbBlockBegin
  2
*D26
 70
     1
 10
0.0
 20
0.0
 30
0.0
  3
*D26
  1

  0
LINE
  5
309
330
307
100
AcDbEntity
  8
0
 62
     0
370
    -2
100
AcDbLine
 10
-6.134171848544019
 20
61.93906064734164
 30
0.0
 11
-10.18762740986926
 21
61.93906064734164
 31
0.0
  0
LINE
  5
30A
330
307
100
AcDbEntity
  8
0
 62
     0
370
    -2
100
AcDbLine
 10
-7.530535988559067
 20
53.25122795457031
 30
0.0
 11
-10.18762740986926
 21
53.25122795457031
 31
0.0
  0
LINE
  5
30B
330
307
100
AcDbEntity
  8
0
 62
     0
370
    -2
100
AcDbLine
 10
-10.15762740986926
 20
61.93906064734164
 30
0.0
 11
-10.15762740986926
 21
58.01738118730433
 31
0.0
  0
LINE
  5
30C
330
307
100
AcDbEntity
  8
0
 62
     0
370
    -2
100
AcDbLine
 10
-10.15762740986926
 20
53.25122795457031
 30
0.0
 11
-10.15762740986926
 21
57.17290741460763
 31
0.0
  0
INSERT
  5
30D
330
307
100
AcDbEntity
  8
0
 62
     0
370
    -2
100
AcDbBlockReference
  2
_ArchTick
 10
-10.15762740986926
 20
61.93906064734164
 30
0.0
 41
0.156
 42
0.156
 43
0.156
 50
90.0
  0
INSERT
  5
30E
330
307
100
AcDbEntity
  8
0
 62
     0
370
    -2
100
AcDbBlockReference
  2
_ArchTick
 10
-10.15762740986926
 20
53.25122795457031
 30
0.0
 41
0.156
 42
0.156
 43
0.156
 50
270.0
  0
MTEXT
  5
30F
330
307
100
AcDbEntity
  8
0
 62
     0
100
AcDbMText
 10
-10.15762740986927
 20
57.79748878649733
 30
0.0
 40
0.3125
 41
0.0
 71
     5
 72
     1
  1
\A1;8 11/16"
 73
     1
 44
1.0
1001
ACAD
1000
MTEXTBEGIN
1070
    73
1070
     1
1070
    44
1040
1.0
1070
    74
1070
     0
1000
MTEXTEND
  0
MTEXT
  5
310
330
307
100
AcDbEntity
  8
0
 62
     0
100
AcDbMText
 10
-10.15762740986927
 20
57.37525190014899
 30
0.0
 40
0.3125
 41
0.0
 71
     5
 72
     1
  1
\A1;[221mm]
 73
     1
 44
1.0
1001
ACAD
1000
MTEXTBEGIN
1070
    73
1070
     1
1070
    44
1040
1.0
1070
    74
1070
     0
1000
MTEXTEND
  0
POINT
  5
311
330
307
100
AcDbEntity
  8
Defpoints
 62
     0
100
AcDbPoint
 10
-6.094171848544019
 20
61.93906064734164
 30
0.0
  0
POINT
  5
312
330
307
100
AcDbEntity
  8
Defpoints
 62
     0
100
AcDbPoint
 10
-7.490535988559067
 20
53.25122795457031
 30
0.0
  0
POINT
  5
313
330
307
100
AcDbEntity
  8
Defpoints
 62
     0
100
AcDbPoint
 10
-10.15762740986926
 20
53.25122795457031
 30
0.0
  0
ENDBLK
  5
314
330
307
100
AcDbEntity
  8
0
100
AcDbBlockEnd
  0
BLOCK
  5
317
330
316
100
AcDbEntity
  8
0
100
AcDbBlockBegin
  2
*D27
 70
     1
 10
0.0
 20
0.0
 30
0.0
  3
*D27
  1

  0
LINE
  5
318
330
316
100
AcDbEntity
  8
0
 62
     0
370
    -2
100
AcDbLine
 10
-6.421427443038624
 20
45.81215365869899
 30
0.0
 11
-6.421427443038624
 21
43.34070075102234
 31
0.0
  0
LINE
  5
319
330
316
100
AcDbEntity
  8
0
 62
     0
370
    -2
100
AcDbLine
 10
-11.82676566831531
 20
44.48490858446566
 30
0.0
 11
-11.82676566831531
 21
43.34070075102234
 31
0.0
  0
LINE
  5
31A
330
316
100
AcDbEntity
  8
0
 62
     0
370
    -2
100
AcDbLine
 10
-6.421427443038624
 20
43.37070075102234
 30
0.0
 11
-8.535425253015739
 21
43.37070075102234
 31
0.0
  0
LINE
  5
31B
330
316
100
AcDbEntity
  8
0
 62
     0
370
    -2
100
AcDbLine
 10
-11.82676566831531
 20
43.37070075102234
 30
0.0
 11
-9.712767858338201
 21
43.37070075102234
 31
0.0
  0
INSERT
  5
31C
330
316
100
AcDbEntity
  8
0
 62
     0
370
    -2
100
AcDbBlockReference
  2
_ArchTick
 10
-6.421427443038624
 20
43.37070075102234
 30
0.0
 41
0.156
 42
0.156
 43
0.156
  0
INSERT
  5
31D
330
316
100
AcDbEntity
  8
0
 62
     0
370
    -2
100
AcDbBlockReference
  2
_ArchTick
 10
-11.82676566831531
 20
43.37070075102234
 30
0.0
 41
0.156
 42
0.156
 43
0.156
 50
180.0
  0
MTEXT
  5
31E
330
316
100
AcDbEntity
  8
0
 62
     0
100
AcDbMText
 10
-9.12409655567697
 20
43.57304523656369
 30
0.0
 40
0.3125
 41
0.0
 71
     5
 72
     1
  1
\A1;5 13/32"
 73
     1
 44
1.0
1001
ACAD
1000
MTEXTBEGIN
1070
    73
1070
     1
1070
    44
1040
1.0
1070
    74
1070
     0
1000
MTEXTEND
  0
MTEXT
  5
31F
330
316
100
AcDbEntity
  8
0
 62
     0
100
AcDbMText
 10
-9.12409655567697
 20
43.15080835021535
 30
0.0
 40
0.3125
 41
0.0
 71
     5
 72
     1
  1
\A1;[137mm]
 73
     1
 44
1.0
1001
ACAD
1000
MTEXTBEGIN
1070
    73
1070
     1
1070
    44
1040
1.0
1070
    74
1070
     0
1000
MTEXTEND
  0
POINT
  5
320
330
316
100
AcDbEntity
  8
Defpoints
 62
     0
100
AcDbPoint
 10
-6.421427443038624
 20
45.85215365869899
 30
0.0
  0
POINT
  5
321
330
316
100
AcDbEntity
  8
Defpoints
 62
     0
100
AcDbPoint
 10
-11.82676566831531
 20
44.52490858446566
 30
0.0
  0
POINT
  5
322
330
316
100
AcDbEntity
  8
Defpoints
 62
     0
100
AcDbPoint
 10
-11.82676566831531
 20
43.37070075102234
 30
0.0
  0
ENDBLK
  5
323
330
316
100
AcDbEntity
  8
0
100
AcDbBlockEnd
  0
BLOCK
  5
326
330
325
100
AcDbEntity
  8
0
100
AcDbBlockBegin
  2
*D28
 70
     1
 10
0.0
 20
0.0
 30
0.0
  3
*D28
  1

  0
LINE
  5
327
330
325
100
AcDbEntity
  8
0
 62
     0
370
    -2
100
AcDbLine
 10
-4.04622070674992
 20
45.81215365869903
 30
0.0
 11
-4.04622070674992
 21
43.34070075102234
 31
0.0
  0
LINE
  5
328
330
325
100
AcDbEntity
  8
0
 62
     0
370
    -2
100
AcDbLine
 10
1.359117518526772
 20
44.48490858446566
 30
0.0
 11
1.359117518526772
 21
43.34070075102234
 31
0.0
  0
LINE
  5
329
330
325
100
AcDbEntity
  8
0
 62
     0
370
    -2
100
AcDbLine
 10
-4.04622070674992
 20
43.37070075102234
 30
0.0
 11
-1.932222896772804
 21
43.37070075102234
 31
0.0
  0
LINE
  5
32A
330
325
100
AcDbEntity
  8
0
 62
     0
370
    -2
100
AcDbLine
 10
1.359117518526772
 20
43.37070075102234
 30
0.0
 11
-0.7548802914503435
 21
43.37070075102234
 31
0.0
  0
INSERT
  5
32B
330
325
100
AcDbEntity
  8
0
 62
     0
370
    -2
100
AcDbBlockReference
  2
_ArchTick
 10
-4.04622070674992
 20
43.37070075102234
 30
0.0
 41
0.156
 42
0.156
 43
0.156
 50
180.0
  0
INSERT
  5
32C
330
325
100
AcDbEntity
  8
0
 62
     0
370
    -2
100
AcDbBlockReference
  2
_ArchTick
 10
1.359117518526772
 20
43.37070075102234
 30
0.0
 41
0.156
 42
0.156
 43
0.156
  0
MTEXT
  5
32D
330
325
100
AcDbEntity
  8
0
 62
     0
100
AcDbMText
 10
-1.343551594111573
 20
43.57304523656369
 30
0.0
 40
0.3125
 41
0.0
 71
     5
 72
     1
  1
\A1;5 13/32"
 73
     1
 44
1.0
1001
ACAD
1000
MTEXTBEGIN
1070
    73
1070
     1
1070
    44
1040
1.0
1070
    74
1070
     0
1000
MTEXTEND
  0
MTEXT
  5
32E
330
325
100
AcDbEntity
  8
0
 62
     0
100
AcDbMText
 10
-1.343551594111573
 20
43.15080835021535
 30
0.0
 40
0.3125
 41
0.0
 71
     5
 72
     1
  1
\A1;[137mm]
 73
     1
 44
1.0
1001
ACAD
1000
MTEXTBEGIN
1070
    73
1070
     1
1070
    44
1040
1.0
1070
    74
1070
     0
1000
MTEXTEND
  0
POINT
  5
32F
330
325
100
AcDbEntity
  8
Defpoints
 62
     0
100
AcDbPoint
 10
-4.04622070674992
 20
45.85215365869903
 30
0.0
  0
POINT
  5
330
330
325
100
AcDbEntity
  8
Defpoints
 62
     0
100
AcDbPoint
 10
1.359117518526772
 20
44.52490858446566
 30
0.0
  0
POINT
  5
331
330
325
100
AcDbEntity
  8
Defpoints
 62
     0
100
AcDbPoint
 10
1.359117518526772
 20
43.37070075102234
 30
0.0
  0
ENDBLK
  5
332
330
325
100
AcDbEntity
  8
0
100
AcDbBlockEnd
  0
ENDSEC
  0
SECTION
  2
ENTITIES
  0
LWPOLYLINE
  5
6A
102
{ACAD_REACTORS
330
21B
102
}
330
2
100
AcDbEntity
  8
0
  6
Continuous
100
AcDbPolyline
 90
       19
 70
     1
 43
0.0
 10
-5.107416922777389
 20
63.62710007640171
 10
-5.107416922777389
 20
63.87676738363035
 10
-5.294416922777401
 20
63.87676738363035
 10
-5.294416922777401
 20
63.97660007640173
 42
1.045128398166766
 10
-5.48100887352561
 20
63.96735859205467
 42
-0.4419056050544676
 10
-5.56364546006489
 20
63.8766000764017
 10
-6.420416922777405
 20
63.8766000764017
 10
-6.482416922777417
 20
63.93860007640171
 10
-6.482416922777417
 20
67.84460007640172
 42
-0.4142135623730951
 10
-6.420416922777405
 20
67.9066000764017
 10
-4.794416922777401
 20
67.9066000764017
 42
-0.4142135623730951
 10
-4.732416922777417
 20
67.84460007640172
 10
-4.732416922777417
 20
63.62738015349975
 10
-4.794416922777401
 20
63.56538015349975
 10
-4.827455869895686
 20
63.56538015349975
 42
-0.3899024490717814
 10
-5.012455869895688
 20
63.36420730217259
 10
-5.012455869895688
 20
63.31460007640169
 10
-5.107416922777417
 20
63.31460007640171
 10
-5.107416922777417
 20
63.43960007640172
 42
0.7066666666666829
  0
LWPOLYLINE
  5
6B
102
{ACAD_REACTORS
330
1F9
330
20A
330
23C
102
}
330
2
100
AcDbEntity
  8
0
  6
Continuous
100
AcDbPolyline
 90
       19
 70
     1
 43
0.0
 10
-5.107416922777417
 20
61.62622795457028
 10
-5.107416922777417
 20
61.37656064734165
 10
-5.294416922777372
 20
61.37656064734165
 10
-5.294416922777372
 20
61.27672795457027
 42
-1.045128398166766
 10
-5.481008873525581
 20
61.28596943891733
 42
0.4419056050544676
 10
-5.56364546006489
 20
61.3767279545703
 10
-6.420416922777405
 20
61.3767279545703
 10
-6.482416922777417
 20
61.31472795457028
 10
-6.482416922777417
 20
54.62572795457029
 42
0.4142135623730951
 10
-6.420416922777405
 20
54.56372795457031
 10
-4.794416922777429
 20
54.56372795457031
 42
0.4142135623730951
 10
-4.732416922777417
 20
54.62572795457029
 10
-4.732416922777417
 20
61.62594787747224
 10
-4.794416922777429
 20
61.68794787747225
 10
-4.827455869895686
 20
61.68794787747225
 42
0.3899024490717814
 10
-5.012455869895688
 20
61.88912072879941
 10
-5.012455869895688
 20
61.93872795457031
 10
-5.107416922777417
 20
61.93872795457028
 10
-5.107416922777417
 20
61.81372795457028
 42
-0.7066666666666826
  0
LINE
  5
6C
330
2
100
AcDbEntity
  8
0
  6
Continuous
100
AcDbLine
 10
-4.732384752033027
 20
54.56372795457031
 30
0.0
 11
-6.482416922777417
 21
54.56372795457031
 31
0.0
  0
LINE
  5
6D
330
2
100
AcDbEntity
  8
0
  6
Continuous
100
AcDbLine
 10
-6.482416922777417
 20
54.56372795457031
 30
0.0
 11
-6.482416922777417
 21
54.4547279545703
 31
0.0
  0
LINE
  5
6E
330
2
100
AcDbEntity
  8
0
  6
Continuous
100
AcDbLine
 10
-6.482416922777417
 20
54.4547279545703
 30
0.0
 11
-4.62341692277738
 21
54.4547279545703
 31
0.0
  0
LINE
  5
6F
330
2
100
AcDbEntity
  8
0
  6
Continuous
100
AcDbLine
 10
-4.62341692277738
 20
54.4547279545703
 30
0.0
 11
-4.62341692277738
 21
54.7517279545703
 31
0.0
  0
ARC
  5
70
330
2
100
AcDbEntity
  8
0
  6
Continuous
100
AcDbCircle
 10
-4.685416922777392
 20
54.7517279545703
 30
0.0
 40
0.0620000000000118
100
AcDbArc
 50
0.0
 51
90.0
  0
LINE
  5
71
330
2
100
AcDbEntity
  8
0
  6
Continuous
100
AcDbLine
 10
-4.685416922777392
 20
54.81372795457031
 30
0.0
 11
-4.732416922777417
 21
54.81372795457031
 31
0.0
  0
LINE
  5
72
330
2
100
AcDbEntity
  8
0
  6
Continuous
100
AcDbLine
 10
-4.732416922777417
 20
54.81372795457031
 30
0.0
 11
-4.732416922777417
 21
54.56372795457031
 31
0.0
  0
LWPOLYLINE
  5
73
102
{ACAD_REACTORS
330
199
102
}
330
2
100
AcDbEntity
  8
0
100
AcDbPolyline
 90
       15
 70
     0
 43
0.0
 10
-7.421416922777337
 20
68.34360560890707
 42
0.4142135623730951
 10
-7.359416922777326
 20
68.28160560890705
 10
-6.482416922777373
 20
68.28160560890705
 10
-6.482416922777259
 20
69.53160560890705
 10
-6.420416922777304
 20
69.53160560890705
 10
-6.420416922777333
 20
70.15660560890705
 10
-7.483416922777321
 20
70.15660560890705
 42
0.4142135623731003
 10
-7.545416922777333
 20
70.09460560890705
 10
-7.545416922777333
 20
69.56260560890706
 42
0.4142135623730951
 10
-7.514416922777327
 20
69.53160560890705
 10
-7.483416922777321
 20
69.53160560890705
 10
-7.483416922777321
 20
69.31260560890706
 42
0.4142135623730951
 10
-7.452416922777315
 20
69.28160560890706
 10
-7.421416922777337
 20
69.28160560890706
 10
-7.421416922777337
 20
68.34360561837638
  0
HATCH
  5
74
330
2
100
AcDbEntity
  8
0
  6
Continuous
100
AcDbHatch
 10
0.0
 20
0.0
 30
0.0
210
0.0
220
0.0
230
1.0
  2
STEEL
 70
     0
 71
     0
 91
        1
 92
        7
 72
     0
 73
     1
 93
        6
 10
-6.420416922777361
 20
68.78160560890705
 10
-6.420416922777276
 20
69.50142387284273
 10
-6.482416922777288
 20
69.50142387284273
 10
-6.482416922777373
 20
68.71960560890705
 10
-5.825285528502616
 20
68.71960560890705
 10
-5.825285528502616
 20
68.78160560890705
 97
        0
 75
     0
 76
     1
 52
-0.0000000000000127
 41
1.0
 77
     0
 78
     2
 53
44.99999999999999
 43
91.47296791274838
 44
25.51555312789998
 45
-0.0883883476483184
 46
0.0883883476483185
 79
     0
 53
44.99999999999999
 43
91.47296791274838
 44
25.57805312789998
 45
-0.0883883476483184
 46
0.0883883476483185
 79
     0
 47
0.003572857848563
 98
        1
 10
-6.311841357632955
 20
68.75398752195081
  0
LINE
  5
75
330
2
100
AcDbEntity
  8
0
100
AcDbLine
 10
-6.482416922777288
 20
69.50142387284273
 30
0.0
 11
-6.482416922777373
 21
68.71960560890705
 31
0.0
  0
LINE
  5
76
330
2
100
AcDbEntity
  8
0
  6
Continuous
100
AcDbLine
 10
-6.482416922777373
 20
68.71960560890705
 30
0.0
 11
-5.825285528502616
 21
68.71960560890705
 31
0.0
  0
LINE
  5
77
330
2
100
AcDbEntity
  8
0
  6
Continuous
100
AcDbLine
 10
-6.420416922777361
 20
68.78160560890705
 30
0.0
 11
-5.825285528502616
 21
68.78160560890705
 31
0.0
  0
LINE
  5
78
330
2
100
AcDbEntity
  8
0
  6
Continuous
100
AcDbLine
 10
-5.825285528502616
 20
68.78160560890705
 30
0.0
 11
-5.825285528502616
 21
68.71960560890705
 31
0.0
  0
LINE
  5
79
330
2
100
AcDbEntity
  8
0
100
AcDbLine
 10
-6.420416922777276
 20
69.50142387284273
 30
0.0
 11
-6.420416922777361
 21
68.78160560890705
 31
0.0
  0
INSERT
  5
7A
330
2
100
AcDbEntity
  8
0
100
AcDbBlockReference
  2
8 x .75 FH
 10
-6.420416922777333
 20
69.14151474087493
 30
0.0
 50
270.0
  0
INSERT
  5
C8
330
2
100
AcDbEntity
  8
0
100
AcDbBlockReference
  2
8 X .625 PH
 10
-6.122851225639989
 20
68.78160560890705
 30
0.0
  0
LINE
  5
11D
330
2
100
AcDbEntity
  8
0
100
AcDbLine
 10
-6.420416922777276
 20
69.50142387284273
 30
0.0
 11
-6.482416922777259
 21
69.50142387284277
 31
0.0
  0
HATCH
  5
11E
330
2
100
AcDbEntity
  8
0
100
AcDbHatch
 10
0.0
 20
0.0
 30
0.0
210
0.0
220
0.0
230
1.0
  2
SOLID
 70
     1
 71
     0
 91
        1
 92
        7
 72
     1
 73
     1
 93
        2
 10
-5.107416922777417
 20
63.43926738363035
 42
0.0
 10
-5.107416922777389
 20
63.62676738363032
 42
-0.6666666666666311
 97
        0
 75
     1
 76
     1
 47
0.0010014887122476
 98
        1
 10
-5.061356846430498
 20
63.55417257967449
1001
GradientColor1ACI
1070
     5
1001
GradientColor2ACI
1070
     2
1001
ACAD
1010
0.0
1020
0.0
1030
0.0
  0
HATCH
  5
121
330
2
100
AcDbEntity
  8
0
100
AcDbHatch
 10
0.0
 20
0.0
 30
0.0
210
0.0
220
0.0
230
1.0
  2
SOLID
 70
     1
 71
     0
 91
        1
 92
        7
 72
     1
 73
     1
 93
        2
 10
-6.016647080257484
 20
63.43926738363035
 42
0.0
 10
-6.016647080257513
 20
63.62676738363032
 42
0.6666666666666311
 97
        0
 75
     1
 76
     1
 47
0.0010014887122476
 98
        1
 10
-6.062707156604403
 20
63.55417257967449
1001
GradientColor1ACI
1070
     5
1001
GradientColor2ACI
1070
     2
1001
ACAD
1010
0.0
1020
0.0
1030
0.0
  0
LWPOLYLINE
  5
122
102
{ACAD_REACTORS
330
21B
330
22C
102
}
330
2
100
AcDbEntity
  8
0
100
AcDbPolyline
 90
       11
 70
     1
 43
0.0
 10
-6.016647080257513
 20
63.62676738363032
 10
-6.016647080257513
 20
63.87676738363035
 10
-6.390647080257508
 20
63.87676738363032
 10
-6.390647080257537
 20
63.59526738363033
 42
0.4142135623731695
 10
-6.359647080257531
 20
63.56426738363035
 10
-6.313122311971056
 20
63.56426738363035
 42
-0.235730494161761
 10
-6.288346117395036
 20
63.55189908195152
 10
-6.118948043120013
 20
63.32663568530918
 42
0.235730494161718
 10
-6.094171848543993
 20
63.31426738363035
 10
-6.016647080257484
 20
63.31426738363035
 10
-6.016647080257484
 20
63.43926738363035
 42
-0.6666666666666588
  0
LWPOLYLINE
  5
123
330
2
100
AcDbEntity
  8
0
100
AcDbPolyline
 90
        4
 70
     0
 43
0.0
 10
-5.265157001517451
 20
62.689164015486
 10
-5.265157001517451
 20
63.76776738362997
 10
-5.107416922777389
 20
63.76776738362997
 10
-5.107416922777389
 20
62.689164015486
  0
LWPOLYLINE
  5
124
330
2
100
AcDbEntity
  8
0
100
AcDbPolyline
 90
        4
 70
     0
 43
0.0
 10
-5.858907001517451
 20
62.689164015486
 10
-5.858907001517451
 20
63.76776738362997
 10
-6.016647080257513
 20
63.76776738362997
 10
-6.016647080257513
 20
62.689164015486
  0
LWPOLYLINE
  5
125
330
2
100
AcDbEntity
  8
0
100
AcDbPolyline
 90
       14
 70
     1
 43
0.0
 10
-5.749532001517451
 20
63.55794264268144
 42
-0.3359746306540741
 10
-5.782035911264443
 20
63.53757988362969
 10
-5.817907001517284
 20
63.56176738362984
 42
0.4142135623730951
 10
-5.833532001517284
 20
63.54614238362984
 10
-5.833532001517284
 20
63.36451738362967
 10
-5.290532001517618
 20
63.36451738362967
 10
-5.290532001517618
 20
63.54614238362984
 42
0.414213562373094
 10
-5.306157001517618
 20
63.56176738362984
 10
-5.341644789575781
 20
63.53757988362969
 42
-0.3208708054700532
 10
-5.374532001517451
 20
63.55830555176209
 10
-5.374532001517451
 20
63.61514238363025
 42
0.4142135623730951
 10
-5.390157001517451
 20
63.63076738363026
 10
-5.733907001517451
 20
63.63076738363026
 42
0.4142135623730951
 10
-5.749532001517451
 20
63.61514238363025
  0
LWPOLYLINE
  5
126
330
2
100
AcDbEntity
  8
0
100
AcDbPolyline
 90
       14
 70
     1
 43
0.0
 10
-5.742532001516934
 20
63.55672424253708
 42
-0.3593608004949541
 10
-5.784531888840916
 20
63.53082022665631
 10
-5.819750835953215
 20
63.55456799337509
 42
0.3524310491054993
 10
-5.826532001517676
 20
63.54614238362984
 10
-5.826532001517676
 20
63.36451738362967
 10
-5.297532001517225
 20
63.36451738362967
 10
-5.297532001517225
 20
63.54614238362984
 42
0.3518693664465323
 10
-5.304296329218828
 20
63.55456429099132
 10
-5.339220720384815
 20
63.53076078681198
 42
-0.3446308864324803
 10
-5.381532001517967
 20
63.5569997008136
 10
-5.381532001517967
 20
63.61514238363025
 42
0.4142135623730946
 10
-5.390157001517451
 20
63.62376738362974
 10
-5.733907001517451
 20
63.62376738362974
 42
0.4142135623730946
 10
-5.742532001516934
 20
63.61514238363025
  0
LWPOLYLINE
  5
127
330
2
100
AcDbEntity
  8
0
100
AcDbPolyline
 90
       10
 70
     1
 43
0.0
 10
-5.718282001517451
 20
63.55320488362969
 42
-0.3584554666094669
 10
-5.783185847670807
 20
63.50632988362969
 10
-5.802282001517284
 20
63.50632988362969
 10
-5.802282001517284
 20
63.39576738362968
 10
-5.321782001517618
 20
63.39576738362968
 10
-5.321782001517618
 20
63.50632988362969
 10
-5.340878155364094
 20
63.50632988362969
 42
-0.3467993108968364
 10
-5.405782001517451
 20
63.55320488362969
 10
-5.405782001517451
 20
63.59951738363026
 10
-5.718282001517451
 20
63.59951738363026
  0
LWPOLYLINE
  5
128
330
2
100
AcDbEntity
  8
0
100
AcDbPolyline
 90
        6
 70
     0
 43
0.0
 10
-5.833532001517284
 20
63.39276738362997
 10
-5.843282001517451
 20
63.39276738362997
 10
-5.843282001517451
 20
63.35476738362951
 10
-5.280782001517451
 20
63.35476738362951
 10
-5.280782001517451
 20
63.39276738362997
 10
-5.290532001517618
 20
63.39276738362997
  0
LINE
  5
129
330
2
100
AcDbEntity
  8
0
100
AcDbLine
 10
-5.290532001517618
 20
63.54614238362984
 30
0.0
 11
-5.265157001517451
 21
63.54614238362984
 31
0.0
  0
LINE
  5
12A
330
2
100
AcDbEntity
  8
0
100
AcDbLine
 10
-5.290532001517618
 20
63.39276738362997
 30
0.0
 11
-5.265157001517451
 21
63.39276738362997
 31
0.0
  0
LINE
  5
12B
330
2
100
AcDbEntity
  8
0
100
AcDbLine
 10
-5.833532001517284
 20
63.54614238362984
 30
0.0
 11
-5.858907001517451
 21
63.54614238362984
 31
0.0
  0
LINE
  5
12C
330
2
100
AcDbEntity
  8
0
100
AcDbLine
 10
-5.833532001517284
 20
63.39276738362997
 30
0.0
 11
-5.858907001517451
 21
63.39276738362997
 31
0.0
  0
HATCH
  5
12D
330
2
100
AcDbEntity
  8
0
  6
Continuous
100
AcDbHatch
 10
0.0
 20
0.0
 30
0.0
210
0.0
220
0.0
230
1.0
  2
DOTS
 70
     0
 71
     0
 91
        2
 92
        7
 72
     0
 73
     1
 93
        4
 10
-5.833532001517284
 20
63.54614238362984
 10
-5.858907001517451
 20
63.54614238362984
 10
-5.858907001517451
 20
63.39276738362997
 10
-5.833532001517284
 20
63.39276738362997
 97
        0
 92
        7
 72
     0
 73
     1
 93
        4
 10
-5.265157001517451
 20
63.54614238362984
 10
-5.290532001517618
 20
63.54614238362984
 10
-5.290532001517618
 20
63.39276738362997
 10
-5.265157001517451
 20
63.39276738362997
 97
        0
 75
     0
 76
     1
 52
360.0
 41
0.1
 77
     0
 78
     1
 53
360.0
 43
-11.95238674705402
 44
65.84047212721663
 45
0.003125
 46
-0.00625
 79
     2
 49
0.0
 49
-0.00625
 47
0.0006001443632006
 98
        2
 10
-5.845252291664706
 20
63.48855744358144
 10
-5.275367362268895
 20
63.48495656978258
  0
HATCH
  5
12E
330
2
100
AcDbEntity
  8
0
  6
Continuous
100
AcDbHatch
 10
0.0
 20
0.0
 30
0.0
210
0.0
220
0.0
230
1.0
  2
DASH
 70
     0
 71
     0
 91
        1
 92
        7
 72
     1
 73
     1
 93
       16
 10
-5.390157001517451
 20
63.63076738363026
 42
-0.4142135623730951
 10
-5.374532001517451
 20
63.61514238363025
 42
0.0
 10
-5.374532001517451
 20
63.55830555176209
 42
0.3208708054700533
 10
-5.341644789575781
 20
63.53757988362969
 42
0.0
 10
-5.306157001517618
 20
63.56176738362984
 42
-0.414213562373094
 10
-5.290532001517618
 20
63.54614238362984
 42
0.0
 10
-5.265157001516541
 20
63.54614238362984
 42
0.0
 10
-5.26515700151836
 20
63.76776738362906
 42
0.0
 10
-5.858907001517451
 20
63.76776738362906
 42
0.0
 10
-5.858907001517451
 20
63.54614238362984
 42
0.0
 10
-5.833532001517284
 20
63.54614238362984
 42
-0.4142135623730951
 10
-5.817907001517284
 20
63.56176738362984
 42
0.0
 10
-5.782035911264443
 20
63.53757988362969
 42
0.3359746306540741
 10
-5.749532001517451
 20
63.55794264268144
 42
0.0
 10
-5.749532001517451
 20
63.61514238363025
 42
-0.4142135623730951
 10
-5.733907001517451
 20
63.63076738363026
 42
0.0
 97
        0
 75
     0
 76
     1
 52
360.0
 41
0.1
 77
     0
 78
     1
 53
360.0
 43
-11.95238674705402
 44
65.84047212721663
 45
0.0125
 46
-0.0125
 79
     2
 49
0.0125
 49
-0.0125
 47
0.0009600803746669
 98
        1
 10
-5.513010521432676
 20
63.68160665582428
  0
LINE
  5
12F
330
2
100
AcDbEntity
  8
0
100
AcDbLine
 10
-6.016647080257513
 20
63.87676738363035
 30
0.0
 11
-5.107416922777389
 21
63.76776738362997
 31
0.0
  0
LWPOLYLINE
  5
130
330
2
100
AcDbEntity
  8
0
100
AcDbPolyline
 90
        8
 70
     0
 43
0.0
 10
-6.016647080257513
 20
63.87676738363035
 10
-5.107416922777389
 20
63.87676738363035
 10
-5.107416922777389
 20
63.76776738362997
 10
-6.016647080257513
 20
63.76776738362997
 10
-6.016647080257513
 20
63.87676738363035
 10
-5.107416922777389
 20
63.76776738362997
 10
-6.016647080257513
 20
63.76776738362997
 10
-5.107416922777389
 20
63.87676738363035
  0
HATCH
  5
131
330
2
100
AcDbEntity
  8
0
100
AcDbHatch
 10
0.0
 20
0.0
 30
0.0
210
0.0
220
0.0
230
1.0
  2
SOLID
 70
     1
 71
     0
 91
        1
 92
        7
 72
     1
 73
     1
 93
        2
 10
-5.107416922777417
 20
61.81406064734165
 42
0.0
 10
-5.107416922777417
 20
61.62656064734168
 42
0.6666666666666311
 97
        0
 75
     1
 76
     1
 47
0.0010014887122476
 98
        1
 10
-5.061356846430498
 20
61.69915545129751
1001
GradientColor1ACI
1070
     5
1001
GradientColor2ACI
1070
     2
1001
ACAD
1010
0.0
1020
0.0
1030
0.0
  0
HATCH
  5
132
330
2
100
AcDbEntity
  8
0
100
AcDbHatch
 10
0.0
 20
0.0
 30
0.0
210
0.0
220
0.0
230
1.0
  2
SOLID
 70
     1
 71
     0
 91
        1
 92
        7
 72
     1
 73
     1
 93
        2
 10
-6.016647080257484
 20
61.81406064734165
 42
0.0
 10
-6.016647080257541
 20
61.62656064734168
 42
-0.6666666666666311
 97
        0
 75
     1
 76
     1
 47
0.0010014887122476
 98
        1
 10
-6.062707156604403
 20
61.69915545129751
1001
GradientColor1ACI
1070
     5
1001
GradientColor2ACI
1070
     2
1001
ACAD
1010
0.0
1020
0.0
1030
0.0
  0
LWPOLYLINE
  5
133
102
{ACAD_REACTORS
330
1F9
330
22C
102
}
330
2
100
AcDbEntity
  8
0
100
AcDbPolyline
 90
       11
 70
     1
 43
0.0
 10
-6.016647080257541
 20
61.62656064734168
 10
-6.016647080257541
 20
61.37656064734165
 10
-6.390647080257508
 20
61.37656064734168
 10
-6.390647080257565
 20
61.65806064734167
 42
-0.4142135623731695
 10
-6.359647080257559
 20
61.68906064734165
 10
-6.313122311971085
 20
61.68906064734165
 42
0.235730494161761
 10
-6.288346117395064
 20
61.70142894902048
 10
-6.118948043120042
 20
61.92669234566281
 42
-0.235730494161718
 10
-6.094171848544021
 20
61.93906064734164
 10
-6.016647080257484
 20
61.93906064734164
 10
-6.016647080257484
 20
61.81406064734165
 42
0.6666666666666588
  0
LWPOLYLINE
  5
134
330
2
100
AcDbEntity
  8
0
100
AcDbPolyline
 90
        4
 70
     0
 43
0.0
 10
-5.265157001517479
 20
62.564164015486
 10
-5.265157001517479
 20
61.48556064734203
 10
-5.107416922777417
 20
61.48556064734203
 10
-5.107416922777417
 20
62.564164015486
  0
LWPOLYLINE
  5
135
330
2
100
AcDbEntity
  8
0
100
AcDbPolyline
 90
        4
 70
     0
 43
0.0
 10
-5.858907001517479
 20
62.564164015486
 10
-5.858907001517479
 20
61.48556064734203
 10
-6.016647080257541
 20
61.48556064734203
 10
-6.016647080257541
 20
62.564164015486
  0
LWPOLYLINE
  5
136
330
2
100
AcDbEntity
  8
0
100
AcDbPolyline
 90
       14
 70
     1
 43
0.0
 10
-5.749532001517479
 20
61.69538538829056
 42
0.3359746306540741
 10
-5.782035911264472
 20
61.71574814734231
 10
-5.817907001517312
 20
61.69156064734216
 42
-0.4142135623730951
 10
-5.833532001517312
 20
61.70718564734215
 10
-5.833532001517312
 20
61.88881064734232
 10
-5.290532001517647
 20
61.88881064734232
 10
-5.290532001517647
 20
61.70718564734215
 42
-0.414213562373094
 10
-5.306157001517647
 20
61.69156064734216
 10
-5.341644789575809
 20
61.71574814734231
 42
0.3208708054700532
 10
-5.374532001517479
 20
61.69502247920991
 10
-5.374532001517479
 20
61.63818564734174
 42
-0.4142135623730951
 10
-5.390157001517479
 20
61.62256064734174
 10
-5.733907001517479
 20
61.62256064734174
 42
-0.4142135623730951
 10
-5.749532001517479
 20
61.63818564734174
  0
LWPOLYLINE
  5
137
330
2
100
AcDbEntity
  8
0
100
AcDbPolyline
 90
       14
 70
     1
 43
0.0
 10
-5.742532001516963
 20
61.69660378843492
 42
0.3593608004949541
 10
-5.784531888840945
 20
61.72250780431568
 10
-5.819750835953243
 20
61.69876003759691
 42
-0.3524310491054993
 10
-5.826532001517705
 20
61.70718564734215
 10
-5.826532001517705
 20
61.88881064734232
 10
-5.297532001517254
 20
61.88881064734232
 10
-5.297532001517254
 20
61.70718564734215
 42
-0.3518693664465323
 10
-5.304296329218857
 20
61.69876373998068
 10
-5.339220720384844
 20
61.72256724416001
 42
0.3446308864324803
 10
-5.381532001517996
 20
61.69632833015839
 10
-5.381532001517996
 20
61.63818564734174
 42
-0.4142135623730946
 10
-5.390157001517479
 20
61.62956064734226
 10
-5.733907001517479
 20
61.62956064734226
 42
-0.4142135623730946
 10
-5.742532001516963
 20
61.63818564734174
  0
LWPOLYLINE
  5
138
330
2
100
AcDbEntity
  8
0
100
AcDbPolyline
 90
       10
 70
     1
 43
0.0
 10
-5.718282001517479
 20
61.70012314734231
 42
0.3584554666094669
 10
-5.783185847670836
 20
61.74699814734231
 10
-5.802282001517312
 20
61.74699814734231
 10
-5.802282001517312
 20
61.85756064734232
 10
-5.321782001517647
 20
61.85756064734232
 10
-5.321782001517647
 20
61.74699814734231
 10
-5.340878155364123
 20
61.74699814734231
 42
0.3467993108968364
 10
-5.405782001517479
 20
61.70012314734231
 10
-5.405782001517479
 20
61.65381064734174
 10
-5.718282001517479
 20
61.65381064734174
  0
LWPOLYLINE
  5
139
330
2
100
AcDbEntity
  8
0
100
AcDbPolyline
 90
        6
 70
     0
 43
0.0
 10
-5.833532001517312
 20
61.86056064734202
 10
-5.843282001517479
 20
61.86056064734202
 10
-5.843282001517479
 20
61.89856064734249
 10
-5.280782001517479
 20
61.89856064734249
 10
-5.280782001517479
 20
61.86056064734202
 10
-5.290532001517647
 20
61.86056064734202
  0
LINE
  5
13A
330
2
100
AcDbEntity
  8
0
100
AcDbLine
 10
-5.290532001517647
 20
61.70718564734215
 30
0.0
 11
-5.265157001517479
 21
61.70718564734215
 31
0.0
  0
LINE
  5
13B
330
2
100
AcDbEntity
  8
0
100
AcDbLine
 10
-5.290532001517647
 20
61.86056064734202
 30
0.0
 11
-5.265157001517479
 21
61.86056064734202
 31
0.0
  0
LINE
  5
13C
330
2
100
AcDbEntity
  8
0
100
AcDbLine
 10
-5.833532001517312
 20
61.70718564734215
 30
0.0
 11
-5.858907001517479
 21
61.70718564734215
 31
0.0
  0
LINE
  5
13D
330
2
100
AcDbEntity
  8
0
100
AcDbLine
 10
-5.833532001517312
 20
61.86056064734202
 30
0.0
 11
-5.858907001517479
 21
61.86056064734202
 31
0.0
  0
HATCH
  5
13E
330
2
100
AcDbEntity
  8
0
  6
Continuous
100
AcDbHatch
 10
0.0
 20
0.0
 30
0.0
210
0.0
220
0.0
230
1.0
  2
DOTS
 70
     0
 71
     0
 91
        2
 92
        7
 72
     0
 73
     1
 93
        4
 10
-5.833532001517312
 20
61.70718564734215
 10
-5.858907001517479
 20
61.70718564734215
 10
-5.858907001517479
 20
61.86056064734202
 10
-5.833532001517312
 20
61.86056064734202
 97
        0
 92
        7
 72
     0
 73
     1
 93
        4
 10
-5.265157001517479
 20
61.70718564734215
 10
-5.290532001517647
 20
61.70718564734215
 10
-5.290532001517647
 20
61.86056064734202
 10
-5.265157001517479
 20
61.86056064734202
 97
        0
 75
     0
 76
     1
 52
360.0
 41
0.1
 77
     0
 78
     1
 53
360.0
 43
-11.95238674705405
 44
64.96547212721663
 45
0.003125
 46
-0.00625
 79
     2
 49
0.0
 49
-0.00625
 47
0.0006001443632006
 98
        2
 10
-5.845252291664735
 20
61.76477058739056
 10
-5.275367362268923
 20
61.76837146118941
  0
HATCH
  5
13F
330
2
100
AcDbEntity
  8
0
  6
Continuous
100
AcDbHatch
 10
0.0
 20
0.0
 30
0.0
210
0.0
220
0.0
230
1.0
  2
DASH
 70
     0
 71
     0
 91
        1
 92
        7
 72
     1
 73
     1
 93
       16
 10
-5.390157001517479
 20
61.62256064734174
 42
0.4142135623730951
 10
-5.374532001517479
 20
61.63818564734174
 42
0.0
 10
-5.374532001517479
 20
61.69502247920991
 42
-0.3208708054700533
 10
-5.341644789575809
 20
61.71574814734231
 42
0.0
 10
-5.306157001517647
 20
61.69156064734216
 42
0.414213562373094
 10
-5.290532001517647
 20
61.70718564734215
 42
0.0
 10
-5.26515700151657
 20
61.70718564734215
 42
0.0
 10
-5.265157001518389
 20
61.48556064734293
 42
0.0
 10
-5.858907001517479
 20
61.48556064734293
 42
0.0
 10
-5.858907001517479
 20
61.70718564734215
 42
0.0
 10
-5.833532001517312
 20
61.70718564734215
 42
0.4142135623730951
 10
-5.817907001517312
 20
61.69156064734216
 42
0.0
 10
-5.782035911264472
 20
61.71574814734231
 42
-0.3359746306540741
 10
-5.749532001517479
 20
61.69538538829056
 42
0.0
 10
-5.749532001517479
 20
61.63818564734174
 42
0.4142135623730951
 10
-5.733907001517479
 20
61.62256064734174
 42
0.0
 97
        0
 75
     0
 76
     1
 52
360.0
 41
0.1
 77
     0
 78
     1
 53
360.0
 43
-11.95238674705405
 44
64.96547212721663
 45
0.0125
 46
-0.0125
 79
     2
 49
0.0125
 49
-0.0125
 47
0.0009600803746669
 98
        1
 10
-5.513010521432704
 20
61.57172137514772
  0
LINE
  5
140
330
2
100
AcDbEntity
  8
0
100
AcDbLine
 10
-6.016647080257541
 20
61.37656064734165
 30
0.0
 11
-5.107416922777417
 21
61.48556064734203
 31
0.0
  0
LWPOLYLINE
  5
141
330
2
100
AcDbEntity
  8
0
100
AcDbPolyline
 90
        8
 70
     0
 43
0.0
 10
-6.016647080257541
 20
61.37656064734165
 10
-5.107416922777417
 20
61.37656064734165
 10
-5.107416922777417
 20
61.48556064734203
 10
-6.016647080257541
 20
61.48556064734203
 10
-6.016647080257541
 20
61.37656064734165
 10
-5.107416922777417
 20
61.48556064734203
 10
-6.016647080257541
 20
61.48556064734203
 10
-5.107416922777417
 20
61.37656064734165
  0
LINE
  5
142
330
2
100
AcDbEntity
  8
0
  6
HIDDEN2
100
AcDbLine
 10
-6.016647080257541
 20
62.689164015486
 30
0.0
 11
-5.107416922777417
 21
62.689164015486
 31
0.0
  0
LINE
  5
144
330
2
100
AcDbEntity
  8
0
  6
HIDDEN2
100
AcDbLine
 10
-5.107416922777389
 20
62.564164015486
 30
0.0
 11
-6.016647080257513
 21
62.564164015486
 31
0.0
  0
LWPOLYLINE
  5
145
102
{ACAD_REACTORS
330
289
102
}
330
2
100
AcDbEntity
  8
0
  6
Continuous
100
AcDbPolyline
 90
       19
 70
     1
 43
0.0
 10
-6.734260135809961
 20
46.83890858446559
 10
-6.983927443038624
 20
46.83890858446559
 10
-6.983927443038624
 20
46.65190858446559
 10
-7.083760135809967
 20
46.65190858446559
 42
1.045128398166766
 10
-7.074518651462938
 20
46.46531663371738
 42
-0.4419056050544676
 10
-6.983760135809973
 20
46.3826800471781
 10
-6.983760135809973
 20
45.52590858446558
 10
-7.045760135809985
 20
45.46390858446557
 10
-10.95176013580993
 20
45.46390858446557
 42
-0.4142135623730951
 10
-11.01376013580994
 20
45.52590858446558
 10
-11.01376013580994
 20
47.15190858446561
 42
-0.4142135623730951
 10
-10.95176013580993
 20
47.21390858446556
 10
-6.734540212908001
 20
47.2139085844656
 10
-6.672540212908018
 20
47.15190858446561
 10
-6.672540212908018
 20
47.1188696373473
 42
-0.3899024490717814
 10
-6.471367361580831
 20
46.93386963734733
 10
-6.421760135809961
 20
46.9338696373473
 10
-6.421760135809961
 20
46.83890858446559
 10
-6.546760135809961
 20
46.83890858446559
 42
0.7066666666666829
  0
LWPOLYLINE
  5
146
102
{ACAD_REACTORS
330
24D
330
2E7
102
}
330
2
100
AcDbEntity
  8
0
  6
Continuous
100
AcDbPolyline
 90
       26
 70
     0
 43
0.0
 10
-11.13876566831533
 20
45.52590858446558
 10
-11.13875460330456
 20
47.58890858446569
 10
-11.07675460330455
 20
47.58890858446569
 10
-11.07675460330455
 20
48.08087641372122
 10
-10.95175460330455
 20
48.08087641372122
 10
-10.95175460330455
 20
47.58890858446562
 10
-10.70075460330457
 20
47.58890858446569
 42
0.4142135623730951
 10
-10.63875460330456
 20
47.65090858446569
 10
-10.63876067150687
 20
49.96390874412163
 42
0.4142128141791537
 10
-10.7012606715067
 20
50.02640858446572
 10
-11.48376567289108
 20
50.02640858446572
 42
-1.000000000000008
 10
-11.7017656728911
 20
50.02640858446572
 10
-11.7767656683153
 20
50.02640858446572
 10
-11.7767656683153
 20
49.3394085844657
 10
-11.82676566831531
 20
49.3394085844657
 10
-11.82676566831531
 20
49.12096585739769
 42
-0.9999999999999998
 10
-11.82676566831531
 20
48.87096585739769
 10
-11.82676566831531
 20
48.45989249909343
 42
-0.9999999999999998
 10
-11.82676566831531
 20
48.20989249909342
 10
-11.82676566831531
 20
47.95989249909342
 42
-0.9999999999999998
 10
-11.82676566831531
 20
47.70989249909343
 10
-11.82676566831531
 20
46.21396709335368
 42
-0.9999999999999998
 10
-11.82676566831531
 20
45.96396709335368
 10
-11.82676566831531
 20
45.46390858446563
 10
-11.20126566831533
 20
45.46390858446563
 42
0.4142135623730951
 10
-11.13876566831533
 20
45.52640858446562
  0
LWPOLYLINE
  5
147
102
{ACAD_REACTORS
330
2E7
102
}
330
2
100
AcDbEntity
  8
0
100
AcDbPolyline
 90
       15
 70
     0
 43
0.0
 10
-11.45078393225096
 20
44.52490858446566
 42
0.4142135623730951
 10
-11.38878393225101
 20
44.58690858446567
 10
-11.38878393225101
 20
45.46390858446563
 10
-12.63878393225101
 20
45.46390858446573
 10
-12.63878393225101
 20
45.5259085844657
 10
-13.26378393225095
 20
45.52590858446566
 10
-13.26378393225095
 20
44.46290858446568
 42
0.4142135623731003
 10
-13.201783932251
 20
44.40090858446566
 10
-12.66978393225096
 20
44.40090858446566
 42
0.4142135623730951
 10
-12.63878393225101
 20
44.43190858446567
 10
-12.63878393225101
 20
44.46290858446568
 10
-12.41978393225096
 20
44.46290858446568
 42
0.4142135623730951
 10
-12.38878393225095
 20
44.49390858446569
 10
-12.38878393225095
 20
44.52490858446566
 10
-11.45078394172028
 20
44.52490858446566
  0
HATCH
  5
148
330
2
100
AcDbEntity
  8
0
  6
Continuous
100
AcDbHatch
 10
0.0
 20
0.0
 30
0.0
210
0.0
220
0.0
230
1.0
  2
STEEL
 70
     0
 71
     0
 91
        1
 92
        7
 72
     0
 73
     1
 93
        6
 10
-11.88876566831533
 20
45.52590858446568
 10
-12.60858393225101
 20
45.52590858446577
 10
-12.60858393225101
 20
45.46390858446575
 10
-11.82676566831531
 20
45.46390858446566
 10
-11.82676566831531
 20
46.12103997874043
 10
-11.88876566831533
 20
46.12103997874043
 97
        0
 75
     0
 76
     1
 52
89.99999999999998
 41
1.0
 77
     0
 78
     2
 53
135.0
 43
31.37728681269178
 44
143.4192934199914
 45
-0.0883883476483185
 46
-0.0883883476483184
 79
     0
 53
135.0
 43
31.31478681269178
 44
143.4192934199914
 45
-0.0883883476483185
 46
-0.0883883476483184
 79
     0
 47
0.003572857848563
 98
        1
 10
-11.86114758135903
 20
45.63448414961008
  0
LINE
  5
149
330
2
100
AcDbEntity
  8
0
100
AcDbLine
 10
-12.60858393225101
 20
45.46390858446575
 30
0.0
 11
-11.82676566831531
 21
45.46390858446566
 31
0.0
  0
LINE
  5
14A
330
2
100
AcDbEntity
  8
0
  6
Continuous
100
AcDbLine
 10
-11.82676566831531
 20
45.46390858446566
 30
0.0
 11
-11.82676566831531
 21
46.12103997874043
 31
0.0
  0
LINE
  5
14B
330
2
100
AcDbEntity
  8
0
  6
Continuous
100
AcDbLine
 10
-11.88876566831533
 20
45.52590858446568
 30
0.0
 11
-11.88876566831533
 21
46.12103997874043
 31
0.0
  0
LINE
  5
14C
330
2
100
AcDbEntity
  8
0
  6
Continuous
100
AcDbLine
 10
-11.88876566831533
 20
46.12103997874043
 30
0.0
 11
-11.82676566831531
 21
46.12103997874043
 31
0.0
  0
LINE
  5
14D
330
2
100
AcDbEntity
  8
0
100
AcDbLine
 10
-12.60858393225101
 20
45.52590858446577
 30
0.0
 11
-11.88876566831533
 21
45.52590858446568
 31
0.0
  0
INSERT
  5
14E
330
2
100
AcDbEntity
  8
0
100
AcDbBlockReference
  2
8 x .75 FH
 10
-12.24867480028314
 20
45.52590858446571
 30
0.0
  0
INSERT
  5
14F
330
2
100
AcDbEntity
  8
0
100
AcDbBlockReference
  2
8 X .625 PH
 10
-11.88876566831533
 20
45.82347428160305
 30
0.0
 50
90.0
  0
LINE
  5
150
330
2
100
AcDbEntity
  8
0
100
AcDbLine
 10
-12.60858393225101
 20
45.52590858446577
 30
0.0
 11
-12.60858393225101
 21
45.46390858446578
 31
0.0
  0
HATCH
  5
151
330
2
100
AcDbEntity
  8
0
100
AcDbHatch
 10
0.0
 20
0.0
 30
0.0
210
0.0
220
0.0
230
1.0
  2
SOLID
 70
     1
 71
     0
 91
        1
 92
        7
 72
     1
 73
     1
 93
        2
 10
-6.546427443038624
 20
46.83890858446557
 42
0.0
 10
-6.733927443038567
 20
46.83890858446559
 42
-0.6666666666666311
 97
        0
 75
     1
 76
     1
 47
0.0010014887122476
 98
        1
 10
-6.661332639082729
 20
46.88496866081249
1001
GradientColor1ACI
1070
     5
1001
GradientColor2ACI
1070
     2
1001
ACAD
1010
0.0
1020
0.0
1030
0.0
  0
HATCH
  5
152
330
2
100
AcDbEntity
  8
0
100
AcDbHatch
 10
0.0
 20
0.0
 30
0.0
210
0.0
220
0.0
230
1.0
  2
SOLID
 70
     1
 71
     0
 91
        1
 92
        7
 72
     1
 73
     1
 93
        2
 10
-6.546427443038624
 20
45.9296784269855
 42
0.0
 10
-6.733927443038567
 20
45.92967842698548
 42
0.6666666666666311
 97
        0
 75
     1
 76
     1
 47
0.0010014887122476
 98
        1
 10
-6.661332639082729
 20
45.88361835063858
1001
GradientColor1ACI
1070
     5
1001
GradientColor2ACI
1070
     2
1001
ACAD
1010
0.0
1020
0.0
1030
0.0
  0
LWPOLYLINE
  5
153
330
2
100
AcDbEntity
  8
0
100
AcDbPolyline
 90
       11
 70
     1
 43
0.0
 10
-6.733927443038567
 20
45.92967842698548
 10
-6.983927443038624
 20
45.92967842698548
 10
-6.983927443038567
 20
45.55567842698548
 10
-6.702427443038573
 20
45.55567842698545
 42
0.4142135623731695
 10
-6.671427443038624
 20
45.58667842698546
 10
-6.671427443038624
 20
45.63320319527193
 42
-0.235730494161761
 10
-6.659059141359762
 20
45.65797938984795
 10
-6.433795744717428
 20
45.82737746412298
 42
0.235730494161718
 10
-6.421427443038624
 20
45.85215365869899
 10
-6.421427443038624
 20
45.9296784269855
 10
-6.546427443038624
 20
45.9296784269855
 42
-0.6666666666666588
  0
LWPOLYLINE
  5
154
330
2
100
AcDbEntity
  8
0
100
AcDbPolyline
 90
        4
 70
     0
 43
0.0
 10
-5.796324074894243
 20
46.68116850572554
 10
-6.874927443038245
 20
46.68116850572554
 10
-6.874927443038245
 20
46.83890858446559
 10
-5.796324074894243
 20
46.83890858446559
  0
LWPOLYLINE
  5
155
330
2
100
AcDbEntity
  8
0
100
AcDbPolyline
 90
        4
 70
     0
 43
0.0
 10
-5.796324074894243
 20
46.08741850572553
 10
-6.874927443038245
 20
46.08741850572553
 10
-6.874927443038245
 20
45.92967842698548
 10
-5.796324074894243
 20
45.92967842698548
  0
LWPOLYLINE
  5
156
330
2
100
AcDbEntity
  8
0
100
AcDbPolyline
 90
       14
 70
     1
 43
0.0
 10
-6.665102702089711
 20
46.19679350572553
 42
-0.3359746306540741
 10
-6.644739943037961
 20
46.16428959597854
 10
-6.668927443038114
 20
46.12841850572571
 42
0.4142135623730951
 10
-6.653302443038114
 20
46.1127935057257
 10
-6.471677443037947
 20
46.1127935057257
 10
-6.471677443037947
 20
46.65579350572537
 10
-6.653302443038114
 20
46.65579350572537
 42
0.414213562373094
 10
-6.668927443038114
 20
46.64016850572537
 10
-6.644739943037961
 20
46.60468071766721
 42
-0.3208708054700532
 10
-6.665465611170361
 20
46.57179350572554
 10
-6.722302443038529
 20
46.57179350572554
 42
0.4142135623730951
 10
-6.737927443038529
 20
46.55616850572553
 10
-6.737927443038529
 20
46.21241850572554
 42
0.4142135623730951
 10
-6.722302443038529
 20
46.19679350572553
  0
LWPOLYLINE
  5
157
330
2
100
AcDbEntity
  8
0
100
AcDbPolyline
 90
       14
 70
     1
 43
0.0
 10
-6.663884301945358
 20
46.20379350572605
 42
-0.3593608004949541
 10
-6.637980286064589
 20
46.16179361840207
 10
-6.661728052783359
 20
46.12657467128977
 42
0.3524310491054993
 10
-6.653302443038114
 20
46.11979350572531
 10
-6.471677443037947
 20
46.11979350572531
 10
-6.471677443037947
 20
46.64879350572576
 10
-6.653302443038114
 20
46.64879350572576
 42
0.3518693664465323
 10
-6.661724350399595
 20
46.64202917802415
 10
-6.637920846220254
 20
46.60710478685817
 42
-0.3446308864324803
 10
-6.664159760221878
 20
46.56479350572502
 10
-6.722302443038529
 20
46.56479350572502
 42
0.4142135623730946
 10
-6.730927443038012
 20
46.55616850572553
 10
-6.730927443038012
 20
46.21241850572554
 42
0.4142135623730946
 10
-6.722302443038529
 20
46.20379350572605
  0
LWPOLYLINE
  5
158
330
2
100
AcDbEntity
  8
0
100
AcDbPolyline
 90
       10
 70
     1
 43
0.0
 10
-6.660364943037961
 20
46.22804350572553
 42
-0.3584554666094669
 10
-6.613489943037961
 20
46.16313965957218
 10
-6.613489943037961
 20
46.1440435057257
 10
-6.502927443037947
 20
46.1440435057257
 10
-6.502927443037947
 20
46.62454350572537
 10
-6.613489943037961
 20
46.62454350572537
 10
-6.613489943037961
 20
46.60544735187889
 42
-0.3467993108968364
 10
-6.660364943037961
 20
46.54054350572553
 10
-6.706677443038529
 20
46.54054350572553
 10
-6.706677443038529
 20
46.22804350572553
  0
LWPOLYLINE
  5
159
330
2
100
AcDbEntity
  8
0
100
AcDbPolyline
 90
        6
 70
     0
 43
0.0
 10
-6.499927443038245
 20
46.1127935057257
 10
-6.499927443038245
 20
46.10304350572554
 10
-6.461927443037779
 20
46.10304350572554
 10
-6.461927443037779
 20
46.66554350572553
 10
-6.499927443038245
 20
46.66554350572553
 10
-6.499927443038245
 20
46.65579350572537
  0
LINE
  5
15A
330
2
100
AcDbEntity
  8
0
100
AcDbLine
 10
-6.653302443038114
 20
46.65579350572537
 30
0.0
 11
-6.653302443038114
 21
46.68116850572554
 31
0.0
  0
LINE
  5
15B
330
2
100
AcDbEntity
  8
0
100
AcDbLine
 10
-6.499927443038245
 20
46.65579350572537
 30
0.0
 11
-6.499927443038245
 21
46.68116850572554
 31
0.0
  0
LINE
  5
15C
330
2
100
AcDbEntity
  8
0
100
AcDbLine
 10
-6.653302443038114
 20
46.1127935057257
 30
0.0
 11
-6.653302443038114
 21
46.08741850572553
 31
0.0
  0
LINE
  5
15D
330
2
100
AcDbEntity
  8
0
100
AcDbLine
 10
-6.499927443038245
 20
46.1127935057257
 30
0.0
 11
-6.499927443038245
 21
46.08741850572553
 31
0.0
  0
HATCH
  5
15E
330
2
100
AcDbEntity
  8
0
  6
Continuous
100
AcDbHatch
 10
0.0
 20
0.0
 30
0.0
210
0.0
220
0.0
230
1.0
  2
DOTS
 70
     0
 71
     0
 91
        2
 92
        7
 72
     0
 73
     1
 93
        4
 10
-6.653302443038114
 20
46.1127935057257
 10
-6.653302443038114
 20
46.08741850572553
 10
-6.499927443038245
 20
46.08741850572553
 10
-6.499927443038245
 20
46.1127935057257
 97
        0
 92
        7
 72
     0
 73
     1
 93
        4
 10
-6.653302443038114
 20
46.68116850572554
 10
-6.653302443038114
 20
46.65579350572537
 10
-6.499927443038245
 20
46.65579350572537
 10
-6.499927443038245
 20
46.68116850572554
 97
        0
 75
     0
 76
     1
 52
450.0
 41
0.1
 77
     0
 78
     1
 53
90.0
 43
-8.9476321866249
 44
39.99393876018897
 45
0.00625
 46
0.003125
 79
     2
 49
0.0
 49
-0.00625
 47
0.0006001443632006
 98
        2
 10
-6.595717502989714
 20
46.10107321557828
 10
-6.592116629190854
 20
46.67095814497409
  0
HATCH
  5
15F
330
2
100
AcDbEntity
  8
0
  6
Continuous
100
AcDbHatch
 10
0.0
 20
0.0
 30
0.0
210
0.0
220
0.0
230
1.0
  2
DASH
 70
     0
 71
     0
 91
        1
 92
        7
 72
     1
 73
     1
 93
       16
 10
-6.737927443038529
 20
46.55616850572553
 42
-0.4142135623730951
 10
-6.722302443038529
 20
46.57179350572554
 42
0.0
 10
-6.665465611170361
 20
46.57179350572554
 42
0.3208708054700533
 10
-6.644739943037961
 20
46.60468071766721
 42
0.0
 10
-6.668927443038114
 20
46.64016850572537
 42
-0.414213562373094
 10
-6.653302443038114
 20
46.65579350572537
 42
0.0
 10
-6.653302443038114
 20
46.68116850572644
 42
0.0
 10
-6.874927443037336
 20
46.68116850572462
 42
0.0
 10
-6.874927443037336
 20
46.08741850572553
 42
0.0
 10
-6.653302443038114
 20
46.08741850572553
 42
0.0
 10
-6.653302443038114
 20
46.1127935057257
 42
-0.4142135623730951
 10
-6.668927443038114
 20
46.12841850572571
 42
0.0
 10
-6.644739943037961
 20
46.16428959597854
 42
0.3359746306540741
 10
-6.665102702089711
 20
46.19679350572553
 42
0.0
 10
-6.722302443038529
 20
46.19679350572553
 42
-0.4142135623730951
 10
-6.737927443038529
 20
46.21241850572554
 42
0.0
 97
        0
 75
     0
 76
     1
 52
450.0
 41
0.1
 77
     0
 78
     1
 53
90.0
 43
-8.9476321866249
 44
39.99393876018897
 45
0.0125
 46
0.0125
 79
     2
 49
0.0125
 49
-0.0125
 47
0.0009600803746669
 98
        1
 10
-6.788766715232554
 20
46.43331498581031
  0
LINE
  5
160
330
2
100
AcDbEntity
  8
0
100
AcDbLine
 10
-6.983927443038624
 20
45.92967842698548
 30
0.0
 11
-6.874927443038245
 21
46.83890858446559
 31
0.0
  0
LWPOLYLINE
  5
161
330
2
100
AcDbEntity
  8
0
100
AcDbPolyline
 90
        8
 70
     0
 43
0.0
 10
-6.983927443038624
 20
45.92967842698548
 10
-6.983927443038624
 20
46.83890858446559
 10
-6.874927443038245
 20
46.83890858446559
 10
-6.874927443038245
 20
45.92967842698548
 10
-6.983927443038624
 20
45.92967842698548
 10
-6.874927443038245
 20
46.83890858446559
 10
-6.874927443038245
 20
45.92967842698548
 10
-6.983927443038624
 20
46.83890858446559
  0
LINE
  5
162
330
2
100
AcDbEntity
  8
0
  6
HIDDEN2
100
AcDbLine
 10
-5.796324074894243
 20
45.92967842698548
 30
0.0
 11
-5.796324074894243
 21
46.83890858446559
 31
0.0
  0
HATCH
  5
163
330
2
100
AcDbEntity
  8
0
100
AcDbHatch
 10
0.0
 20
0.0
 30
0.0
210
0.0
220
0.0
230
1.0
  2
HONEY
 70
     0
 71
     0
 91
        2
 92
       16
 93
        9
 72
     1
 10
-11.04629720535428
 20
47.93205098798662
 11
-11.07597389573374
 21
47.93205098798662
 72
     1
 10
-11.07597389573374
 20
47.93205098798662
 11
-11.07581823666328
 21
47.55465360159928
 72
     1
 10
-11.07581823666328
 20
47.55465360159928
 11
-10.7554696733697
 21
47.55478573065312
 72
     1
 10
-10.7554696733697
 20
47.55478573065312
 11
-10.75548349122005
 21
47.58828728366262
 72
     1
 10
-10.75548349122005
 20
47.58828728366265
 11
-11.04775404924061
 21
47.58816673549503
 72
     1
 10
-11.04775404924061
 20
47.58816673549503
 11
-11.04788332327513
 21
47.90159326833671
 72
     1
 10
-11.04788332327513
 20
47.90159326833671
 11
-10.95289836190602
 21
47.80668662852252
 72
     1
 10
-10.95289836190602
 20
47.80668662852252
 11
-10.95289836190602
 21
47.83872915823127
 72
     1
 10
-10.95289836190602
 20
47.83872915823127
 11
-11.0462972053543
 21
47.93205098798662
 97
        0
 92
        1
 93
       11
 72
     1
 10
-10.74671821790087
 20
47.48498520204035
 11
-11.0194418094951
 21
47.4848727160977
 72
     2
 10
-11.01946537217316
 20
47.54200072721007
 40
0.0571280159716573
 50
449.9763681265572
 51
539.9763681265643
 73
     0
 72
     1
 10
-11.07659338328557
 20
47.54197716453205
 11
-11.07675459267227
 21
47.93283136292359
 72
     1
 10
-11.07675459267227
 20
47.93283136292359
 11
-10.95175460330466
 21
47.93288291967215
 72
     1
 10
-10.95175460330466
 20
47.93288291967215
 11
-10.95161272970614
 21
47.58890858446562
 72
     1
 10
-10.95161272970614
 20
47.58890858446562
 11
-10.66865771820957
 21
47.58902529039858
 72
     2
 10
-10.69050211967197
 20
47.4015162646387
 40
0.1887771506741734
 50
276.6448831998169
 51
443.3078530532887
 73
     0
 72
     1
 10
-10.66850304796389
 20
47.21402532229575
 11
-10.98051115776712
 21
47.21389663329548
 72
     2
 10
-10.97442164127255
 20
47.30269875604323
 40
0.0890106691113012
 50
93.92285935909901
 51
266.0298768940037
 73
     0
 72
     1
 10
-10.98058440926843
 20
47.39149582528696
 11
-10.77014734914601
 21
47.32740891280411
 72
     2
 10
-10.74668500097539
 20
47.40445034577866
 40
0.0805348631119007
 50
253.0623079543601
 51
450.0236318734478
 73
     1
 97
        0
 75
     1
 76
     1
 52
90.0
 41
0.2
 77
     0
 78
     3
 53
90.0
 43
40.16958925440135
 44
-60.56199056714937
 45
-0.021650635094611
 46
0.0375
 79
     2
 49
0.025
 49
-0.05
 53
210.0
 43
40.16958925440135
 44
-60.56199056714937
 45
-0.021650635094611
 46
-0.0375
 79
     2
 49
0.025
 49
-0.05
 53
150.0
 43
40.16958925440135
 44
-60.56199056714937
 45
-0.043301270189222
 46
0.0
 79
     2
 49
-0.05
 49
0.025
 98
        1
 10
40.16958925440135
 20
153.2398077360806
1001
GradientColor1ACI
1070
     5
1001
GradientColor2ACI
1070
     2
1001
ACAD
1010
0.0
1020
0.0
1030
0.0
  0
LWPOLYLINE
  5
164
330
2
100
AcDbEntity
  8
0
100
AcDbPolyline
 90
       11
 70
     1
 43
0.0
 10
-10.74671821790087
 20
47.48498520204035
 10
-11.0194418094951
 20
47.4848727160977
 42
-0.4142135623731042
 10
-11.07659338328557
 20
47.54197716453205
 10
-11.07675459267227
 20
47.93283136292359
 10
-10.95175460330466
 20
47.93288291967215
 10
-10.95161272970614
 20
47.58890858446562
 10
-10.66865771820954
 20
47.58902529039855
 42
-0.8898955318630001
 10
-10.66850304796389
 20
47.21402532229575
 10
-10.98051115776712
 20
47.21389663329548
 42
-0.9333884728362816
 10
-10.98058440926843
 20
47.39149582528696
 10
-10.77014734914604
 20
47.32740891280409
 42
1.16016115395227
  0
LWPOLYLINE
  5
165
330
2
100
AcDbEntity
  8
0
  6
Continuous
100
AcDbPolyline
 90
        9
 70
     1
 43
0.0
 10
-11.04629720535428
 20
47.93205098798662
 10
-11.07597389573374
 20
47.93205098798662
 10
-11.07581823666328
 20
47.55465360159928
 10
-10.7554696733697
 20
47.55478573065312
 10
-10.75548349122005
 20
47.58828728366265
 10
-11.04775404924061
 20
47.58816673549503
 10
-11.04788332327513
 20
47.90159326833671
 10
-10.95289836190602
 20
47.80668662852252
 10
-10.95289836190602
 20
47.83872915823127
  0
LWPOLYLINE
  5
166
330
2
100
AcDbEntity
  8
0
100
AcDbPolyline
 90
        5
 70
     1
 43
0.0
 10
-11.10751190204661
 20
45.2119477698779
 42
-5.689634243636946
 10
-11.2592619020466
 20
45.13423474217489
 42
0.1896103651935995
 10
-11.24251190204663
 20
45.17681628160221
 10
-11.24251190204663
 20
46.96390858446562
 10
-11.10751190204664
 20
46.96390858446562
  0
LWPOLYLINE
  5
167
330
2
100
AcDbEntity
  8
0
100
AcDbPolyline
 90
        4
 70
     1
 43
0.0
 10
-11.04501190204664
 20
45.2748421585614
 10
-11.04501190204664
 20
46.96390858446562
 10
-10.91001190204665
 20
46.96390858446562
 10
-10.91001190204662
 20
45.2285161949004
 42
0.1157106517014934
  0
LWPOLYLINE
  5
168
330
2
100
AcDbEntity
  8
0
  6
Continuous
100
AcDbPolyline
 90
       21
 70
     0
 43
0.0
 10
0.4836119860214581
 20
46.66090858446572
 10
0.4836119860214581
 20
47.15190858446561
 42
0.4142135623730951
 10
0.4216119860214463
 20
47.21390858446556
 10
-3.733107936880514
 20
47.2139085844656
 10
-3.795107936880526
 20
47.15190858446561
 10
-3.795107936880526
 20
47.1188696373473
 42
0.3899024490717814
 10
-3.996280788207684
 20
46.93386963734733
 10
-4.045888013978554
 20
46.9338696373473
 10
-4.045888013978526
 20
46.83890858446559
 10
-3.920888013978526
 20
46.83890858446559
 42
-0.7066666666666829
 10
-3.733388013978526
 20
46.83890858446559
 10
-3.48372070674992
 20
46.83890858446559
 10
-3.48372070674992
 20
46.65190858446559
 10
-3.383888013978548
 20
46.65190858446559
 42
-1.045128398166766
 10
-3.393129498325606
 20
46.46531663371738
 42
0.4419056050544676
 10
-3.483888013978571
 20
46.3826800471781
 10
-3.483888013978571
 20
45.52590858446558
 10
-3.421888013978559
 20
45.46390858446557
 10
0.4841119860214463
 20
45.46390858446557
 42
0.4142135623730951
 10
0.5461119860214581
 20
45.52590858446558
 10
0.5461119860214581
 20
46.01690858446571
  0
LWPOLYLINE
  5
169
102
{ACAD_REACTORS
330
24D
330
2C6
330
2D7
102
}
330
2
100
AcDbEntity
  8
0
  6
Continuous
100
AcDbPolyline
 90
       26
 70
     0
 43
0.0
 10
0.6711175185267848
 20
45.52590858446558
 10
0.6711064535160745
 20
47.58890858446569
 10
0.6091064535160627
 20
47.58890858446569
 10
0.6091064535160627
 20
48.08087641372122
 10
0.4841064535160627
 20
48.08087641372122
 10
0.4841064535160627
 20
47.58890858446562
 10
0.2331064535160863
 20
47.58890858446569
 42
-0.4142135623730951
 10
0.1711064535160744
 20
47.65090858446569
 10
0.1711125217183849
 20
49.96390874412163
 42
-0.4142128141791537
 10
0.2336125217181575
 20
50.02640858446572
 10
1.016117523102593
 20
50.02640858446572
 42
1.000000000000008
 10
1.234117523102611
 20
50.02640858446572
 10
1.309117518526761
 20
50.02640858446572
 10
1.309117518526761
 20
49.3394085844657
 10
1.359117518526772
 20
49.3394085844657
 10
1.359117518526772
 20
49.12096585739769
 42
0.9999999999999998
 10
1.359117518526772
 20
48.87096585739769
 10
1.359117518526772
 20
48.45989249909343
 42
0.9999999999999998
 10
1.359117518526772
 20
48.20989249909342
 10
1.359117518526772
 20
47.95989249909342
 42
0.9999999999999998
 10
1.359117518526772
 20
47.70989249909343
 10
1.359117518526772
 20
46.21396709335368
 42
0.9999999999999998
 10
1.359117518526772
 20
45.96396709335368
 10
1.359117518526772
 20
45.46390858446563
 10
0.7336175185267848
 20
45.46390858446563
 42
-0.4142135623730951
 10
0.6711175185267848
 20
45.52640858446562
  0
LWPOLYLINE
  5
16A
330
2
100
AcDbEntity
  8
0
100
AcDbPolyline
 90
       15
 70
     0
 43
0.0
 10
0.9831175185268044
 20
44.52490858446566
 42
-0.4142135623730951
 10
0.9211175185267926
 20
44.58690858446567
 10
0.9211175185267926
 20
45.46390858446563
 10
2.171117518526792
 20
45.46390858446573
 10
2.171117518526792
 20
45.5259085844657
 10
2.796117518526792
 20
45.52590858446566
 10
2.796117518526792
 20
44.46290858446568
 42
-0.4142135623731003
 10
2.73411751852678
 20
44.40090858446566
 10
2.202117518526798
 20
44.40090858446566
 42
-0.4142135623730951
 10
2.171117518526792
 20
44.43190858446567
 10
2.171117518526792
 20
44.46290858446568
 10
1.952117518526798
 20
44.46290858446568
 42
-0.4142135623730951
 10
1.921117518526792
 20
44.49390858446569
 10
1.921117518526792
 20
44.52490858446566
 10
0.9831175279961222
 20
44.52490858446566
  0
HATCH
  5
16B
330
2
100
AcDbEntity
  8
0
  6
Continuous
100
AcDbHatch
 10
0.0
 20
0.0
 30
0.0
210
0.0
220
0.0
230
1.0
  2
STEEL
 70
     0
 71
     0
 91
        1
 92
        7
 72
     0
 73
     1
 93
        6
 10
1.421117518526784
 20
45.52590858446563
 10
2.140935782462463
 20
45.52590858446572
 10
2.140935782462463
 20
45.46390858446571
 10
1.359117518526772
 20
45.46390858446563
 10
1.359117518526772
 20
46.12103997874038
 10
1.421117518526784
 20
46.12103997874038
 97
        0
 75
     0
 76
     1
 52
89.99999999999998
 41
1.0
 77
     0
 78
     2
 53
135.0
 43
32.4772868126918
 44
143.4192934199913
 45
-0.0883883476483185
 46
-0.0883883476483184
 79
     0
 53
135.0
 43
32.4147868126918
 44
143.4192934199913
 45
-0.0883883476483185
 46
-0.0883883476483184
 79
     0
 47
0.003572857848563
 98
        1
 10
1.393499431570546
 20
45.63448414961004
  0
LINE
  5
16C
330
2
100
AcDbEntity
  8
0
  6
Continuous
100
AcDbLine
 10
1.359117518526772
 20
45.46390858446563
 30
0.0
 11
1.359117518526772
 21
46.12103997874038
 31
0.0
  0
LINE
  5
16D
330
2
100
AcDbEntity
  8
0
  6
Continuous
100
AcDbLine
 10
1.421117518526784
 20
45.52590858446563
 30
0.0
 11
1.421117518526784
 21
46.12103997874038
 31
0.0
  0
LINE
  5
16E
330
2
100
AcDbEntity
  8
0
  6
Continuous
100
AcDbLine
 10
1.421117518526784
 20
46.12103997874038
 30
0.0
 11
1.359117518526772
 21
46.12103997874038
 31
0.0
  0
LINE
  5
16F
330
2
100
AcDbEntity
  8
0
100
AcDbLine
 10
2.140935782462463
 20
45.52590858446572
 30
0.0
 11
1.421117518526784
 21
45.52590858446563
 31
0.0
  0
INSERT
  5
170
330
2
100
AcDbEntity
  8
0
100
AcDbBlockReference
  2
8 x .75 FH
 10
1.781026650494652
 20
45.52590858446566
 30
0.0
 41
-1.0
  0
INSERT
  5
171
330
2
100
AcDbEntity
  8
0
100
AcDbBlockReference
  2
8 X .625 PH
 10
1.421117518526784
 20
45.82347428160301
 30
0.0
 41
-1.0
 50
270.0
  0
HATCH
  5
172
330
2
100
AcDbEntity
  8
0
100
AcDbHatch
 10
0.0
 20
0.0
 30
0.0
210
0.0
220
0.0
230
1.0
  2
SOLID
 70
     1
 71
     0
 91
        1
 92
        7
 72
     1
 73
     1
 93
        2
 10
-3.92122070674992
 20
46.83890858446557
 42
0.0
 10
-3.73372070674992
 20
46.83890858446559
 42
0.6666666666666311
 97
        0
 75
     1
 76
     1
 47
0.0010014887122476
 98
        1
 10
-3.806315510705758
 20
46.88496866081249
1001
GradientColor1ACI
1070
     5
1001
GradientColor2ACI
1070
     2
1001
ACAD
1010
0.0
1020
0.0
1030
0.0
  0
HATCH
  5
173
330
2
100
AcDbEntity
  8
0
100
AcDbHatch
 10
0.0
 20
0.0
 30
0.0
210
0.0
220
0.0
230
1.0
  2
SOLID
 70
     1
 71
     0
 91
        1
 92
        7
 72
     1
 73
     1
 93
        2
 10
-3.92122070674992
 20
45.9296784269855
 42
0.0
 10
-3.73372070674992
 20
45.92967842698548
 42
-0.6666666666666311
 97
        0
 75
     1
 76
     1
 47
0.0010014887122476
 98
        1
 10
-3.806315510705758
 20
45.88361835063858
1001
GradientColor1ACI
1070
     5
1001
GradientColor2ACI
1070
     2
1001
ACAD
1010
0.0
1020
0.0
1030
0.0
  0
LWPOLYLINE
  5
174
330
2
100
AcDbEntity
  8
0
100
AcDbPolyline
 90
       11
 70
     1
 43
0.0
 10
-3.73372070674992
 20
45.92967842698548
 10
-3.48372070674992
 20
45.92967842698548
 10
-3.48372070674992
 20
45.55567842698548
 10
-3.765220706749914
 20
45.55567842698545
 42
-0.4142135623731695
 10
-3.79622070674992
 20
45.58667842698546
 10
-3.79622070674992
 20
45.63320319527193
 42
0.235730494161761
 10
-3.808589008428725
 20
45.65797938984795
 10
-4.033852405071058
 20
45.82737746412298
 42
-0.235730494161718
 10
-4.04622070674992
 20
45.85215365869899
 10
-4.04622070674992
 20
45.9296784269855
 10
-3.92122070674992
 20
45.9296784269855
 42
0.6666666666666588
  0
LWPOLYLINE
  5
175
330
2
100
AcDbEntity
  8
0
100
AcDbPolyline
 90
        4
 70
     0
 43
0.0
 10
-4.671324074894243
 20
46.68116850572554
 10
-3.592720706750299
 20
46.68116850572554
 10
-3.592720706750299
 20
46.83890858446559
 10
-4.671324074894243
 20
46.83890858446559
  0
LWPOLYLINE
  5
176
330
2
100
AcDbEntity
  8
0
100
AcDbPolyline
 90
        4
 70
     0
 43
0.0
 10
-4.671324074894243
 20
46.08741850572553
 10
-3.592720706750299
 20
46.08741850572553
 10
-3.592720706750299
 20
45.92967842698548
 10
-4.671324074894243
 20
45.92967842698548
  0
LWPOLYLINE
  5
177
330
2
100
AcDbEntity
  8
0
100
AcDbPolyline
 90
       14
 70
     1
 43
0.0
 10
-3.802545447698832
 20
46.19679350572553
 42
0.3359746306540741
 10
-3.822908206750582
 20
46.16428959597854
 10
-3.79872070675043
 20
46.12841850572571
 42
-0.4142135623730951
 10
-3.81434570675043
 20
46.1127935057257
 10
-3.995970706750597
 20
46.1127935057257
 10
-3.995970706750597
 20
46.65579350572537
 10
-3.81434570675043
 20
46.65579350572537
 42
-0.414213562373094
 10
-3.79872070675043
 20
46.64016850572537
 10
-3.822908206750582
 20
46.60468071766721
 42
0.3208708054700532
 10
-3.802182538618183
 20
46.57179350572554
 10
-3.745345706750015
 20
46.57179350572554
 42
-0.4142135623730951
 10
-3.729720706750015
 20
46.55616850572553
 10
-3.729720706750015
 20
46.21241850572554
 42
-0.4142135623730951
 10
-3.745345706750015
 20
46.19679350572553
  0
LWPOLYLINE
  5
178
330
2
100
AcDbEntity
  8
0
100
AcDbPolyline
 90
       14
 70
     1
 43
0.0
 10
-3.803763847843185
 20
46.20379350572605
 42
0.3593608004949541
 10
-3.829667863723955
 20
46.16179361840207
 10
-3.805920097005184
 20
46.12657467128977
 42
-0.3524310491054993
 10
-3.81434570675043
 20
46.11979350572531
 10
-3.995970706750597
 20
46.11979350572531
 10
-3.995970706750597
 20
46.64879350572576
 10
-3.81434570675043
 20
46.64879350572576
 42
-0.3518693664465323
 10
-3.805923799388949
 20
46.64202917802415
 10
-3.82972730356829
 20
46.60710478685817
 42
0.3446308864324803
 10
-3.803488389566666
 20
46.56479350572502
 10
-3.745345706750015
 20
46.56479350572502
 42
-0.4142135623730946
 10
-3.736720706750531
 20
46.55616850572553
 10
-3.736720706750531
 20
46.21241850572554
 42
-0.4142135623730946
 10
-3.745345706750015
 20
46.20379350572605
  0
LWPOLYLINE
  5
179
330
2
100
AcDbEntity
  8
0
100
AcDbPolyline
 90
       10
 70
     1
 43
0.0
 10
-3.807283206750582
 20
46.22804350572553
 42
0.3584554666094669
 10
-3.854158206750582
 20
46.16313965957218
 10
-3.854158206750582
 20
46.1440435057257
 10
-3.964720706750597
 20
46.1440435057257
 10
-3.964720706750597
 20
46.62454350572537
 10
-3.854158206750582
 20
46.62454350572537
 10
-3.854158206750582
 20
46.60544735187889
 42
0.3467993108968364
 10
-3.807283206750582
 20
46.54054350572553
 10
-3.760970706750015
 20
46.54054350572553
 10
-3.760970706750015
 20
46.22804350572553
  0
LWPOLYLINE
  5
17A
330
2
100
AcDbEntity
  8
0
100
AcDbPolyline
 90
        6
 70
     0
 43
0.0
 10
-3.967720706750299
 20
46.1127935057257
 10
-3.967720706750299
 20
46.10304350572554
 10
-4.005720706750764
 20
46.10304350572554
 10
-4.005720706750764
 20
46.66554350572553
 10
-3.967720706750299
 20
46.66554350572553
 10
-3.967720706750299
 20
46.65579350572537
  0
LINE
  5
17B
330
2
100
AcDbEntity
  8
0
100
AcDbLine
 10
-3.81434570675043
 20
46.65579350572537
 30
0.0
 11
-3.81434570675043
 21
46.68116850572554
 31
0.0
  0
LINE
  5
17C
330
2
100
AcDbEntity
  8
0
100
AcDbLine
 10
-3.967720706750299
 20
46.65579350572537
 30
0.0
 11
-3.967720706750299
 21
46.68116850572554
 31
0.0
  0
LINE
  5
17D
330
2
100
AcDbEntity
  8
0
100
AcDbLine
 10
-3.81434570675043
 20
46.1127935057257
 30
0.0
 11
-3.81434570675043
 21
46.08741850572553
 31
0.0
  0
LINE
  5
17E
330
2
100
AcDbEntity
  8
0
100
AcDbLine
 10
-3.967720706750299
 20
46.1127935057257
 30
0.0
 11
-3.967720706750299
 21
46.08741850572553
 31
0.0
  0
HATCH
  5
17F
330
2
100
AcDbEntity
  8
0
  6
Continuous
100
AcDbHatch
 10
0.0
 20
0.0
 30
0.0
210
0.0
220
0.0
230
1.0
  2
DOTS
 70
     0
 71
     0
 91
        2
 92
        7
 72
     0
 73
     1
 93
        4
 10
-3.81434570675043
 20
46.1127935057257
 10
-3.81434570675043
 20
46.08741850572553
 10
-3.967720706750299
 20
46.08741850572553
 10
-3.967720706750299
 20
46.1127935057257
 97
        0
 92
        7
 72
     0
 73
     1
 93
        4
 10
-3.81434570675043
 20
46.68116850572554
 10
-3.81434570675043
 20
46.65579350572537
 10
-3.967720706750299
 20
46.65579350572537
 10
-3.967720706750299
 20
46.68116850572554
 97
        0
 75
     0
 76
     1
 52
450.0
 41
0.1
 77
     0
 78
     1
 53
90.0
 43
-7.9476321866249
 44
39.99393876018897
 45
0.00625
 46
0.003125
 79
     2
 49
0.0
 49
-0.00625
 47
0.0006001443632006
 98
        2
 10
-3.87193064679883
 20
46.10107321557828
 10
-3.875531520597689
 20
46.67095814497409
  0
HATCH
  5
180
330
2
100
AcDbEntity
  8
0
  6
Continuous
100
AcDbHatch
 10
0.0
 20
0.0
 30
0.0
210
0.0
220
0.0
230
1.0
  2
DASH
 70
     0
 71
     0
 91
        1
 92
        7
 72
     1
 73
     1
 93
       16
 10
-3.729720706750015
 20
46.55616850572553
 42
0.4142135623730951
 10
-3.745345706750015
 20
46.57179350572554
 42
0.0
 10
-3.802182538618183
 20
46.57179350572554
 42
-0.3208708054700533
 10
-3.822908206750582
 20
46.60468071766721
 42
0.0
 10
-3.79872070675043
 20
46.64016850572537
 42
0.414213562373094
 10
-3.81434570675043
 20
46.65579350572537
 42
0.0
 10
-3.81434570675043
 20
46.68116850572644
 42
0.0
 10
-3.592720706751208
 20
46.68116850572462
 42
0.0
 10
-3.592720706751208
 20
46.08741850572553
 42
0.0
 10
-3.81434570675043
 20
46.08741850572553
 42
0.0
 10
-3.81434570675043
 20
46.1127935057257
 42
0.4142135623730951
 10
-3.79872070675043
 20
46.12841850572571
 42
0.0
 10
-3.822908206750582
 20
46.16428959597854
 42
-0.3359746306540741
 10
-3.802545447698832
 20
46.19679350572553
 42
0.0
 10
-3.745345706750015
 20
46.19679350572553
 42
0.4142135623730951
 10
-3.729720706750015
 20
46.21241850572554
 42
0.0
 97
        0
 75
     0
 76
     1
 52
450.0
 41
0.1
 77
     0
 78
     1
 53
90.0
 43
-7.9476321866249
 44
39.99393876018897
 45
0.0125
 46
0.0125
 79
     2
 49
0.0125
 49
-0.0125
 47
0.0009600803746669
 98
        1
 10
-3.678881434555989
 20
46.43331498581031
  0
LINE
  5
181
330
2
100
AcDbEntity
  8
0
100
AcDbLine
 10
-3.48372070674992
 20
45.92967842698548
 30
0.0
 11
-3.592720706750299
 21
46.83890858446559
 31
0.0
  0
LWPOLYLINE
  5
182
330
2
100
AcDbEntity
  8
0
100
AcDbPolyline
 90
        8
 70
     0
 43
0.0
 10
-3.48372070674992
 20
45.92967842698548
 10
-3.48372070674992
 20
46.83890858446559
 10
-3.592720706750299
 20
46.83890858446559
 10
-3.592720706750299
 20
45.92967842698548
 10
-3.48372070674992
 20
45.92967842698548
 10
-3.592720706750299
 20
46.83890858446559
 10
-3.592720706750299
 20
45.92967842698548
 10
-3.48372070674992
 20
46.83890858446559
  0
LINE
  5
183
330
2
100
AcDbEntity
  8
0
  6
HIDDEN2
100
AcDbLine
 10
-4.671324074894243
 20
45.92967842698548
 30
0.0
 11
-4.671324074894243
 21
46.83890858446559
 31
0.0
  0
HATCH
  5
184
330
2
100
AcDbEntity
  8
0
100
AcDbHatch
 10
0.0
 20
0.0
 30
0.0
210
0.0
220
0.0
230
1.0
  2
HONEY
 70
     0
 71
     0
 91
        2
 92
       16
 93
        9
 72
     1
 10
0.5786490555657906
 20
47.93205098798662
 11
0.6083257459452512
 21
47.93205098798662
 72
     1
 10
0.6083257459452512
 20
47.93205098798662
 11
0.6081700868747931
 21
47.55465360159928
 72
     1
 10
0.6081700868747931
 20
47.55465360159928
 11
0.2878215235812149
 21
47.55478573065312
 72
     1
 10
0.2878215235812149
 20
47.55478573065312
 11
0.2878353414315597
 21
47.58828728366262
 72
     1
 10
0.2878353414315029
 20
47.58828728366265
 11
0.5801058994520645
 21
47.58816673549506
 72
     1
 10
0.5801058994520645
 20
47.58816673549503
 11
0.5802351734865852
 21
47.90159326833671
 72
     1
 10
0.5802351734865852
 20
47.90159326833671
 11
0.485250212117478
 21
47.80668662852252
 72
     1
 10
0.485250212117478
 20
47.80668662852252
 11
0.485250212117478
 21
47.83872915823127
 72
     1
 10
0.485250212117478
 20
47.83872915823127
 11
0.5786490555657622
 21
47.93205098798662
 97
        0
 92
        1
 93
       11
 72
     1
 10
0.2790700681123894
 20
47.48498520204035
 11
0.5517936597066182
 21
47.4848727160977
 72
     2
 10
0.5518172223846137
 20
47.54200072721007
 40
0.0571280159716573
 50
269.9763681265572
 51
359.9763681265644
 73
     1
 72
     1
 10
0.6089452334970247
 20
47.54197716453205
 11
0.6091064428837285
 21
47.93283136292359
 72
     1
 10
0.6091064428837285
 20
47.93283136292359
 11
0.4841064535161195
 21
47.93288291967215
 72
     1
 10
0.4841064535161195
 20
47.93288291967215
 11
0.4839645799175969
 21
47.58890858446562
 72
     1
 10
0.4839645799175969
 20
47.58890858446562
 11
0.2010095684210285
 21
47.58902529039858
 72
     2
 10
0.2228539698834311
 20
47.4015162646387
 40
0.1887771506741734
 50
96.64488319981693
 51
263.3078530532888
 73
     1
 72
     1
 10
0.2008548981754075
 20
47.21402532229575
 11
0.5128630079786376
 21
47.21389663329552
 72
     2
 10
0.5067734914840685
 20
47.30269875604323
 40
0.0890106691113012
 50
-86.07714064090098
 51
86.02987689400375
 73
     1
 72
     1
 10
0.5129362594799432
 20
47.39149582528696
 11
0.302499199357527
 21
47.32740891280411
 72
     2
 10
0.2790368511869019
 20
47.40445034577866
 40
0.0805348631119007
 50
433.0623079543601
 51
630.0236318734479
 73
     0
 97
        0
 75
     1
 76
     1
 52
90.0
 41
0.2
 77
     0
 78
     3
 53
90.0
 43
41.16958925440136
 44
-60.56199056714937
 45
-0.021650635094611
 46
0.0375
 79
     2
 49
0.025
 49
-0.05
 53
210.0
 43
41.16958925440136
 44
-60.56199056714937
 45
-0.021650635094611
 46
-0.0375
 79
     2
 49
0.025
 49
-0.05
 53
150.0
 43
41.16958925440136
 44
-60.56199056714937
 45
-0.043301270189222
 46
0.0
 79
     2
 49
-0.05
 49
0.025
 98
        1
 10
-50.63723740418987
 20
153.2398077360806
1001
GradientColor1ACI
1070
     5
1001
GradientColor2ACI
1070
     2
1001
ACAD
1010
0.0
1020
0.0
1030
0.0
  0
LWPOLYLINE
  5
185
330
2
100
AcDbEntity
  8
0
100
AcDbPolyline
 90
       11
 70
     1
 43
0.0
 10
0.2790700681123894
 20
47.48498520204035
 10
0.5517936597066182
 20
47.4848727160977
 42
0.4142135623731042
 10
0.6089452334970247
 20
47.54197716453205
 10
0.6091064428837285
 20
47.93283136292359
 10
0.4841064535161195
 20
47.93288291967215
 10
0.4839645799175969
 20
47.58890858446562
 10
0.2010095684210569
 20
47.58902529039855
 42
0.8898955318630001
 10
0.2008548981754075
 20
47.21402532229575
 10
0.5128630079786376
 20
47.21389663329548
 42
0.9333884728362816
 10
0.5129362594799432
 20
47.39149582528696
 10
0.3024991993574986
 20
47.32740891280409
 42
-1.16016115395227
  0
LWPOLYLINE
  5
186
330
2
100
AcDbEntity
  8
0
  6
Continuous
100
AcDbPolyline
 90
        9
 70
     1
 43
0.0
 10
0.5786490555657906
 20
47.93205098798662
 10
0.6083257459452512
 20
47.93205098798662
 10
0.6081700868747931
 20
47.55465360159928
 10
0.2878215235812149
 20
47.55478573065312
 10
0.2878353414315029
 20
47.58828728366265
 10
0.5801058994520645
 20
47.58816673549503
 10
0.5802351734865852
 20
47.90159326833671
 10
0.485250212117478
 20
47.80668662852252
 10
0.485250212117478
 20
47.83872915823127
  0
LWPOLYLINE
  5
187
330
2
100
AcDbEntity
  8
0
100
AcDbPolyline
 90
        8
 70
     0
 43
0.0
 10
0.4836119860214581
 20
46.66090858446572
 10
0.3586130332354855
 20
46.66090858446572
 10
0.3586130332354855
 20
46.5889085844656
 10
-0.0163869667645145
 20
46.5889085844656
 10
-0.0163869667645145
 20
46.08890858446559
 10
0.3586130332354855
 20
46.08890858446559
 10
0.3586130332354855
 20
46.01690858446571
 10
0.5461119860214581
 20
46.01690858446571
  0
LWPOLYLINE
  5
188
330
2
100
AcDbEntity
  8
0
100
AcDbPolyline
 90
        4
 70
     1
 43
0.0
 10
0.4586130332353946
 20
46.65140858446571
 10
0.4586130332353946
 20
46.02640858446571
 10
0.3586130332353719
 20
46.02640858446571
 10
0.3586130332353719
 20
46.65140858446571
  0
LWPOLYLINE
  5
189
330
2
100
AcDbEntity
  8
0
100
AcDbPolyline
 90
        4
 70
     1
 43
0.0
 10
-0.0013869667646418
 20
46.57290858446564
 10
0.3586130332353719
 20
46.57290858446564
 10
0.3586130332353719
 20
46.10490858446567
 10
-0.0013869667646418
 20
46.10490858446567
  0
LWPOLYLINE
  5
18A
330
2
100
AcDbEntity
  8
0
100
AcDbPolyline
 90
        4
 70
     0
 43
0.0
 10
0.3586130332353719
 20
46.15490858446563
 10
0.0486130332353128
 20
46.15490858446563
 10
0.0486130332353128
 20
46.52290858446568
 10
0.3586130332353719
 20
46.52290858446568
  0
LWPOLYLINE
  5
18B
330
2
100
AcDbEntity
  8
0
100
AcDbPolyline
 90
        4
 70
     1
 43
0.0
 10
0.3436130332352718
 20
46.44590858446565
 42
0.4999999999999347
 10
0.0636130332352991
 20
46.44590858446568
 10
0.0636130332352991
 20
46.23590858446564
 42
0.4999999999998935
 10
0.3436130332352718
 20
46.23590858446564
  0
LWPOLYLINE
  5
18C
102
{ACAD_REACTORS
330
199
330
1AA
330
1BB
330
1CC
102
}
330
2
100
AcDbEntity
  8
0
  6
Continuous
100
AcDbPolyline
 90
       26
 70
     0
 43
0.0
 10
-6.420416922777434
 20
68.03160560890706
 10
-4.35741692277736
 20
68.03159454389635
 10
-4.35741692277736
 20
67.96959454389633
 10
-3.865449093521817
 20
67.96959454389633
 10
-3.865449093521817
 20
67.84459454389633
 10
-4.357416922777417
 20
67.84459454389633
 10
-4.35741692277736
 20
67.59359454389633
 42
0.4142135623730951
 10
-4.295416922777349
 20
67.53159454389635
 10
-1.98241676312142
 20
67.53160061209865
 42
0.4142128141791537
 10
-1.919916922777332
 20
67.59410061209843
 10
-1.919916922777332
 20
68.37660561348286
 42
-1.000000000000008
 10
-1.919916922777332
 20
68.59460561348289
 10
-1.919916922777332
 20
68.66960560890703
 10
-2.606916922777344
 20
68.66960560890703
 10
-2.606916922777344
 20
68.71960560890705
 10
-2.825359649845353
 20
68.71960560890705
 42
-0.9999999999999998
 10
-3.075359649845353
 20
68.71960560890705
 10
-3.486433008149617
 20
68.71960560890705
 42
-0.9999999999999998
 10
-3.736433008149617
 20
68.71960560890705
 10
-3.986433008149617
 20
68.71960560890705
 42
-0.9999999999999998
 10
-4.236433008149617
 20
68.71960560890705
 10
-5.732358413889357
 20
68.71960560890705
 42
-0.9999999999999998
 10
-5.982358413889357
 20
68.71960560890705
 10
-6.482416922777417
 20
68.71960560890705
 10
-6.482416922777417
 20
68.09410560890706
 42
0.4142135623730951
 10
-6.419916922777417
 20
68.03160560890706
  0
HATCH
  5
18D
330
2
100
AcDbEntity
  8
0
100
AcDbHatch
 10
0.0
 20
0.0
 30
0.0
210
0.0
220
0.0
230
1.0
  2
HONEY
 70
     0
 71
     0
 91
        2
 92
       16
 93
        9
 72
     1
 10
-4.014274519256389
 20
67.93913714594603
 11
-4.014274519256389
 21
67.96881383632552
 72
     1
 10
-4.014274519256389
 20
67.96881383632549
 11
-4.391671905643732
 21
67.96865817725503
 72
     1
 10
-4.391671905643761
 20
67.96865817725503
 11
-4.391539776589922
 21
67.64830961396143
 72
     1
 10
-4.391539776589922
 20
67.64830961396146
 11
-4.358038223580422
 21
67.64832343181177
 72
     1
 10
-4.358038223580393
 20
67.64832343181177
 11
-4.35815877174798
 21
67.94059398983233
 72
     1
 10
-4.35815877174798
 20
67.94059398983233
 11
-4.044732238906306
 21
67.94072326386686
 72
     1
 10
-4.044732238906306
 20
67.94072326386686
 11
-4.139638878720518
 21
67.84573830249775
 72
     1
 10
-4.139638878720518
 20
67.84573830249775
 11
-4.107596349011771
 21
67.84573830249775
 72
     1
 10
-4.107596349011771
 20
67.84573830249775
 11
-4.014274519256417
 21
67.93913714594603
 97
        0
 92
        1
 93
       11
 72
     1
 10
-4.461340305202696
 20
67.63955815849263
 11
-4.461452791145347
 21
67.91228175008686
 72
     2
 10
-4.404324780032936
 20
67.91230531276489
 40
0.0571280159716573
 50
179.9763681265573
 51
269.9763681265644
 73
     0
 72
     1
 10
-4.404348342710989
 20
67.9694333238773
 11
-4.013494144319452
 21
67.969594533264
 72
     1
 10
-4.013494144319452
 20
67.969594533264
 11
-4.013442587570892
 21
67.84459454389639
 72
     1
 10
-4.013442587570892
 20
67.84459454389639
 11
-4.357416922777417
 21
67.84445267029787
 72
     1
 10
-4.357416922777417
 20
67.84445267029787
 11
-4.357300216844464
 21
67.5614976588013
 72
     2
 10
-4.544809242604344
 20
67.5833420602637
 40
0.1887771506741734
 50
6.644883199816937
 51
173.3078530532888
 73
     0
 72
     1
 10
-4.732300184947291
 20
67.56134298855565
 11
-4.732428873947526
 21
67.87335109835888
 72
     2
 10
-4.643626751199803
 20
67.86726158186431
 40
0.0890106691113012
 50
-176.077140640901
 51
-3.970123105996244
 73
     0
 72
     1
 10
-4.554829681956078
 20
67.87342434986019
 11
-4.618916594438928
 21
67.66298728973777
 72
     2
 10
-4.541875161464389
 20
67.63952494156715
 40
0.0805348631119007
 50
523.0623079543601
 51
720.0236318734479
 73
     1
 97
        0
 75
     1
 76
     1
 52
0.0
 41
0.2
 77
     0
 78
     3
 53
0.0
 43
-112.5083160743924
 44
16.7232506861904
 45
0.0375
 46
0.021650635094611
 79
     2
 49
0.025
 49
-0.05
 53
120.0
 43
-112.5083160743924
 44
16.7232506861904
 45
-0.0375
 46
0.021650635094611
 79
     2
 49
0.025
 49
-0.0499999999999999
 53
60.0
 43
-112.5083160743924
 44
16.7232506861904
 45
0.0
 46
0.043301270189222
 79
     2
 49
-0.05
 49
0.025
 98
        1
 10
101.2934822288375
 20
16.7232506861904
1001
GradientColor1ACI
1070
     5
1001
GradientColor2ACI
1070
     2
1001
ACAD
1010
0.0
1020
0.0
1030
0.0
  0
LWPOLYLINE
  5
18E
330
2
100
AcDbEntity
  8
0
100
AcDbPolyline
 90
       11
 70
     1
 43
0.0
 10
-4.461340305202696
 20
67.63955815849263
 10
-4.461452791145347
 20
67.91228175008686
 42
-0.4142135623731042
 10
-4.404348342710989
 20
67.9694333238773
 10
-4.013494144319452
 20
67.969594533264
 10
-4.013442587570892
 20
67.84459454389639
 10
-4.357416922777417
 20
67.84445267029787
 10
-4.357300216844464
 20
67.5614976588013
 42
-0.8898955318630001
 10
-4.732300184947291
 20
67.56134298855565
 10
-4.732428873947526
 20
67.87335109835888
 42
-0.9333884728362816
 10
-4.554829681956078
 20
67.87342434986019
 10
-4.618916594438928
 20
67.66298728973777
 42
1.16016115395227
  0
LWPOLYLINE
  5
18F
330
2
100
AcDbEntity
  8
0
  6
Continuous
100
AcDbPolyline
 90
        9
 70
     1
 43
0.0
 10
-4.014274519256389
 20
67.93913714594603
 10
-4.014274519256389
 20
67.96881383632549
 10
-4.391671905643761
 20
67.96865817725503
 10
-4.391539776589922
 20
67.64830961396146
 10
-4.358038223580393
 20
67.64832343181177
 10
-4.35815877174798
 20
67.94059398983233
 10
-4.044732238906306
 20
67.94072326386686
 10
-4.139638878720518
 20
67.84573830249775
 10
-4.107596349011771
 20
67.84573830249775
  0
LWPOLYLINE
  5
190
102
{ACAD_REACTORS
330
1CC
102
}
330
2
100
AcDbEntity
  8
0
  6
Continuous
100
AcDbPolyline
 90
        7
 70
     0
 43
0.0
 10
-1.920260776508342
 20
54.62691399116417
 10
-1.920260776508342
 20
53.25122794465253
 10
-1.670260776508342
 20
53.25122794465253
 10
-1.670260776508342
 20
54.50047428221165
 42
0.2679491924311228
 10
-1.701260776508348
 20
54.55416785724628
 10
-1.827260776508353
 20
54.62691399116417
 10
-1.920260776508342
 20
54.62691399116417
  0
LWPOLYLINE
  5
191
330
2
100
AcDbEntity
  8
0
  6
Continuous
100
AcDbPolyline
 90
       22
 70
     1
 43
0.0
 10
-4.263260776508332
 20
53.92059511553478
 10
-4.263260776508332
 20
54.06422795457032
 42
-0.4142135623730938
 10
-4.201260776508348
 20
54.12622795457034
 10
-3.857760776508342
 20
54.12622795457034
 10
-3.857760776508342
 20
54.18872795457033
 42
-0.4142135623730951
 10
-3.795760776508359
 20
54.25072795457032
 10
-2.231760776508338
 20
54.25072795457032
 42
-0.4142135623730951
 10
-2.169760776508326
 20
54.18872795457033
 10
-2.169760776508326
 20
54.04722795457033
 10
-1.920260776508342
 20
54.04722795457033
 10
-1.920260776508342
 20
53.25122795457033
 10
-6.717260776508339
 20
53.25122795457031
 42
-0.4142135623730951
 10
-6.779260776508351
 20
53.31322795457032
 10
-6.779260776508351
 20
53.53122795457031
 10
-7.029260776508351
 20
53.53122795457031
 10
-7.029260776508351
 20
53.42322795457033
 42
-0.4142135623730961
 10
-7.091260776508335
 20
53.36122795457033
 10
-7.357260776508326
 20
53.36122795457033
 10
-7.357260776508326
 20
53.93029228775844
 10
-4.439136101981944
 20
54.18559511553479
 42
-0.4348123749609336
 10
-4.372811200609817
 20
54.12374614441867
 10
-4.372811200609817
 20
53.92059511553478
  0
LWPOLYLINE
  5
192
330
2
100
AcDbEntity
  8
0
  6
Continuous
100
AcDbPolyline
 90
       11
 70
     0
 43
0.0
 10
-4.357451434009789
 20
54.56352094472501
 10
-3.857416922777417
 20
54.56352094472501
 10
-3.857416922777417
 20
54.43852094472504
 10
-4.357412597857262
 20
54.43852094472504
 10
-4.357345646995952
 20
54.25072795457032
 10
-1.920260776508342
 20
54.25072795457032
 10
-1.920260776508342
 20
54.87572795457032
 42
0.4142135623730955
 10
-1.982260776508326
 20
54.93772795457033
 10
-4.326416922777411
 20
54.93772795457033
 42
0.4142135623730951
 10
-4.357416922777417
 20
54.90672795457033
 10
-4.357416922777417
 20
54.56352094472501
  0
LWPOLYLINE
  5
193
102
{ACAD_REACTORS
330
20A
102
}
330
2
100
AcDbEntity
  8
0
100
AcDbPolyline
 90
       14
 70
     1
 43
0.0
 10
-7.388535988559056
 20
53.31322795457032
 10
-7.388535988559056
 20
53.92617590903546
 10
-4.357035988559061
 20
54.19139779251432
 10
-4.357035988559061
 20
53.92059511553478
 10
-4.279035988559087
 20
53.92059511553478
 10
-4.279035988559087
 20
54.18934142070011
 10
-3.888035988559067
 20
54.18934142070011
 10
-3.888035988559067
 20
54.25134142070013
 10
-4.383247404409644
 20
54.25134142070013
 10
-7.450535988559067
 20
53.98298844182455
 10
-7.450535988559067
 20
53.25122795457031
 10
-7.075379620787316
 20
53.25122795457031
 10
-7.075379620787316
 20
53.31322795457032
 10
-7.138535988559056
 20
53.31322795457032
  0
HATCH
  5
194
330
2
100
AcDbEntity
  8
0
100
AcDbHatch
 10
0.0
 20
0.0
 30
0.0
210
0.0
220
0.0
230
1.0
  2
HONEY
 70
     0
 71
     0
 91
        2
 92
       16
 93
        9
 72
     1
 10
-4.014274519256389
 20
54.468978332043
 11
-4.014274519256389
 21
54.43930164166352
 72
     1
 10
-4.014274519256389
 20
54.43930164166355
 11
-4.391671905643732
 21
54.43945730073401
 72
     1
 10
-4.391671905643761
 20
54.43945730073401
 11
-4.391539776589922
 21
54.75980586402761
 72
     1
 10
-4.391539776589922
 20
54.75980586402759
 11
-4.358038223580422
 21
54.75979204617726
 72
     1
 10
-4.358038223580393
 20
54.75979204617726
 11
-4.35815877174798
 21
54.4675214881567
 72
     1
 10
-4.35815877174798
 20
54.4675214881567
 11
-4.044732238906306
 21
54.46739221412219
 72
     1
 10
-4.044732238906306
 20
54.46739221412219
 11
-4.139638878720518
 21
54.56237717549129
 72
     1
 10
-4.139638878720518
 20
54.56237717549129
 11
-4.107596349011771
 21
54.56237717549129
 72
     1
 10
-4.107596349011771
 20
54.56237717549129
 11
-4.014274519256417
 21
54.468978332043
 97
        0
 92
        1
 93
       11
 72
     1
 10
-4.461340305202696
 20
54.7685573194964
 11
-4.461452791145347
 21
54.49583372790218
 72
     2
 10
-4.404324780032936
 20
54.49581016522415
 40
0.0571280159716573
 50
179.9763681265573
 51
269.9763681265644
 73
     1
 72
     1
 10
-4.404348342710989
 20
54.43868215411175
 11
-4.013494144319452
 21
54.43852094472504
 72
     1
 10
-4.013494144319452
 20
54.43852094472504
 11
-4.013442587570892
 21
54.56352093409265
 72
     1
 10
-4.013442587570892
 20
54.56352093409265
 11
-4.357416922777417
 21
54.56366280769117
 72
     1
 10
-4.357416922777417
 20
54.56366280769117
 11
-4.357300216844464
 21
54.84661781918774
 72
     2
 10
-4.544809242604344
 20
54.82477341772534
 40
0.1887771506741734
 50
6.644883199816937
 51
173.3078530532888
 73
     1
 72
     1
 10
-4.732300184947291
 20
54.84677248943339
 11
-4.732428873947526
 21
54.53476437963016
 72
     2
 10
-4.643626751199803
 20
54.54085389612473
 40
0.0890106691113012
 50
-176.077140640901
 51
-3.970123105996244
 73
     1
 72
     1
 10
-4.554829681956078
 20
54.53469112812886
 11
-4.618916594438928
 21
54.74512818825127
 72
     2
 10
-4.541875161464389
 20
54.7685905364219
 40
0.0805348631119007
 50
523.0623079543601
 51
720.0236318734479
 73
     0
 97
        0
 75
     1
 76
     1
 52
0.0
 41
0.2
 77
     0
 78
     3
 53
0.0
 43
-112.5083160743924
 44
3.442177076386656
 45
0.0375
 46
0.021650635094611
 79
     2
 49
0.025
 49
-0.05
 53
120.0
 43
-112.5083160743924
 44
3.442177076386656
 45
-0.0375
 46
0.021650635094611
 79
     2
 49
0.025
 49
-0.0499999999999999
 53
60.0
 43
-112.5083160743924
 44
3.442177076386656
 45
0.0
 46
0.043301270189222
 79
     2
 49
-0.05
 49
0.025
 98
        1
 10
101.2934822288375
 20
105.6848647917986
1001
GradientColor1ACI
1070
     5
1001
GradientColor2ACI
1070
     2
1001
ACAD
1010
0.0
1020
0.0
1030
0.0
  0
LWPOLYLINE
  5
195
330
2
100
AcDbEntity
  8
0
100
AcDbPolyline
 90
       11
 70
     1
 43
0.0
 10
-4.461340305202696
 20
54.7685573194964
 10
-4.461452791145347
 20
54.49583372790218
 42
0.4142135623731042
 10
-4.404348342710989
 20
54.43868215411175
 10
-4.013494144319452
 20
54.43852094472504
 10
-4.013442587570892
 20
54.56352093409265
 10
-4.357416922777417
 20
54.56366280769117
 10
-4.357300216844464
 20
54.84661781918774
 42
0.8898955318630001
 10
-4.732300184947291
 20
54.84677248943339
 10
-4.732428873947526
 20
54.53476437963016
 42
0.9333884728362816
 10
-4.554829681956078
 20
54.53469112812886
 10
-4.618916594438928
 20
54.74512818825127
 42
-1.16016115395227
  0
LWPOLYLINE
  5
196
330
2
100
AcDbEntity
  8
0
  6
Continuous
100
AcDbPolyline
 90
        9
 70
     1
 43
0.0
 10
-4.014274519256389
 20
54.468978332043
 10
-4.014274519256389
 20
54.43930164166355
 10
-4.391671905643761
 20
54.43945730073401
 10
-4.391539776589922
 20
54.75980586402759
 10
-4.358038223580393
 20
54.75979204617726
 10
-4.35815877174798
 20
54.4675214881567
 10
-4.044732238906306
 20
54.46739221412219
 10
-4.139638878720518
 20
54.56237717549129
 10
-4.107596349011771
 20
54.56237717549129
  0
DIMENSION
  5
197
102
{ACAD_XDICTIONARY
360
198
102
}
102
{ACAD_REACTORS
330
199
102
}
330
2
100
AcDbEntity
  8
0
100
AcDbDimension
  2
*D3
 10
-6.420416922777304
 20
69.97255286770237
 30
0.0
 11
-3.65890761377048
 21
69.97255286770237
 31
0.0
 70
   128
 71
     5
 42
4.500499999999972
  3
Knife
100
AcDbAlignedDimension
 13
-1.919916922777332
 23
68.66960560890703
 33
0.0
 14
-6.420416922777304
 24
69.53160560890705
 34
0.0
100
AcDbRotatedDimension
1001
ACAD
1000
DSTYLE
1002
{
1070
    40
1040
1.0
1002
}
  0
DIMENSION
  5
1A8
102
{ACAD_XDICTIONARY
360
1A9
102
}
102
{ACAD_REACTORS
330
1AA
102
}
330
2
100
AcDbEntity
  8
0
100
AcDbDimension
  2
*D4
 10
-5.64855446319612
 20
68.71960560890705
 30
0.0
 11
-4.962029010047833
 21
69.23392578857558
 31
0.0
 70
   128
 71
     5
 42
0.6880055325053434
  3
Knife
100
AcDbAlignedDimension
 13
-5.388916922777397
 23
68.0316000764017
 33
0.0
 14
-5.388916922777397
 24
68.71960560890705
 34
0.0
 50
90.0
100
AcDbRotatedDimension
1001
ACAD
1000
DSTYLE
1002
{
1070
    40
1040
1.0
1002
}
  0
DIMENSION
  5
1B9
102
{ACAD_XDICTIONARY
360
1BA
102
}
102
{ACAD_REACTORS
330
1BB
102
}
330
2
100
AcDbEntity
  8
0
100
AcDbDimension
  2
*D5
 10
-3.288077352719199
 20
67.53159666629006
 30
0.0
 11
-3.28807735271921
 21
68.12560113759855
 31
0.0
 71
     5
 42
1.188008942616988
  3
Knife
100
AcDbAlignedDimension
 13
-3.486433008149617
 23
68.71960560890705
 33
0.0
 14
-3.486429891384329
 24
67.53159666629006
 34
0.0
 50
90.0
100
AcDbRotatedDimension
1001
ACAD
1000
DSTYLE
1002
{
1070
    40
1040
1.0
1002
}
  0
DIMENSION
  5
1CA
102
{ACAD_XDICTIONARY
360
1CB
102
}
102
{ACAD_REACTORS
330
1CC
102
}
330
2
100
AcDbEntity
  8
0
100
AcDbDimension
  2
*D6
 10
-0.8481329038822321
 20
53.25122794465253
 30
0.0
 11
-0.8481329038822401
 21
61.36748907760697
 31
0.0
 70
   128
  1
BOX
 71
     5
 42
15.46837766425452
  3
Knife
100
AcDbAlignedDimension
 13
-2.606916922777344
 23
68.71960560890705
 33
0.0
 14
-1.670260776508342
 24
53.25122794465253
 34
0.0
 50
90.0
100
AcDbRotatedDimension
1001
ACAD
1000
DSTYLE
1002
{
1070
    40
1040
1.0
1002
}
  0
DIMENSION
  5
1DA
330
2
100
AcDbEntity
  8
0
100
AcDbDimension
  2
*D7
 10
0.3629471409487341
 20
69.46960560890705
 30
0.0
 11
0.3629471409487225
 21
61.36041677677979
 31
0.0
  1
ROUGH\POPENING
 71
     5
 42
16.21837766425452
  3
Knife
100
AcDbAlignedDimension
 13
-1.670260776508342
 23
53.25122794465253
 33
0.0
 14
-2.606916922777344
 24
69.46960560890705
 34
0.0
 50
90.0
100
AcDbRotatedDimension
1001
ACAD
1000
DSTYLE
1002
{
1070
    40
1040
1.0
1002
}
  0
DIMENSION
  5
1E8
330
2
100
AcDbEntity
  8
0
100
AcDbDimension
  2
*D8
 10
-0.8481329038822286
 20
69.46960560890705
 30
0.0
 11
-0.1616074507339423
 21
70.01921639291333
 31
0.0
 70
   128
 71
     5
 42
0.75
  3
Knife
100
AcDbAlignedDimension
 13
-2.606916922777344
 23
68.71960560890705
 33
0.0
 14
-2.606916922777344
 24
69.46960560890705
 34
0.0
 50
90.0
100
AcDbRotatedDimension
1001
ACAD
1000
DSTYLE
1002
{
1070
    40
1040
1.0
1002
}
  0
DIMENSION
  5
1F7
102
{ACAD_XDICTIONARY
360
1F8
102
}
102
{ACAD_REACTORS
330
1F9
102
}
330
2
100
AcDbEntity
  8
0
100
AcDbDimension
  2
*D9
 10
-8.525280765569617
 20
61.93906064734164
 30
0.0
 11
-8.525280765569627
 21
58.25139430095598
 31
0.0
 71
     5
 42
7.375332692771337
  3
Knife
100
AcDbAlignedDimension
 13
-6.420416922777405
 23
54.56372795457031
 33
0.0
 14
-6.094171848544019
 24
61.93906064734164
 34
0.0
 50
90.0
100
AcDbRotatedDimension
1001
ACAD
1000
DSTYLE
1002
{
1070
    40
1040
1.0
1002
}
  0
DIMENSION
  5
208
102
{ACAD_XDICTIONARY
360
209
102
}
102
{ACAD_REACTORS
330
20A
102
}
330
2
100
AcDbEntity
  8
0
100
AcDbDimension
  2
*D10
 10
-8.525280765569618
 20
53.25122795457031
 30
0.0
 11
-8.525280765569627
 21
53.90747795457031
 31
0.0
 71
     5
 42
1.3125
  3
Knife
100
AcDbAlignedDimension
 13
-6.42041692277742
 23
54.56372795457031
 33
0.0
 14
-7.450535988559067
 24
53.25122795457031
 34
0.0
 50
90.0
100
AcDbRotatedDimension
1001
ACAD
1000
DSTYLE
1002
{
1070
    40
1040
1.0
1002
}
  0
DIMENSION
  5
219
102
{ACAD_XDICTIONARY
360
21A
102
}
102
{ACAD_REACTORS
330
21B
102
}
330
2
100
AcDbEntity
  8
0
100
AcDbDimension
  2
*D11
 10
-8.525280765569618
 20
67.9066000764017
 30
0.0
 11
-8.525280765569629
 21
65.61043373001602
 31
0.0
 71
     5
 42
4.59233269277135
  3
Knife
100
AcDbAlignedDimension
 13
-6.094171848543993
 23
63.31426738363035
 33
0.0
 14
-6.420416922777405
 24
67.9066000764017
 34
0.0
 50
90.0
100
AcDbRotatedDimension
1001
ACAD
1000
DSTYLE
1002
{
1070
    40
1040
1.0
1002
}
  0
DIMENSION
  5
22A
102
{ACAD_XDICTIONARY
360
22B
102
}
102
{ACAD_REACTORS
330
22C
102
}
330
2
100
AcDbEntity
  8
0
100
AcDbDimension
  2
*D12
 10
-8.525280765569618
 20
61.93906064734164
 30
0.0
 11
-8.525280765569629
 21
62.62666401548599
 31
0.0
  1
DAYLIGHT OPENING
 71
     5
 42
1.375206736288703
  3
Knife
100
AcDbAlignedDimension
 13
-6.09417184854399
 23
63.31426738363035
 33
0.0
 14
-6.094171848544021
 24
61.93906064734164
 34
0.0
 50
90.0
100
AcDbRotatedDimension
1001
ACAD
1000
DSTYLE
1002
{
1070
    40
1040
1.0
1002
}
  0
DIMENSION
  5
23A
102
{ACAD_XDICTIONARY
360
23B
102
}
102
{ACAD_REACTORS
330
23C
102
}
330
2
100
AcDbEntity
  8
0
100
AcDbDimension
  2
*D13
 10
-4.732416922777417
 20
58.12583791602127
 30
0.0
 11
-5.607416922777417
 21
58.12583791602127
 31
0.0
 71
     5
 42
1.75
  3
Knife
100
AcDbAlignedDimension
 13
-6.482416922777417
 23
57.97022795457029
 33
0.0
 14
-4.732416922777417
 24
58.12583791602127
 34
0.0
100
AcDbRotatedDimension
1001
ACAD
1000
DSTYLE
1002
{
1070
    40
1040
1.0
1002
}
  0
DIMENSION
  5
24B
102
{ACAD_XDICTIONARY
360
24C
102
}
102
{ACAD_REACTORS
330
24D
102
}
330
2
100
AcDbEntity
  8
0
100
AcDbDimension
  2
*D14
 10
1.359117518526772
 20
50.7717728811655
 30
0.0
 11
-5.233824074894272
 21
50.7717728811655
 31
0.0
  1
BOX
 71
     5
 42
13.18588318684209
  3
Knife
100
AcDbAlignedDimension
 13
-11.82676566831531
 23
49.3394085844657
 33
0.0
 14
1.359117518526772
 24
49.3394085844657
 34
0.0
100
AcDbRotatedDimension
1001
ACAD
1000
DSTYLE
1002
{
1070
    40
1040
1.0
1002
}
  0
DIMENSION
  5
25B
330
2
100
AcDbEntity
  8
0
100
AcDbDimension
  2
*D15
 10
-12.32676566831532
 20
50.7717728811655
 30
0.0
 11
-12.92299795143111
 21
50.7717728811655
 31
0.0
 71
     5
 42
0.5
  3
Knife
100
AcDbAlignedDimension
 13
-11.82676566831531
 23
50.0905907328156
 33
0.0
 14
-12.32676566831532
 24
50.0905907328156
 34
0.0
100
AcDbRotatedDimension
1001
ACAD
1000
DSTYLE
1002
{
1070
    40
1040
1.0
1002
}
  0
DIMENSION
  5
26A
330
2
100
AcDbEntity
  8
0
100
AcDbDimension
  2
*D16
 10
1.859117518526772
 20
50.7717728811655
 30
0.0
 11
2.455349801642566
 21
50.7717728811655
 31
0.0
 71
     5
 42
0.5
  3
Knife
100
AcDbAlignedDimension
 13
1.359117518526772
 23
50.0905907328156
 33
0.0
 14
1.859117518526772
 24
50.0905907328156
 34
0.0
 50
180.0
100
AcDbRotatedDimension
1001
ACAD
1000
DSTYLE
1002
{
1070
    40
1040
1.0
1002
}
  0
DIMENSION
  5
279
330
2
100
AcDbEntity
  8
0
100
AcDbDimension
  2
*D17
 10
-12.32676566831532
 20
51.76805783797286
 30
0.0
 11
-5.233824074894272
 21
51.76805783797286
 31
0.0
  1
ROUGH\POPENING
 71
     5
 42
14.18588318684209
  3
Knife
100
AcDbAlignedDimension
 13
1.859117518526772
 23
49.93409177814192
 33
0.0
 14
-12.32676566831532
 24
49.93409177814192
 34
0.0
100
AcDbRotatedDimension
1001
ACAD
1000
DSTYLE
1002
{
1070
    40
1040
1.0
1002
}
  0
DIMENSION
  5
287
102
{ACAD_XDICTIONARY
360
288
102
}
102
{ACAD_REACTORS
330
289
102
}
330
2
100
AcDbEntity
  8
0
100
AcDbDimension
  2
*D18
 10
-8.843150174358967
 20
45.46390858446557
 30
0.0
 11
-8.843150174358974
 21
46.33890858446558
 31
0.0
 71
     5
 42
1.750000000000014
  3
Knife
100
AcDbAlignedDimension
 13
-8.843150174358967
 23
47.21390858446558
 33
0.0
 14
-8.843150174358967
 24
45.46390858446557
 34
0.0
 50
90.0
100
AcDbRotatedDimension
1001
ACAD
1000
DSTYLE
1002
{
1070
    40
1040
1.0
1002
}
  0
DIMENSION
  5
298
330
2
100
AcDbEntity
  8
0
100
AcDbDimension
  2
*D19
 10
-6.421427443038624
 20
44.50443134738321
 30
0.0
 11
-8.717593789424284
 21
44.50443134738321
 31
0.0
 71
     5
 42
4.592332692771321
  3
Knife
100
AcDbAlignedDimension
 13
-11.01376013580994
 23
45.52590858446558
 33
0.0
 14
-6.421427443038624
 24
45.85215365869899
 34
0.0
100
AcDbRotatedDimension
1001
ACAD
1000
DSTYLE
1002
{
1070
    40
1040
1.0
1002
}
  0
DIMENSION
  5
2A7
330
2
100
AcDbEntity
  8
0
100
AcDbDimension
  2
*D20
 10
-4.04622070674992
 20
44.50443134738321
 30
0.0
 11
-1.750054360364259
 21
44.50443134738321
 31
0.0
 71
     5
 42
4.592332692771321
  3
Knife
100
AcDbAlignedDimension
 13
0.5461119860214012
 23
45.52590858446558
 33
0.0
 14
-4.04622070674992
 24
45.85215365869899
 34
0.0
 50
180.0
100
AcDbRotatedDimension
1001
ACAD
1000
DSTYLE
1002
{
1070
    40
1040
1.0
1002
}
  0
DIMENSION
  5
2B6
330
2
100
AcDbEntity
  8
0
100
AcDbDimension
  2
*D21
 10
-4.04622070674992
 20
44.50443134738321
 30
0.0
 11
-5.233824074894272
 21
44.50443134738321
 31
0.0
  1
DAYLIGHT\POPENING
 71
     5
 42
2.375206736288703
  3
Knife
100
AcDbAlignedDimension
 13
-6.421427443038624
 23
45.85215365869899
 33
0.0
 14
-4.04622070674992
 24
45.85215365869903
 34
0.0
100
AcDbRotatedDimension
1001
ACAD
1000
DSTYLE
1002
{
1070
    40
1040
1.0
1002
}
  0
DIMENSION
  5
2C4
102
{ACAD_XDICTIONARY
360
2C5
102
}
102
{ACAD_REACTORS
330
2C6
102
}
330
2
100
AcDbEntity
  8
0
100
AcDbDimension
  2
*D22
 10
1.359117518526772
 20
46.66947956460703
 30
0.0
 11
1.95805577654473
 21
46.66947956460703
 31
0.0
 71
     5
 42
0.6880055325053434
  3
Knife
100
AcDbAlignedDimension
 13
0.6711119860214297
 23
46.55740858446563
 33
0.0
 14
1.359117518526772
 24
46.55740858446563
 34
0.0
100
AcDbRotatedDimension
1001
ACAD
1000
DSTYLE
1002
{
1070
    40
1040
1.0
1002
}
  0
DIMENSION
  5
2D5
102
{ACAD_XDICTIONARY
360
2D6
102
}
102
{ACAD_REACTORS
330
2D7
102
}
330
2
100
AcDbEntity
  8
0
100
AcDbDimension
  2
*D23
 10
1.359117518526772
 20
48.69786996746009
 30
0.0
 11
2.04564297167507
 21
48.69786996746009
 31
0.0
 70
   128
 71
     5
 42
1.188008030909543
  3
Knife
100
AcDbAlignedDimension
 13
0.1711094876172297
 23
48.80740866429366
 33
0.0
 14
1.359117518526772
 24
48.80740866429366
 34
0.0
100
AcDbRotatedDimension
1001
ACAD
1000
DSTYLE
1002
{
1070
    40
1040
1.0
1002
}
  0
DIMENSION
  5
2E5
102
{ACAD_XDICTIONARY
360
2E6
102
}
102
{ACAD_REACTORS
330
2E7
102
}
330
2
100
AcDbEntity
  8
0
100
AcDbDimension
  2
*D24
 10
-13.06761142288374
 20
45.5259085844657
 30
0.0
 11
-13.06761142288374
 21
47.7761585844657
 31
0.0
 71
     5
 42
4.500500000000016
  3
Knife
100
AcDbAlignedDimension
 13
-11.7767656683153
 23
50.02640858446572
 33
0.0
 14
-12.63878393225101
 24
45.5259085844657
 34
0.0
 50
90.0
100
AcDbRotatedDimension
1001
ACAD
1000
DSTYLE
1002
{
1070
    40
1040
1.0
1002
}
  0
LINE
  5
2F6
330
2
100
AcDbEntity
  8
0
100
AcDbLine
 10
2.140935782462463
 20
45.52590858446572
 30
0.0
 11
2.140935782462468
 21
45.46390858446573
 31
0.0
  0
DIMENSION
  5
2F7
330
2
100
AcDbEntity
  8
0
100
AcDbDimension
  2
*D25
 10
-10.15762740986926
 20
63.31426738363035
 30
0.0
 11
-10.15762740986927
 21
66.0169364962687
 31
0.0
 71
     5
 42
5.405338225276693
  3
Knife
100
AcDbAlignedDimension
 13
-7.421416922777337
 23
68.71960560890705
 33
0.0
 14
-6.09417184854399
 24
63.31426738363035
 34
0.0
 50
90.0
100
AcDbRotatedDimension
1001
ACAD
1000
DSTYLE
1002
{
1070
    40
1040
1.0
1002
}
  0
DIMENSION
  5
306
330
2
100
AcDbEntity
  8
0
100
AcDbDimension
  2
*D26
 10
-10.15762740986926
 20
53.25122795457031
 30
0.0
 11
-10.15762740986927
 21
57.59514430095598
 31
0.0
 71
     5
 42
8.687832692771337
  3
Knife
100
AcDbAlignedDimension
 13
-6.094171848544019
 23
61.93906064734164
 33
0.0
 14
-7.490535988559067
 24
53.25122795457031
 34
0.0
 50
90.0
100
AcDbRotatedDimension
1001
ACAD
1000
DSTYLE
1002
{
1070
    40
1040
1.0
1002
}
  0
DIMENSION
  5
315
330
2
100
AcDbEntity
  8
0
100
AcDbDimension
  2
*D27
 10
-11.82676566831531
 20
43.37070075102234
 30
0.0
 11
-9.12409655567697
 21
43.37070075102234
 31
0.0
 71
     5
 42
5.405338225276693
  3
Knife
100
AcDbAlignedDimension
 13
-6.421427443038624
 23
45.85215365869899
 33
0.0
 14
-11.82676566831531
 24
44.52490858446566
 34
0.0
100
AcDbRotatedDimension
1001
ACAD
1000
DSTYLE
1002
{
1070
    40
1040
1.0
1002
}
  0
DIMENSION
  5
324
330
2
100
AcDbEntity
  8
0
100
AcDbDimension
  2
*D28
 10
1.359117518526772
 20
43.37070075102234
 30
0.0
 11
-1.343551594111573
 21
43.37070075102234
 31
0.0
 71
     5
 42
5.405338225276693
  3
Knife
100
AcDbAlignedDimension
 13
-4.04622070674992
 23
45.85215365869903
 33
0.0
 14
1.359117518526772
 24
44.52490858446566
 34
0.0
100
AcDbRotatedDimension
1001
ACAD
1000
DSTYLE
1002
{
1070
    40
1040
1.0
1002
}
  0
ENDSEC
  0
SECTION
  2
OBJECTS
  0
DICTIONARY
  5
B
330
0
100
AcDbDictionary
281
     1
  3
ACAD_COLOR
350
50
  3
ACAD_GROUP
350
3D
  3
ACAD_LAYOUT
350
18
  3
ACAD_MATERIAL
350
D
  3
ACAD_MLEADERSTYLE
350
53
  3
ACAD_MLINESTYLE
350
3E
  3
ACAD_PLOTSETTINGS
350
3F
  3
ACAD_PLOTSTYLENAME
350
A
  3
ACAD_SCALELIST
350
51
  3
ACAD_TABLESTYLE
350
52
  3
ACAD_VISUALSTYLE
350
31
  3
ACDB_RECOMPOSE_DATA
350
33F
  3
AcDbVariableDictionary
350
335
  0
DICTIONARY
  5
33
330
2E
100
AcDbDictionary
280
     1
281
     1
  0
DICTIONARY
  5
23
330
22
100
AcDbDictionary
280
     1
281
     1
  3
ACAD_LAYERSTATES
360
24
  0
DICTIONARY
  5
7
330
6
100
AcDbDictionary
280
     1
281
     1
  3
ADSK_XREC_LAYER_RECONCILED
360
8
  0
DICTIONARY
  5
7F
330
7E
100
AcDbDictionary
280
     1
281
     1
  0
DICTIONARY
  5
3
330
2
100
AcDbDictionary
280
     1
281
     1
  3
ACAD_SORTENTS
360
333
  0
DICTIONARY
  5
198
330
197
100
AcDbDictionary
280
     1
281
     1
  3
ACAD_DIMASSOC
360
199
  0
DICTIONARY
  5
1A9
330
1A8
100
AcDbDictionary
280
     1
281
     1
  3
ACAD_DIMASSOC
360
1AA
  0
DICTIONARY
  5
1BA
330
1B9
100
AcDbDictionary
280
     1
281
     1
  3
ACAD_DIMASSOC
360
1BB
  0
DICTIONARY
  5
1CB
330
1CA
100
AcDbDictionary
280
     1
281
     1
  3
ACAD_DIMASSOC
360
1CC
  0
DICTIONARY
  5
1F8
330
1F7
100
AcDbDictionary
280
     1
281
     1
  3
ACAD_DIMASSOC
360
1F9
  0
DICTIONARY
  5
209
330
208
100
AcDbDictionary
280
     1
281
     1
  3
ACAD_DIMASSOC
360
20A
  0
DICTIONARY
  5
21A
330
219
100
AcDbDictionary
280
     1
281
     1
  3
ACAD_DIMASSOC
360
21B
  0
DICTIONARY
  5
22B
330
22A
100
AcDbDictionary
280
     1
281
     1
  3
ACAD_DIMASSOC
360
22C
  0
DICTIONARY
  5
23B
330
23A
100
AcDbDictionary
280
     1
281
     1
  3
ACAD_DIMASSOC
360
23C
  0
DICTIONARY
  5
24C
330
24B
100
AcDbDictionary
280
     1
281
     1
  3
ACAD_DIMASSOC
360
24D
  0
DICTIONARY
  5
288
330
287
100
AcDbDictionary
280
     1
281
     1
  3
ACAD_DIMASSOC
360
289
  0
DICTIONARY
  5
2C5
330
2C4
100
AcDbDictionary
280
     1
281
     1
  3
ACAD_DIMASSOC
360
2C6
  0
DICTIONARY
  5
2D6
330
2D5
100
AcDbDictionary
280
     1
281
     1
  3
ACAD_DIMASSOC
360
2D7
  0
DICTIONARY
  5
2E6
330
2E5
100
AcDbDictionary
280
     1
281
     1
  3
ACAD_DIMASSOC
360
2E7
  0
DICTIONARY
  5
50
102
{ACAD_REACTORS
330
B
102
}
330
B
100
AcDbDictionary
281
     1
  0
DICTIONARY
  5
3D
102
{ACAD_REACTORS
330
B
102
}
330
B
100
AcDbDictionary
281
     1
  0
DICTIONARY
  5
18
102
{ACAD_REACTORS
330
B
102
}
330
B
100
AcDbDictionary
281
     1
  3
Layout1
350
1F
  3
Model
350
17
  0
DICTIONARY
  5
D
102
{ACAD_REACTORS
330
B
102
}
330
B
100
AcDbDictionary
281
     1
  3
ByBlock
350
48
  3
ByLayer
350
40
  3
Global
350
C
  0
DICTIONARY
  5
53
102
{ACAD_REACTORS
330
B
102
}
330
B
100
AcDbDictionary
281
     1
  0
DICTIONARY
  5
3E
102
{ACAD_REACTORS
330
B
102
}
330
B
100
AcDbDictionary
281
     1
  3
Standard
350
54
  0
DICTIONARY
  5
3F
102
{ACAD_REACTORS
330
B
102
}
330
B
100
AcDbDictionary
281
     1
  0
ACDBDICTIONARYWDFLT
  5
A
102
{ACAD_REACTORS
330
B
102
}
330
B
100
AcDbDictionary
281
     1
  3
Normal
350
9
100
AcDbDictionaryWithDefault
340
9
  0
DICTIONARY
  5
51
102
{ACAD_REACTORS
330
B
102
}
330
B
100
AcDbDictionary
281
     1
  3
A0
350
59
  3
A1
350
5A
  3
A2
350
5B
  3
A3
350
5C
  3
A4
350
5D
  3
A5
350
5E
  3
A6
350
5F
  3
A7
350
60
  3
A8
350
61
  3
A9
350
62
  3
B0
350
63
  3
B1
350
64
  3
B2
350
65
  3
B3
350
66
  3
B4
350
67
  3
B5
350
68
  3
B6
350
69
  0
DICTIONARY
  5
52
102
{ACAD_REACTORS
330
B
102
}
330
B
100
AcDbDictionary
281
     1
  3
Standard
350
55
  0
DICTIONARY
  5
31
102
{ACAD_REACTORS
330
B
102
}
330
B
100
AcDbDictionary
281
     1
  3
2dWireframe
350
30
  3
Realistic
350
57
  3
Wireframe
350
58
  0
XRECORD
  5
33F
102
{ACAD_REACTORS
330
B
102
}
330
B
100
AcDbXrecord
280
     1
 90
        1
330
55
  0
DICTIONARY
  5
335
102
{ACAD_REACTORS
330
B
102
}
330
B
100
AcDbDictionary
281
     1
  3
CANNOSCALE
350
338
  3
CMLEADERSTYLE
350
337
  3
CTABLESTYLE
350
336
  3
DIMASSOC
350
33D
  3
HIDETEXT
350
33B
  3
INDEXCTL
350
33A
  3
SORTENTS
350
339
  3
XCLIPFRAME
350
33C
  0
DICTIONARY
  5
24
102
{ACAD_REACTORS
330
23
102
}
330
23
100
AcDbDictionary
281
     1
  0
XRECORD
  5
8
102
{ACAD_REACTORS
330
7
102
}
330
7
100
AcDbXrecord
280
     1
290
     1
  0
SORTENTSTABLE
  5
333
102
{ACAD_REACTORS
330
3
102
}
330
3
100
AcDbSortentsTable
330
2
  0
DIMASSOC
  5
199
102
{ACAD_REACTORS
330
198
102
}
330
198
100
AcDbDimAssoc
330
197
 90
        3
 70
     0
 71
     0
  1
AcDbOsnapPointRef
 72
     1
331
18C
 73
     2
 91
       12
 40
1.0
 10
0.0
 20
0.0
 30
2.000000000000000E+50
 75
     0
  1
AcDbOsnapPointRef
 72
     1
331
73
 73
     2
 91
        4
 40
1.0
 10
0.0
 20
0.0
 30
2.000000000000000E+50
 75
     0
  0
DIMASSOC
  5
1AA
102
{ACAD_REACTORS
330
1A9
102
}
330
1A9
100
AcDbDimAssoc
330
1A8
 90
        3
 70
     0
 71
     0
  1
AcDbOsnapPointRef
 72
     2
331
18C
 73
     2
 91
        1
 40
0.5
 10
0.0
 20
0.0
 30
0.0
 75
     0
  1
AcDbOsnapPointRef
 72
     8
331
18C
 73
     2
 91
       21
 40
0.7704153630961783
 10
0.0
 20
0.0
 30
0.0
 75
     1
  1
AcDbOsnapPointRef
 72
     2
331
18C
 73
     2
 91
        1
 40
0.5
 10
0.0
 20
0.0
 30
0.0
 75
     0
  0
DIMASSOC
  5
1BB
102
{ACAD_REACTORS
330
1BA
102
}
330
1BA
100
AcDbDimAssoc
330
1B9
 90
        3
 70
     0
 71
     0
  1
AcDbOsnapPointRef
 72
     1
331
18C
 73
     2
 91
       17
 40
1.0
 10
0.0
 20
0.0
 30
2.000000000000000E+50
 75
     0
  1
AcDbOsnapPointRef
 72
     8
331
18C
 73
     2
 91
        8
 40
0.349756582599355
 10
0.0
 20
0.0
 30
0.0
 75
     1
  1
AcDbOsnapPointRef
 72
     1
331
18C
 73
     2
 91
       17
 40
1.0
 10
0.0
 20
0.0
 30
2.000000000000000E+50
 75
     0
  0
DIMASSOC
  5
1CC
102
{ACAD_REACTORS
330
1CB
102
}
330
1CB
100
AcDbDimAssoc
330
1CA
 90
        3
 70
     0
 71
     0
  1
AcDbOsnapPointRef
 72
     1
331
18C
 73
     2
 91
       14
 40
1.0
 10
0.0
 20
0.0
 30
2.000000000000000E+50
 75
     0
  1
AcDbOsnapPointRef
 72
     1
331
190
 73
     2
 91
        2
 40
1.0
 10
0.0
 20
0.0
 30
2.000000000000000E+50
 75
     0
  0
DIMASSOC
  5
1F9
102
{ACAD_REACTORS
330
1F8
102
}
330
1F8
100
AcDbDimAssoc
330
1F7
 90
        3
 70
     0
 71
     0
  1
AcDbOsnapPointRef
 72
     1
331
6B
 73
     2
 91
        9
 40
4.712388980384918
 10
0.0
 20
0.0
 30
2.000000000000000E+50
 75
     0
  1
AcDbOsnapPointRef
 72
     5
331
133
 73
     2
 91
        8
 40
1.570796326794896
 10
0.0
 20
0.0
 30
0.0
 75
     0
  0
DIMASSOC
  5
20A
102
{ACAD_REACTORS
330
209
102
}
330
209
100
AcDbDimAssoc
330
208
 90
        3
 70
     0
 71
     0
  1
AcDbOsnapPointRef
 72
     5
331
6B
 73
     2
 91
        9
 40
4.712388980384689
 10
0.0
 20
0.0
 30
0.0
 75
     0
  1
AcDbOsnapPointRef
 72
     1
331
193
 73
     2
 91
       10
 40
1.0
 10
0.0
 20
0.0
 30
2.000000000000000E+50
 75
     0
  0
DIMASSOC
  5
21B
102
{ACAD_REACTORS
330
21A
102
}
330
21A
100
AcDbDimAssoc
330
219
 90
        3
 70
     0
 71
     0
  1
AcDbOsnapPointRef
 72
     1
331
122
 73
     2
 91
        8
 40
4.712388980384603
 10
0.0
 20
0.0
 30
2.000000000000000E+50
 75
     0
  1
AcDbOsnapPointRef
 72
    13
331
6A
 73
     2
 91
       10
 40
0.0
 10
0.0
 20
0.0
 30
2.000000000000000E+50
 75
     0
  0
DIMASSOC
  5
22C
102
{ACAD_REACTORS
330
22B
102
}
330
22B
100
AcDbDimAssoc
330
22A
 90
        3
 70
     0
 71
     0
  1
AcDbOsnapPointRef
 72
     5
331
122
 73
     2
 91
        8
 40
4.712388980384689
 10
0.0
 20
0.0
 30
0.0
 75
     0
  1
AcDbOsnapPointRef
 72
     1
331
133
 73
     2
 91
        8
 40
1.570796326794982
 10
0.0
 20
0.0
 30
2.000000000000000E+50
 75
     0
  0
DIMASSOC
  5
23C
102
{ACAD_REACTORS
330
23B
102
}
330
23B
100
AcDbDimAssoc
330
23A
 90
        3
 70
     0
 71
     0
  1
AcDbOsnapPointRef
 72
     2
331
6B
 73
     2
 91
        8
 40
0.5
 10
0.0
 20
0.0
 30
0.0
 75
     0
  1
AcDbOsnapPointRef
 72
     2
331
6B
 73
     2
 91
       12
 40
0.5
 10
0.0
 20
0.0
 30
0.0
 75
     0
  0
DIMASSOC
  5
24D
102
{ACAD_REACTORS
330
24C
102
}
330
24C
100
AcDbDimAssoc
330
24B
 90
        3
 70
     0
 71
     0
  1
AcDbOsnapPointRef
 72
     1
331
146
 73
     2
 91
       14
 40
1.0
 10
0.0
 20
0.0
 30
2.000000000000000E+50
 75
     0
  1
AcDbOsnapPointRef
 72
     1
331
169
 73
     2
 91
       14
 40
1.0
 10
0.0
 20
0.0
 30
2.000000000000000E+50
 75
     0
  0
DIMASSOC
  5
289
102
{ACAD_REACTORS
330
288
102
}
330
288
100
AcDbDimAssoc
330
287
 90
        3
 70
     0
 71
     0
  1
AcDbOsnapPointRef
 72
     2
331
145
 73
     2
 91
       12
 40
0.5
 10
0.0
 20
0.0
 30
0.0
 75
     0
  1
AcDbOsnapPointRef
 72
     8
331
145
 73
     2
 91
        8
 40
0.4601613001917579
 10
0.0
 20
0.0
 30
0.0
 75
     1
  1
AcDbOsnapPointRef
 72
     2
331
145
 73
     2
 91
       12
 40
0.5
 10
0.0
 20
0.0
 30
0.0
 75
     0
  0
DIMASSOC
  5
2C6
102
{ACAD_REACTORS
330
2C5
102
}
330
2C5
100
AcDbDimAssoc
330
2C4
 90
        3
 70
     0
 71
     0
  1
AcDbOsnapPointRef
 72
     2
331
169
 73
     2
 91
        1
 40
0.5
 10
0.0
 20
0.0
 30
0.0
 75
     0
  1
AcDbOsnapPointRef
 72
     8
331
169
 73
     2
 91
       21
 40
0.7704153630961878
 10
0.0
 20
0.0
 30
0.0
 75
     1
  1
AcDbOsnapPointRef
 72
     2
331
169
 73
     2
 91
        1
 40
0.5
 10
0.0
 20
0.0
 30
0.0
 75
     0
  0
DIMASSOC
  5
2D7
102
{ACAD_REACTORS
330
2D6
102
}
330
2D6
100
AcDbDimAssoc
330
2D5
 90
        3
 70
     0
 71
     0
  1
AcDbOsnapPointRef
 72
     2
331
169
 73
     2
 91
        8
 40
0.5000000000000001
 10
0.0
 20
0.0
 30
0.0
 75
     0
  1
AcDbOsnapPointRef
 72
     8
331
169
 73
     2
 91
       17
 40
0.1546127760899274
 10
0.0
 20
0.0
 30
0.0
 75
     1
  1
AcDbOsnapPointRef
 72
     2
331
169
 73
     2
 91
        8
 40
0.5000000000000001
 10
0.0
 20
0.0
 30
0.0
 75
     0
  0
DIMASSOC
  5
2E7
102
{ACAD_REACTORS
330
2E6
102
}
330
2E6
100
AcDbDimAssoc
330
2E5
 90
        3
 70
     0
 71
     0
  1
AcDbOsnapPointRef
 72
     1
331
146
 73
     2
 91
       12
 40
1.0
 10
0.0
 20
0.0
 30
2.000000000000000E+50
 75
     0
  1
AcDbOsnapPointRef
 72
     1
331
147
 73
     2
 91
        4
 40
1.0
 10
0.0
 20
0.0
 30
2.000000000000000E+50
 75
     0
  0
LAYOUT
  5
1F
102
{ACAD_XDICTIONARY
360
20
102
}
102
{ACAD_REACTORS
330
18
102
}
330
18
100
AcDbPlotSettings
  1

  2
Default Windows System Printer.pc3
  4
Letter
  6

 40
4.857749938964843
 41
4.857737064361572
 42
4.85772705078125
 43
4.011077880859375
 44
279.3999938964844
 45
215.8999938964844
 46
-0.730858697408237
 47
-3.856245104248928
 48
0.0
 49
0.0
140
0.0
141
0.0
142
1.0
143
1.0
 70
   692
 72
     0
 73
     1
 74
     1
  7
monochrome.ctb
 75
    16
147
1.0
148
0.0083604749971762
149
0.0163435974585369
100
AcDbLayout
  1
Layout1
 70
     1
 71
     1
 10
-0.0064249311656545
 20
-0.1631194818509899
 11
8.493574828538456
 21
10.83688027785312
 12
0.0
 22
0.0
 32
0.0
 14
-0.0001993256062995
 24
-0.0006438736622698
 34
-0.0000000000112498
 15
8.45427583816383
 25
10.67440472088713
 35
0.0000000000002956
146
0.0
 13
0.0
 23
0.0
 33
0.0
 16
1.0
 26
0.0
 36
0.0
 17
0.0
 27
1.0
 37
0.0
 76
     0
330
1C
1001
ACAD_PSEXT
1000
Default Windows System Printer.pc3
1000
HP LaserJet Professional M1212nf MFP
1000
USB001
1000

1070
     0
  0
LAYOUT
  5
17
102
{ACAD_XDICTIONARY
360
19
102
}
102
{ACAD_REACTORS
330
18
102
}
330
18
100
AcDbPlotSettings
  1

  2
hp LaserJet 1000
  4
Letter
  6

 40
5.111750125885009
 41
5.11176061630249
 42
5.111740112304687
 43
5.11175537109375
 44
215.8999938964844
 45
279.3999938964844
 46
-1737.727141600119
 47
-1443.590822120185
 48
0.0
 49
0.0
140
0.0
141
0.0
142
1.0
143
1.0
 70
 11956
 72
     0
 73
     1
 74
     1
  7
monochrome.ctb
 75
    16
147
1.0
148
-1178909.293504616
149
-716480.0773740626
100
AcDbLayout
  1
Model
 70
     1
 71
     0
 10
0.0
 20
0.0
 11
12.0
 21
9.0
 12
0.0
 22
0.0
 32
0.0
 14
0.0
 24
0.0
 34
0.0
 15
0.0
 25
0.0
 35
0.0
146
0.0
 13
0.0
 23
0.0
 33
0.0
 16
1.0
 26
0.0
 36
0.0
 17
0.0
 27
1.0
 37
0.0
 76
     0
330
2
331
2F
1001
ACAD_PSEXT
1000
hp LaserJet 1000
1000
hp LaserJet 1000
1000
USB001
1000

1070
     0
  0
MATERIAL
  5
48
102
{ACAD_XDICTIONARY
360
49
102
}
102
{ACAD_REACTORS
330
D
102
}
330
D
100
AcDbMaterial
  1
ByBlock
 72
     0
 43
0.0208333333333333
 43
0.0
 43
0.0
 43
0.0
 43
0.0
 43
0.0208333333333333
 43
0.0
 43
0.0
 43
0.0
 43
0.0
 43
1.0
 43
0.0
 43
0.0
 43
0.0
 43
0.0
 43
1.0
 77
     0
 47
0.0208333333333333
 47
0.0
 47
0.0
 47
0.0
 47
0.0
 47
0.0208333333333333
 47
0.0
 47
0.0
 47
0.0
 47
0.0
 47
1.0
 47
0.0
 47
0.0
 47
0.0
 47
0.0
 47
1.0
171
     0
 49
0.0208333333333333
 49
0.0
 49
0.0
 49
0.0
 49
0.0
 49
0.0208333333333333
 49
0.0
 49
0.0
 49
0.0
 49
0.0
 49
1.0
 49
0.0
 49
0.0
 49
0.0
 49
0.0
 49
1.0
175
     0
142
0.0208333333333333
142
0.0
142
0.0
142
0.0
142
0.0
142
0.0208333333333333
142
0.0
142
0.0
142
0.0
142
0.0
142
1.0
142
0.0
142
0.0
142
0.0
142
0.0
142
1.0
179
     0
144
0.0208333333333333
144
0.0
144
0.0
144
0.0
144
0.0
144
0.0208333333333333
144
0.0
144
0.0
144
0.0
144
0.0
144
1.0
144
0.0
144
0.0
144
0.0
144
0.0
144
1.0
147
0.0208333333333333
147
0.0
147
0.0
147
0.0
147
0.0
147
0.0208333333333333
147
0.0
147
0.0
147
0.0
147
0.0
147
1.0
147
0.0
147
0.0
147
0.0
147
0.0
147
1.0
  0
MATERIAL
  5
40
102
{ACAD_XDICTIONARY
360
41
102
}
102
{ACAD_REACTORS
330
D
102
}
330
D
100
AcDbMaterial
  1
ByLayer
 72
     0
 43
0.0208333333333333
 43
0.0
 43
0.0
 43
0.0
 43
0.0
 43
0.0208333333333333
 43
0.0
 43
0.0
 43
0.0
 43
0.0
 43
1.0
 43
0.0
 43
0.0
 43
0.0
 43
0.0
 43
1.0
 77
     0
 47
0.0208333333333333
 47
0.0
 47
0.0
 47
0.0
 47
0.0
 47
0.0208333333333333
 47
0.0
 47
0.0
 47
0.0
 47
0.0
 47
1.0
 47
0.0
 47
0.0
 47
0.0
 47
0.0
 47
1.0
171
     0
 49
0.0208333333333333
 49
0.0
 49
0.0
 49
0.0
 49
0.0
 49
0.0208333333333333
 49
0.0
 49
0.0
 49
0.0
 49
0.0
 49
1.0
 49
0.0
 49
0.0
 49
0.0
 49
0.0
 49
1.0
175
     0
142
0.0208333333333333
142
0.0
142
0.0
142
0.0
142
0.0
142
0.0208333333333333
142
0.0
142
0.0
142
0.0
142
0.0
142
1.0
142
0.0
142
0.0
142
0.0
142
0.0
142
1.0
179
     0
144
0.0208333333333333
144
0.0
144
0.0
144
0.0
144
0.0
144
0.0208333333333333
144
0.0
144
0.0
144
0.0
144
0.0
144
1.0
144
0.0
144
0.0
144
0.0
144
0.0
144
1.0
147
0.0208333333333333
147
0.0
147
0.0
147
0.0
147
0.0
147
0.0208333333333333
147
0.0
147
0.0
147
0.0
147
0.0
147
1.0
147
0.0
147
0.0
147
0.0
147
0.0
147
1.0
  0
MATERIAL
  5
C
102
{ACAD_XDICTIONARY
360
E
102
}
102
{ACAD_REACTORS
330
D
102
}
330
D
100
AcDbMaterial
  1
Global
 72
     0
 43
0.0208333333333333
 43
0.0
 43
0.0
 43
0.0
 43
0.0
 43
0.0208333333333333
 43
0.0
 43
0.0
 43
0.0
 43
0.0
 43
1.0
 43
0.0
 43
0.0
 43
0.0
 43
0.0
 43
1.0
 77
     0
 47
0.0208333333333333
 47
0.0
 47
0.0
 47
0.0
 47
0.0
 47
0.0208333333333333
 47
0.0
 47
0.0
 47
0.0
 47
0.0
 47
1.0
 47
0.0
 47
0.0
 47
0.0
 47
0.0
 47
1.0
171
     0
 49
0.0208333333333333
 49
0.0
 49
0.0
 49
0.0
 49
0.0
 49
0.0208333333333333
 49
0.0
 49
0.0
 49
0.0
 49
0.0
 49
1.0
 49
0.0
 49
0.0
 49
0.0
 49
0.0
 49
1.0
175
     0
142
0.0208333333333333
142
0.0
142
0.0
142
0.0
142
0.0
142
0.0208333333333333
142
0.0
142
0.0
142
0.0
142
0.0
142
1.0
142
0.0
142
0.0
142
0.0
142
0.0
142
1.0
179
     0
144
0.0208333333333333
144
0.0
144
0.0
144
0.0
144
0.0
144
0.0208333333333333
144
0.0
144
0.0
144
0.0
144
0.0
144
1.0
144
0.0
144
0.0
144
0.0
144
0.0
144
1.0
147
0.0208333333333333
147
0.0
147
0.0
147
0.0
147
0.0
147
0.0208333333333333
147
0.0
147
0.0
147
0.0
147
0.0
147
1.0
147
0.0
147
0.0
147
0.0
147
0.0
147
1.0
  0
MLINESTYLE
  5
54
102
{ACAD_REACTORS
330
3E
102
}
330
3E
100
AcDbMlineStyle
  2
STANDARD
 70
     0
  3

 62
   256
 51
90.0
 52
90.0
 71
     2
 49
0.5
 62
   256
  6
BYLAYER
 49
-0.5
 62
   256
  6
BYLAYER
  0
ACDBPLACEHOLDER
  5
9
102
{ACAD_REACTORS
330
A
102
}
330
A
  0
SCALE
  5
59
102
{ACAD_REACTORS
330
51
102
}
330
51
100
AcDbScale
 70
     0
300
1:1
140
1.0
141
1.0
290
     1
  0
SCALE
  5
5A
102
{ACAD_REACTORS
330
51
102
}
330
51
100
AcDbScale
 70
     0
300
1/128" = 1'-0"
140
0.0078125
141
12.0
290
     0
  0
SCALE
  5
5B
102
{ACAD_REACTORS
330
51
102
}
330
51
100
AcDbScale
 70
     0
300
1/64" = 1'-0"
140
0.015625
141
12.0
290
     0
  0
SCALE
  5
5C
102
{ACAD_REACTORS
330
51
102
}
330
51
100
AcDbScale
 70
     0
300
1/32" = 1'-0"
140
0.03125
141
12.0
290
     0
  0
SCALE
  5
5D
102
{ACAD_REACTORS
330
51
102
}
330
51
100
AcDbScale
 70
     0
300
1/16" = 1'-0"
140
0.0625
141
12.0
290
     0
  0
SCALE
  5
5E
102
{ACAD_REACTORS
330
51
102
}
330
51
100
AcDbScale
 70
     0
300
3/32" = 1'-0"
140
0.09375
141
12.0
290
     0
  0
SCALE
  5
5F
102
{ACAD_REACTORS
330
51
102
}
330
51
100
AcDbScale
 70
     0
300
1/8" = 1'-0"
140
0.125
141
12.0
290
     0
  0
SCALE
  5
60
102
{ACAD_REACTORS
330
51
102
}
330
51
100
AcDbScale
 70
     0
300
3/16" = 1'-0"
140
0.1875
141
12.0
290
     0
  0
SCALE
  5
61
102
{ACAD_REACTORS
330
51
102
}
330
51
100
AcDbScale
 70
     0
300
1/4" = 1'-0"
140
0.25
141
12.0
290
     0
  0
SCALE
  5
62
102
{ACAD_REACTORS
330
51
102
}
330
51
100
AcDbScale
 70
     0
300
3/8" = 1'-0"
140
0.375
141
12.0
290
     0
  0
SCALE
  5
63
102
{ACAD_REACTORS
330
51
102
}
330
51
100
AcDbScale
 70
     0
300
1/2" = 1'-0"
140
0.5
141
12.0
290
     0
  0
SCALE
  5
64
102
{ACAD_REACTORS
330
51
102
}
330
51
100
AcDbScale
 70
     0
300
3/4" = 1'-0"
140
0.75
141
12.0
290
     0
  0
SCALE
  5
65
102
{ACAD_REACTORS
330
51
102
}
330
51
100
AcDbScale
 70
     0
300
1" = 1'-0"
140
1.0
141
12.0
290
     0
  0
SCALE
  5
66
102
{ACAD_REACTORS
330
51
102
}
330
51
100
AcDbScale
 70
     0
300
1-1/2" = 1'-0"
140
1.5
141
12.0
290
     0
  0
SCALE
  5
67
102
{ACAD_REACTORS
330
51
102
}
330
51
100
AcDbScale
 70
     0
300
3" = 1'-0"
140
3.0
141
12.0
290
     0
  0
SCALE
  5
68
102
{ACAD_REACTORS
330
51
102
}
330
51
100
AcDbScale
 70
     0
300
6" = 1'-0"
140
6.0
141
12.0
290
     0
  0
SCALE
  5
69
102
{ACAD_REACTORS
330
51
102
}
330
51
100
AcDbScale
 70
     0
300
1'-0" = 1'-0"
140
12.0
141
12.0
290
     0
  0
TABLESTYLE
  5
55
102
{ACAD_XDICTIONARY
360
56
102
}
102
{ACAD_REACTORS
330
52
102
}
330
52
100
AcDbTableStyle
  3
Standard
 70
     0
 71
     0
 40
0.06
 41
0.06
280
     0
281
     0
  7
Standard
140
0.18
170
     2
 62
     0
 63
     7
283
     0
274
    -2
284
     1
 64
     0
275
    -2
285
     1
 65
     0
276
    -2
286
     1
 66
     0
277
    -2
287
     1
 67
     0
278
    -2
288
     1
 68
     0
279
    -2
289
     1
 69
     0
  7
Standard
140
0.25
170
     5
 62
     0
 63
     7
283
     0
274
    -2
284
     1
 64
     0
275
    -2
285
     1
 65
     0
276
    -2
286
     1
 66
     0
277
    -2
287
     1
 67
     0
278
    -2
288
     1
 68
     0
279
    -2
289
     1
 69
     0
  7
Standard
140
0.18
170
     5
 62
     0
 63
     7
283
     0
274
    -2
284
     1
 64
     0
275
    -2
285
     1
 65
     0
276
    -2
286
     1
 66
     0
277
    -2
287
     1
 67
     0
278
    -2
288
     1
 68
     0
279
    -2
289
     1
 69
     0
  0
VISUALSTYLE
  5
30
102
{ACAD_XDICTIONARY
360
343
102
}
102
{ACAD_REACTORS
330
31
102
}
330
31
100
AcDbVisualStyle
  2
2dWireframe
 70
     4
 71
     0
 72
     2
 73
     0
 90
        0
 40
-0.6
 41
-30.0
 62
     5
 63
     7
 74
     1
 91
        4
 64
     7
 65
   257
 75
     1
175
     1
 42
1.0
 92
        0
 66
   257
 43
1.0
 76
     1
 77
     6
 78
     2
 67
     7
 79
     5
170
     0
171
     0
290
     0
174
     0
 93
        1
 44
0.0
173
     0
291
     0
 45
0.0
1001
ACAD
1000
AcDbSavedByObjectVersion
1070
     0
  0
VISUALSTYLE
  5
57
102
{ACAD_XDICTIONARY
360
348
102
}
102
{ACAD_REACTORS
330
31
102
}
330
31
100
AcDbVisualStyle
  2
Realistic
 70
     8
 71
     2
 72
     2
 73
     0
 90
        2
 40
-0.6
 41
30.0
 62
     5
 63
     7
 74
     0
 91
        0
 64
     7
 65
   257
 75
     1
175
     1
 42
1.0
 92
        8
 66
   257
 43
1.0
 76
     1
 77
     6
 78
     2
 67
     7
 79
     3
170
     0
171
     0
290
     0
174
     0
 93
       13
 44
0.0
173
     0
291
     0
 45
0.0
1001
ACAD
1000
AcDbSavedByObjectVersion
1070
     0
  0
VISUALSTYLE
  5
58
102
{ACAD_XDICTIONARY
360
34A
102
}
102
{ACAD_REACTORS
330
31
102
}
330
31
100
AcDbVisualStyle
  2
Wireframe
 70
     5
 71
     0
 72
     2
 73
     0
 90
        0
 40
-0.6
 41
-30.0
 62
     5
 63
     7
 74
     1
 91
        4
 64
     7
 65
   257
 75
     1
175
     1
 42
1.0
 92
        0
 66
   257
 43
1.0
 76
     1
 77
     6
 78
     2
 67
     7
 79
     3
170
     0
171
     0
290
     0
174
     0
 93
        1
 44
0.0
173
     0
291
     0
 45
0.0
1001
ACAD
1000
AcDbSavedByObjectVersion
1070
     0
  0
DICTIONARYVAR
  5
338
102
{ACAD_REACTORS
330
335
102
}
330
335
100
DictionaryVariables
280
     0
  1
1:1
  0
DICTIONARYVAR
  5
337
102
{ACAD_REACTORS
330
335
102
}
330
335
100
DictionaryVariables
280
     0
  1
STANDARD
  0
DICTIONARYVAR
  5
336
102
{ACAD_REACTORS
330
335
102
}
330
335
100
DictionaryVariables
280
     0
  1
STANDARD
  0
DICTIONARYVAR
  5
33D
102
{ACAD_REACTORS
330
335
102
}
330
335
100
DictionaryVariables
280
     0
  1
2
  0
DICTIONARYVAR
  5
33B
102
{ACAD_REACTORS
330
335
102
}
330
335
100
DictionaryVariables
280
     0
  1
1
  0
DICTIONARYVAR
  5
33A
102
{ACAD_REACTORS
330
335
102
}
330
335
100
DictionaryVariables
280
     0
  1
0
  0
DICTIONARYVAR
  5
339
102
{ACAD_REACTORS
330
335
102
}
330
335
100
DictionaryVariables
280
     0
  1
127
  0
DICTIONARYVAR
  5
33C
102
{ACAD_REACTORS
330
335
102
}
330
335
100
DictionaryVariables
280
     0
  1
0
  0
DICTIONARY
  5
20
330
1F
100
AcDbDictionary
280
     1
281
     1
  3
ACAD_XREC_ROUNDTRIP
360
342
  3
ADSK_XREC_LAYOUTTHUMBNAIL
360
21
  0
DICTIONARY
  5
19
330
17
100
AcDbDictionary
280
     1
281
     1
  3
ACAD_XREC_ROUNDTRIP
360
341
  3
ADSK_XREC_LAYOUTTHUMBNAIL
360
1A
  0
DICTIONARY
  5
49
330
48
100
AcDbDictionary
280
     1
281
     1
  3
ACAD_XREC_ROUNDTRIP
360
346
  3
BUMPTILE
360
4A
  3
DIFFUSETILE
360
4B
  3
OPACITYTILE
360
4C
  3
REFLECTIONTILE
360
4D
  3
REFRACTIONTILE
360
4E
  3
SPECULARTILE
360
4F
  0
DICTIONARY
  5
41
330
40
100
AcDbDictionary
280
     1
281
     1
  3
ACAD_XREC_ROUNDTRIP
360
345
  3
BUMPTILE
360
42
  3
DIFFUSETILE
360
43
  3
OPACITYTILE
360
44
  3
REFLECTIONTILE
360
45
  3
REFRACTIONTILE
360
46
  3
SPECULARTILE
360
47
  0
DICTIONARY
  5
E
330
C
100
AcDbDictionary
280
     1
281
     1
  3
ACAD_XREC_ROUNDTRIP
360
340
  3
BUMPTILE
360
F
  3
DIFFUSETILE
360
10
  3
OPACITYTILE
360
11
  3
REFLECTIONTILE
360
12
  3
REFRACTIONTILE
360
13
  3
SPECULARTILE
360
14
  0
DICTIONARY
  5
56
330
55
100
AcDbDictionary
280
     1
281
     1
  3
ACAD_ROUNDTRIP_2008_TABLESTYLE_CELLSTYLEMAP
360
33E
  3
ACAD_XREC_ROUNDTRIP
360
347
  0
DICTIONARY
  5
343
330
30
100
AcDbDictionary
280
     1
281
     1
  3
ACAD_XREC_ROUNDTRIP
360
344
  0
DICTIONARY
  5
348
330
57
100
AcDbDictionary
280
     1
281
     1
  3
ACAD_XREC_ROUNDTRIP
360
349
  0
DICTIONARY
  5
34A
330
58
100
AcDbDictionary
280
     1
281
     1
  3
ACAD_XREC_ROUNDTRIP
360
34B
  0
XRECORD
  5
342
102
{ACAD_REACTORS
330
20
102
}
330
20
100
AcDbXrecord
280
     1
102
SHADEPLOT
 70
     1
102
SHADEPLOTRESLEVEL
 70
     4
102
SHADEPLOTCUSTOMDPI
 70
   300
  0
XRECORD
  5
21
102
{ACAD_REACTORS
330
20
102
}
330
20
100
AcDbXrecord
280
     1
310
280000006B0000008C0000000100080000000000103B000000000000000000000001000000000000FFFFFF0000000000C8C8C8000000000000000000000000000000000000000000000000000000000000000000330000006600000099000000CC000000FF00000000330000333300006633000099330000CC330000FF3300
310
0000660000336600006666000099660000CC660000FF66000000990000339900006699000099990000CC990000FF99000000CC000033CC000066CC000099CC0000CCCC0000FFCC000000FF000033FF000066FF000099FF0000CCFF0000FFFF000000003300330033006600330099003300CC003300FF003300003333003333
310
33006633330099333300CC333300FF33330000663300336633006666330099663300CC663300FF66330000993300339933006699330099993300CC993300FF99330000CC330033CC330066CC330099CC3300CCCC3300FFCC330000FF330033FF330066FF330099FF3300CCFF3300FFFF330000006600330066006600660099
310
006600CC006600FF00660000336600333366006633660099336600CC336600FF33660000666600336666006666660099666600CC666600FF66660000996600339966006699660099996600CC996600FF99660000CC660033CC660066CC660099CC6600CCCC6600FFCC660000FF660033FF660066FF660099FF6600CCFF6600
310
FFFF660000009900330099006600990099009900CC009900FF00990000339900333399006633990099339900CC339900FF33990000669900336699006666990099669900CC669900FF66990000999900339999006699990099999900CC999900FF99990000CC990033CC990066CC990099CC9900CCCC9900FFCC990000FF99
310
0033FF990066FF990099FF9900CCFF9900FFFF99000000CC003300CC006600CC009900CC00CC00CC00FF00CC000033CC003333CC006633CC009933CC00CC33CC00FF33CC000066CC003366CC006666CC009966CC00CC66CC00FF66CC000099CC003399CC006699CC009999CC00CC99CC00FF99CC0000CCCC0033CCCC0066CC
310
CC0099CCCC00CCCCCC00FFCCCC0000FFCC0033FFCC0066FFCC0099FFCC00CCFFCC00FFFFCC000000FF003300FF006600FF009900FF00CC00FF00FF00FF000033FF003333FF006633FF009933FF00CC33FF00FF33FF000066FF003366FF006666FF009966FF00CC66FF00FF66FF000099FF003399FF006699FF009999FF00CC
310
99FF00FF99FF0000CCFF0033CCFF0066CCFF0099CCFF00CCCCFF00FFCCFF0000FFFF0033FFFF0066FFFF0099FFFF00CCFFFF00FFFFFF00000000000D0D0D001A1A1A00282828003535350043434300505050005D5D5D006B6B6B00787878008686860093939300A1A1A100AEAEAE00BBBBBB00C9C9C900D6D6D600E4E4E400
310
F1F1F100FFFFFF0000000000000000000000000000000000000000000000000000000000000000000000000000000000E2E2E2E2E2E2E2E2E2E2E2E2E2E2E2E2E2E2E2E2E2E2E2E2E2E2E2E2E2E2E2E2E2E2E2E2E2E2E2E2E2E2E2E2E2E2E2E2E2E2E2E2E2E2E2E2E2E2E2E2E2E2E2E2E2E2E2E2E2E2E2E2E2E2E2E2E2E2E2
310
E2E2E2E2E2E2E2E2E2E2E2E2E2E2E2E2E2E2E2E2E2E2E2E2E2E2E2E240E200000000000000000000000000000000000000000000000000000000000000000000000000000000000000000000000000000000000000000000000000000000000000000000000000000000000000000000000000000000000000000000000000
310
000000000000000000B8E20000000000000000000000000000000000000000000000000000000000000000000000000000000000000000000000000000000000000000000000000000000000000000000000000000000000000000000000000000000000000000000000000000000000000000000030E2E2E2E2E2E2E2E2E2
310
E2E2000000000000000000E2E2E2E2E2E2E2E2E2E2E2E2E2E2E2E200000000000000000000E2E2E2E2E2E2E2E2E2E2E2E2E2E2E2E200000000000000000000E2E2E2E2E2E2E2E2E2E2E2E2E2E2E2E2000000000000000000E2E2E2E2E2E2E2E2E2007EE200E200000000000000000000000000000000000000000000000000
310
0000000000000000000000000000000000000000000000000000000000000000000000000000000000000000000000000000000000000000000000000000000000000000000000000000000000E20000E200E20000000000000000000000000000000000000000000000000000000000000000000000000000000000000000
310
0000000000E2E2E20000000000000000000000000000000000000000000000000000000000000000000000000000000000000000000000000000E20001E200E200000000000000000000000000000000000000000000000000000000000000000000000000000000000000000000000000E2E2E20000000000000000000000
310
000000000000000000000000000000000000000000000000000000000000000000000000000000E20019E200E200000000000000000000000000000000000000000000000000000000000000000000000000000000000000000000000000000000000000000000000000000000000000000000000000000000000000000000
310
0000000000000000000000000000000000000000E20001E200E2000000000000000000000000000000000000000000000000000000000000000000000000000000000000000000000000E2E2E2E2E2000000000000000000000000000000000000000000000000000000000000000000000000000000000000000000000000
310
00E20000E200E2000000000000000000000000000000000000000000000000000000000000000000000000000000000000000000000000E2E2E2E2E200000000000000000000000000000000000000000000000000000000000000000000000000000000000000000000000000E20000E200E2000000000000000000000000
310
000000000000000000000000000000000000000000000000000000000000000000000000000000000000000000000000000000000000000000000000000000000000000000000000000000000000000000000000000000000000E20001E200E200000000000000000000000000000000000000000000000000000000000000
310
0000000000000000000000000000000000000000000000000000000000000000000000000000000000000000000000000000000000000000000000000000000000000000000000E20000E200000000000000000000000000000000000000000000000000000000000000000000000000000000000000000000000000000000
310
00000000000000000000000000000000000000000000000000000000000000000000000000000000000000000000000000000000000000E20000000000000000000000000000000000000000000000000000000000000000000000000000000000000000000000000000000000000000000000000000000000000000000000
310
000000000000000000000000000000000000000000000000000000000000000000000000E2000000000000000000000000000000000000000000000000000000000000000000000000000000000000000000000000000000000000000000000000000000000000000000000000000000000000000000000000000000000000
310
0000000000000000000000000000000000E2000000000000000000000000000000000000000000000000000000000000000000000000E2E2E2E20000000000000000000000000000000000000000000000E2E2E2E200000000000000000000000000000000000000000000000000000000000000000000000000000000E200
310
000000000000000000000000000000000000000000000000000000E2E2E2E2E2E2E2E2E2E2E2E2E2E2E2E2E2E2E2E2E2000000000000E2E2E2E2E2E2E2E2E2E2E2E2E2E2E2E2E2E2E2E2E200000000000000000000000000000000000000000000000000000000000000E20000000000000000000000000000000000000000
310
0000000000000000E2E2000000000000E2E2E2E200000000000000E2E200000000000000E2000000000000E2E2E2E20000000000000000E200000000000000000000000000000000000000000000000000000000000002E200000000000000000000000000000000000000000000000000000000E200000000000000000000
310
0000000000000000E20000E2E2E2000000E2000000000000000000000000000000000000E200000000000000000000000000000000000000000000000000000000000002E200000000000000000000000000000000000000000000000000000000E20000000000000000E2E2E2E2000000000000E20000E2E2E2000000E200
310
00000000E2E2E200000000000000000000E2000000000000000000000000000000000000000000000000000000000000FFE20000000000000000000000000000000000000000000000E2E2E2E2E2E2E2E2E2E2E2E2E2E2E2E2E2E2E2E2E2E2E2E2E2E2E2E2E2E200E2E2E2E2E2E2E2E2E2E2E2E2E2E2E2E2E2E2E2E2E2E2E2
310
E2E2E2E20000000000000000000000000000000000000000000000000000E20000000000000000000000000000000000000000000000E2000000E20000E2E2E200000000E2E2E2E2000000000000E2E200E2E2E2E20000E20000000000E2E2E2E2000000000000E2E20000E2000000E2000000000000000000000000000000
310
0000000000000000000099E200E2000000000000000000000000000000000000000000E2000000E20000E2E2E20000000000000000000000000000E20000000000000000E2000000000000000000000000000000E2E20000E2000000E20000000000000000000000000000000000000000000000E20066E200E20000000000
310
00000000000000000000000000000000E2000000E20000E2E2E2000000000000E200000000000000E20000000000000000E2000000000000000000000000000000E2E20000E2000000E20000000000000000000000000000000000000000000000E20066E200E2000000000000000000000000000000000000000000E2E2E2
310
E2E2E2E2E2E2E2E2E2E2E2E2E2E2E2E2E2E2E2E2E2E20000000000000000E2E2E2E2E2E2E2E2E2E2E2E2E2E2E2E2E2E2E2E2E2E2E2E2E20000000000000000000000000000000000000000000000E20066E200E200000000000000000000000000000000000000000000E2000000E2E2E2E2E200000000E2E2E20000000000
310
E2E2E2E2E2E20000E2E2E2E2E2E200000000000000000000000000E2E2E2E200000000000000000000000000000000000000000000000000000000E20000E200E200000000000000000000000000000000000000000000E2000000E2E2E2E2E200000000E2E2E20000000000E2E2E2E2E2E20000E2E2E2E2E2E20000000000
310
000000000000E2E2E200E2E2E2E20000000000000000000000000000000000000000000000000000E20099E200E200000000000000000000000000000000000000000000E2000000E200E2E2E200000000E2E2E20000000000E2E2E20000E20000E20000E2E2E20000000000000000000000E2E2E20000E2E2E20000000000
310
000000000000000000000000000000000000000000E20000E200E200000000000000000000000000000000000000000000E2000000E200E2E2E2000000000000E20000000000E2E2E2E2E2E20000E2E2E2E2E2E20000000000000000000000E2E2E2E2E2E2E2E2000000000000000000000000000000000000000000000000
310
0000E200FFE200E200000000000000000000000000000000000000000000E2000000E200E2E2E2000000000000E2000000000000E2E20000000000000000E2E20000000000000000000000000000E20000E2E2E20000000000000000000000000000000000000000000000000000E20000E200E20000000000000000000000
310
000000000000000000E2E2E2E20000E20000E2E2E2E2E2E2E2E2E2E2E2E2E2E2E2E200000000000000000000E2E2E2E2E2E2E2E2E2E2E2E2E2E2E2E20000E200000000000000000000000000000000000000000000000000000000E20000E200E20000000000000000000000000000000000000000E2E2E2E20000E20000E2
310
E2E2000000000000000000000000000000000000000000000000000000000000000000000000E2E2E20000E200000000000000000000000000000000000000000000000000000000E20000E200E2000000000000000000000000000000000000000000E2E2E20000E2E200E200E20000000000000000000000000000000000
310
00000000000000000000000000000000000000E200E200E2E200000000000000000000000000000000000000000000000000000000E20000E200E200000000000000000000000000000000000000000000E2000000E2E200E200E2000000000000000000000000000000000000000000000000000000000000000000000000
310
E200E200E2E2E2E2E200000000000000000000000000000000000000000000000000E2000FE200E200000000000000000000000000000000000000000000E2000000E2E2000000E2000000000000000000000000000000000000000000000000000000000000000000000000E2000000E2E2E2E2E200000000000000000000
310
000000000000000000000000000000E20000E200E200000000000000000000000000000000000000000000E2000000E200000000E2000000000000000000000000000000000000000000000000000000000000000000000000E2E2E2E2E2E2E2E2E200000000000000000000000000000000000000000000000000E20000E2
310
00E200000000000000000000000000000000000000000000E2000000E2E2000000E2000000000000000000000000000000000000000000000000000000000000000000000000E2000000E2E2E2E2E200000000000000000000000000000000000000000000000000E20000E200E20000000000000000000000000000000000
310
0000000000E2000000E2E2000000E2000000000000000000000000000000000000000000000000000000000000000000000000E2000000E2E200000000000000000000000000000000000000000000000000000000E20000E200E200000000000000000000000000000000000000000000E2000000E2E2000000E200000000
310
0000000000000000000000000000000000000000000000000000000000000000E2000000E2E200000000000000000000000000000000000000000000000000000000E2000FE2000000000000000000000000000000000000000000000000E20000E2E2E2000000E20000000000000000000000000000000000000000000000
310
00000000000000000000000000E2000000E2E2E2000000000000000000000000000000000000000000000000000000000000E2000000000000000000000000000000000000000000000000E2E2E2E2E2E2E2E2E2E2000000000000000000000000000000000000000000000000000000000000000000000000E2E2E2E2E2E2
310
E20000000000000000000000000000000000000000000000000000000000F5E20000000000000000000000000000000000000000000000E2E2E200E2E200000000000000000000000000000000000000000000E20000000000000000000000000000000000000000000000E2E2E2E2E2000000000000000000000000000000
310
000000000000000000000000E20000000000000000000000000000000000000000000000E2E2E2E2E2E2E2E2E2E2E2E2E2E2E2E2E2E2E2E2E2E2E2E2E2E2E2E2E2E2E2E2E2E2E2E2E2E2E2E2E2E2E2E2E2E2E2E2E2E2E2E2E2E2E2E2E2000000000000000000000000000000000000000000000000000000E2000000000000
310
000000000000000000000000000000000000E2E200E200E2000000000000000000000000000000000000000000000000000000000000000000000000000000000000000000E2E2E2E2E2000000000000000000000000000000000000000000000000000000E200000000000000000000000000000000000000000000000000
310
0000E200000000000000000000000000000000000000000000E2E2E20000000000000000000000000000000000000000000000E2000000000000000000000000000000000000000000000000000000000000E2000000000000000000000000000000000000000000000000000000E200000000000000000000000000000000
310
000000000000E2E2E20000000000000000000000000000000000000000000000E200000000000000000000000000000000000000000000000000000000000FE20000000000000000000000000000000000000000000000000000E2E2E2E2E2E2E2E2E2E2E2E2E2E2E2E2E2E2E2E2E2E2E2E2E2E2E2E2E2E2E2E2E2E2E2E2E2
310
E2E2E2E2E2E2E2E2E2E2E2E2E2E2E20000000000000000000000000000000000000000000000000000000000E20000000000000000000000000000000000000000000000000000000000000000000000000000000000000000000000000000E2E2E20000000000000000000000000000000000000000000000000000000000
310
00000000000000000000000000000000000000000000000000E200E2000000000000000000000000000000000000000000000000000000000000000000000000000000000000000000000000000000000000000000000000000000000000000000000000000000000000000000000000000000000000000000000000000000
310
000000E20000E200E2000000000000000000000000000000000000000000000000000000000000000000000000000000000000000000000000000000000000000000000000000000000000000000000000000000000000000000000000000000000000000000000000000000000000E20000E200E200000000000000000000
310
0000000000000000000000000000000000000000000000000000000000000000000000000000000000000000000000000000000000000000000000000000000000000000000000000000000000000000000000000000000000000000E200F5E200E20000000000000000000000000000000000000000000000000000000000
310
000000E2E2E2E2E2E2E2E2E2E2E2E2E2E2E2E2E2E2E2E2E2E2E2E2E2E2E2E2E2E2E2E2E2E2E2E2E2E20000000000000000000000000000000000000000000000000000000000000000E20000E200E20000000000000000000000000000000000000000000000000000000000000000E2000000E2E2E2000000E2E2E2000000
310
00000000000000000000000000E2E20000E2000000E20000000000000000000000000000000000000000000000000000000000000000E20000E200E20000000000000000000000000000000000000000000000000000000000000000E2000000E2E2E2E20000E200000000000000000000E200000000000000E2E20000E200
310
0000E20000000000000000000000000000000000000000000000000000000000000000E20000E200E20000000000000000000000000000000000000000000000000000000000000000E2000000E2E2E2E20000E2E2E2E2E2E2E2E2E2E2E2E2E20000000000E2E2E20000E2000000E200000000000000000000000000000000
310
00000000000000000000000000000000E20000E200E20000000000000000000000000000000000000000000000000000000000000000E20000000000E2000000000000E2E2E2E2E2E2E2E2E2E2E2E2E2E2E2E2E2E20000E2000000E20000000000000000000000000000000000000000000000000000000000000000E200F5
310
E200E20000000000000000000000000000000000000000000000000000000000000000E20000000000E2E2E2E2E2E2E2E2E2E2E2E2E2E2E2E2E2000000000000E2E20000E2000000E20000000000000000000000000000000000000000000000000000000000000000E20000E200E200000000000000000000000000000000
310
00000000000000000000000000000000E20000000000E2000000000000E20000000000E2E2E2E2E2E2E2E2E2E2E2000000E2000000E20000000000000000000000000000000000000000000000000000000000000000E200F5E200E20000000000000000000000000000000000000000000000000000000000000000E20000
310
000000E2000000000000E20000000000E200000000000000000000000000E2000000E20000000000000000000000000000000000000000000000000000000000000000E20000E200E20000000000000000000000000000000000000000000000000000000000000000E20000000000E2000000000000E20000000000E20000
310
0000000000000000000000E2000000E20000000000000000000000000000000000000000000000000000000000000000E20000E200E20000000000000000000000000000000000000000000000000000000000000000E20000000000E2000000000000E20000000000E200000000000000000000000000E2000000E2000000
310
0000000000000000000000000000000000000000000000000000000000E20000E200E20000000000000000000000000000000000000000000000000000000000000000E20000000000E2000000000000E20000000000E200000000000000000000000000E2000000E200000000000000000000000000000000000000000000
310
00000000000000000000E20000E200E20000000000000000000000000000000000000000000000000000000000000000E20000000000E2000000000000E20000000000E200000000000000000000000000E2000000E20000000000000000000000000000000000000000000000000000000000000000E200F5E200E2000000
310
0000000000000000000000000000000000000000000000000000000000E20000000000E2000000000000E20000000000E200000000000000000000000000E2000000E20000000000000000000000000000000000000000000000000000000000000000E20000E200E200000000000000000000000000000000000000000000
310
00000000000000000000E20000000000E2000000000000E20000000000E200000000000000000000000000E2000000E20000000000000000000000000000000000000000000000000000000000000000E20000E20000000000000000000000000000000000000000000000000000000000000000E2E2E2E200000000E20000
310
00000000E20000000000E200000000000000000000000000E2000000E20000000000000000000000000000000000000000000000000000000000000000000000E20000000000000000000000000000000000000000000000000000000000000000E2E2E2E200000000E2000000000000E20000000000E20000000000000000
310
0000000000E2000000E20000000000000000000000000000000000000000000000000000000000000000000000E20000000000000000000000000000000000000000000000000000000000000000E2E2E2E20000E2E2E2E20000000000E200E2E2E200E200000000000000000000000000E2000000E2000000000000000000
310
00000000000000000000000000000000000000000000000000F5E200000000000000000000000000000000000000000000000000000000000000000000E2000000E2E2E2E20000000000E2E2E2E2E2E2E200000000000000000000000000E2000000E200000000000000000000000000000000000000000000000000000000
310
00000000000000E200000000000000000000000000000000000000000000000000000000000000000000E2000000E2E2E2000000000000E200E2E2E200E2E2000000000000000000000000E2000000E20000000000000000000000000000000000000000000000000000000000000000000000E20000000000000000000000
310
0000000000000000000000000000000000000000000000E20000000000E2000000000000E20000000000E200000000000000000000000000E2000000E20000000000000000000000000000000000000000000000000000000000000000000000E2000000000000000000000000000000000000000000000000000000000000
310
00000000E20000000000E2000000000000E20000000000E200000000000000000000000000E2000000E20000000000000000000000000000000000000000000000000000000000000000000000E200000000000000000000000000000000000000000000000000000000000000000000E20000000000E2000000000000E200
310
00000000E200000000000000000000000000E2000000E200000000000000000000000000000000000000000000000000000000000000000000F5E200000000000000000000000000000000000000000000000000000000000000000000E20000000000E2000000000000E20000000000E200000000000000000000000000E2
310
000000E20000000000000000000000000000000000000000000000000000000000000000000000E200000000000000000000000000000000000000000000000000000000000000000000E20000000000E2000000000000E20000000000E200000000000000000000000000E2000000E2000000000000000000000000000000
310
00000000000000000000000000000000000000F5E200E20000000000000000000000000000000000000000000000000000000000000000E20000000000E2000000000000E20000000000E200000000000000000000000000E2000000E20000000000000000000000000000000000000000000000000000000000000000E200
310
00E200E20000000000000000000000000000000000000000000000000000000000000000E20000000000E2000000000000E20000000000E200000000000000000000000000E2000000E20000000000000000000000000000000000000000000000000000000000000000E20000E200E2000000000000000000000000000000
310
0000000000000000000000000000000000E20000000000E2000000000000E20000000000E200000000000000000000000000E2000000E20000000000000000000000000000000000000000000000000000000000000000E2007FE200E20000000000000000000000000000000000000000000000000000000000000000E200
310
00000000E2000000000000E20000000000E200000000000000000000000000E200E2E2E2E200000000000000000000000000000000000000000000000000000000000000E20000E200E20000000000000000000000000000000000000000000000000000000000000000E20000000000E2000000000000E2000000E200E200
310
0000000000000000000000E2E200E2E2E2E200000000000000000000000000000000000000000000000000000000000000E200F5E200E20000000000000000000000000000000000000000000000000000000000000000E20000000000E2000000000000E2E2E2E2E2E2E2000000000000000000000000E2E20000E2E20000
310
000000000000000000000000000000000000000000000000000000000000E20000E200E20000000000000000000000000000000000000000000000000000000000000000E20000000000E2000000000000E2E2E2E2E2E2E200000000000000000000000000E20000E2E2000000000000000000000000000000000000000000
310
0000000000000000000000E20000E200E20000000000000000000000000000000000000000000000000000000000000000E2E2E2E2E2E2E2E2E2E2E2E2E2E2E2E2E2E2E2E200000000000000000000000000E2000000E20000000000000000000000000000000000000000000000000000000000000000E20000E200E20000
310
0000000000000000000000000000000000000000000000000000000000000000E2E2E2E2E2E2E2E20000000000E200E2E20000000000000000000000000000E2000000E20000000000000000000000000000000000000000000000000000000000000000E20036E200E2000000000000000000000000000000000000000000
310
00000000000000000000000000E2E2E2E2E2E2E2E20000000000E2E2E2E20000000000000000000000000000E2000000E20000000000000000000000000000000000000000000000000000000000000000E200F5E200E20000000000000000000000000000000000000000000000000000000000000000000000000000E200
310
00000000000000E200E2E20000000000000000000000000000E2000000E20000000000000000000000000000000000000000000000000000000000000000E20000E200E20000000000000000000000000000000000000000000000000000000000000000E2E200000000E20000000000000000E200E2E20000000000000000
310
000000000000E2000000E20000000000000000000000000000000000000000000000000000000000000000E200F5E200E20000000000000000000000000000000000000000000000000000000000000000E2E2E2E2E2E2E2E2E2E2E2E2E2E2E2E2E2E2E2E200000000000000000000000000E2000000E20000000000000000
310
000000000000000000000000000000000000000000000000E20000E200E20000000000000000000000000000000000000000000000000000000000000000E20000000000E2000000000000E2E2E2E2E2E2E200000000000000000000000000E2000000E2000000000000000000000000000000000000000000000000000000
310
0000000000E20000E200E20000000000000000000000000000000000000000000000000000000000000000E20000000000E2000000000000E2E2E2E2E2E2E200000000000000000000000000E2000000E20000000000000000000000000000000000000000000000000000000000000000E200F5E200E20000000000000000
310
000000000000000000000000000000000000000000000000E20000000000E2000000000000E20000000000E200000000000000000000000000E2000000E20000000000000000000000000000000000000000000000000000000000000000E20000E200E2000000000000000000000000000000000000000000000000000000
310
0000000000E20000000000E2000000000000E20000000000E200000000000000000000000000E2000000E20000000000000000000000000000000000000000000000000000000000000000E200F5E200000000000000000000000000000000000000000000000000000000000000000000E20000000000E2000000000000E2
310
0000000000E200000000000000000000000000E2000000E20000000000000000000000000000000000000000000000000000000000000000000000E200000000000000000000000000000000000000000000000000000000000000000000E2000000E2E2E2E20000000000E20000000000E200000000000000000000000000
310
E2000000E20000000000000000000000000000000000000000000000000000000000000000000000E200000000000000000000000000000000000000000000000000000000000000000000E2000000E2E2E2E20000000000E20000000000E200000000000000000000000000E2000000E20000000000000000000000000000
310
000000000000000000000000000000000000000000E20000000000000000000000000000000000000000000000000000000000000000E2E2E2E20000E2E2E2E20000000000E20000000000E200000000000000000000000000E2000000E2000000000000000000000000000000000000000000000000000000000000000000
310
0000E20000000000000000000000000000000000000000000000000000000000000000E2E2E2E200000000E2000000000000E20000000000E200000000000000000000000000E2000000E20000000000000000000000000000000000000000000000000000000000000000000000E200000000000000000000000000000000
310
00000000000000000000000000000000E2E2E2E200000000E2000000000000E20000000000E200000000000000000000000000E2000000E20000000000000000000000000000000000000000000000000000000000000000000000E200000000000000000000000000000000000000000000000000000000000000000000E2
310
0000000000E2000000000000E20000000000E200000000000000000000000000E2000000E20000000000000000000000000000000000000000000000000000000000000000000000E200000000000000000000000000000000000000000000000000000000000000000000E20000000000E2000000000000E20000000000E2
310
00000000000000000000000000E2000000E20000000000000000000000000000000000000000000000000000000000000000000000E200000000000000000000000000000000000000000000000000000000000000000000E20000000000E2000000000000E20000000000E200000000000000000000000000E2000000E200
310
00000000000000000000000000000000000000000000000000000000000000000000E200E20000000000000000000000000000000000000000000000000000000000000000E20000000000E2000000000000E20000000000E2E2E2000000E200000000000000E2000000E20000000000000000000000000000000000000000
310
000000000000000000000000E200F5E200E20000000000000000000000000000000000000000000000000000000000000000E20000000000E2000000000000E20000000000E2E2E2E2E2E2E2E2E2E2E2000000E2000000E20000000000000000000000000000000000000000000000000000000000000000E20000E200E200
310
00000000000000000000000000000000000000000000000000000000000000E20000000000E2E2E2E2E2E2E2E2E2E2E2E2E2E2E2E2E2E2E2E2000000E2000000E2000000E20000000000000000000000000000000000000000000000000000000000000000E200F5E200E20000000000000000000000000000000000000000
310
000000000000000000000000E2000000000000000000E2E2E2E2E2E2E2000000000000E2E2E2000000E2000000E2000000E20000000000000000000000000000000000000000000000000000000000000000E20000E200E20000000000000000000000000000000000000000000000000000000000000000E2E20000000000
310
000000E20000E2E2E2E200000000E2E2E2E2E2E20000E2000000E2000000E20000000000000000000000000000000000000000000000000000000000000000E20000E200E20000000000000000000000000000000000000000000000000000000000000000E2E2E2E2E2E2E2E2E2E2E20000E2E2E2E2E2E2E2E2E2E2E2E2E2
310
E2E2E2E2E2E2E2E2000000E20000000000000000000000000000000000000000000000000000000000000000E200F5E200E2000000000000000000000000000000000000000000000000000000000000000000000000000000000000E2E2E2E2E200E2E2E2E2000000000000000000E2000000E2000000E200000000000000
310
00000000000000000000000000000000000000000000000000E20000E200E2000000000000000000000000000000000000000000000000000000000000000000000000000000000000E20000E20000E2E2E2E200E2E2E2E20000E2E2E2E2E2E2E2E2E2E2E20000000000000000000000000000000000000000000000000000
310
000000000000E20000E200E20000000000000000000000000000000000000000000000000000000000000000000000000000000000E2E20000E2000000E2E2E200E2E2E2E200000000E2000000E2E2E2E2E20000000000000000000000000000000000000000000000000000000000000000E20000E200E200000000000000
310
00000000000000000000000000000000000000000000000000000000000000000000E2000000E2E2E2E2E2E2E2E2E2E2E200E2E2E2E2E2000000E2E2E200000000000000000000000000000000000000000000000000000000000000000000E20000E200E20000000000000000000000000000000000000000000000000000
310
000000000000000000000000000000E2E2E2E2E20000000000000000E2E2E2000000000000000000E2E200000000000000000000000000000000000000000000000000000000000000000000E20000E200E2000000000000000000000000000000000000000000000000000000000000000000000000000000000000000000
310
000000000000000000000000000000000000000000000000000000000000000000000000000000000000000000000000000000000000000000E20000E200E200000000000000000000000000000000000000000000000000000000000000000000000000000000000000000000000000000000000000000000000000000000
310
0000000000000000000000000000000000000000000000000000000000000000000000000000E20000E200E20000000000000000000000000000000000000000000000000000000000000000000000000000000000000000000000000000000000000000000000000000000000000000000000000000000000000000000000
310
00000000000000000000000000000000000000E20000E200E2000000000000000000000000000000000000000000000000000000000000000000000000000000000000000000000000000000000000000000000000000000000000000000000000000000000000000000000000000000000000000000000000000000000000
310
E20000E200E2000000000000000000000000000000000000000000000000000000000000000000000000000000000000000000000000000000000000000000000000000000000000000000000000000000000000000000000000000000000000000000000000000000000000E20000E200E200000000E2E2E2E2E2E2E2E2E2
310
E2E2E2E2E2E2E2E2E2E2E2E2E2E2E2E2E2E2E2E2E2E2E2E2E2E2E2E200000000000000000000000000000000000000000000000000000000000000000000000000000000000000000000000000000000000000000000000000E20000E2000000000000E2E2E2E2E2E2E2E2E2E2E2E2E2E2E2E2E2E2E2E2E2E2E2E2E2E2E2E2
310
E2E2E2E2E2E2E2E2E200000000000000000000000000000000000000000000000000000000000000000000000000000000000000000000000000000000000000000000000000000000E2000000000000E2E2E2E2E2E2E2E2E2E2E2E2E2E2E2E2E2E2E2E2E2E2E2E2E2E2E2E2E2E2E2E2E2E2E2E2E200000000000000000000
310
000000000000000000000000000000000000000000000000000000000000000000000000000000000000000000000000000000000000E2000000000000E2E2E2E2E2E2E2E2E2E2E2E2E2E2E2E2E2E2E2E2E2E2E2E2E2E2E2E2E2E2E2E2E2E2E2E2E20000000000000000000000000000000000000000000000000000000000
310
00000000000000000000000000000000000000000000000000000000000000000000F5E20000000000E2E2E2E2E2E2E2E2E2E2E2E2E2E2E2E2E2E2E2E2E2E2E2E2E2E2E2E2E2E2E2E2E2E2E2E2E2E2E2E2E2E2E2E2E2E2E2E2E2E2E2E2E2E2E2E2E2E2E2E2E2E2E2E2E2E2E2E2E2E2E2E2E2E2E2E2E2E2E2E2E2E2E2E2E2E2
310
E2E2E2E2E2E2E2E2E2E2E2E2E2000000E2000000000000E2E2E2E2E2E2E2E2E2E2E2E2E2E2E2E2E2E2E2E2E2E2E2E2E2E2E2E2E2E2E2E2E2E2E2000000000000000000000000000000000000000000000000000000000000000000000000000000000000000000000000000000000000000000000000000000000000E20000
310
00000000E2E2E2E2E2E2E2E2E2E2E2E2E2E2E2E2E2E2E2E2E2E2E2E2E2E2E2E2E2E2E2E2E2E2E20000000000000000000000000000000000000000000000000000000000000000000000000000000000000000000000000000000000000000000000000000000000F5E2000000000000E2E2E2E2E2E2E2E2E2E2E2E2E2E2E2
310
E2E2E2E2E2E2E2E2E2E2E2E2E2E2E2E2E2E2E2E2000000000000000000000000000000000000000000000000000000000000000000E2E2E2E2E2E2E2E2E2E2E2E2E2E2E2E2E2E2E2E2E2E2E2E2E2E2E2E2E200000000E2000000000000E2E2E2E2E2E2E2E2E2E2E2E2E2E2E2E2E2E2E2E2E2E2E2E2E2E2E2E2E2E2E2E2E2E2
310
E2000000000000000000000000000000000000000000000000000000000000000000E2000000000000000000000000000000000000000000000000000000E2000000F5E20000000000000000000000000000000000000000000000000000000000000000000000000000000000000000000000000000000000000000000000
310
000000000000000000000000000000E20000E5E5E5E5E500E5E5E5E5E5E5E5E5E5E000E50025E525E5E500E200000000E20000000000000000000000000000000000000000000000000000000000000000000000000000000000000000000000000000000000000000000000000000000000000000000000000000E200E500
310
0000000000000000000000000000000000000000000000E5E200000000E200E2000000000000000000000000000000000000000000000000000000000000000000000000000000000000000000000000000000000000000000000000000000000000000000000000E2E5E50000000000E50000000000000000000000000000
310
0000E50000E200E20000E200E2000000000000000000000000000000000000000000000000000000000000000000000000000000000000000000000000000000000000000000000000000000000000000000000000E2E5E50000000000E500000000000000000000000000000000E50000E200E20000E200E2000000000000
310
000000000000000000000000000000000000000000000000000000000000000000000000000000000000000000000000000000000000000000000000000000000000E2E5E50000E500000000000000000000E50000000000000000E00000E200E200F5E200E200000000000000000000000000000000000000000000000000
310
0000000000000000000000000000000000000000000000000000000000000000000000000000000000000000000000E2000000000000E0000000040000E500000004002000E500000000E4E200E20000E200E20000000000000000000000000000000000000000000000000000000000000000000000000000000000000000
310
00000000000000000000000000000000000000000000000000000000E20000000000000000C0C00000000000000000C0C000000000000000E200E20000E200E2000000000000000000000000000000000000000000000000000000000000000000000000000000000000000000000000000000000000000000000000000000
310
000000000000000000E2000000000000000000000000000000000000000000000000000000E200E20000E200E2000000000000000000000000000000000000000000000000000000000000000000000000000000000000000000000000000000000000000000000000000000000000000000000000E2000000000000000000
310
000000000000000000000000000000000000E200E20000E200E2000000000000000000000000000000000000000000000000000000000000000000000000000000000000000000000000000000000000000000000000000000000000000000000000E2E2E2E2E2E2E2E2E2E2E2E2E2E2E2E2E2E2E2E2E2E2E2E2E2E2E2E2E2
310
00E200F5E200E2E2E2E2E2E2E2E2E2000000000000000000E2E2E2E2E2E2E2E2E2E2E2E2E2E2E2E200000000000000000000E2E2E2E2E2E2E2E2E2E2E2E2E2E2E2E200000000000000000000E2E2E2E2E2E2E2E2E2E2E2E2E2E2E2E2000000000000000000E2E2E2E2E2E2E2E2E2E200E20000000000000000000000000000
310
00000000000000000000000000000000000000000000000000000000000000000000000000000000000000000000000000000000000000000000000000000000000000000000000000000000000000000000000000000000000000E2F5E2000000000000000000000000000000000000000000000000000000000000000000
310
0000000000000000000000000000000000000000000000000000000000000000000000000000000000000000000000000000000000000000000000000000000000000000000000000000E2E2E2E2E2E2E2E2E2E2E2E2E2E2E2E2E2E2E2E2E2E2E2E2E2E2E2E2E2E2E2E2E2E2E2E2E2E2E2E2E2E2E2E2E2E2E2E2E2E2E2E2E2
310
E2E2E2E2E2E2E2E2E2E2E2E2E2E2E2E2E2E2E2E2E2E2E2E2E2E2E2E2E2E2E2E2E2E2E2E2E2E2E2E2E2E2E2E2E2E2E2E2E2E2E2E2E2E200
  0
XRECORD
  5
341
102
{ACAD_REACTORS
330
19
102
}
330
19
100
AcDbXrecord
280
     1
102
SHADEPLOT
 70
     0
102
SHADEPLOTRESLEVEL
 70
     2
102
SHADEPLOTCUSTOMDPI
 70
   300
  0
XRECORD
  5
1A
102
{ACAD_REACTORS
330
19
102
}
330
19
100
AcDbXrecord
280
     1
310
280000000001000076000000010008000000000000760000000000000000000000010000000000000000000000000000C8C8C8000000000000000000000000000000000000000000000000000000000000000000330000006600000099000000CC000000FF00000000330000333300006633000099330000CC330000FF3300
310
0000660000336600006666000099660000CC660000FF66000000990000339900006699000099990000CC990000FF99000000CC000033CC000066CC000099CC0000CCCC0000FFCC000000FF000033FF000066FF000099FF0000CCFF0000FFFF000000003300330033006600330099003300CC003300FF003300003333003333
310
33006633330099333300CC333300FF33330000663300336633006666330099663300CC663300FF66330000993300339933006699330099993300CC993300FF99330000CC330033CC330066CC330099CC3300CCCC3300FFCC330000FF330033FF330066FF330099FF3300CCFF3300FFFF330000006600330066006600660099
310
006600CC006600FF00660000336600333366006633660099336600CC336600FF33660000666600336666006666660099666600CC666600FF66660000996600339966006699660099996600CC996600FF99660000CC660033CC660066CC660099CC6600CCCC6600FFCC660000FF660033FF660066FF660099FF6600CCFF6600
310
FFFF660000009900330099006600990099009900CC009900FF00990000339900333399006633990099339900CC339900FF33990000669900336699006666990099669900CC669900FF66990000999900339999006699990099999900CC999900FF99990000CC990033CC990066CC990099CC9900CCCC9900FFCC990000FF99
310
0033FF990066FF990099FF9900CCFF9900FFFF99000000CC003300CC006600CC009900CC00CC00CC00FF00CC000033CC003333CC006633CC009933CC00CC33CC00FF33CC000066CC003366CC006666CC009966CC00CC66CC00FF66CC000099CC003399CC006699CC009999CC00CC99CC00FF99CC0000CCCC0033CCCC0066CC
310
CC0099CCCC00CCCCCC00FFCCCC0000FFCC0033FFCC0066FFCC0099FFCC00CCFFCC00FFFFCC000000FF003300FF006600FF009900FF00CC00FF00FF00FF000033FF003333FF006633FF009933FF00CC33FF00FF33FF000066FF003366FF006666FF009966FF00CC66FF00FF66FF000099FF003399FF006699FF009999FF00CC
310
99FF00FF99FF0000CCFF0033CCFF0066CCFF0099CCFF00CCCCFF00FFCCFF0000FFFF0033FFFF0066FFFF0099FFFF00CCFFFF00FFFFFF00000000000D0D0D001A1A1A00282828003535350043434300505050005D5D5D006B6B6B00787878008686860093939300A1A1A100AEAEAE00BBBBBB00C9C9C900D6D6D600E4E4E400
310
F1F1F100FFFFFF000000000000000000000000000000000000000000000000000000000000000000000000000000000000000000000000000000000000000000000000000000000000000000000000000000000000000000000000000000000000000000000000000000000000000000000000000000000000000000000000
310
00000000000000000000000000000000000000000000000000000000000000000000000000000000000000000000000000000000000000000000000000000000000000000000000000000000000000000000000000000000000000000000000000000000000000000000000000000000000000000000000000000000000000
310
00000000000000000000000000000000000000000000000000000000000000000000000000000000000000000000000000000000000000000000000000000000000000000000000000000000000000000000000000000000000000000000000000000000000000000000000000000000000000000000000000000000000000
310
00000000000000000000000000000000000000000000000000000000000000000000000000000000000000000000000000000000000000000000000000000000000000000000000000000000000000000000000000000000000000000000000000000000000000000000000000000000000000000000000000000000000000
310
00000000000000000000000000000000000000000000000000000000000000000000000000000000000000000000000000000000000000000000000000000000000000000000000000000000000000000000000000000000000000000000000000000000000000000000000000000000000000000000000000000000000000
310
00000000000000000000000000000000000000000000000000000000000000000000000000000000000000000000000000000000000000000000000000000000000000000000000000000000000000000000000000000000000000000000000000000000000000000000000000000000000000000000000000000000000000
310
00000000000000000000000000000000000000000000000000000000000000000000000000000000000000000000000000000000000000000000000000000000000000000000000000000000000000000000000000000000000000000000000000000000000000000000000000000000000000000000000000000000000000
310
00000000000000000000000000000000000000000000000000000000000000000000000000000000000000000000000000000000000000000000000000000000000000000000000000000000000000000000000000000000000000000000000000000000000000000000000000000000000000000000000000000000000000
310
00000000000000000000000000000000000000000000000000000000000000000000000000000000000000000000000000000000000000000000000000000000000000000000000000000000000000000000000000000000000000000000000000000000000000000000000000000000000000000000000000000000000000
310
00000000000000000000000000000000000000000000000000000000000000000000000000000000000000000000000000000000000000000000000000000000000000000000000000000000000000000000000000000000000000000000000000000000000000000000000000000000000000000000000000000000000000
310
00000000000000000000000000000000000000000000000000000000000000000000000000000000000000000000000000000000000000000000000000000000000000000000000000000000000000000000000000000000000000000000000000000000000000000000000000000000000000000000000000000000000000
310
00000000000000000000000000000000000000000000000000000000000000000000000000000000000000000000000000000000000000000000000000000000000000000000000000000000000000000000000000000000000000000000000000000000000000000000000000000000000000000000000000000000000000
310
00000000000000000000000000000000000000000000000000000000000000000000000000000000000000000000000000000000000000000000000000000000000000000000000000000000000000000000000000000000000000000000000000000000000000000000000000000000000000000000000000000000000000
310
00000000000000000000000000000000000000000000000000000000000000000000000000000000000000000000000000000000000000000000000000000000000000000000000000000000000000000000000000000000000000000000000000000000000000000000000000000000000000000000000000000000000000
310
00000000000000000000000000000000000000000000000000000000000000000000000000000000000000000000000000000000000000000000000000000000000000000000000000000000000000000000000000000000000000000000000000000000000000000000000000000000000000000000000000000000000000
310
00000000000000000000000000000000000000000000000000000000000000000000000000000000000000000000000000000000000000000000000000000000000000000000000000000000000000000000000000000000000000000000000000000000000000000000000000000000000000000000000000000000000000
310
00000000000000000000000000000000000000000000000000000000000000000000000000000000000000000000000000000000000000000000000000000000000000000000000000000000000000000000000000000000000000000000000000000000000000000000000000000000000000000000000000000000000000
310
00000000000000000000000000000000000000000000000000000000000000000000000000000000000000000000000000000000000000000000000000000000000000000000000000000000000000000000000000000000000000000000000000000000000000000000000000000000000000000000000000000000000000
310
00000000000000000000000000000000000000000000000000000000000000000000000000000000000000000000000000000000000000000000000000000000000000000000000000000000000000000000000000000000000000000000000000000000000000000000000000000000000000000000000000000000000000
310
00000000000000000000000000000000000000000000000000000000000000000000000000000000000000000000000000000000000000000000000000000000000000000000000000000000000000000000000000000000000000000000000000000000000000000000000000000000000000000000000000000000000000
310
00000000000000000000000000000000000000000000000000000000000000000000000000000000000000000000000000000000000000000000000000000000000000000000000000000000000000000000000000000000000000000000000000000000000000000000000000000000000000000000000000000000000000
310
00000000000000000000000000000000000000000000000000000000000000000000000000000000000000000000000000000000000000000000000000000000000000000000000000000000000000000000000000000000000000000000000000000000000000000000000000000000000000000000000000000000000000
310
00000000000000000000000000000000000000000000000000000000000000000000000000000000000000000000000000000000000000000000000000000000000000000000000000000000000000000000000000000000000000000000000000000000000000000000000000000000000000000000000000000000000000
310
00000000000000000000000000000000000000000000000000000000000000000000000000000000000000000000000000000000000000000000000000000000000000000000000000000000000000000000000000000000000000000000000000000000000000000000000000000000000000000000000000000000000000
310
00000000000000000000000000000000000000000000000000000000000000000000000000000000000000000000000000000000000000000000000000000000000000000000000000000000000000000000000000000000000000000000000000000000000000000000000000000000000000000000000000000000000000
310
00000000000000000000000000000000000000000000000000000000000000000000000000000000000000000000000000000000000000000000000000000000000000000000000000000000000000000000000000000000000000000000000000000000000000000000000000000000000000000000000000000000000000
310
00000000000000000000000000000000000000000000000000000000000000000000000000000000000000000000000000000000000000000000000000000000000000000000000000000000000000000000000000000000000000000000000000000000000000000000000000000000000000000000000000000000000000
310
00000000000000000000000000000000000000000000000000000000000000000000000000000000000000000000000000000000000000000000000000000000000000000000000000000000000000000000000000000000000000000000000000000000000000000000000000000000000000000000000000000000000000
310
00000000000000000000000000000000000000000000000000000000000000000000000000000000000000000000000000000000000000000000000000000000000000000000000000000000000000000000000000000000000000000000000000000000000000000000000000000000000000000000000000000000000000
310
00000000000000000000000000000000000000000000000000000000000000000000000000000000000000000000000000000000000000000000000000000000000000000000000000000000000000000000000000000000000000000000000000000000000000000000000000000000000000000000000000000000000000
310
00000000000000000000000000000000000000000000000000000000000000000000000000000000000000000000000000000000000000000000000000000000000000000000000000000000000000000000000000000000000000000000000000000000000000000000000000000000000000000000000000000000000000
310
00000000000000000000000000000000000000000000000000000000000000000000000000000000000000000000000000000000000000000000000000000000000000000000000000000000000000000000000000000000000000000000000000000000000000000000000000000000000000000000000000000000000000
310
00000000000000000000000000000000000000000000000000000000000000000000000000000000000000000000000000000000000000000000000000000000000000000000000000000000000000000000000000000000000000000000000000000000000000000000000000000000000000000000000000000000000000
310
0000000000000000000000000000000000000000000000000000000000000000000000000000000000000000000000000000F5F5000000000000000000000000000000F5F5F5000000000000000000000000000000000000000000000000000000000000000000000000000000000000000000000000000000000000000000
310
00000000000000000000000000000000000000000000000000000000000000000000000000000000000000000000000000000000000000000000000000000000000000000000000000000000000000000000000000000000000000000000000000000000000000000000000000000000000000000000000000000000000000
310
00000000000000000000000000000000000000000000000000000000000000000000000000000000000000000000000000000000F5F5F5F5F5F5F5F5F5F500F5F5F5F5F5F500F5F500000000000000000000000000000000000000000000000000000000000000000000000000000000000000000000000000000000000000
310
00000000000000000000000000000000000000000000000000000000000000000000000000000000000000000000000000000000000000000000000000000000000000000000000000000000000000000000000000000000000000000000000000000000000000000000000000000000000000000000000000000000000000
310
000000000000000000000000000000000000000000000000000000000000000000000000000000000000000000000000000000000000F500F5F5F5F5F5F5F5F500F5F5F5F5F5F500F5F50000000000000000000000000000000000000000000000000000000000000000000000000000000000000000000000000000000000
310
00000000000000000000000000000000000000000000000000000000000000000000000000000000000000000000000000000000000000000000000000000000000000000000000000000000000000000000000000000000000000000000000000000000000000000000000000000000000000000000000000000000000000
310
0000000000000000000000000000000000000000000000000000000000000000000000000000000000000000000000000000000000000000F50000F5F50000F500F500F5F5F5F5F5F500F5F5000000000000000000000000000000000000000000000000000000000000000000000000000000000000000000000000000000
310
00000000000000000000000000000000000000000000000000000000000000000000000000000000000000000000000000000000000000000000000000000000000000000000000000000000000000000000000000000000000000000000000000000000000000000000000000000000000000000000000000000000000000
310
00000000000000000000000000000000000000000000000000000000000000000000000000000000000000000000000000000000000000000000F50000F5F500F5F500F500F5F5F5F5F5F5F500F500000000000000000000000000000000000000000000000000000000000000000000000000000000000000000000000000
310
00000000000000000000000000000000000000000000000000000000000000000000000000000000000000000000000000000000000000000000000000000000000000000000000000000000000000000000000000000000000000000000000000000000000000000000000000000000000000000000000000000000000000
310
000000000000000000000000000000000000000000000000000000000000000000000000000000000000000000000000000000000000000000000000F50000F5F500F5F50000F5F5F5F5F5F5F5F500F50000000000000000000000000000000000000000000000000000000000000000000000000000000000000000000000
310
00000000000000000000000000000000000000000000000000000000000000000000000000000000000000000000000000000000000000000000000000000000000000000000000000000000000000000000000000000000000000000000000000000000000000000000000000000000000000000000000000000000000000
310
0000000000000000000000000000000000000000000000000000000000000000000000000000000000000000000000000000000000000000000000000000F5F500F5F500F5F5F5F5F500F5F500F5F500F5F5000000000000000000000000000000000000000000000000000000000000000000000000000000000000000000
310
00000000000000000000000000000000000000000000000000000000000000000000000000000000000000000000000000000000000000000000000000000000000000000000000000000000000000000000000000000000000000000000000000000000000000000000000000000000000000000000000000000000000000
310
000000000000000000000000000000F5000000000000000000000000000000000000000000000000000000000000000000000000000000000000000000000000F5F50000F500F5F5F5F5F500000000000000F5F500000000000000000000000000000000000000000000000000000000000000000000000000000000000000
310
0000F500000000000000000000000000000000000000000000000000000000000000000000000000000000000000000000000000000000000000000000000000000000000000000000000000000000000000000000000000000000000000000000000000000000000000000000000000000000000000000000000000000000
310
000000000000000000000000000000000000F5000000000000000000000000000000000000000000000000000000000000000000000000000000000000000000000000000000000000000000000000000000000000000000000000000000000000000000000000000000000000000000000000000000000000000000000000
310
0000000000F5F500000000000000000000000000000000000000000000000000000000000000000000000000000000000000000000000000000000000000000000000000000000000000000000000000000000000000000000000000000000000000F500000000000000000000000000000000000000000000000000000000
310
0000000000000000000000000000000000000000F5F5F5F5F5F5F5F5F5F5F5F5F5F5F5F5F5F5F5F5F5F5F5F5F5F5F5F5F5F5F5F5F5F5F5F5F5F5F5F5F5F5F5F5F5F500F500000000F5F50000F500F5000000F500F5F500000000F5F5F5F5F5F5F5F5F5F5F5F5F5F5F5F5F5F5F5F5F5F5F5F5F5F5F5F5F5F5F5F5F5F5F5F5F5
310
F5F5F5F5F5F5F5F5F500000000000000000000000000000000000000000000000000000000000000000000000000000000000000000000000000000000000000000000000000000000000000000000000000000000000000000000000000000000000000F5F500000000000000000000000000000000000000000000000000
310
00000000000000000000000000000000000000000000F5F5F500000000000000000000000000000000000000000000000000000000000000000000000000000000000000F5F500000000F5F5F5F5F5F5F50000F5F5F5F5F5F50000000000000000000000000000000000000000000000000000000000000000000000000000
310
00000000000000000000F5F500000000000000000000000000000000000000000000000000000000000000000000000000000000000000000000000000000000000000000000000000000000000000000000000000000000000000000000000000000000000000F50000000000000000000000000000000000000000000000
310
000000000000000000000000000000000000000000000000F500F500000000000000000000000000000000000000000000000000000000000000000000000000000000000000F5F5F500000000F500F500F500F500F500F5F50000000000000000000000000000000000000000000000000000000000000000000000000000
310
000000000000000000000000F5F50000000000000000000000000000000000000000000000000000000000000000000000000000000000000000000000000000000000000000000000000000000000000000000000000000000000000000000000000000000000000000000000000000000000000000000000000000000000
310
0000000000000000000000000000000000000000000000000000F500000000000000000000000000000000000000000000000000000000000000000000000000000000000000000000F5F500000000F50000F5F500F50000F5F500F50000000000000000000000000000000000000000000000000000000000000000000000
310
0000000000000000000000000000F500000000000000000000000000000000000000000000000000000000000000000000000000000000000000000000000000000000000000000000000000000000000000000000000000000000000000000000000000000000000000000000000000000000000000000000000000000000
310
00000000000000000000000000000000000000000000000000000000F5000000000000000000000000000000000000000000000000000000000000000000000000000000000000000000F5F5F500000000F50000F5F500F5F500F5F500F5F500F5F50000000000000000000000000000000000000000000000000000000000
310
00000000000000000000000000000000F50000000000000000000000000000000000000000000000000000000000000000000000000000000000000000000000000000000000000000000000000000000000000000000000000000000000000000000000000000000000000000000000000000000000000000000000000000
310
000000000000000000000000000000000000000000000000000000000000F5000000000000000000000000000000000000000000000000000000000000000000000000000000000000000000F5F500000000F5F5F5F500F500F5F5F500F5F5F5F500F5F5000000000000000000000000000000000000000000000000000000
310
000000000000000000000000000000000000F5000000000000000000000000000000000000000000000000000000000000000000000000000000000000000000000000000000000000000000000000000000000000000000000000000000000000000000000000000000000000000000000000000000000000000000000000
310
0000000000000000000000000000000000000000000000000000000000000000F5000000000000000000000000000000000000000000000000000000000000000000000000000000000000000000F5F5F5000000F5F5F500F5F50000F5F5F5F5F5F5F500F5F500000000000000000000000000000000000000000000000000
310
0000000000000000000000000000000000000000F500000000000000000000000000000000000000000000000000000000000000000000000000000000000000000000000000000000000000000000000000000000000000000000000000000000000000000000000000000000000000000000000000000000000000000000
310
00000000000000000000000000000000000000000000000000000000000000000000F5000000000000000000000000000000000000000000000000000000000000000000000000000000000000000000F5F5F500000000F5F500F5000000F5F5F50000F50000F5F50000000000000000000000000000000000000000000000
310
00000000000000000000000000000000000000000000F50000000000000000000000000000000000000000000000000000000000000000000000000000000000000000000000000000000000000000000000000000000000000000000000000000000000000000000000000000000000000000000000000000000000000000
310
000000000000000000000000000000000000000000000000000000000000000000000000F5000000000000000000000000000000000000000000000000000000000000000000000000000000000000000000000000000000000000000000000000000000000000000000000000000000000000000000000000000000000000
310
000000000000000000000000000000000000000000000000F5000000000000000000000000000000000000000000000000000000000000000000000000000000000000000000000000000000000000000000000000000000000000000000000000000000000000000000000000000000000000000000000000000000000000
310
0000000000000000000000000000000000000000000000000000000000000000000000000000F500000000000000000000000000000000000000000000000000000000000000000000000000000000000000000000000000000000000000000000000000000000000000000000000000000000000000000000000000000000
310
0000000000000000000000000000000000000000000000000000F500000000000000000000000000000000000000000000000000000000000000000000000000000000000000000000000000000000000000000000000000000000000000000000000000000000000000000000000000000000000000000000000000000000
310
00000000000000000000000000000000000000000000000000000000000000000000000000000000F50000000000000000000000000000000000000000000000000000000000000000000000000000000000000000000000000000000000000000000000000000000000000000000000000000000000000000000000000000
310
00000000000000000000000000000000000000000000000000000000F50000000000000000000000000000000000000000000000000000000000000000000000000000000000000000000000000000000000000000000000000000000000000000000000000000000000000000000000000000000000000000000000000000
310
000000000000000000000000000000000000000000000000000000000000000000000000000000000000F5000000000000000000000000000000000000000000000000000000000000000000000000000000000000000000000000000000000000000000000000000000000000000000000000000000000000000000000000
310
000000000000000000000000000000000000000000000000000000000000F5000000000000000000000000000000000000000000000000000000000000000000000000000000000000000000000000000000000000000000000000000000000000000000000000000000000000000000000000000000000000000000000000
310
0000000000000000000000000000000000000000000000000000000000000000000000000000000000000000F500000000000000000000000000000000000000000000000000000000000000000000000000000000000000000000000000000000000000000000000000000000000000000000000000000000000000000000
310
0000000000000000000000000000000000000000000000000000000000000000F500000000000000000000000000000000000000000000000000000000000000000000000000000000000000000000000000000000000000000000000000000000000000000000000000000000000000000000000000000000000000000000
310
00000000000000000000000000000000000000000000000000000000000000000000000000000000000000000000F50000000000000000000000000000000000000000000000000000000000000000000000000000000000000000000000000000000000000000000000000000000000000000000000000000000000000000
310
00000000000000000000000000000000000000000000000000000000000000000000F50000000000000000000000000000000000000000000000000000000000000000000000000000000000000000000000000000000000000000000000000000000000000000000000000000000000000000000000000000000000000000
310
0000000000000000000000000000F500F50000F5F5F5F5F5F5F5F5F5F5F5F500F5F50000000000000000000000000000F5000000000000000000000000000000000000000000000000000000000000000000000000000000000000000000000000000000000000000000000000000000000000000000000000000000000000
310
000000000000000000000000000000000000000000000000000000000000000000000000F5000000000000000000000000000000000000000000000000000000000000000000000000000000000000000000000000000000000000000000000000000000000000000000000000000000000000000000000000000000000000
310
000000000000000000000000000000F5F5F5F50000F5F5F5F5F5F500F5F5F5F5F5F5F5F50000000000000000000000000000F50000000000000000000000000000000000000000000000000000000000000000000000000000F5F500000000000000000000000000000000F5F5000000000000000000000000000000000000
310
0000000000000000000000000000000000000000000000000000000000000000000000000000F500000000000000000000000000000000000000000000000000000000000000000000000000000000000000000000000000000000000000000000000000000000000000000000000000000000000000000000000000000000
310
0000000000000000000000000000000000F5F5F5F5F500F5F500F5F5F500F500F5F5F5F5F5F50000000000000000000000000000F50000000000000000000000000000000000000000000000000000000000000000000000000000F5F500F5F500F5F500F50000F5F5F5F5F5F5F5F500000000000000000000000000000000
310
00000000000000000000000000000000000000000000000000000000000000000000000000000000F50000000000000000000000000000000000000000000000000000000000000000000000000000000000000000000000000000000000000000000000000000000000000000000000000000000000000000000000000000
310
00000000000000000000000000000000000000F5F5F5F5F5F5F5F500F5F5F500F500F5F5F5F5F5F50000000000000000000000000000F50000000000000000000000000000000000000000000000000000000000000000000000000000F50000F5F500F5F500F50000F5F5F5F5F5F500F50000000000000000000000000000
310
000000000000000000000000000000000000000000000000000000000000000000000000000000000000F5000000000000000000000000000000000000000000000000000000000000000000000000000000000000000000000000000000000000000000000000000000000000000000000000000000000000000000000000
310
000000000000000000000000000000000000000000F5F5F500F5F500F5F500F5F500F5F500F5F5F5F5F50000000000000000000000000000F50000000000000000000000000000000000000000000000000000000000000000000000000000F50000F5F500F5F500F5F500F5F5F5F5F5F500F5000000000000000000000000
310
0000000000000000000000000000000000000000000000000000000000000000000000000000000000000000F500000000000000000000000000000000000000000000000000000000000000000000000000000000000000000000000000000000000000000000000000000000000000000000000000000000000000000000
310
0000000000000000000000000000000000000000000000F5F5F500F5F500F50000F5F500F5F500F5F500F5F5F500000000000000000000000000F5000000000000000000000000000000000000000000000000000000000000000000000000000000F50000F50000F50000F500F5F5F5F5F5F500F5F5000000000000000000
310
00000000000000000000000000000000000000000000000000000000000000000000000000000000000000000000F50000000000000000000000000000000000000000000000000000000000000000000000000000000000000000000000000000000000000000000000000000000000000000000000000000000000000000
310
0000000000000000000000000000000000000000000000000000F5F500F5F500F5F5F5F5F500F5F500F5F500F5F5F500000000000000000000000000F5000000000000000000000000000000000000000000000000000000000000000000000000000000F500F5F500F5F50000F500F5F5F5F5F5F500F5F500000000000000
310
000000000000000000000000000000000000000000000000000000000000000000000000000000000000000000000000F5000000000000000000000000000000000000000000000000000000000000000000000000000000000000000000000000000000000000000000000000000000000000000000000000000000000000
310
0000000000000000000000000000000000000000000000000000000000F500F50000F5F5F5F5F500F5F500F5F50000F50000000000000000000000000000F5000000000000000000000000000000000000000000000000000000000000000000000000000000F5F5F5F500F5F500F5F5F5000000000000F5F5F50000000000
310
0000000000000000000000000000000000000000000000000000000000000000000000000000000000000000000000000000F500000000000000000000000000000000000000000000000000000000000000000000000000000000000000000000000000000000000000000000000000000000000000000000000000000000
310
000000000000000000000000000000000000000000000000000000000000000000000000000000000000000000000000000000000000000000000000000000F5F5000000000000000000000000000000000000000000000000000000000000000000000000000000F5F500F50000F500F5F5F500000000000000F5F5000000
310
000000000000000000000000000000000000000000000000000000000000000000F5000000000000000000000000000000000000F500000000000000000000000000000000F5F5F5F5F5F5F5F5F5F5F5F5F5F50000000000000000000000000000000000000000000000000000000000000000000000000000000000000000
310
000000000000000000000000000000000000000000000000000000000000000000000000000000000000000000000000000000000000000000000000000000000000F5000000000000000000000000000000000000000000000000000000000000000000000000000000000000000000000000000000000000000000000000
310
000000000000000000000000000000000000000000000000000000000000000000000000F50000000000000000000000000000000000F500000000000000000000F5F5F5F5F5F5F5000000000000000000000000F5000000000000000000000000000000000000000000000000000000000000000000000000000000000000
310
00000000000000000000000000000000000000F5F5F5F5F5F5F5F5F5F5F5F5F5000000000000000000000000000000000000000000000000F5F5F5F5F5F5F5F5F5F5F5F5F5F5F5F5F5F5F5F5F5F5F5F5F5F5F5F5F5F5F5F5F5F5F5F5F5F5F5F5F5F5F5F5F5F5F5F5F50000F5000000F5F5F500F500F5F50000F500F5F5F500
310
0000F5F5F5F5F5F5F5F5F5F5F5F5F5F5F5F5F5F5F5F5F5F5F5F5F5F5F5F5F5F5F5F5F5F5F5F5F5F500000000000000F5F5F5F5F5F5F5F5F5F5F5F5F5F5F5F5F5F5F5F5F5000000000000000000000000000000000000F500000000000000000000000000000000000000000000000000000000000000000000000000000000
310
000000000000000000000000000000000000000000F5F500000000000000000000F5F500F5F5F5F5F5F500F5F5F5F5F500F5F5F5F5F500F5F500000000000000000000000000F5F5F5000000000000000000000000000000000000000000000000000000000000000000000000F5000000F5F5F5F5F500F5F500F5F5F5F5F5
310
F5000000000000000000000000000000000000000000000000000000000000000000000000000000F5F5F50000000000F5F50000000000000000000000000000000000000000000000000000000000000000000000000000F50000000000000000000000000000000000000000000000000000000000000000000000000000
310
000000000000000000000000000000000000000000000000F500000000000000000000F5F5F5F5F5F5F5F5F500F5F5F5F5F500F5F5F5F5F500F5F500000000000000000000000000F500F500000000000000000000000000000000000000000000000000000000000000000000F5F5F5F5000000F5F50000F500F5F500F5F5
310
F5F500000000000000000000000000000000000000000000000000000000000000000000000000000000F500F50000000000F5000000000000000000000000000000000000000000000000000000000000000000000000000000F5000000000000000000000000000000000000000000000000000000000000000000000000
310
00000000000000000000000000000000000000000000000000000000000000000000000000F5F5F500F5F5F500F500F50000F5F500F5F5F5F5F500F5F500000000000000000000000000F500000000000000000000000000000000000000000000000000000000000000000000000000F5F5F5000000F5F500F5F500F5F500
310
F5F5F5F500000000000000000000000000000000000000000000000000000000000000000000000000000000F500000000000000F5000000000000000000000000000000000000000000000000000000000000000000000000000000F500000000000000000000000000000000000000000000000000000000000000000000
310
000000000000000000000000000000000000000000000000000000000000000000000000000000F5F5F500F5F5F500F500F50000F5F500F5F5F5F5F500F5F500000000000000000000000000F500000000000000000000000000000000000000000000000000000000000000000000000000F5F50000000000F500F5F50000
310
F50000F50000F500F5F5000000000000000000000000000000000000000000000000000000000000000000000000F500000000000000F50000000000000000000000000000000000F5000000000000000000000000000000000000000000F50000000000000000000000000000000000000000000000000000000000000000
310
000000000000000000000000000000000000000000000000000000000000000000000000000000000000F5F500F5F50000F500F5000000F500F5F5F5F5F5F500F500000000000000000000000000F50000000000000000000000000000000000000000000000000000000000000000000000000000F500000000F5F500F5F5
310
0000F500F5F5F5F5F500F5F5000000000000000000000000000000000000000000000000000000000000000000000000F500000000000000F50000000000000000000000000000000000F5000000000000000000000000000000000000000000F5000000000000000000000000000000000000000000000000000000000000
310
0000000000000000000000000000000000000000000000000000000000000000000000000000000000000000F5F500F5F500F5F500F5F50000F500F500F5F5F5F500F500000000000000000000000000F50000000000000000000000000000000000000000000000000000000000000000000000000000F5F5000000F5F500
310
F5F5000000F5F5F5F5F5F500F5F5000000000000000000000000000000000000000000000000000000000000000000000000F500000000000000F50000000000000000000000000000000000F5F50000000000000000000000000000000000000000F500000000000000000000000000000000000000000000000000000000
310
00000000000000000000000000000000000000000000000000000000000000000000000000000000000000000000F5F50000F500F500F5F5F500F5F5F5F5F5F5F5F5F5F5F5F5000000000000000000000000F50000000000000000000000000000000000000000000000000000000000000000000000000000F5F500000000
310
F50000F5000000F500F50000F500F5F5F50000000000000000000000000000000000000000000000000000000000000000000000F500000000000000F500000000000000000000000000000000F5F5F50000000000000000000000000000000000000000F50000000000000000000000000000000000000000000000000000
310
000000000000000000000000000000000000000000000000000000000000000000000000000000000000000000000000F5F50000F500F500F5F5F500F5F5F500F500F5F5F5F5F5F5000000000000000000000000F5000000000000000000000000000000000000000000000000000000000000000000000000000000000000
310
000000000000000000000000000000000000000000000000000000000000000000000000000000000000000000000000000000000000F500000000000000F500000000000000000000000000000000F5F5F5F500000000000000000000000000000000000000F5000000000000000000000000000000000000000000000000
310
0000000000000000000000000000000000000000000000000000000000000000000000000000000000000000000000000000000000000000000000000000000000000000000000000000000000000000000000000000F500000000000000000000000000000000000000000000000000000000000000000000000000000000
310
0000000000000000000000000000000000000000000000000000000000000000000000000000000000000000000000000000000000000000F500000000000000F500000000000000000000000000000000F5F500F500000000000000000000000000000000000000F500000000000000000000000000000000000000000000
310
00000000000000000000000000000000000000000000000000000000000000000000000000000000000000000000000000000000000000000000000000000000000000000000000000000000000000000000000000000000F50000000000000000000000000000000000000000000000000000000000000000000000000000
310
00000000000000000000000000000000000000000000000000000000000000000000000000000000000000000000000000000000000000000000F500000000000000F500000000000000000000000000000000F5F5F5F500000000000000000000000000000000000000F50000000000000000000000000000000000000000
310
000000000000000000000000000000000000000000000000000000000000000000000000000000000000000000000000000000000000000000000000000000000000000000000000000000000000000000000000000000000000F5000000000000000000000000000000000000000000000000000000000000000000000000
310
000000000000000000000000000000000000000000000000000000000000000000000000000000000000000000000000000000000000000000000000F500000000000000F500000000000000000000000000000000F5F5F5F500000000000000000000000000000000000000F5000000000000000000000000000000000000
310
0000000000000000000000000000000000000000000000000000000000000000000000000000000000000000000000000000000000000000000000000000000000000000000000000000000000000000000000000000000000000000F500000000000000000000000000000000000000000000000000000000000000000000
310
0000000000000000000000000000000000000000000000000000000000000000000000000000000000000000000000000000000000000000000000000000F500000000000000F500000000000000000000000000000000F5F5F5F500000000000000000000000000000000000000F500000000000000000000000000000000
310
00000000000000000000000000000000000000000000000000000000000000000000000000000000000000000000000000000000000000000000000000000000000000000000000000000000000000000000000000000000000000000000F50000000000000000000000000000000000000000000000000000000000000000
310
00000000000000000000000000000000000000000000000000000000000000000000000000000000000000000000000000000000000000000000000000000000F500000000000000F500000000000000000000000000000000F5F500F500000000000000000000000000000000000000F50000000000000000000000000000
310
000000000000000000000000000000000000000000000000000000000000000000000000000000000000000000000000000000000000000000000000000000000000000000000000000000000000000000000000000000000000000000000000F5000000000000000000000000000000000000000000000000000000000000
310
000000000000000000000000000000000000000000000000000000000000000000000000000000000000000000000000000000000000000000000000000000000000F500000000000000F500000000000000000000000000000000F5F5F5F500000000000000000000000000000000000000F5000000000000000000000000
310
0000000000000000000000000000000000000000000000000000000000000000000000000000000000000000000000000000000000000000000000000000000000000000000000000000000000000000000000000000000000000000000000000000F500000000000000000000000000000000000000000000000000000000
310
0000000000000000000000000000000000000000000000000000000000000000000000000000000000000000000000000000000000000000000000000000000000000000F500000000000000F500000000000000000000000000000000F5F5F5F500000000000000000000000000000000000000F500000000000000000000
310
00000000000000000000000000000000000000000000000000000000000000000000000000000000000000000000000000000000000000000000000000000000000000000000000000000000000000000000000000000000000000000000000000000000F50000000000000000000000000000000000000000000000000000
310
00000000000000000000000000000000000000000000000000000000000000000000000000000000000000000000000000000000000000000000000000000000000000000000F500000000000000F500000000000000000000000000000000F5F500F500000000000000000000000000000000000000F50000000000000000
310
000000000000000000000000000000000000000000000000000000000000000000000000000000000000000000000000000000000000000000000000000000000000000000000000000000000000000000000000000000000000000000000000000000000000F5000000000000000000000000000000000000000000000000
310
000000000000000000000000000000000000000000000000000000000000000000000000000000000000000000000000000000000000000000000000000000000000000000000000F500000000000000F500000000000000000000000000000000F5F5F5F500000000000000000000000000000000000000F5000000000000
310
0000000000000000000000000000000000000000000000000000000000000000000000000000000000000000000000000000000000000000000000000000000000000000000000000000000000000000000000000000000000000000000000000000000000000000F500000000000000000000000000000000000000000000
310
0000000000000000000000000000000000000000000000000000000000000000000000000000000000000000000000000000000000000000000000000000000000000000000000000000F500000000000000F500000000000000000000000000000000F5F5F5F500000000000000000000000000000000000000F500000000
310
00000000000000000000000000000000000000000000000000000000000000000000000000000000000000000000000000000000000000000000000000000000000000000000000000000000000000000000000000000000000000000000000000000000000000000000F50000000000000000000000000000000000000000
310
00000000000000000000000000000000000000000000000000000000000000000000000000000000000000000000000000000000000000000000000000000000000000000000000000000000F500000000000000F5000000000000000000000000000000F500F50000F5000000000000000000000000000000000000F50000
310
000000000000000000000000000000000000000000000000000000000000000000000000000000000000000000000000000000000000000000000000000000000000000000000000000000000000000000000000000000000000000000000000000000000000000000000000F500000000000000000000000000F5F5F5F5F5
310
F5F5F5F5F5F5F5F5F5F5F5F5F5F5F5F5F5F5F5F5F5F5F5F5F5F5F5F5F5F5F5F5F5F5F5F5F5F5F5F5F5F5F5F5F5F5F5F5F5F5F5F5F5F5F5F5F5F5F5F5F5F5F5F5F5F5F5F5F5F5F5F5F5F5F5F5F5F5F50000F5F5F5F5F5F5F5F5F5F5F5F5F5F5F5F5F5F5F5F5F5F5F5F5F5F5F5F5F5F5F5F5F5000000000000000000000000F5
310
0000000000000000000000000000000000000000000000000000000000000000000000000000000000000000000000000000000000000000000000000000000000000000000000000000000000000000000000000000000000000000000000000000000000000000000000000000F50000000000000000000000F5F5000000
310
0000000000000000000000000000000000000000000000000000000000000000000000000000000000000000000000000000000000000000000000000000000000000000000000000000000000000000F50000F50000000000000000000000000000F5F5F5F5F5F5F5F5F5F5F5F5F5F5F5F5F5F5F5F5F5F5F5F5F5F5F5F5F5
310
F5F50000000000000000000000000000000000000000000000000000000000000000000000000000000000000000000000000000000000000000000000000000000000000000000000000000000000000000000000000000000000000000000000000000000000000000000000000000F50000000000F5F5F5F5F5F5F50000
310
00000000000000000000000000000000000000000000000000000000000000000000000000000000000000000000000000000000000000000000000000000000000000000000000000000000000000000000F50000F50000000000000000000000000000F5F5000000000000F5000000000000000000000000000000000000
310
000000000000000000000000000000000000000000000000000000000000000000000000000000000000000000000000000000000000000000000000000000000000000000000000000000000000000000000000000000000000000000000000000000000000000000000000000000000000F50000000000F50000000000F5
310
000000000000000000000000000000000000000000000000000000000000000000000000000000000000000000000000000000000000000000000000000000000000000000000000000000000000000000000000F50000F50000000000000000000000000000F5F50000000000000000000000000000000000000000000000
310
0000000000000000000000000000000000000000000000000000000000000000000000000000000000000000000000000000000000000000000000000000000000000000000000000000000000000000000000000000000000000000000000000000000000000000000000000000000000000000F500000000F5F500000000
310
00F5000000000000000000000000000000000000000000000000000000000000000000000000000000000000000000000000000000000000000000000000000000000000000000000000000000000000000000000000F50000F50000000000000000000000000000F5F5F50000000000000000000000000000000000000000
310
00000000000000000000000000000000000000000000000000000000000000000000000000000000000000000000000000000000000000000000000000000000000000000000000000000000000000000000000000000000000000000000000000000000000000000000000000000000000000000000F5000000F500000000
310
000000F5000000000000000000000000000000000000000000000000000000000000000000000000000000000000000000000000000000000000000000000000000000000000000000000000000000000000000000000000F50000F50000000000000000000000000000F5F5F5F50000000000000000000000000000000000
310
000000000000000000000000000000000000000000000000000000000000000000000000000000000000000000000000000000000000000000000000000000000000000000000000000000000000000000000000000000000000000000000000000000000000000000000000000000000000000000000000F500F5F5000000
310
0000000000F5000000000000000000000000000000000000000000000000000000000000000000000000000000000000000000000000000000000000000000000000000000000000000000000000000000000000000000000000F50000F500000000F5F5F5F5F5F5F5F5F5F5F5F5F5F5000000000000000000000000000000
310
0000000000000000000000000000000000000000000000000000000000000000000000000000000000000000000000000000000000000000000000000000000000000000000000000000000000000000000000000000000000000000000000000000000000000000000000000000000000000000000000000000F5F5000000
310
00000000000000F5000000000000000000000000000000000000000000000000000000000000000000000000000000000000000000000000000000000000000000000000000000000000000000000000000000000000000000000000F50000F500F5F5F5F5F5F5F5F5F5F5F5F5F5F5F5F5F5F5000000000000000000000000
310
00000000000000000000000000000000000000000000000000000000000000000000000000000000000000000000000000000000000000000000000000000000000000000000000000000000000000000000000000000000000000000000000000000000000000000000000000000000000000000000000000000000F5F500
310
0000F5F50000000000F5000000000000000000000000000000000000000000000000000000000000000000000000000000000000000000000000000000000000000000000000000000000000000000000000000000000000000000000000F50000F5000000F5F5F5F500F5F500F5F5F5F5F5F5F50000000000000000000000
310
000000000000000000000000000000000000000000000000000000000000000000000000000000000000000000000000000000000000000000000000000000000000000000000000000000000000000000000000000000000000000000000000000000000000000000000000000000000000000000000000000000000000F5
310
0000F5F5F5F5F500000000F5000000000000000000000000000000000000000000000000000000000000000000000000000000000000000000000000000000000000000000000000000000000000000000000000000000000000000000000000F50000F500000000F5F5F5F5F5F5F5F5F5F5F5F5F5F5000000000000000000
310
00000000000000000000000000000000000000000000000000000000000000000000000000000000000000000000000000000000000000000000000000000000000000000000000000000000000000F5F5F5F5F5F5F5F5F5F5F5F5F5F500000000000000000000000000000000000000000000F5F5F5F5F5F5F5F5F5F5F5F5
310
F5F5F5F5F5F5F5F5F5F5F5F5F5F5000000000000000000000000000000000000000000000000000000000000000000000000000000000000000000000000000000000000000000000000000000000000000000000000000000000000000000000000F50000F500000000000000000000000000F5F5F5F50000000000000000
310
00000000000000000000000000000000000000000000000000000000000000000000000000000000000000000000000000000000000000000000000000000000000000000000000000000000000000000000000000000000000000000000F500000000000000000000000000000000000000000000F5000000000000000000
310
00000000000000000000000000F500F50000000000000000000000000000000000000000000000000000000000000000000000000000000000000000000000000000000000000000000000000000000000000000000000000000000000000000F5F5F5F5F50000F5000000000000000000000000F500F5F5F5000000000000
310
000000000000000000000000000000000000000000000000000000000000000000000000000000000000000000000000000000000000000000000000000000000000000000000000000000000000000000000000000000000000000000000000F500000000000000000000000000000000000000000000F500000000000000
310
000000000000000000000000000000F500F50000000000000000000000000000000000000000000000000000000000000000000000000000000000000000000000000000000000000000000000000000000000000000000000000000000000000000F5F5F5F5000000F50000000000000000000000F50000F5F50000000000
310
00000000000000000000000000000000000000000000000000000000000000000000000000000000000000000000000000000000000000000000000000000000000000000000000000000000000000000000000000F5F5F5F5F5F5F5F5F5F5F5F5F5F500000000000000000000000000000000000000000000F5F5F5F5F5F5
310
F5F5F5F5F5F5F5F5F5F5F5F5F5F5F5F5F5F500F5000000000000000000000000000000000000000000000000000000000000000000000000000000000000000000000000000000000000000000000000000000000000000000000000F5F5F5F5F5F5F5F5F50000F5000000F50000000000000000000000F50000F5F5000000
310
00000000000000000000000000000000000000000000000000000000000000000000000000000000000000000000000000000000000000000000000000000000000000000000000000000000000000000000000000000000000000000000000000000000F500000000000000000000000000000000000000000000F5000000
310
00000000000000000000F5F5F5F5F5F5F5F5F5F500F5000000000000000000000000000000000000000000000000000000000000000000000000000000000000000000000000000000000000000000000000000000000000000000000000F5F5F5F5F5F5F5F5F50000F5000000F50000000000000000000000F50000F5F500
310
000000000000000000000000000000000000000000000000000000000000000000000000000000000000000000000000000000000000000000000000000000000000000000000000000000000000000000000000000000000000000000000000000000000000F500000000000000000000000000000000000000000000F500
310
000000000000000000000000F5F50000F5F5F5F5F5F5F5F5000000000000000000000000000000000000000000000000000000000000000000000000000000000000000000000000000000000000000000000000000000000000000000000000F5F5F5F5F5F5F5F5F50000F5000000F5000000000000000000000000F50000
310
0000000000000000000000000000000000000000000000000000000000000000000000000000000000000000000000000000000000000000000000000000000000000000000000000000000000000000000000000000000000000000000000000000000000000000F500000000000000000000000000000000000000000000
310
F500000000000000000000000000F5F50000F5F5F5F5F5F5F5F5000000000000000000000000000000000000000000000000000000000000000000000000000000000000000000000000000000000000000000000000000000000000000000000000F5F5F5F500000000F50000F5000000F500000000000000000000000000
310
F5F5000000F5F500000000000000000000000000F5F5000000000000000000000000000000000000000000000000000000000000000000000000000000000000000000000000000000000000000000000000000000000000000000000000000000000000000000000000F50000000000000000000000000000000000000000
310
0000F500000000000000000000000000F5F5000000F5F5F5F5F5F5F5000000000000000000000000000000000000000000000000000000000000000000000000000000000000000000000000000000000000000000000000000000000000000000000000F5F5F50000000000F50000F5000000F50000000000000000000000
310
000000F5000000F5F5F5F5F5F5F500F5F5F5F5F5F500F5F5000000000000000000000000000000000000000000000000000000000000000000000000000000000000000000000000000000000000000000000000000000000000000000000000000000000000000000000000F5000000000000000000000000000000000000
310
00000000F500000000000000000000000000F5F5000000F5F5F5F5F5F5F5000000000000000000000000000000000000000000000000000000000000000000000000000000000000000000000000000000000000000000000000000000000000000000000000F5F5F50000000000F50000F5000000F5000000000000000000
310
0000000000F5000000F500F5F5F5F5F500F5F5F5F5F5F50000F5000000000000000000000000000000000000000000000000000000000000000000000000000000000000000000000000000000000000000000000000000000000000000000000000000000000000000000000000F500000000000000000000000000000000
310
000000000000F500000000000000000000000000F5F5000000F5F5F5F5F5F5F5000000000000000000000000000000000000000000000000000000000000000000000000000000000000000000000000000000000000000000000000000000000000000000000000F5F5F50000000000F50000F5000000F500000000000000
310
00000000000000F5000000F50000F5F500F5F500F5F500F5F50000F5000000000000000000000000000000000000000000000000000000000000000000000000000000000000000000000000000000000000000000000000000000000000000000000000000000000000000000000000F50000000000000000000000000000
310
0000000000000000F500000000000000000000000000F5F5000000F5F5F5F5F5F5F5F50000000000000000000000000000000000000000000000000000000000000000000000000000000000000000000000000000000000000000000000000000000000000000000000F5F5F50000000000F50000F5000000F50000000000
310
000000000000000000F5000000F50000F5F500F5F500F5F5F5F5F5F500F5F50000000000000000000000000000000000000000000000000000000000000000000000000000000000000000000000000000000000000000000000000000000000000000000000000000000000000000000000F5000000000000000000000000
310
00000000000000000000F500000000000000000000000000F5F5000000F5F5F5F5F5F5F5F5F5F5F50000000000000000000000000000000000000000000000000000000000000000000000000000000000000000000000000000000000000000000000000000000000000000F5F5F5F5000000F5F50000F5000000F5000000
310
0000000000000000000000F5000000F5F50000F500F5F500F5F5F5F5F5F500F5F50000000000000000000000000000000000000000000000000000000000000000000000000000000000000000000000000000000000000000000000000000000000000000000000000000000000000000000000F500000000000000000000
310
000000000000000000000000F500000000000000000000000000F5F5000000F5F5F5F5F5F5F5000000F50000000000000000000000000000000000000000000000000000000000000000000000000000000000000000000000000000000000000000000000000000000000000000F5F5F5F5F5F5F5F5F50000F5000000F500
310
00000000000000000000000000F5000000F5F500F5F50000F5F5F5F5F5F5F5F500F5F50000000000000000000000000000000000000000000000000000000000000000000000000000000000000000000000000000000000000000000000000000000000000000000000000000000000000000000000F50000000000000000
310
0000000000000000000000000000F500000000000000000000000000F5F50000F5F5F5F5F5F5F5F5000000F50000000000000000000000000000000000000000000000000000000000000000000000000000000000000000000000000000000000000000000000000000000000000000F5F5F5F5F5F5F5F5F50000F50000F5
310
F5000000000000000000000000F500F5000000F5F5F5F5F500F5F5F5000000000000F5F5F50000000000000000000000000000000000000000000000000000000000000000000000000000000000000000000000000000000000000000000000000000000000000000000000000000000000000000000000F5000000000000
310
00000000000000000000000000000000F500000000000000000000000000F5F5F5F5F5F5F5F5F5F5F5F5000000F500000000000000000000000000000000000000000000000000000000000000000000000000000000000000000000000000000000000000000000000000000000000000000000000000000000F50000F500
310
F5F5F5000000000000000000000000F5F5F500000000000000000000000000000000000000000000000000000000000000000000000000000000000000000000000000000000000000000000000000000000000000000000000000000000000000000000000000000000000000F5F5F5F5F5F5F5F5F5F5F5F5F5F500000000
310
000000000000000000000000000000000000F5F5F5F5F5F5F5F5F5F5F5F5F5F5F5F5F5F5F5F5F5F5F5F500F5F5F5F50000000000000000000000000000000000000000000000000000000000000000000000000000000000000000000000000000000000000000000000000000000000000000000000000000000000F5F5F5
310
F50000F5F5F5F5F5F5F5F5F5F5F5F5F5F5F5F5F5F5F5F50000000000000000000000000000000000000000000000000000000000000000000000000000000000000000000000000000000000000000000000000000000000000000000000000000000000000000000000000000000000000000000000000000000000F50000
310
0000000000000000000000000000000000000000F500000000000000000000000000000000000000000000F500F5000000000000000000000000000000000000000000000000000000000000000000000000000000000000000000000000000000000000000000000000000000000000000000000000000000000000000000
310
0000F5000000F5F500000000000000000000000000F50000F5F5F5F5F5F5F5F500F5F5F500F5F5000000000000000000000000000000000000000000000000000000000000000000000000000000000000000000000000000000000000000000000000000000000000000000000000000000000000000000000000000000F5
310
00000000000000000000000000000000000000000000F500000000000000000000000000000000000000000000F500F500000000000000000000000000000000000000000000000000000000000000000000000000000000000000000000000000000000000000000000000000000000000000000000000000000000000000
310
00000000F5000000F5F5F5000000000000000000000000F5F50000F5F500F5F5F5F50000F5F500F5F50000000000000000000000000000000000000000000000000000000000000000000000000000000000000000000000000000000000000000000000000000000000000000000000000000000000000000000000000000
310
00F500000000000000000000000000000000000000000000F500000000000000000000000000000000000000000000F500F50000000000000000000000000000000000000000000000000000000000000000000000000000000000000000000000000000000000000000000000000000000000000000000000000000000000
310
000000000000F5000000F50000000000000000000000000000F5000000F5F500F5F500F5F500F5F500F5F50000000000000000000000000000000000000000000000000000000000000000000000000000000000000000000000000000000000000000000000000000000000000000000000000000F5F5F5F5F5F5F5F5F5F5
310
F5F5F5F500000000000000000000000000000000000000000000F5F5F5F5F5F5F5F5F5F5F5F5F5F5F5F5F5F5F5F5F5F5F5F5F5F5000000000000000000000000000000000000000000000000000000000000000000000000000000000000000000000000000000000000000000000000000000000000000000000000000000
310
0000000000000000F5000000F50000000000000000000000000000F500000000F50000F500F5F50000F500F5F500000000000000000000000000000000000000000000000000000000000000000000000000000000000000000000000000000000000000000000000000000000000000000000000000000000000000000000
310
0000000000000000000000000000000000000000000000000000000000000000000000000000000000F5000000F5F5F5F5000000000000000000000000000000000000000000000000000000000000000000000000000000000000000000000000000000000000000000000000000000000000000000000000000000000000
310
00000000000000000000F5000000F50000000000000000000000000000F5000000F5F500F5F50000F500F5F500F5F500F5F50000000000000000000000000000000000000000000000000000000000000000000000000000000000000000000000000000000000000000000000000000000000000000000000000000000000
310
00000000000000000000000000000000000000000000000000000000000000000000000000000000000000F5F5F5000000000000000000000000000000000000000000000000000000000000000000000000000000000000000000000000000000000000000000000000000000000000000000000000000000000000000000
310
000000000000000000000000F5000000F50000000000000000000000000000F5000000F5F500F5F50000F5F5F5F500F5F500F5F5F50000000000000000000000000000000000000000000000000000000000000000000000000000000000000000000000000000000000000000000000000000000000000000000000000000
310
0000000000000000000000000000000000000000000000000000000000000000000000000000000000000000000000F500000000000000000000000000000000000000000000000000000000000000000000000000000000000000000000000000000000000000000000000000000000000000000000000000000000000000
310
0000000000000000000000000000F5000000F50000000000000000000000000000F500000000F50000F5000000F500F50000F5F5F5F5F5000000000000000000000000000000000000000000000000000000000000000000000000000000000000000000000000000000000000000000000000000000000000000000000000
310
00000000000000000000000000000000000000000000000000000000000000000000000000000000000000000000000000F5F500000000000000000000000000000000000000000000000000000000000000000000000000000000000000000000000000000000000000000000000000000000000000000000000000000000
310
00000000000000000000000000000000F5000000F50000000000000000000000000000F500000000000000000000000000000000000000000000000000000000000000000000000000000000000000000000000000000000000000000000000000000000000000000000000000000000000000000000000000000000000000
310
00000000000000000000000000000000000000000000000000000000000000000000000000000000000000000000000000000000F5F500000000000000000000000000000000000000000000000000000000000000000000000000000000000000000000000000000000000000000000000000000000000000000000000000
310
000000000000000000000000000000000000F5000000F50000000000000000000000000000F50000000000000000000000000000000000000000000000000000000000000000000000000000000000000000000000000000000000000000000000000000000000000000000000000000000000000000000000000000000000
310
0000000000000000000000000000000000000000000000000000000000000000000000000000000000000000000000000000000000000000F5F5000000000000000000000000000000000000000000000000000000000000000000000000000000000000000000000000000000000000000000000000000000000000000000
310
0000000000000000000000000000000000000000F5000000F50000000000000000000000000000F5000000000000000000000000000000000000000000000000000000000000000000000000000000000000000000000000000000000000000000000000000000000000000000000000000000000000000000000000000000
310
000000000000000000000000000000000000000000000000000000000000000000000000000000000000000000000000000000000000000000000000F5000000000000000000000000000000000000000000000000000000000000000000000000000000000000000000000000000000000000000000000000000000000000
310
000000000000000000000000000000000000000000F5F5000000F50000000000000000000000000000F500000000000000000000000000000000000000000000000000000000000000000000000000000000000000000000000000000000000000000000000000000000000000000000000000000000000000000000000000
310
0000000000000000000000000000000000000000000000000000000000000000000000000000000000000000000000000000000000000000000000000000F5F5F5F5F5F5F5F5F5F5F5F5F5F5F5F5F5F5F5F5F5F5F5F5F5F5F5F5F5F5F5F5F5F5F5F5F5F5F5F5F5F5F5F5F5F5F5F5F5F5F5F5F5F5F5F5F5F5F5F5F5F5F5F5F5
310
F5F5F5F5F5F5F5F5F5F5F5F5F5F5F5F5F5F5F5F5F5F5F5F5F5F5F500F50000000000000000000000000000F50000000000000000000000000000000000000000000000000000000000000000000000000000000000000000000000000000000000000000000000000000000000000000000000000000000000000000000000
310
00000000000000000000000000000000000000000000000000000000000000000000000000000000000000000000000000000000000000000000000000000000000000000000000000000000000000000000000000000000000000000000000000000000000000000000000000000000000000000000000000000000000000
310
0000000000000000000000000000000000F5F5F5F5F5F5F5F5F5F5F5F500F50000000000000000000000000000F5000000000000000000000000000000000000000000000000000000000000000000000000000000000000000000000000000000000000000000000000000000000000000000000000000000000000000000
310
00000000000000000000000000000000000000000000000000000000000000000000000000000000000000000000000000000000000000000000000000000000000000000000000000000000000000000000000000000000000000000000000000000000000000000000000000000000000000000000000000000000000000
310
00000000000000000000000000000000000000F5F5F5F5F5F5F5F5F5F5F5F500F50000000000000000000000000000F500000000000000000000000000000000000000000000000000000000000000000000000000000000000000000000000000000000000000000000000000000000000000000000000000000000000000
310
00000000000000000000000000000000000000000000000000000000000000000000000000000000000000000000000000000000000000000000000000000000000000000000000000000000000000000000000000000000000000000000000000000000000000000000000000000000000000000000000000000000000000
310
000000000000000000000000000000000000000000F5F5F5F5000000F5F5F5F5F500F50000000000000000000000000000F50000000000000000000000000000000000000000000000000000000000000000000000000000000000000000000000000000000000000000000000000000000000000000000000000000000000
310
00000000000000000000000000000000000000000000000000000000000000000000000000000000000000000000000000000000000000000000000000000000000000000000000000000000000000000000000000000000000000000000000000000000000000000000000000000000000000000000000000000000000000
310
0000000000000000000000000000000000000000000000F5F5F5F5000000000000000000F50000000000000000000000000000F5000000000000000000000000000000000000000000000000000000000000000000000000000000000000000000000000000000000000000000000000000000000000000000000000000000
310
00000000000000000000000000000000000000000000000000000000000000000000000000000000000000000000000000000000000000000000000000000000000000000000000000000000000000000000000000000000000000000000000000000000000000000000000000000000000000000000000000000000000000
310
00000000000000000000000000000000000000000000000000F5F5F5F5F5F5F5F5F5F5F5F500F50000000000000000000000000000F500000000000000000000000000000000000000000000000000000000000000000000000000000000000000000000000000000000000000000000000000000000000000000000000000
310
00000000000000000000000000000000000000000000000000000000000000000000000000000000000000000000000000000000000000000000000000000000000000000000000000000000000000000000000000000000000000000000000000000000000000000000000000000000000000000000000000000000000000
310
000000000000000000000000000000000000000000000000000000F5F5F5F5F5F5F5F5F5F5F5F5F5F50000000000000000000000000000F50000000000000000000000000000000000000000000000000000000000000000000000000000000000000000000000000000000000000000000000000000000000000000000000
310
00000000000000000000000000000000000000000000000000000000000000000000000000000000000000000000000000000000000000000000000000000000000000000000000000000000000000000000000000000000000000000000000000000000000000000000000000000000000000000000000000000000000000
310
000000000000000000000000000000000000000000000000000000000000F5F5F5F5F5F5F5F5F5F5F5F5F50000000000000000000000000000F5000000000000000000000000000000000000000000000000000000000000000000000000000000000000000000000000000000000000000000000000000000000000000000
310
00000000000000000000000000000000000000000000000000000000000000000000000000000000000000000000000000000000000000000000000000000000000000000000000000000000000000000000000000000000000000000000000000000000000000000000000000000000000000000000000000000000000000
310
000000000000000000000000000000000000000000000000000000000000000000F5F5F5F5F5F5F5F5F5F5F5F50000000000000000000000000000F500000000000000000000000000000000000000000000000000000000000000000000000000000000000000000000000000000000000000000000000000000000000000
310
00000000000000000000000000000000000000000000000000000000000000000000000000000000000000000000000000000000000000000000000000000000000000000000000000000000000000000000000000000000000000000000000000000000000000000000000000000000000000000000000000000000000000
310
0000000000000000000000000000000000000000000000000000000000000000000000F5000000000000F5F5F5F5000000000000000000000000000000F50000000000000000000000000000000000000000000000000000000000000000000000000000000000000000000000000000000000000000000000000000000000
310
00000000000000000000000000000000000000000000000000000000000000000000000000000000000000000000000000000000000000000000000000000000000000000000000000000000000000000000000000000000000000000000000000000000000000000000000000000000000000000000000000000000000000
310
00000000000000000000000000000000000000000000000000000000000000000000000000F5000000000000F5F5F5F500000000000000000000000000F5F5F5000000000000000000000000000000000000000000000000000000000000000000000000000000000000000000000000000000000000000000000000000000
310
00000000000000000000000000000000000000000000000000000000000000000000000000000000000000000000000000000000000000000000000000000000000000000000000000000000000000000000000000000000000000000000000000000000000000000000000000000000000000000000000000000000000000
310
000000000000000000000000000000000000000000000000000000000000000000000000000000F5000000000000F5F5F5F5000000000000000000000000F5F5000000000000000000000000000000000000000000000000000000000000000000000000000000000000000000000000000000000000000000000000000000
310
000000000000000000000000000000000000000000000000000000000000
  0
XRECORD
  5
346
102
{ACAD_REACTORS
330
49
102
}
330
49
100
AcDbXrecord
280
     1
102
MATERIAL
148
0.0
149
0.0
149
0.0
 93
        0
 94
      127
282
     0
 72
     0
 77
     0
171
     0
175
     0
179
     0
273
     0
  0
XRECORD
  5
4A
102
{ACAD_REACTORS
330
49
102
}
330
49
100
AcDbXrecord
280
     1
270
     1
271
     1
  0
XRECORD
  5
4B
102
{ACAD_REACTORS
330
49
102
}
330
49
100
AcDbXrecord
280
     1
270
     1
271
     1
  0
XRECORD
  5
4C
102
{ACAD_REACTORS
330
49
102
}
330
49
100
AcDbXrecord
280
     1
270
     1
271
     1
  0
XRECORD
  5
4D
102
{ACAD_REACTORS
330
49
102
}
330
49
100
AcDbXrecord
280
     1
270
     1
271
     1
  0
XRECORD
  5
4E
102
{ACAD_REACTORS
330
49
102
}
330
49
100
AcDbXrecord
280
     1
270
     1
271
     1
  0
XRECORD
  5
4F
102
{ACAD_REACTORS
330
49
102
}
330
49
100
AcDbXrecord
280
     1
270
     1
271
     1
  0
XRECORD
  5
345
102
{ACAD_REACTORS
330
41
102
}
330
41
100
AcDbXrecord
280
     1
102
MATERIAL
148
0.0
149
0.0
149
0.0
 93
        0
 94
      127
282
     0
 72
     0
 77
     0
171
     0
175
     0
179
     0
273
     0
  0
XRECORD
  5
42
102
{ACAD_REACTORS
330
41
102
}
330
41
100
AcDbXrecord
280
     1
270
     1
271
     1
  0
XRECORD
  5
43
102
{ACAD_REACTORS
330
41
102
}
330
41
100
AcDbXrecord
280
     1
270
     1
271
     1
  0
XRECORD
  5
44
102
{ACAD_REACTORS
330
41
102
}
330
41
100
AcDbXrecord
280
     1
270
     1
271
     1
  0
XRECORD
  5
45
102
{ACAD_REACTORS
330
41
102
}
330
41
100
AcDbXrecord
280
     1
270
     1
271
     1
  0
XRECORD
  5
46
102
{ACAD_REACTORS
330
41
102
}
330
41
100
AcDbXrecord
280
     1
270
     1
271
     1
  0
XRECORD
  5
47
102
{ACAD_REACTORS
330
41
102
}
330
41
100
AcDbXrecord
280
     1
270
     1
271
     1
  0
XRECORD
  5
340
102
{ACAD_REACTORS
330
E
102
}
330
E
100
AcDbXrecord
280
     1
102
MATERIAL
148
0.0
149
0.0
149
0.0
 93
        0
 94
      127
282
     0
 72
     0
 77
     0
171
     0
175
     0
179
     0
273
     0
  0
XRECORD
  5
F
102
{ACAD_REACTORS
330
E
102
}
330
E
100
AcDbXrecord
280
     1
270
     1
271
     1
  0
XRECORD
  5
10
102
{ACAD_REACTORS
330
E
102
}
330
E
100
AcDbXrecord
280
     1
270
     1
271
     1
  0
XRECORD
  5
11
102
{ACAD_REACTORS
330
E
102
}
330
E
100
AcDbXrecord
280
     1
270
     1
271
     1
  0
XRECORD
  5
12
102
{ACAD_REACTORS
330
E
102
}
330
E
100
AcDbXrecord
280
     1
270
     1
271
     1
  0
XRECORD
  5
13
102
{ACAD_REACTORS
330
E
102
}
330
E
100
AcDbXrecord
280
     1
270
     1
271
     1
  0
XRECORD
  5
14
102
{ACAD_REACTORS
330
E
102
}
330
E
100
AcDbXrecord
280
     1
270
     1
271
     1
  0
CELLSTYLEMAP
  5
33E
102
{ACAD_REACTORS
330
56
102
}
330
56
100
AcDbCellStyleMap
 90
        3
300
CELLSTYLE
  1
TABLEFORMAT_BEGIN
 90
        5
170
     1
 91
        0
 92
    32768
 62
   257
 93
        1
300
CONTENTFORMAT
  1
CONTENTFORMAT_BEGIN
 90
        0
 91
        0
 92
        4
 93
        0
300

 40
0.0
140
1.0
 94
        5
 62
     0
340
26
144
0.25
309
CONTENTFORMAT_END
171
     0
 94
        6
 95
        1
302
GRIDFORMAT
  1
GRIDFORMAT_BEGIN
 90
        0
 91
        1
 62
     0
 92
       -2
340
0
 93
        0
 40
0.045
309
GRIDFORMAT_END
 95
        2
302
GRIDFORMAT
  1
GRIDFORMAT_BEGIN
 90
        0
 91
        1
 62
     0
 92
       -2
340
0
 93
        0
 40
0.045
309
GRIDFORMAT_END
 95
        4
302
GRIDFORMAT
  1
GRIDFORMAT_BEGIN
 90
        0
 91
        1
 62
     0
 92
       -2
340
0
 93
        0
 40
0.045
309
GRIDFORMAT_END
 95
        8
302
GRIDFORMAT
  1
GRIDFORMAT_BEGIN
 90
        0
 91
        1
 62
     0
 92
       -2
340
0
 93
        0
 40
0.045
309
GRIDFORMAT_END
 95
       16
302
GRIDFORMAT
  1
GRIDFORMAT_BEGIN
 90
        0
 91
        1
 62
     0
 92
       -2
340
0
 93
        0
 40
0.045
309
GRIDFORMAT_END
 95
       32
302
GRIDFORMAT
  1
GRIDFORMAT_BEGIN
 90
        0
 91
        1
 62
     0
 92
       -2
340
0
 93
        0
 40
0.045
309
GRIDFORMAT_END
309
TABLEFORMAT_END
  1
CELLSTYLE_BEGIN
 90
        1
 91
        1
300
_TITLE
309
CELLSTYLE_END
300
CELLSTYLE
  1
TABLEFORMAT_BEGIN
 90
        5
170
     1
 91
        0
 92
        0
 62
   257
 93
        1
300
CONTENTFORMAT
  1
CONTENTFORMAT_BEGIN
 90
        0
 91
        0
 92
        4
 93
        0
300

 40
0.0
140
1.0
 94
        5
 62
     0
340
26
144
0.18
309
CONTENTFORMAT_END
171
     0
 94
        6
 95
        1
302
GRIDFORMAT
  1
GRIDFORMAT_BEGIN
 90
        0
 91
        1
 62
     0
 92
       -2
340
0
 93
        0
 40
0.045
309
GRIDFORMAT_END
 95
        2
302
GRIDFORMAT
  1
GRIDFORMAT_BEGIN
 90
        0
 91
        1
 62
     0
 92
       -2
340
0
 93
        0
 40
0.045
309
GRIDFORMAT_END
 95
        4
302
GRIDFORMAT
  1
GRIDFORMAT_BEGIN
 90
        0
 91
        1
 62
     0
 92
       -2
340
0
 93
        0
 40
0.045
309
GRIDFORMAT_END
 95
        8
302
GRIDFORMAT
  1
GRIDFORMAT_BEGIN
 90
        0
 91
        1
 62
     0
 92
       -2
340
0
 93
        0
 40
0.045
309
GRIDFORMAT_END
 95
       16
302
GRIDFORMAT
  1
GRIDFORMAT_BEGIN
 90
        0
 91
        1
 62
     0
 92
       -2
340
0
 93
        0
 40
0.045
309
GRIDFORMAT_END
 95
       32
302
GRIDFORMAT
  1
GRIDFORMAT_BEGIN
 90
        0
 91
        1
 62
     0
 92
       -2
340
0
 93
        0
 40
0.045
309
GRIDFORMAT_END
309
TABLEFORMAT_END
  1
CELLSTYLE_BEGIN
 90
        2
 91
        1
300
_HEADER
309
CELLSTYLE_END
300
CELLSTYLE
  1
TABLEFORMAT_BEGIN
 90
        5
170
     1
 91
        0
 92
        0
 62
   257
 93
        1
300
CONTENTFORMAT
  1
CONTENTFORMAT_BEGIN
 90
        0
 91
        0
 92
        4
 93
        0
300

 40
0.0
140
1.0
 94
        2
 62
     0
340
26
144
0.18
309
CONTENTFORMAT_END
171
     0
 94
        6
 95
        1
302
GRIDFORMAT
  1
GRIDFORMAT_BEGIN
 90
        0
 91
        1
 62
     0
 92
       -2
340
0
 93
        0
 40
0.045
309
GRIDFORMAT_END
 95
        2
302
GRIDFORMAT
  1
GRIDFORMAT_BEGIN
 90
        0
 91
        1
 62
     0
 92
       -2
340
0
 93
        0
 40
0.045
309
GRIDFORMAT_END
 95
        4
302
GRIDFORMAT
  1
GRIDFORMAT_BEGIN
 90
        0
 91
        1
 62
     0
 92
       -2
340
0
 93
        0
 40
0.045
309
GRIDFORMAT_END
 95
        8
302
GRIDFORMAT
  1
GRIDFORMAT_BEGIN
 90
        0
 91
        1
 62
     0
 92
       -2
340
0
 93
        0
 40
0.045
309
GRIDFORMAT_END
 95
       16
302
GRIDFORMAT
  1
GRIDFORMAT_BEGIN
 90
        0
 91
        1
 62
     0
 92
       -2
340
0
 93
        0
 40
0.045
309
GRIDFORMAT_END
 95
       32
302
GRIDFORMAT
  1
GRIDFORMAT_BEGIN
 90
        0
 91
        1
 62
     0
 92
       -2
340
0
 93
        0
 40
0.045
309
GRIDFORMAT_END
309
TABLEFORMAT_END
  1
CELLSTYLE_BEGIN
 90
        3
 91
        2
300
_DATA
309
CELLSTYLE_END
  0
XRECORD
  5
347
102
{ACAD_REACTORS
330
56
102
}
330
56
100
AcDbXrecord
280
     1
102
ACAD_ROUNDTRIP_PRE2007_TABLESTYLE
 90
        4
 91
        0
  1

 92
        4
 93
        0
  2

 94
        4
 95
        0
  3

  0
XRECORD
  5
344
102
{ACAD_REACTORS
330
343
102
}
330
343
100
AcDbXrecord
280
     1
102
RTVSPropertyOp0
 70
     1
102
RTVSPropertyOp1
 70
     1
102
RTVSPropertyOp2
 70
     1
102
RTVSPropertyOp3
 70
     1
102
RTVSPropertyOp4
 70
     1
102
RTVSPropertyOp5
 70
     1
102
RTVSPropertyOp6
 70
     1
102
RTVSPropertyOp7
 70
     1
102
RTVSPropertyOp8
 70
     1
102
RTVSPropertyOp9
 70
     1
102
RTVSPropertyOp10
 70
     1
102
RTVSPropertyOp11
 70
     1
102
RTVSPropertyOp12
 70
     1
102
RTVSPropertyOp13
 70
     1
102
RTVSPropertyOp14
 70
     1
102
RTVSPropertyOp15
 70
     1
102
RTVSPropertyOp16
 70
     1
102
RTVSPropertyOp17
 70
     1
102
RTVSPropertyOp18
 70
     1
102
RTVSPropertyOp19
 70
     1
102
RTVSPropertyOp20
 70
     1
102
RTVSPropertyOp21
 70
     1
102
RTVSPropertyOp22
 70
     1
102
RTVSPropertyOp23
 70
     1
102
RTVSPropertyOp24
 70
     1
102
RTVSPropertyOp25
 70
     1
102
RTVSPropertyOp26
 70
     1
102
RTVSPropertyOp27
 70
     1
102
RTVSPropertyOp28
 70
     1
102
RTVSPropertyOp29
 70
     1
102
RTVSPropertyOp30
 70
     1
102
RTVSPropertyOp31
 70
     1
102
RTVSPropertyOp32
 70
     1
  0
XRECORD
  5
349
102
{ACAD_REACTORS
330
348
102
}
330
348
100
AcDbXrecord
280
     1
102
RTVSPropertyOp0
 70
     1
102
RTVSPropertyOp1
 70
     1
102
RTVSPropertyOp2
 70
     1
102
RTVSPropertyOp3
 70
     1
102
RTVSPropertyOp4
 70
     1
102
RTVSPropertyOp5
 70
     1
102
RTVSPropertyOp6
 70
     1
102
RTVSPropertyOp7
 70
     1
102
RTVSPropertyOp8
 70
     1
102
RTVSPropertyOp9
 70
     1
102
RTVSPropertyOp10
 70
     1
102
RTVSPropertyOp11
 70
     1
102
RTVSPropertyOp12
 70
     1
102
RTVSPropertyOp13
 70
     1
102
RTVSPropertyOp14
 70
     1
102
RTVSPropertyOp15
 70
     1
102
RTVSPropertyOp16
 70
     1
102
RTVSPropertyOp17
 70
     1
102
RTVSPropertyOp18
 70
     1
102
RTVSPropertyOp19
 70
     1
102
RTVSPropertyOp20
 70
     1
102
RTVSPropertyOp21
 70
     1
102
RTVSPropertyOp22
 70
     1
102
RTVSPropertyOp23
 70
     1
102
RTVSPropertyOp24
 70
     1
102
RTVSPropertyOp25
 70
     1
102
RTVSPropertyOp26
 70
     1
102
RTVSPropertyOp27
 70
     1
102
RTVSPropertyOp28
 70
     1
102
RTVSPropertyOp29
 70
     1
102
RTVSPropertyOp30
 70
     1
102
RTVSPropertyOp31
 70
     1
102
RTVSPropertyOp32
 70
     1
  0
XRECORD
  5
34B
102
{ACAD_REACTORS
330
34A
102
}
330
34A
100
AcDbXrecord
280
     1
102
RTVSPropertyOp0
 70
     1
102
RTVSPropertyOp1
 70
     1
102
RTVSPropertyOp2
 70
     1
102
RTVSPropertyOp3
 70
     1
102
RTVSPropertyOp4
 70
     1
102
RTVSPropertyOp5
 70
     1
102
RTVSPropertyOp6
 70
     1
102
RTVSPropertyOp7
 70
     1
102
RTVSPropertyOp8
 70
     1
102
RTVSPropertyOp9
 70
     1
102
RTVSPropertyOp10
 70
     1
102
RTVSPropertyOp11
 70
     1
102
RTVSPropertyOp12
 70
     1
102
RTVSPropertyOp13
 70
     1
102
RTVSPropertyOp14
 70
     1
102
RTVSPropertyOp15
 70
     1
102
RTVSPropertyOp16
 70
     1
102
RTVSPropertyOp17
 70
     1
102
RTVSPropertyOp18
 70
     1
102
RTVSPropertyOp19
 70
     1
102
RTVSPropertyOp20
 70
     1
102
RTVSPropertyOp21
 70
     1
102
RTVSPropertyOp22
 70
     1
102
RTVSPropertyOp23
 70
     1
102
RTVSPropertyOp24
 70
     1
102
RTVSPropertyOp25
 70
     1
102
RTVSPropertyOp26
 70
     1
102
RTVSPropertyOp27
 70
     1
102
RTVSPropertyOp28
 70
     1
102
RTVSPropertyOp29
 70
     1
102
RTVSPropertyOp30
 70
     1
102
RTVSPropertyOp31
 70
     1
102
RTVSPropertyOp32
 70
     1
  0
ENDSEC
  0
EOF
