  0
SECTION
  2
HEADER
  9
$ACADVER
  1
AC1015
  9
$ACADMAINTVER
 70
    18
  9
$DWGCODEPAGE
  3
ANSI_1252
  9
$INSBASE
 10
11.94693644182689
 20
12.08459580713673
 30
0.0
  9
$EXTMIN
 10
1.978809073100305
 20
0.7120321823637332
 30
0.0
  9
$EXTMAX
 10
18.47162021147518
 20
30.15352567784846
 30
0.0
  9
$LIMMIN
 10
0.0
 20
0.0
  9
$LIMMAX
 10
10000.0
 20
10000.0
  9
$ORTHOMODE
 70
     1
  9
$REGENMODE
 70
     1
  9
$FILLMODE
 70
     1
  9
$QTEXTMODE
 70
     0
  9
$MIRRTEXT
 70
     0
  9
$LTSCALE
 40
0.5
  9
$ATTMODE
 70
     1
  9
$TEXTSIZE
 40
0.25
  9
$TRACEWID
 40
0.05
  9
$TEXTSTYLE
  7
Standard
  9
$CLAYER
  8
0
  9
$CELTYPE
  6
ByLayer
  9
$CECOLOR
 62
   256
  9
$CELTSCALE
 40
1.0
  9
$DISPSILH
 70
     0
  9
$DIMSCALE
 40
0.0
  9
$DIMASZ
 40
0.156
  9
$DIMEXO
 40
0.04
  9
$DIMDLI
 40
0.38
  9
$DIMRND
 40
0.0
  9
$DIMDLE
 40
0.0
  9
$DIMEXE
 40
0.03
  9
$DIMTP
 40
0.0
  9
$DIMTM
 40
0.0
  9
$DIMTXT
 40
0.3125
  9
$DIMCEN
 40
0.0
  9
$DIMTSZ
 40
0.0
  9
$DIMTOL
 70
     0
  9
$DIMLIM
 70
     0
  9
$DIMTIH
 70
     1
  9
$DIMTOH
 70
     1
  9
$DIMSE1
 70
     0
  9
$DIMSE2
 70
     0
  9
$DIMTAD
 70
     0
  9
$DIMZIN
 70
     0
  9
$DIMBLK
  1
ArchTick
  9
$DIMASO
 70
     1
  9
$DIMSHO
 70
     1
  9
$DIMPOST
  1
\X
  9
$DIMAPOST
  1
mm
  9
$DIMALT
 70
     1
  9
$DIMALTD
 70
     0
  9
$DIMALTF
 40
25.4
  9
$DIMLFAC
 40
1.0
  9
$DIMTOFL
 70
     0
  9
$DIMTVP
 40
0.0
  9
$DIMTIX
 70
     0
  9
$DIMSOXD
 70
     0
  9
$DIMSAH
 70
     0
  9
$DIMBLK1
  1

  9
$DIMBLK2
  1

  9
$DIMSTYLE
  2
Knife
  9
$DIMCLRD
 70
     0
  9
$DIMCLRE
 70
     0
  9
$DIMCLRT
 70
     0
  9
$DIMTFAC
 40
1.0
  9
$DIMGAP
 40
0.04
  9
$DIMJUST
 70
     0
  9
$DIMSD1
 70
     0
  9
$DIMSD2
 70
     0
  9
$DIMTOLJ
 70
     1
  9
$DIMTZIN
 70
     0
  9
$DIMALTZ
 70
     0
  9
$DIMALTTZ
 70
     0
  9
$DIMUPT
 70
     0
  9
$DIMDEC
 70
     5
  9
$DIMTDEC
 70
     5
  9
$DIMALTU
 70
     2
  9
$DIMALTTD
 70
     0
  9
$DIMTXSTY
  7
Standard
  9
$DIMAUNIT
 70
     0
  9
$DIMADEC
 70
     1
  9
$DIMALTRND
 40
0.0
  9
$DIMAZIN
 70
     0
  9
$DIMDSEP
 70
    46
  9
$DIMATFIT
 70
     3
  9
$DIMFRAC
 70
     2
  9
$DIMLDRBLK
  1

  9
$DIMLUNIT
 70
     4
  9
$DIMLWD
 70
    -2
  9
$DIMLWE
 70
    -2
  9
$DIMTMOVE
 70
     0
  9
$LUNITS
 70
     2
  9
$LUPREC
 70
     4
  9
$SKETCHINC
 40
0.1
  9
$FILLETRAD
 40
0.0
  9
$AUNITS
 70
     0
  9
$AUPREC
 70
     0
  9
$MENU
  1
.
  9
$ELEVATION
 40
0.0
  9
$PELEVATION
 40
0.0
  9
$THICKNESS
 40
0.0
  9
$LIMCHECK
 70
     0
  9
$CHAMFERA
 40
0.0
  9
$CHAMFERB
 40
0.0
  9
$CHAMFERC
 40
0.0
  9
$CHAMFERD
 40
0.0
  9
$SKPOLY
 70
     0
  9
$TDCREATE
 40
2454538.540644179
  9
$TDUCREATE
 40
2454538.665644178
  9
$TDUPDATE
 40
2456112.639297049
  9
$TDUUPDATE
 40
2456112.764297049
  9
$TDINDWG
 40
0.3655963889
  9
$TDUSRTIMER
 40
0.3655963889
  9
$USRTIMER
 70
     1
  9
$ANGBASE
 50
0.0
  9
$ANGDIR
 70
     0
  9
$PDMODE
 70
     3
  9
$PDSIZE
 40
0.0
  9
$PLINEWID
 40
0.0
  9
$SPLFRAME
 70
     0
  9
$SPLINETYPE
 70
     6
  9
$SPLINESEGS
 70
    12
  9
$HANDSEED
  5
3B7
  9
$SURFTAB1
 70
     6
  9
$SURFTAB2
 70
     6
  9
$SURFTYPE
 70
     6
  9
$SURFU
 70
     6
  9
$SURFV
 70
     6
  9
$UCSBASE
  2

  9
$UCSNAME
  2

  9
$UCSORG
 10
0.0
 20
0.0
 30
0.0
  9
$UCSXDIR
 10
1.0
 20
0.0
 30
0.0
  9
$UCSYDIR
 10
0.0
 20
1.0
 30
0.0
  9
$UCSORTHOREF
  2

  9
$UCSORTHOVIEW
 70
     0
  9
$UCSORGTOP
 10
0.0
 20
0.0
 30
0.0
  9
$UCSORGBOTTOM
 10
0.0
 20
0.0
 30
0.0
  9
$UCSORGLEFT
 10
0.0
 20
0.0
 30
0.0
  9
$UCSORGRIGHT
 10
0.0
 20
0.0
 30
0.0
  9
$UCSORGFRONT
 10
0.0
 20
0.0
 30
0.0
  9
$UCSORGBACK
 10
0.0
 20
0.0
 30
0.0
  9
$PUCSBASE
  2

  9
$PUCSNAME
  2

  9
$PUCSORG
 10
0.0
 20
0.0
 30
0.0
  9
$PUCSXDIR
 10
1.0
 20
0.0
 30
0.0
  9
$PUCSYDIR
 10
0.0
 20
1.0
 30
0.0
  9
$PUCSORTHOREF
  2

  9
$PUCSORTHOVIEW
 70
     0
  9
$PUCSORGTOP
 10
0.0
 20
0.0
 30
0.0
  9
$PUCSORGBOTTOM
 10
0.0
 20
0.0
 30
0.0
  9
$PUCSORGLEFT
 10
0.0
 20
0.0
 30
0.0
  9
$PUCSORGRIGHT
 10
0.0
 20
0.0
 30
0.0
  9
$PUCSORGFRONT
 10
0.0
 20
0.0
 30
0.0
  9
$PUCSORGBACK
 10
0.0
 20
0.0
 30
0.0
  9
$USERI1
 70
     0
  9
$USERI2
 70
     0
  9
$USERI3
 70
     0
  9
$USERI4
 70
     0
  9
$USERI5
 70
     0
  9
$USERR1
 40
0.0
  9
$USERR2
 40
0.0
  9
$USERR3
 40
0.0
  9
$USERR4
 40
0.0
  9
$USERR5
 40
0.0
  9
$WORLDVIEW
 70
     1
  9
$SHADEDGE
 70
     3
  9
$SHADEDIF
 70
    70
  9
$TILEMODE
 70
     1
  9
$MAXACTVP
 70
    64
  9
$PINSBASE
 10
0.0
 20
0.0
 30
0.0
  9
$PLIMCHECK
 70
     0
  9
$PEXTMIN
 10
0.0000000075458644
 20
0.0000000082145277
 30
0.0
  9
$PEXTMAX
 10
8.454000007545857
 20
10.67400000821453
 30
0.0
  9
$PLIMMIN
 10
-0.0064249311656545
 20
-0.1631194818509899
  9
$PLIMMAX
 10
8.493574828538456
 20
10.83688027785312
  9
$UNITMODE
 70
     0
  9
$VISRETAIN
 70
     1
  9
$PLINEGEN
 70
     0
  9
$PSLTSCALE
 70
     1
  9
$TREEDEPTH
 70
  3020
  9
$CMLSTYLE
  2
Standard
  9
$CMLJUST
 70
     0
  9
$CMLSCALE
 40
1.0
  9
$PROXYGRAPHICS
 70
     1
  9
$MEASUREMENT
 70
     0
  9
$CELWEIGHT
370
    -1
  9
$ENDCAPS
280
     0
  9
$JOINSTYLE
280
     0
  9
$LWDISPLAY
290
     0
  9
$INSUNITS
 70
     1
  9
$HYPERLINKBASE
  1

  9
$STYLESHEET
  1

  9
$XEDIT
290
     1
  9
$CEPSNTYPE
380
     0
  9
$PSTYLEMODE
290
     1
  9
$FINGERPRINTGUID
  2
{D81D9685-23BD-4927-A520-6726E8E6AE41}
  9
$VERSIONGUID
  2
{D8C76B88-7B67-42F8-B425-A47DDDF1D56A}
  9
$EXTNAMES
290
     1
  9
$PSVPSCALE
 40
0.0
  9
$OLESTARTUP
290
     0
  0
ENDSEC
  0
SECTION
  2
CLASSES
  0
CLASS
  1
ACDBDICTIONARYWDFLT
  2
AcDbDictionaryWithDefault
  3
ObjectDBX Classes
 90
        0
280
     0
281
     0
  0
CLASS
  1
ACDBPLACEHOLDER
  2
AcDbPlaceHolder
  3
ObjectDBX Classes
 90
        0
280
     0
281
     0
  0
CLASS
  1
LAYOUT
  2
AcDbLayout
  3
ObjectDBX Classes
 90
        0
280
     0
281
     0
  0
CLASS
  1
DICTIONARYVAR
  2
AcDbDictionaryVar
  3
ObjectDBX Classes
 90
        0
280
     0
281
     0
  0
CLASS
  1
TABLESTYLE
  2
AcDbTableStyle
  3
ObjectDBX Classes
 90
     4095
280
     0
281
     0
  0
CLASS
  1
SORTENTSTABLE
  2
AcDbSortentsTable
  3
ObjectDBX Classes
 90
        0
280
     0
281
     0
  0
CLASS
  1
DIMASSOC
  2
AcDbDimAssoc
  3
"AcDbDimAssoc|Product Desc:     AcDim ARX App For Dimension|Company:          Autodesk, Inc.|WEB Address:      www.autodesk.com"
 90
        0
280
     0
281
     0
  0
CLASS
  1
MATERIAL
  2
AcDbMaterial
  3
ObjectDBX Classes
 90
     1153
280
     0
281
     0
  0
CLASS
  1
VISUALSTYLE
  2
AcDbVisualStyle
  3
ObjectDBX Classes
 90
     4095
280
     0
281
     0
  0
CLASS
  1
SCALE
  2
AcDbScale
  3
ObjectDBX Classes
 90
     1153
280
     0
281
     0
  0
CLASS
  1
MLEADERSTYLE
  2
AcDbMLeaderStyle
  3
ACDB_MLEADERSTYLE_CLASS
 90
    36863
280
     0
281
     0
  0
CLASS
  1
CELLSTYLEMAP
  2
AcDbCellStyleMap
  3
ObjectDBX Classes
 90
     1152
280
     0
281
     0
  0
ENDSEC
  0
SECTION
  2
TABLES
  0
TABLE
  2
VPORT
  5
2E
102
{ACAD_XDICTIONARY
360
33
102
}
330
0
100
AcDbSymbolTable
 70
     1
  0
VPORT
  5
2F
330
2E
100
AcDbSymbolTableRecord
100
AcDbViewportTableRecord
  2
*Active
 70
     0
 10
0.0
 20
0.0
 11
1.0
 21
1.0
 12
11.40793114591544
 22
14.89456549082408
 13
0.0
 23
0.0
 14
0.5
 24
0.5
 15
0.5
 25
0.5
 16
0.0
 26
0.0
 36
1.0
 17
0.0
 27
0.0
 37
0.0
 40
31.98682166563833
 41
2.183284457478005
 42
50.0
 43
0.0
 44
0.0
 50
0.0
 51
0.0
 71
     0
 72
  5000
 73
     1
 74
     3
 75
     0
 76
     0
 77
     0
 78
     0
281
     0
 65
     1
110
0.0
120
0.0
130
0.0
111
1.0
121
0.0
131
0.0
112
0.0
122
1.0
132
0.0
 79
     0
146
0.0
1001
ACAD_NAV_VCDISPLAY
1070
     3
  0
ENDTAB
  0
TABLE
  2
LTYPE
  5
29
330
0
100
AcDbSymbolTable
 70
     3
  0
LTYPE
  5
2A
330
29
100
AcDbSymbolTableRecord
100
AcDbLinetypeTableRecord
  2
ByBlock
 70
     0
  3

 72
    65
 73
     0
 40
0.0
  0
LTYPE
  5
2B
330
29
100
AcDbSymbolTableRecord
100
AcDbLinetypeTableRecord
  2
ByLayer
 70
     0
  3

 72
    65
 73
     0
 40
0.0
  0
LTYPE
  5
15
330
29
100
AcDbSymbolTableRecord
100
AcDbLinetypeTableRecord
  2
Continuous
 70
     0
  3
Solid line
 72
    65
 73
     0
 40
0.0
  0
LTYPE
  5
C6
330
29
100
AcDbSymbolTableRecord
100
AcDbLinetypeTableRecord
  2
CENTER
 70
     0
  3
____ _ ____ _ ____ _ ____ _ ____ _ ____ 
 72
    65
 73
     4
 40
2.0
 49
1.25
 74
     0
 49
-0.25
 74
     0
 49
0.25
 74
     0
 49
-0.25
 74
     0
  0
LTYPE
  5
143
330
29
100
AcDbSymbolTableRecord
100
AcDbLinetypeTableRecord
  2
HIDDEN2
 70
     0
  3
Hidden (.5x) _ _ _ _ _ _ _ _ _ _ _ _ _ _ _ _ _
 72
    65
 73
     2
 40
0.1875
 49
0.125
 74
     0
 49
-0.0625
 74
     0
  0
ENDTAB
  0
TABLE
  2
LAYER
  5
22
102
{ACAD_XDICTIONARY
360
23
102
}
330
0
100
AcDbSymbolTable
 70
     3
  0
LAYER
  5
6
102
{ACAD_XDICTIONARY
360
7
102
}
330
22
100
AcDbSymbolTableRecord
100
AcDbLayerTableRecord
  2
0
 70
     0
 62
     7
  6
Continuous
370
    18
390
9
  0
LAYER
  5
216
330
22
100
AcDbSymbolTableRecord
100
AcDbLayerTableRecord
  2
Defpoints
 70
     0
 62
     7
  6
Continuous
290
     0
370
    18
390
9
  0
LAYER
  5
7E
102
{ACAD_XDICTIONARY
360
7F
102
}
330
22
100
AcDbSymbolTableRecord
100
AcDbLayerTableRecord
  2
Screw
 70
     0
 62
     7
  6
Continuous
370
    18
390
9
  0
ENDTAB
  0
TABLE
  2
STYLE
  5
25
330
0
100
AcDbSymbolTable
 70
     1
  0
STYLE
  5
26
330
25
100
AcDbSymbolTableRecord
100
AcDbTextStyleTableRecord
  2
Standard
 70
     0
 40
0.0
 41
0.55
 50
5.0
 71
     0
 42
0.25
  3
lc______.ttf
  4

1001
ACAD
1000
Letter Gothic
1071
       50
  0
ENDTAB
  0
TABLE
  2
VIEW
  5
2C
330
0
100
AcDbSymbolTable
 70
     0
  0
ENDTAB
  0
TABLE
  2
UCS
  5
2D
330
0
100
AcDbSymbolTable
 70
     0
  0
ENDTAB
  0
TABLE
  2
APPID
  5
34
330
0
100
AcDbSymbolTable
 70
     5
  0
APPID
  5
27
330
34
100
AcDbSymbolTableRecord
100
AcDbRegAppTableRecord
  2
ACAD
 70
     0
  0
APPID
  5
1B
330
34
100
AcDbSymbolTableRecord
100
AcDbRegAppTableRecord
  2
ACAD_PSEXT
 70
     0
  0
APPID
  5
32
330
34
100
AcDbSymbolTableRecord
100
AcDbRegAppTableRecord
  2
ACAD_NAV_VCDISPLAY
 70
     0
  0
APPID
  5
11F
330
34
100
AcDbSymbolTableRecord
100
AcDbRegAppTableRecord
  2
GradientColor1ACI
 70
     0
  0
APPID
  5
120
330
34
100
AcDbSymbolTableRecord
100
AcDbRegAppTableRecord
  2
GradientColor2ACI
 70
     0
  0
ENDTAB
  0
TABLE
  2
DIMSTYLE
  5
35
330
0
100
AcDbSymbolTable
 70
     2
100
AcDbDimStyleTable
 71
     2
340
36
340
3B
  0
DIMSTYLE
105
3B
330
35
100
AcDbSymbolTableRecord
100
AcDbDimStyleTableRecord
  2
Standard
 70
     0
  3
"
 40
0.0
 41
0.095
 42
0.04
 44
0.04
140
0.125
141
0.0
147
0.04
179
     1
271
     6
272
     6
276
     2
277
     5
340
26
  0
DIMSTYLE
105
36
102
{ACAD_REACTORS
330
20B
330
21A
330
229
330
237
330
246
330
255
330
264
330
273
330
282
330
292
330
2A3
330
2EE
330
2B3
330
2C2
330
2D1
330
2E0
330
2FD
330
30E
330
31F
330
330
330
33E
330
34C
330
35C
330
36D
330
37E
330
38D
102
}
330
35
100
AcDbSymbolTableRecord
100
AcDbDimStyleTableRecord
  2
Knife
 70
     0
  3
\X
  4
mm
 40
0.0
 41
0.156
 42
0.04
 44
0.03
140
0.3125
141
0.0
147
0.04
170
     1
171
     0
179
     1
271
     5
272
     5
274
     0
276
     2
277
     4
340
26
342
37
  0
ENDTAB
  0
TABLE
  2
BLOCK_RECORD
  5
1
330
0
100
AcDbSymbolTable
 70
    30
  0
BLOCK_RECORD
  5
2
102
{ACAD_XDICTIONARY
360
3
102
}
330
1
100
AcDbSymbolTableRecord
100
AcDbBlockTableRecord
  2
*Model_Space
340
17
  0
BLOCK_RECORD
  5
1C
330
1
100
AcDbSymbolTableRecord
100
AcDbBlockTableRecord
  2
*Paper_Space
340
1F
  0
BLOCK_RECORD
  5
37
330
1
100
AcDbSymbolTableRecord
100
AcDbBlockTableRecord
  2
_ArchTick
340
0
102
{BLKREFS
331
212
331
213
331
221
331
222
331
230
331
231
331
23E
331
23F
331
24D
331
24E
331
25C
331
25D
331
26B
331
26C
331
27A
331
27B
331
28B
331
28C
331
29B
331
29C
331
2AC
331
2AD
331
2BA
331
2BB
331
2C9
331
2CA
331
2D8
331
2D9
331
2E7
331
2E8
331
2F5
331
2F6
331
306
331
307
331
318
331
319
331
328
331
329
331
337
331
338
331
345
331
346
331
354
331
355
331
365
331
366
331
376
331
377
331
385
331
386
331
396
331
397
102
}
  0
BLOCK_RECORD
  5
7B
330
1
100
AcDbSymbolTableRecord
100
AcDbBlockTableRecord
  2
8 x .75 FH
340
0
310
2800000020000000200000000100080000000000000400000000000000000000000000000000000000000000000080000080000000808000800000008000800080800000C0C0C000C0DCC000F0CAA6000020400000206000002080000020A0000020C0000020E00000400000004020000040400000406000004080000040A0
310
000040C0000040E00000600000006020000060400000606000006080000060A0000060C0000060E00000800000008020000080400000806000008080000080A0000080C0000080E00000A0000000A0200000A0400000A0600000A0800000A0A00000A0C00000A0E00000C0000000C0200000C0400000C0600000C0800000C0
310
A00000C0C00000C0E00000E0000000E0200000E0400000E0600000E0800000E0A00000E0C00000E0E00040000000400020004000400040006000400080004000A0004000C0004000E00040200000402020004020400040206000402080004020A0004020C0004020E000404000004040200040404000404060004040800040
310
40A0004040C0004040E00040600000406020004060400040606000406080004060A0004060C0004060E00040800000408020004080400040806000408080004080A0004080C0004080E00040A0000040A0200040A0400040A0600040A0800040A0A00040A0C00040A0E00040C0000040C0200040C0400040C0600040C08000
310
40C0A00040C0C00040C0E00040E0000040E0200040E0400040E0600040E0800040E0A00040E0C00040E0E00080000000800020008000400080006000800080008000A0008000C0008000E00080200000802020008020400080206000802080008020A0008020C0008020E00080400000804020008040400080406000804080
310
008040A0008040C0008040E00080600000806020008060400080606000806080008060A0008060C0008060E00080800000808020008080400080806000808080008080A0008080C0008080E00080A0000080A0200080A0400080A0600080A0800080A0A00080A0C00080A0E00080C0000080C0200080C0400080C0600080C0
310
800080C0A00080C0C00080C0E00080E0000080E0200080E0400080E0600080E0800080E0A00080E0C00080E0E000C0000000C0002000C0004000C0006000C0008000C000A000C000C000C000E000C0200000C0202000C0204000C0206000C0208000C020A000C020C000C020E000C0400000C0402000C0404000C0406000C0
310
408000C040A000C040C000C040E000C0600000C0602000C0604000C0606000C0608000C060A000C060C000C060E000C0800000C0802000C0804000C0806000C0808000C080A000C080C000C080E000C0A00000C0A02000C0A04000C0A06000C0A08000C0A0A000C0A0C000C0A0E000C0C00000C0C02000C0C04000C0C06000
310
C0C08000C0C0A000F0FBFF00A4A0A000808080000000FF0000FF000000FFFF00FF000000FF00FF00FFFF0000FFFFFF0007070707070707070707070707070707070707070707070707070707070707070707070707070707070707070707070700070707070707070707070707070707070707070707070707070707070707
310
07000707070707070707070707070707070707070707070707070707070707070700070707070707070707070707070707070707070707070707070707070707070007070707070707070707070707070707070707070707070707070707070000000707070707070707070707070707070707070707070707070707070707
310
07000000070707070707070707070707070707070707070707070707070707000007000007070707070707070707070707070707070707070707070707070707000000000007070707070707070707070707070707070707070707070707070700070000000707070707070707070707070707070707070707070707070707
310
00000000000707070707070707070707070707070707070707070707070707070700070000000707070707070707070707070707070707070707070707070707000000000007070707070707070707070707070707070707070707070707070707000700000007070707070707070707070707070707070707070707070707
310
07000000000007070707070707070707070707070707070707070707070707070707000700000007070707070707070707070707070707070707070707070707070000000000070707070707070707070707070707070707070707070707070707070007000000070707070707070707070707070707070707070707070707
310
07070000000000070707070707070707070707070707070707070707070707070707070007000000070707070707070707070707070707070707070707070707070707000700000707070707070707070707070707070707070707070707070707070000000000070707070707070707070707070707070707070707070707
310
07070707000700000007070707070707070707070707070707070707070707070707070700000000070707070707070707070707070707070707070707070707070707000707000700070707070707070707070707070707070707070707070707070007070700070700070707070707070707070707070707070707070707
310
07070007070707000707070007070707070707070707070707070707070707070700000000000000000000000007070707070707070707070707070707070707070000000000000000000000000707070707070707070707070707070707070707070707070707000707070707070707070707070707070707070707070707
310
0707070707070707000707070707070707070707070707070707070707070707070707070707070707070707070707070707070707070707
102
{BLKREFS
331
7A
331
14E
331
171
102
}
  0
BLOCK_RECORD
  5
C9
330
1
100
AcDbSymbolTableRecord
100
AcDbBlockTableRecord
  2
8 X .625 PH
340
0
310
2800000020000000200000000100080000000000000400000000000000000000000000000000000000000000000080000080000000808000800000008000800080800000C0C0C000C0DCC000F0CAA6000020400000206000002080000020A0000020C0000020E00000400000004020000040400000406000004080000040A0
310
000040C0000040E00000600000006020000060400000606000006080000060A0000060C0000060E00000800000008020000080400000806000008080000080A0000080C0000080E00000A0000000A0200000A0400000A0600000A0800000A0A00000A0C00000A0E00000C0000000C0200000C0400000C0600000C0800000C0
310
A00000C0C00000C0E00000E0000000E0200000E0400000E0600000E0800000E0A00000E0C00000E0E00040000000400020004000400040006000400080004000A0004000C0004000E00040200000402020004020400040206000402080004020A0004020C0004020E000404000004040200040404000404060004040800040
310
40A0004040C0004040E00040600000406020004060400040606000406080004060A0004060C0004060E00040800000408020004080400040806000408080004080A0004080C0004080E00040A0000040A0200040A0400040A0600040A0800040A0A00040A0C00040A0E00040C0000040C0200040C0400040C0600040C08000
310
40C0A00040C0C00040C0E00040E0000040E0200040E0400040E0600040E0800040E0A00040E0C00040E0E00080000000800020008000400080006000800080008000A0008000C0008000E00080200000802020008020400080206000802080008020A0008020C0008020E00080400000804020008040400080406000804080
310
008040A0008040C0008040E00080600000806020008060400080606000806080008060A0008060C0008060E00080800000808020008080400080806000808080008080A0008080C0008080E00080A0000080A0200080A0400080A0600080A0800080A0A00080A0C00080A0E00080C0000080C0200080C0400080C0600080C0
310
800080C0A00080C0C00080C0E00080E0000080E0200080E0400080E0600080E0800080E0A00080E0C00080E0E000C0000000C0002000C0004000C0006000C0008000C000A000C000C000C000E000C0200000C0202000C0204000C0206000C0208000C020A000C020C000C020E000C0400000C0402000C0404000C0406000C0
310
408000C040A000C040C000C040E000C0600000C0602000C0604000C0606000C0608000C060A000C060C000C060E000C0800000C0802000C0804000C0806000C0808000C080A000C080C000C080E000C0A00000C0A02000C0A04000C0A06000C0A08000C0A0A000C0A0C000C0A0E000C0C00000C0C02000C0C04000C0C06000
310
C0C08000C0C0A000F0FBFF00A4A0A000808080000000FF0000FF000000FFFF00FF000000FF00FF00FFFF0000FFFFFF0007070707070707070707070707070707070707070707070707070707070707070707070707070707070707070707070700070707070707070707070707070707070707070707070707070707070707
310
07000707070707070707070707070707070707070707070707070707070707070700070707070707070707070707070707070707070707070707070707070707070007070707070707070707070707070707070707070707070707070707070000000707070707070707070707070707070707070707070707070707070707
310
00000000070707070707070707070707070707070707070707070707070707070007000007070707070707070707070707070707070707070707070707070700000000000007070707070707070707070707070707070707070707070707070007070000000707070707070707070707070707070707070707070707070707
310
00000000070007070707070707070707070707070707070707070707070707070007070000000707070707070707070707070707070707070707070707070707000000000700070707070707070707070707070707070707070707070707070700070700000007070707070707070707070707070707070707070707070707
310
07000000000700070707070707070707070707070707070707070707070707070700070700000007070707070707070707070707070707070707070707070707070007070007000707070707070707070707070707070707070707070707070707000000000700070707070707070707070707070707070707070707070707
310
07070007070000000707070707070707070707070707070707070707070707070707000000000700070707070707070707070707070707070707070707070707070700070700000007070707070707070707070707070707070707070707070707070000000007000707070707070707070707070707070707070707070707
310
07070700070700000007070707070707070707070707070707070707070707070707070000000007000707070707070707070707070707070707070707070707070000000000000000000007070707070707070707070707070707070707070700070707070700070707070007070707070707070707070707070707070707
310
07000000000000000000000000070707070707070707070707070707070707070707000007070700070700000707070707070707070707070707070707070707070707070000000000000707070707070707070707070707070707070707070707070707070707000707070707070707070707070707070707070707070707
310
0707070707070707000707070707070707070707070707070707070707070707070707070707070707070707070707070707070707070707
102
{BLKREFS
331
C8
331
14F
331
172
102
}
  0
BLOCK_RECORD
  5
19A
330
1
100
AcDbSymbolTableRecord
100
AcDbBlockTableRecord
  2
8 X 1.5 FH
340
0
310
2800000020000000200000000100080000000000000400000000000000000000000000000000000000000000000080000080000000808000800000008000800080800000C0C0C000C0DCC000F0CAA6000020400000206000002080000020A0000020C0000020E00000400000004020000040400000406000004080000040A0
310
000040C0000040E00000600000006020000060400000606000006080000060A0000060C0000060E00000800000008020000080400000806000008080000080A0000080C0000080E00000A0000000A0200000A0400000A0600000A0800000A0A00000A0C00000A0E00000C0000000C0200000C0400000C0600000C0800000C0
310
A00000C0C00000C0E00000E0000000E0200000E0400000E0600000E0800000E0A00000E0C00000E0E00040000000400020004000400040006000400080004000A0004000C0004000E00040200000402020004020400040206000402080004020A0004020C0004020E000404000004040200040404000404060004040800040
310
40A0004040C0004040E00040600000406020004060400040606000406080004060A0004060C0004060E00040800000408020004080400040806000408080004080A0004080C0004080E00040A0000040A0200040A0400040A0600040A0800040A0A00040A0C00040A0E00040C0000040C0200040C0400040C0600040C08000
310
40C0A00040C0C00040C0E00040E0000040E0200040E0400040E0600040E0800040E0A00040E0C00040E0E00080000000800020008000400080006000800080008000A0008000C0008000E00080200000802020008020400080206000802080008020A0008020C0008020E00080400000804020008040400080406000804080
310
008040A0008040C0008040E00080600000806020008060400080606000806080008060A0008060C0008060E00080800000808020008080400080806000808080008080A0008080C0008080E00080A0000080A0200080A0400080A0600080A0800080A0A00080A0C00080A0E00080C0000080C0200080C0400080C0600080C0
310
800080C0A00080C0C00080C0E00080E0000080E0200080E0400080E0600080E0800080E0A00080E0C00080E0E000C0000000C0002000C0004000C0006000C0008000C000A000C000C000C000E000C0200000C0202000C0204000C0206000C0208000C020A000C020C000C020E000C0400000C0402000C0404000C0406000C0
310
408000C040A000C040C000C040E000C0600000C0602000C0604000C0606000C0608000C060A000C060C000C060E000C0800000C0802000C0804000C0806000C0808000C080A000C080C000C080E000C0A00000C0A02000C0A04000C0A06000C0A08000C0A0A000C0A0C000C0A0E000C0C00000C0C02000C0C04000C0C06000
310
C0C08000C0C0A000F0FBFF00A4A0A000808080000000FF0000FF000000FFFF00FF000000FF00FF00FFFF0000FFFFFF0007070707070707070707070707070707070707070707070707070707070707070707070707070707070707070707070700070707070707070707070707070707070707070707070707070707070707
310
07000707070707070707070707070707070707070707070707070707070707070000070707070707070707070707070707070707070707070707070707070707000007070707070707070707070707070707070707070707070707070707070000000007070707070707070707070707070707070707070707070707070707
310
00000000070707070707070707070707070707070707070707070707070707070000000007070707070707070707070707070707070707070707070707070707000000000707070707070707070707070707070707070707070707070707070700000000070707070707070707070707070707070707070707070707070707
310
07000000000707070707070707070707070707070707070707070707070707070700070000070707070707070707070707070707070707070707070707070707070000000007070707070707070707070707070707070707070707070707070707000000000707070707070707070707070707070707070707070707070707
310
07070000000007070707070707070707070707070707070707070707070707070707000000000707070707070707070707070707070707070707070707070707070700000000070707070707070707070707070707070707070707070707070707070000000007070707070707070707070707070707070707070707070707
310
07070700070000070707070707070707070707070707070707070707070707070707070007000007070707070707070707070707070707070707070707070707070707000700000707070707070707070707070707070707070707070707070707070700070000070707070707070707070707070707070707070707070707
310
07070707000700000707070707070707070707070707070707070707070707070707070700070000070707070707070707070707070707070707070707070707070707070007000007070707070707070707070707070707070707070707070707070707000700000707070707070707070707070707070707070707070707
310
07070707070000000007070707070707070707070707070707070707070707070707070707000700070007070707070707070707070707070707070707070707070707070000000000000707070707070707070707070707070707070707070707070707000000000000070707070707070707070707070707070707070707
310
0707070707070707000707070707070707070707070707070707070707070707070707070707070707070707070707070707070707070707
102
{BLKREFS
331
199
331
208
331
20A
102
}
  0
BLOCK_RECORD
  5
21B
330
1
100
AcDbSymbolTableRecord
100
AcDbBlockTableRecord
  2
*D4
340
0
  0
BLOCK_RECORD
  5
22A
330
1
100
AcDbSymbolTableRecord
100
AcDbBlockTableRecord
  2
*D5
340
0
  0
BLOCK_RECORD
  5
247
330
1
100
AcDbSymbolTableRecord
100
AcDbBlockTableRecord
  2
*D6
340
0
  0
BLOCK_RECORD
  5
20C
330
1
100
AcDbSymbolTableRecord
100
AcDbBlockTableRecord
  2
*D7
340
0
  0
BLOCK_RECORD
  5
238
330
1
100
AcDbSymbolTableRecord
100
AcDbBlockTableRecord
  2
*D8
340
0
  0
BLOCK_RECORD
  5
256
330
1
100
AcDbSymbolTableRecord
100
AcDbBlockTableRecord
  2
*D9
340
0
  0
BLOCK_RECORD
  5
265
330
1
100
AcDbSymbolTableRecord
100
AcDbBlockTableRecord
  2
*D10
340
0
  0
BLOCK_RECORD
  5
274
330
1
100
AcDbSymbolTableRecord
100
AcDbBlockTableRecord
  2
*D11
340
0
  0
BLOCK_RECORD
  5
285
330
1
100
AcDbSymbolTableRecord
100
AcDbBlockTableRecord
  2
*D12
340
0
  0
BLOCK_RECORD
  5
295
330
1
100
AcDbSymbolTableRecord
100
AcDbBlockTableRecord
  2
*D13
340
0
  0
BLOCK_RECORD
  5
2A6
330
1
100
AcDbSymbolTableRecord
100
AcDbBlockTableRecord
  2
*D14
340
0
  0
BLOCK_RECORD
  5
2EF
330
1
100
AcDbSymbolTableRecord
100
AcDbBlockTableRecord
  2
*D15
340
0
  0
BLOCK_RECORD
  5
2B4
330
1
100
AcDbSymbolTableRecord
100
AcDbBlockTableRecord
  2
*D16
340
0
  0
BLOCK_RECORD
  5
2C3
330
1
100
AcDbSymbolTableRecord
100
AcDbBlockTableRecord
  2
*D17
340
0
  0
BLOCK_RECORD
  5
2D2
330
1
100
AcDbSymbolTableRecord
100
AcDbBlockTableRecord
  2
*D18
340
0
  0
BLOCK_RECORD
  5
2E1
330
1
100
AcDbSymbolTableRecord
100
AcDbBlockTableRecord
  2
*D19
340
0
  0
BLOCK_RECORD
  5
300
330
1
100
AcDbSymbolTableRecord
100
AcDbBlockTableRecord
  2
*D20
340
0
  0
BLOCK_RECORD
  5
311
330
1
100
AcDbSymbolTableRecord
100
AcDbBlockTableRecord
  2
*D21
340
0
  0
BLOCK_RECORD
  5
322
330
1
100
AcDbSymbolTableRecord
100
AcDbBlockTableRecord
  2
*D22
340
0
  0
BLOCK_RECORD
  5
33F
330
1
100
AcDbSymbolTableRecord
100
AcDbBlockTableRecord
  2
*D23
340
0
  0
BLOCK_RECORD
  5
34D
330
1
100
AcDbSymbolTableRecord
100
AcDbBlockTableRecord
  2
*D24
340
0
  0
BLOCK_RECORD
  5
331
330
1
100
AcDbSymbolTableRecord
100
AcDbBlockTableRecord
  2
*D25
340
0
  0
BLOCK_RECORD
  5
35F
330
1
100
AcDbSymbolTableRecord
100
AcDbBlockTableRecord
  2
*D26
340
0
  0
BLOCK_RECORD
  5
370
330
1
100
AcDbSymbolTableRecord
100
AcDbBlockTableRecord
  2
*D27
340
0
  0
BLOCK_RECORD
  5
37F
330
1
100
AcDbSymbolTableRecord
100
AcDbBlockTableRecord
  2
*D28
340
0
  0
BLOCK_RECORD
  5
390
330
1
100
AcDbSymbolTableRecord
100
AcDbBlockTableRecord
  2
*D29
340
0
  0
ENDTAB
  0
ENDSEC
  0
SECTION
  2
BLOCKS
  0
BLOCK
  5
5
330
2
100
AcDbEntity
  8
0
100
AcDbBlockBegin
  2
*Model_Space
 70
     0
 10
0.0
 20
0.0
 30
0.0
  3
*Model_Space
  1

  0
ENDBLK
  5
16
330
2
100
AcDbEntity
  8
0
100
AcDbBlockEnd
  0
BLOCK
  5
1D
330
1C
100
AcDbEntity
 67
     1
  8
0
100
AcDbBlockBegin
  2
*Paper_Space
 70
     0
 10
0.0
 20
0.0
 30
0.0
  3
*Paper_Space
  1

  0
ENDBLK
  5
1E
330
1C
100
AcDbEntity
 67
     1
  8
0
100
AcDbBlockEnd
  0
BLOCK
  5
38
330
37
100
AcDbEntity
  8
0
100
AcDbBlockBegin
  2
_ArchTick
 70
     0
 10
0.0
 20
0.0
 30
0.0
  3
_ArchTick
  1

  0
LWPOLYLINE
  5
39
330
37
100
AcDbEntity
  8
0
  6
ByBlock
 62
     0
100
AcDbPolyline
 90
        2
 70
     0
 43
0.15
 10
-0.5
 20
-0.5
 10
0.5
 20
0.5
  0
ENDBLK
  5
3A
330
37
100
AcDbEntity
  8
0
100
AcDbBlockEnd
  0
BLOCK
  5
7C
330
7B
100
AcDbEntity
  8
0
 62
     7
370
     9
100
AcDbBlockBegin
  2
8 x .75 FH
 70
     0
 10
0.0
 20
0.0
 30
0.0
  3
8 x .75 FH
  1

  0
LINE
  5
7D
330
7B
100
AcDbEntity
  8
Screw
 62
     7
370
     9
100
AcDbLine
 10
0.0550146141445112
 20
-0.6503624430697528
 30
0.0
 11
-0.040994238129656
 21
-0.6842106249981726
 31
0.0
  0
LINE
  5
80
330
7B
100
AcDbEntity
  8
Screw
 62
     7
370
     9
100
AcDbLine
 10
0.082499999998845
 20
-0.5862344890166469
 30
0.0
 11
-0.0718750000007731
 21
-0.6184212499980504
 31
0.0
  0
LINE
  5
81
330
7B
100
AcDbEntity
  8
Screw
 62
     7
370
     9
100
AcDbLine
 10
0.0439236020391718
 20
-0.6439590442452073
 30
0.0
 11
0.0490410471671794
 21
-0.6316044388123601
 31
0.0
  0
LINE
  5
82
330
7B
100
AcDbEntity
  8
Screw
 62
     7
370
     9
100
AcDbLine
 10
0.029903226022725
 20
-0.6778072261735133
 30
0.0
 11
0.0229311243443817
 21
-0.6946393686034753
 31
0.0
  0
LINE
  5
83
330
7B
100
AcDbEntity
  8
Screw
 62
     7
370
     9
100
AcDbLine
 10
0.0578546239828484
 20
-0.6103265821309379
 30
0.0
 11
0.0490410471671794
 21
-0.6316044388123601
 31
0.0
  0
LINE
  5
84
330
7B
100
AcDbEntity
  8
Screw
 62
     7
370
     9
100
AcDbLine
 10
-0.0000000000006821
 20
-0.749999999998181
 30
0.0
 11
-0.0229311243459733
 21
-0.6946393686034753
 31
0.0
  0
LINE
  5
85
330
7B
100
AcDbEntity
  8
Screw
 62
     7
370
     9
100
AcDbLine
 10
-0.0718750000007731
 20
-0.6184212499980504
 30
0.0
 11
-0.0600000000014234
 21
-0.6115652155518774
 31
0.0
  0
LINE
  5
86
330
7B
100
AcDbEntity
  8
Screw
 62
     7
370
     9
100
AcDbLine
 10
-0.0718750000007731
 20
-0.6184212499981641
 30
0.0
 11
-0.0490410471686573
 21
-0.6316044388123601
 31
0.0
  0
LINE
  5
87
330
7B
100
AcDbEntity
  8
Screw
 62
     7
370
     9
100
AcDbLine
 10
-0.040994238129656
 20
-0.6842106249981726
 30
0.0
 11
-0.0299032260242029
 21
-0.6778072261735133
 31
0.0
  0
LINE
  5
88
330
7B
100
AcDbEntity
  8
Screw
 62
     7
370
     9
100
AcDbLine
 10
-0.040994238129656
 20
-0.6842106249981726
 30
0.0
 11
-0.0229311243459733
 21
-0.6946393686034753
 31
0.0
  0
LINE
  5
89
330
7B
100
AcDbEntity
  8
Screw
 62
     7
370
     9
100
AcDbLine
 10
-0.0299032260242029
 20
-0.6778072261735133
 30
0.0
 11
-0.0490410471686573
 21
-0.6316044388123601
 31
0.0
  0
LINE
  5
8A
330
7B
100
AcDbEntity
  8
Screw
 62
     7
370
     9
100
AcDbLine
 10
0.029903226022725
 20
-0.6778072261735133
 30
0.0
 11
0.0369515003608285
 21
-0.6607911866751693
 31
0.0
  0
LINE
  5
8B
330
7B
100
AcDbEntity
  8
Screw
 62
     7
370
     9
100
AcDbLine
 10
0.0578546239828484
 20
-0.6103265821309379
 30
0.0
 11
0.0632241464040817
 21
-0.5973634082783974
 31
0.0
  0
LINE
  5
8C
330
7B
100
AcDbEntity
  8
Screw
 62
     7
370
     9
100
AcDbLine
 10
0.0550146141445112
 20
-0.6503624430697528
 30
0.0
 11
0.0369515003608285
 21
-0.6607911866751693
 31
0.0
  0
LINE
  5
8D
330
7B
100
AcDbEntity
  8
Screw
 62
     7
370
     9
100
AcDbLine
 10
0.0550146141445112
 20
-0.6503624430697528
 30
0.0
 11
0.0439236020391718
 21
-0.6439590442452073
 31
0.0
  0
LINE
  5
8E
330
7B
100
AcDbEntity
  8
Screw
 62
     7
370
     9
100
AcDbLine
 10
0.0824999999986176
 20
-0.5862344890166469
 30
0.0
 11
0.063224146403968
 21
-0.5973634082782838
 31
0.0
  0
LINE
  5
8F
330
7B
100
AcDbEntity
  8
Screw
 62
     7
370
     9
100
AcDbLine
 10
0.0824999999986176
 20
-0.5862344890166469
 30
0.0
 11
0.0684796239821708
 21
-0.5781398211494207
 31
0.0
  0
LINE
  5
90
330
7B
100
AcDbEntity
  8
Screw
 62
     7
370
     9
100
AcDbLine
 10
-0.0000000000006821
 20
-0.749999999998181
 30
0.0
 11
0.0229311243443817
 21
-0.6946393686034753
 31
0.0
  0
LINE
  5
91
330
7B
100
AcDbEntity
  8
Screw
 62
     7
370
     9
100
AcDbLine
 10
0.0599999999988086
 20
-0.4018567450733599
 30
0.0
 11
0.0599999999988086
 21
-0.4416653579600052
 31
0.0
  0
LINE
  5
92
330
7B
100
AcDbEntity
  8
Screw
 62
     7
370
     9
100
AcDbLine
 10
0.0824999999987313
 20
-0.3888663640167351
 30
0.0
 11
0.0599999999988086
 21
-0.4018567450733599
 31
0.0
  0
LINE
  5
93
330
7B
100
AcDbEntity
  8
Screw
 62
     7
370
     9
100
AcDbLine
 10
0.0599999999988086
 20
-0.4676461200734821
 30
0.0
 11
0.0599999999988086
 21
-0.5074547329599
 31
0.0
  0
LINE
  5
94
330
7B
100
AcDbEntity
  8
Screw
 62
     7
370
     9
100
AcDbLine
 10
0.0824999999987313
 20
-0.5204451140167521
 30
0.0
 11
0.0599999999988086
 21
-0.5334354950734906
 31
0.0
  0
LINE
  5
95
330
7B
100
AcDbEntity
  8
Screw
 62
     7
370
     9
100
AcDbLine
 10
0.0824999999987313
 20
-0.5204451140167521
 30
0.0
 11
0.0599999999986949
 21
-0.5074547329599
 31
0.0
  0
LINE
  5
96
330
7B
100
AcDbEntity
  8
Screw
 62
     7
370
     9
100
AcDbLine
 10
0.0824999999987313
 20
-0.45465573901663
 30
0.0
 11
0.0599999999988086
 21
-0.4676461200734821
 31
0.0
  0
LINE
  5
97
330
7B
100
AcDbEntity
  8
Screw
 62
     7
370
     9
100
AcDbLine
 10
0.0824999999987313
 20
-0.45465573901663
 30
0.0
 11
0.0599999999988086
 21
-0.4416653579600052
 31
0.0
  0
LINE
  5
98
330
7B
100
AcDbEntity
  8
Screw
 62
     7
370
     9
100
AcDbLine
 10
0.0824999999987313
 20
-0.3888663640167351
 30
0.0
 11
-0.0825000000013461
 21
-0.4176219848775418
 31
0.0
  0
LINE
  5
99
330
7B
100
AcDbEntity
  8
Screw
 62
     7
370
     9
100
AcDbLine
 10
0.0824999999987313
 20
-0.5204451140167521
 30
0.0
 11
-0.0825000000013461
 21
-0.5492007348775588
 31
0.0
  0
LINE
  5
9A
330
7B
100
AcDbEntity
  8
Screw
 62
     7
370
     9
100
AcDbLine
 10
0.0824999999987313
 20
-0.45465573901663
 30
0.0
 11
-0.0825000000013461
 21
-0.4834113598775503
 31
0.0
  0
LINE
  5
9B
330
7B
100
AcDbEntity
  8
Screw
 62
     7
370
     9
100
AcDbLine
 10
0.0824999999987313
 20
-0.3888663640167351
 30
0.0
 11
0.0599999999988086
 21
-0.3758759829599967
 31
0.0
  0
LINE
  5
9C
330
7B
100
AcDbEntity
  8
Screw
 62
     7
370
     9
100
AcDbLine
 10
0.0824999999987313
 20
-0.5862344890167606
 30
0.0
 11
0.0599999999986949
 21
-0.5732441079599085
 31
0.0
  0
LINE
  5
9D
330
7B
100
AcDbEntity
  8
Screw
 62
     7
370
     9
100
AcDbLine
 10
0.0599999999988086
 20
-0.5334354950734906
 30
0.0
 11
0.0599999999988086
 21
-0.5732441079599085
 31
0.0
  0
LINE
  5
9E
330
7B
100
AcDbEntity
  8
Screw
 62
     7
370
     9
100
AcDbLine
 10
-0.0825000000012324
 20
-0.4834113598774366
 30
0.0
 11
-0.0600000000013097
 21
-0.4704209788208118
 31
0.0
  0
LINE
  5
9F
330
7B
100
AcDbEntity
  8
Screw
 62
     7
370
     9
100
AcDbLine
 10
-0.0825000000012324
 20
-0.483411359877664
 30
0.0
 11
-0.0600000000013097
 21
-0.4964017409342887
 31
0.0
  0
LINE
  5
A0
330
7B
100
AcDbEntity
  8
Screw
 62
     7
370
     9
100
AcDbLine
 10
-0.0825000000012324
 20
-0.5492007348775588
 30
0.0
 11
-0.0600000000013097
 21
-0.5362103538207066
 31
0.0
  0
LINE
  5
A1
330
7B
100
AcDbEntity
  8
Screw
 62
     7
370
     9
100
AcDbLine
 10
-0.0825000000012324
 20
-0.5492007348775588
 30
0.0
 11
-0.0600000000013097
 21
-0.5621911159342972
 31
0.0
  0
LINE
  5
A2
330
7B
100
AcDbEntity
  8
Screw
 62
     7
370
     9
100
AcDbLine
 10
-0.0825000000012324
 20
-0.4176219848775418
 30
0.0
 11
-0.0600000000013097
 21
-0.4306123659343939
 31
0.0
  0
LINE
  5
A3
330
7B
100
AcDbEntity
  8
Screw
 62
     7
370
     9
100
AcDbLine
 10
-0.0825000000012324
 20
-0.4176219848775418
 30
0.0
 11
-0.0600000000013097
 21
-0.4046316038208034
 31
0.0
  0
LINE
  5
A4
330
7B
100
AcDbEntity
  8
Screw
 62
     7
370
     9
100
AcDbLine
 10
-0.0600000000013097
 20
-0.5621911159342972
 30
0.0
 11
-0.0600000000013097
 21
-0.6115652155519911
 31
0.0
  0
LINE
  5
A5
330
7B
100
AcDbEntity
  8
Screw
 62
     7
370
     9
100
AcDbLine
 10
-0.0600000000013097
 20
-0.496401740934175
 30
0.0
 11
-0.0600000000013097
 21
-0.5362103538205929
 31
0.0
  0
LINE
  5
A6
330
7B
100
AcDbEntity
  8
Screw
 62
     7
370
     9
100
AcDbLine
 10
-0.0600000000013097
 20
-0.4306123659340529
 30
0.0
 11
-0.0600000000013097
 21
-0.4704209788206981
 31
0.0
  0
LINE
  5
A7
330
7B
100
AcDbEntity
  8
Screw
 62
     7
370
     9
100
AcDbLine
 10
0.0824999999987313
 20
-0.2572876140167182
 30
0.0
 11
0.0599999999988086
 21
-0.2442972329599797
 31
0.0
  0
LINE
  5
A8
330
7B
100
AcDbEntity
  8
Screw
 62
     7
370
     9
100
AcDbLine
 10
0.0824999999987313
 20
-0.323076989016613
 30
0.0
 11
-0.0825000000013461
 21
-0.3518326098775333
 31
0.0
  0
LINE
  5
A9
330
7B
100
AcDbEntity
  8
Screw
 62
     7
370
     9
100
AcDbLine
 10
0.0824999999987313
 20
-0.2572876140167182
 30
0.0
 11
-0.0825000000013461
 21
-0.2860432348775248
 31
0.0
  0
LINE
  5
AA
330
7B
100
AcDbEntity
  8
Screw
 62
     7
370
     9
100
AcDbLine
 10
0.0824999999987313
 20
-0.323076989016613
 30
0.0
 11
0.0599999999988086
 21
-0.3100866079599882
 31
0.0
  0
LINE
  5
AB
330
7B
100
AcDbEntity
  8
Screw
 62
     7
370
     9
100
AcDbLine
 10
0.0824999999987313
 20
-0.323076989016613
 30
0.0
 11
0.0599999999988086
 21
-0.3360673700734651
 31
0.0
  0
LINE
  5
AC
330
7B
100
AcDbEntity
  8
Screw
 62
     7
370
     9
100
AcDbLine
 10
0.0599999999988086
 20
-0.3360673700734651
 30
0.0
 11
0.0599999999988086
 21
-0.375875982959883
 31
0.0
  0
LINE
  5
AD
330
7B
100
AcDbEntity
  8
Screw
 62
     7
370
     9
100
AcDbLine
 10
0.0824999999987313
 20
-0.2572876140167182
 30
0.0
 11
0.0599999999988086
 21
-0.2702779950733429
 31
0.0
  0
LINE
  5
AE
330
7B
100
AcDbEntity
  8
Screw
 62
     7
370
     9
100
AcDbLine
 10
0.0599999999988086
 20
-0.2702779950733429
 30
0.0
 11
0.0599999999988086
 21
-0.3100866079599882
 31
0.0
  0
LINE
  5
AF
330
7B
100
AcDbEntity
  8
Screw
 62
     7
370
     9
100
AcDbLine
 10
-0.0600000000013097
 20
-0.2990336159340359
 30
0.0
 11
-0.0600000000013097
 21
-0.3388422288206812
 31
0.0
  0
LINE
  5
B0
330
7B
100
AcDbEntity
  8
Screw
 62
     7
370
     9
100
AcDbLine
 10
-0.0600000000013097
 20
-0.364822990934158
 30
0.0
 11
-0.0600000000013097
 21
-0.404631603820576
 31
0.0
  0
LINE
  5
B1
330
7B
100
AcDbEntity
  8
Screw
 62
     7
370
     9
100
AcDbLine
 10
-0.0825000000012324
 20
-0.2860432348775248
 30
0.0
 11
-0.0600000000013097
 21
-0.2730528538207864
 31
0.0
  0
LINE
  5
B2
330
7B
100
AcDbEntity
  8
Screw
 62
     7
370
     9
100
AcDbLine
 10
-0.0825000000012324
 20
-0.2860432348775248
 30
0.0
 11
-0.0600000000013097
 21
-0.2990336159343769
 31
0.0
  0
LINE
  5
B3
330
7B
100
AcDbEntity
  8
Screw
 62
     7
370
     9
100
AcDbLine
 10
-0.0825000000012324
 20
-0.351832609877647
 30
0.0
 11
-0.0600000000013097
 21
-0.3648229909342717
 31
0.0
  0
LINE
  5
B4
330
7B
100
AcDbEntity
  8
Screw
 62
     7
370
     9
100
AcDbLine
 10
-0.0825000000012324
 20
-0.3518326098774196
 30
0.0
 11
-0.0600000000013097
 21
-0.3388422288207948
 31
0.0
  0
LINE
  5
B5
330
7B
100
AcDbEntity
  8
Screw
 62
     7
370
     9
100
AcDbLine
 10
0.0599999999988086
 20
-0.2044886200734481
 30
0.0
 11
0.0599999999988086
 21
-0.244297232959866
 31
0.0
  0
LINE
  5
B6
330
7B
100
AcDbEntity
  8
Screw
 62
     7
370
     9
100
AcDbLine
 10
-0.0600000000013097
 20
-0.2332442409341411
 30
0.0
 11
-0.0600000000013097
 21
-0.273052853820559
 31
0.0
  0
LINE
  5
B7
330
7B
100
AcDbEntity
  8
Screw
 62
     7
370
     9
100
AcDbLine
 10
-0.0600000000013097
 20
-0.1430000000002565
 30
0.0
 11
-0.0600000000013097
 21
-0.2072634788206642
 31
0.0
  0
LINE
  5
B8
330
7B
100
AcDbEntity
  8
Screw
 62
     7
370
     9
100
AcDbLine
 10
-0.0825000000012324
 20
-0.22025385987763
 30
0.0
 11
-0.0600000000013097
 21
-0.2332442409342548
 31
0.0
  0
LINE
  5
B9
330
7B
100
AcDbEntity
  8
Screw
 62
     7
370
     9
100
AcDbLine
 10
-0.0825000000012324
 20
-0.2202538598774026
 30
0.0
 11
-0.0600000000013097
 21
-0.2072634788207779
 31
0.0
  0
LINE
  5
BA
330
7B
100
AcDbEntity
  8
Screw
 62
     7
370
     9
100
AcDbLine
 10
0.0824999999987313
 20
-0.191498239016596
 30
0.0
 11
-0.0825000000013461
 21
-0.2202538598775163
 31
0.0
  0
LINE
  5
BB
330
7B
100
AcDbEntity
  8
Screw
 62
     7
370
     9
100
AcDbLine
 10
0.0824999999987313
 20
-0.191498239016596
 30
0.0
 11
0.0599999999988086
 21
-0.1785078579599713
 31
0.0
  0
LINE
  5
BC
330
7B
100
AcDbEntity
  8
Screw
 62
     7
370
     9
100
AcDbLine
 10
0.0824999999987313
 20
-0.191498239016596
 30
0.0
 11
0.0599999999988086
 21
-0.2044886200734481
 31
0.0
  0
LINE
  5
BD
330
7B
100
AcDbEntity
  8
Screw
 62
     7
370
     9
100
AcDbLine
 10
0.0599999999989223
 20
-0.1430000000002565
 30
0.0
 11
0.0599999999988086
 21
-0.1785078579599713
 31
0.0
  0
LINE
  5
BE
330
7B
100
AcDbEntity
  8
Screw
 62
     7
370
     9
100
AcDbLine
 10
-0.1550000000002001
 20
0.0000000000001137
 30
0.0
 11
-0.1550000000020191
 21
-0.015999999999849
 31
0.0
  0
LINE
  5
BF
330
7B
100
AcDbEntity
  8
Screw
 62
     7
370
     9
100
AcDbLine
 10
0.1549999999986085
 20
0.0
 30
0.0
 11
0.1549999999986085
 21
-0.0159999999999627
 31
0.0
  0
LINE
  5
C0
330
7B
100
AcDbEntity
  8
Screw
 62
     7
370
     9
100
AcDbLine
 10
0.1549999999987222
 20
-0.0160000000006448
 30
0.0
 11
-0.155000000001337
 21
-0.0159999999999627
 31
0.0
  0
LINE
  5
C1
330
7B
100
AcDbEntity
  8
Screw
 62
     7
370
     9
100
AcDbLine
 10
0.1549999999987222
 20
0.0
 30
0.0
 11
-0.155000000001337
 21
0.0
 31
0.0
  0
LINE
  5
C2
330
7B
100
AcDbEntity
  8
Screw
 62
     7
370
     9
100
AcDbLine
 10
0.0599999999989223
 20
-0.1430000000000291
 30
0.0
 11
-0.0600000000013097
 21
-0.1430000000000291
 31
0.0
  0
LINE
  5
C3
330
7B
100
AcDbEntity
  8
Screw
 62
     7
370
     9
100
AcDbLine
 10
0.1549999999986085
 20
-0.0160000000006448
 30
0.0
 11
0.0599999999988086
 21
-0.1430000000001428
 31
0.0
  0
LINE
  5
C4
330
7B
100
AcDbEntity
  8
Screw
 62
     7
370
     9
100
AcDbLine
 10
-0.1550000000020191
 20
-0.0159999999999627
 30
0.0
 11
-0.0600000000013097
 21
-0.1430000000001428
 31
0.0
  0
LINE
  5
C5
330
7B
100
AcDbEntity
  8
Screw
  6
CENTER
 62
     7
370
     9
100
AcDbLine
 10
0.0
 20
0.0516137131638743
 30
0.0
 11
0.0
 21
-0.8012116686045374
 31
0.0
  0
ENDBLK
  5
C7
330
7B
100
AcDbEntity
  8
0
 62
     7
370
     9
100
AcDbBlockEnd
  0
BLOCK
  5
CA
330
C9
100
AcDbEntity
  8
0
 62
     5
100
AcDbBlockBegin
  2
8 X .625 PH
 70
     0
 10
0.0
 20
0.0
 30
0.0
  3
8 X .625 PH
  1

  0
LINE
  5
CB
330
C9
100
AcDbEntity
  8
Screw
  6
CENTER
 62
     7
370
     9
100
AcDbLine
 10
0.0
 20
0.1516137131640107
 30
0.0
 11
-0.0000000000001137
 21
-0.6762116686043101
 31
0.0
  0
LINE
  5
CC
330
C9
100
AcDbEntity
  8
Screw
 62
     7
370
     9
100
AcDbLine
 10
0.1549999999987222
 20
0.0400000000003047
 30
0.0
 11
0.1549999999986085
 21
0.0100000000001046
 31
0.0
  0
LINE
  5
CD
330
C9
100
AcDbEntity
  8
Screw
 62
     7
370
     9
100
AcDbLine
 10
-0.1550000000386262
 20
0.0400000000013279
 30
0.0
 11
-0.1550000000420368
 21
0.0100000000010141
 31
0.0
  0
LINE
  5
CE
330
C9
100
AcDbEntity
  8
Screw
 62
     7
370
     9
100
AcDbLine
 10
0.0599999999986949
 20
-0.0136992450730986
 30
0.0
 11
0.0599999999986949
 21
-0.0535078579597439
 31
0.0
  0
LINE
  5
CF
330
C9
100
AcDbEntity
  8
Screw
 62
     7
370
     9
100
AcDbLine
 10
0.0824999999986176
 20
-0.0007088640164739
 30
0.0
 11
0.0599999999986949
 21
-0.0136992450730986
 31
0.0
  0
LINE
  5
D0
330
C9
100
AcDbEntity
  8
Screw
 62
     7
370
     9
100
AcDbLine
 10
0.0824999999986176
 20
-0.0664982390163687
 30
0.0
 11
0.0599999999986949
 21
-0.0794886200732208
 31
0.0
  0
LINE
  5
D1
330
C9
100
AcDbEntity
  8
Screw
 62
     7
370
     9
100
AcDbLine
 10
0.0824999999986176
 20
-0.0664982390163687
 30
0.0
 11
0.0599999999986949
 21
-0.0535078579597439
 31
0.0
  0
LINE
  5
D2
330
C9
100
AcDbEntity
  8
Screw
 62
     7
370
     9
100
AcDbLine
 10
0.0824999999986176
 20
-0.0007088640164739
 30
0.0
 11
-0.0825000000014598
 21
-0.0294644848772805
 31
0.0
  0
LINE
  5
D3
330
C9
100
AcDbEntity
  8
Screw
 62
     7
370
     9
100
AcDbLine
 10
0.0824999999986176
 20
-0.0664982390163687
 30
0.0
 11
-0.0825000000014598
 21
-0.095253859877289
 31
0.0
  0
LINE
  5
D4
330
C9
100
AcDbEntity
  8
Screw
 62
     7
370
     9
100
AcDbLine
 10
0.0824999999986176
 20
-0.0007088640164739
 30
0.0
 11
0.0812722115064162
 21
0.0000000000001137
 31
0.0
  0
LINE
  5
D5
330
C9
100
AcDbEntity
  8
Screw
 62
     7
370
     9
100
AcDbLine
 10
-0.0825000000013461
 20
-0.0952538598771753
 30
0.0
 11
-0.0600000000014234
 21
-0.0822634788205505
 31
0.0
  0
LINE
  5
D6
330
C9
100
AcDbEntity
  8
Screw
 62
     7
370
     9
100
AcDbLine
 10
-0.0825000000013461
 20
-0.0952538598774027
 30
0.0
 11
-0.0600000000014234
 21
-0.1082442409340274
 31
0.0
  0
LINE
  5
D7
330
C9
100
AcDbEntity
  8
Screw
 62
     7
370
     9
100
AcDbLine
 10
-0.0825000000013461
 20
-0.0294644848772805
 30
0.0
 11
-0.0600000000014234
 21
-0.0424548659341326
 31
0.0
  0
LINE
  5
D8
330
C9
100
AcDbEntity
  8
Screw
 62
     7
370
     9
100
AcDbLine
 10
-0.0825000000013461
 20
-0.0294644848772805
 30
0.0
 11
-0.0600000000014234
 21
-0.0164741038205421
 31
0.0
  0
LINE
  5
D9
330
C9
100
AcDbEntity
  8
Screw
 62
     7
370
     9
100
AcDbLine
 10
-0.0600000000014234
 20
-0.0424548659337916
 30
0.0
 11
-0.0600000000014234
 21
-0.0822634788204369
 31
0.0
  0
LINE
  5
DA
330
C9
100
AcDbEntity
  8
Screw
 62
     7
370
     9
100
AcDbLine
 10
-0.0600000000015371
 20
0.0
 30
0.0
 11
-0.0600000000014234
 21
-0.0164741038203147
 31
0.0
  0
LINE
  5
DB
330
C9
100
AcDbEntity
  8
Screw
 62
     7
370
     9
100
AcDbLine
 10
-0.0600000000014234
 20
-0.1082442409339137
 30
0.0
 11
-0.0600000000014234
 21
-0.1480528538203316
 31
0.0
  0
LINE
  5
DC
330
C9
100
AcDbEntity
  8
Screw
 62
     7
370
     9
100
AcDbLine
 10
0.0599999999986949
 20
-0.0794886200732208
 30
0.0
 11
0.0599999999986949
 21
-0.1192972329596387
 31
0.0
  0
LINE
  5
DD
330
C9
100
AcDbEntity
  8
Screw
 62
     7
370
     9
100
AcDbLine
 10
-0.0825000000013461
 20
-0.2268326098771922
 30
0.0
 11
-0.0600000000014234
 21
-0.2138422288205675
 31
0.0
  0
LINE
  5
DE
330
C9
100
AcDbEntity
  8
Screw
 62
     7
370
     9
100
AcDbLine
 10
-0.0825000000013461
 20
-0.2268326098774196
 30
0.0
 11
-0.0600000000014234
 21
-0.2398229909340443
 31
0.0
  0
LINE
  5
DF
330
C9
100
AcDbEntity
  8
Screw
 62
     7
370
     9
100
AcDbLine
 10
-0.0825000000013461
 20
-0.1610432348772974
 30
0.0
 11
-0.0600000000014234
 21
-0.1740336159341496
 31
0.0
  0
LINE
  5
E0
330
C9
100
AcDbEntity
  8
Screw
 62
     7
370
     9
100
AcDbLine
 10
-0.0825000000013461
 20
-0.1610432348772974
 30
0.0
 11
-0.0600000000014234
 21
-0.148052853820559
 31
0.0
  0
LINE
  5
E1
330
C9
100
AcDbEntity
  8
Screw
 62
     7
370
     9
100
AcDbLine
 10
-0.0600000000014234
 20
-0.2398229909339307
 30
0.0
 11
-0.0600000000014234
 21
-0.2796316038203486
 31
0.0
  0
LINE
  5
E2
330
C9
100
AcDbEntity
  8
Screw
 62
     7
370
     9
100
AcDbLine
 10
-0.0600000000014234
 20
-0.1740336159338085
 30
0.0
 11
-0.0600000000014234
 21
-0.2138422288204538
 31
0.0
  0
LINE
  5
E3
330
C9
100
AcDbEntity
  8
Screw
 62
     7
370
     9
100
AcDbLine
 10
0.0599999999986949
 20
-0.1452779950731156
 30
0.0
 11
0.0599999999986949
 21
-0.1850866079597608
 31
0.0
  0
LINE
  5
E4
330
C9
100
AcDbEntity
  8
Screw
 62
     7
370
     9
100
AcDbLine
 10
0.0824999999986176
 20
-0.1322876140164908
 30
0.0
 11
0.0599999999986949
 21
-0.1452779950731156
 31
0.0
  0
LINE
  5
E5
330
C9
100
AcDbEntity
  8
Screw
 62
     7
370
     9
100
AcDbLine
 10
0.0599999999986949
 20
-0.2110673700732377
 30
0.0
 11
0.0599999999986949
 21
-0.2508759829596556
 31
0.0
  0
LINE
  5
E6
330
C9
100
AcDbEntity
  8
Screw
 62
     7
370
     9
100
AcDbLine
 10
0.0824999999986176
 20
-0.1980769890163856
 30
0.0
 11
0.0599999999986949
 21
-0.2110673700732377
 31
0.0
  0
LINE
  5
E7
330
C9
100
AcDbEntity
  8
Screw
 62
     7
370
     9
100
AcDbLine
 10
0.0824999999986176
 20
-0.1980769890163856
 30
0.0
 11
0.0599999999986949
 21
-0.1850866079597608
 31
0.0
  0
LINE
  5
E8
330
C9
100
AcDbEntity
  8
Screw
 62
     7
370
     9
100
AcDbLine
 10
0.0824999999986176
 20
-0.1322876140164908
 30
0.0
 11
-0.0825000000014598
 21
-0.1610432348772974
 31
0.0
  0
LINE
  5
E9
330
C9
100
AcDbEntity
  8
Screw
 62
     7
370
     9
100
AcDbLine
 10
0.0824999999986176
 20
-0.1980769890163856
 30
0.0
 11
-0.0825000000014598
 21
-0.2268326098773059
 31
0.0
  0
LINE
  5
EA
330
C9
100
AcDbEntity
  8
Screw
 62
     7
370
     9
100
AcDbLine
 10
0.0824999999986176
 20
-0.1322876140164908
 30
0.0
 11
0.0599999999986949
 21
-0.1192972329597524
 31
0.0
  0
LINE
  5
EB
330
C9
100
AcDbEntity
  8
Screw
 62
     7
370
     9
100
AcDbLine
 10
-0.0600000000014234
 20
-0.3056123659338255
 30
0.0
 11
-0.0600000000014234
 21
-0.3454209788204707
 31
0.0
  0
LINE
  5
EC
330
C9
100
AcDbEntity
  8
Screw
 62
     7
370
     9
100
AcDbLine
 10
-0.0600000000014234
 20
-0.3714017409339476
 30
0.0
 11
-0.0600000000014234
 21
-0.4112103538203656
 31
0.0
  0
LINE
  5
ED
330
C9
100
AcDbEntity
  8
Screw
 62
     7
370
     9
100
AcDbLine
 10
-0.0600000000014234
 20
-0.4371911159340698
 30
0.0
 11
-0.0600000000014234
 21
-0.4865652155517637
 31
0.0
  0
LINE
  5
EE
330
C9
100
AcDbEntity
  8
Screw
 62
     7
370
     9
100
AcDbLine
 10
-0.0825000000013461
 20
-0.2926219848773144
 30
0.0
 11
-0.0600000000014234
 21
-0.2796316038205759
 31
0.0
  0
LINE
  5
EF
330
C9
100
AcDbEntity
  8
Screw
 62
     7
370
     9
100
AcDbLine
 10
-0.0825000000013461
 20
-0.2926219848773144
 30
0.0
 11
-0.0600000000014234
 21
-0.3056123659341665
 31
0.0
  0
LINE
  5
F0
330
C9
100
AcDbEntity
  8
Screw
 62
     7
370
     9
100
AcDbLine
 10
-0.0825000000013461
 20
-0.4242007348773314
 30
0.0
 11
-0.0600000000014234
 21
-0.4371911159340698
 31
0.0
  0
LINE
  5
F1
330
C9
100
AcDbEntity
  8
Screw
 62
     7
370
     9
100
AcDbLine
 10
-0.0825000000013461
 20
-0.4242007348773314
 30
0.0
 11
-0.0600000000014234
 21
-0.4112103538204793
 31
0.0
  0
LINE
  5
F2
330
C9
100
AcDbEntity
  8
Screw
 62
     7
370
     9
100
AcDbLine
 10
-0.0825000000013461
 20
-0.3584113598774365
 30
0.0
 11
-0.0600000000014234
 21
-0.3714017409340613
 31
0.0
  0
LINE
  5
F3
330
C9
100
AcDbEntity
  8
Screw
 62
     7
370
     9
100
AcDbLine
 10
-0.0825000000013461
 20
-0.3584113598772092
 30
0.0
 11
-0.0600000000014234
 21
-0.3454209788205844
 31
0.0
  0
LINE
  5
F4
330
C9
100
AcDbEntity
  8
Screw
 62
     7
370
     9
100
AcDbLine
 10
0.0599999999986949
 20
-0.4084354950732632
 30
0.0
 11
0.0599999999986949
 21
-0.4482441079596811
 31
0.0
  0
LINE
  5
F5
330
C9
100
AcDbEntity
  8
Screw
 62
     7
370
     9
100
AcDbLine
 10
0.0824999999986176
 20
-0.4612344890165332
 30
0.0
 11
0.0599999999985812
 21
-0.4482441079596811
 31
0.0
  0
LINE
  5
F6
330
C9
100
AcDbEntity
  8
Screw
 62
     7
370
     9
100
AcDbLine
 10
0.0824999999986176
 20
-0.2638663640165078
 30
0.0
 11
0.0599999999986949
 21
-0.2508759829597693
 31
0.0
  0
LINE
  5
F7
330
C9
100
AcDbEntity
  8
Screw
 62
     7
370
     9
100
AcDbLine
 10
0.0824999999986176
 20
-0.3296557390164025
 30
0.0
 11
-0.0825000000014598
 21
-0.3584113598773229
 31
0.0
  0
LINE
  5
F8
330
C9
100
AcDbEntity
  8
Screw
 62
     7
370
     9
100
AcDbLine
 10
0.0824999999986176
 20
-0.3954451140165247
 30
0.0
 11
-0.0825000000014598
 21
-0.4242007348773314
 31
0.0
  0
LINE
  5
F9
330
C9
100
AcDbEntity
  8
Screw
 62
     7
370
     9
100
AcDbLine
 10
0.0824999999986176
 20
-0.2638663640165078
 30
0.0
 11
-0.0825000000014598
 21
-0.2926219848773144
 31
0.0
  0
LINE
  5
FA
330
C9
100
AcDbEntity
  8
Screw
 62
     7
370
     9
100
AcDbLine
 10
0.0824999999986176
 20
-0.3296557390164025
 30
0.0
 11
0.0599999999986949
 21
-0.3166653579597778
 31
0.0
  0
LINE
  5
FB
330
C9
100
AcDbEntity
  8
Screw
 62
     7
370
     9
100
AcDbLine
 10
0.0824999999986176
 20
-0.3296557390164025
 30
0.0
 11
0.0599999999986949
 21
-0.3426461200732547
 31
0.0
  0
LINE
  5
FC
330
C9
100
AcDbEntity
  8
Screw
 62
     7
370
     9
100
AcDbLine
 10
0.0824999999986176
 20
-0.3954451140165247
 30
0.0
 11
0.0599999999985812
 21
-0.3824547329596726
 31
0.0
  0
LINE
  5
FD
330
C9
100
AcDbEntity
  8
Screw
 62
     7
370
     9
100
AcDbLine
 10
0.0824999999986176
 20
-0.3954451140165247
 30
0.0
 11
0.0599999999986949
 21
-0.4084354950732632
 31
0.0
  0
LINE
  5
FE
330
C9
100
AcDbEntity
  8
Screw
 62
     7
370
     9
100
AcDbLine
 10
0.0599999999986949
 20
-0.3426461200732547
 30
0.0
 11
0.0599999999986949
 21
-0.3824547329596726
 31
0.0
  0
LINE
  5
FF
330
C9
100
AcDbEntity
  8
Screw
 62
     7
370
     9
100
AcDbLine
 10
0.0824999999986176
 20
-0.2638663640165078
 30
0.0
 11
0.0599999999986949
 21
-0.2768567450731325
 31
0.0
  0
LINE
  5
100
330
C9
100
AcDbEntity
  8
Screw
 62
     7
370
     9
100
AcDbLine
 10
0.0599999999986949
 20
-0.2768567450731325
 30
0.0
 11
0.0599999999986949
 21
-0.3166653579597778
 31
0.0
  0
LINE
  5
101
330
C9
100
AcDbEntity
  8
Screw
 62
     7
370
     9
100
AcDbLine
 10
-0.0000000000007958
 20
-0.6249999999979537
 30
0.0
 11
0.022931124344268
 21
-0.569639368603248
 31
0.0
  0
LINE
  5
102
330
C9
100
AcDbEntity
  8
Screw
 62
     7
370
     9
100
AcDbLine
 10
0.0824999999985039
 20
-0.4612344890164195
 30
0.0
 11
0.0684796239820571
 21
-0.4531398211491933
 31
0.0
  0
LINE
  5
103
330
C9
100
AcDbEntity
  8
Screw
 62
     7
370
     9
100
AcDbLine
 10
0.0824999999985039
 20
-0.4612344890164195
 30
0.0
 11
0.0632241464038543
 21
-0.4723634082780564
 31
0.0
  0
LINE
  5
104
330
C9
100
AcDbEntity
  8
Screw
 62
     7
370
     9
100
AcDbLine
 10
0.0550146141443975
 20
-0.5253624430695254
 30
0.0
 11
0.0439236020390581
 21
-0.5189590442449799
 31
0.0
  0
LINE
  5
105
330
C9
100
AcDbEntity
  8
Screw
 62
     7
370
     9
100
AcDbLine
 10
0.0550146141443975
 20
-0.5253624430695254
 30
0.0
 11
0.0369515003607148
 21
-0.5357911866749419
 31
0.0
  0
LINE
  5
106
330
C9
100
AcDbEntity
  8
Screw
 62
     7
370
     9
100
AcDbLine
 10
0.0578546239827347
 20
-0.4853265821307105
 30
0.0
 11
0.063224146403968
 21
-0.4723634082781701
 31
0.0
  0
LINE
  5
107
330
C9
100
AcDbEntity
  8
Screw
 62
     7
370
     9
100
AcDbLine
 10
0.0299032260226113
 20
-0.552807226173286
 30
0.0
 11
0.0369515003607148
 21
-0.5357911866749419
 31
0.0
  0
LINE
  5
108
330
C9
100
AcDbEntity
  8
Screw
 62
     7
370
     9
100
AcDbLine
 10
-0.0299032260243166
 20
-0.552807226173286
 30
0.0
 11
-0.049041047168771
 21
-0.5066044388121327
 31
0.0
  0
LINE
  5
109
330
C9
100
AcDbEntity
  8
Screw
 62
     7
370
     9
100
AcDbLine
 10
-0.0409942381297697
 20
-0.5592106249979452
 30
0.0
 11
-0.022931124346087
 21
-0.569639368603248
 31
0.0
  0
LINE
  5
10A
330
C9
100
AcDbEntity
  8
Screw
 62
     7
370
     9
100
AcDbLine
 10
-0.0409942381297697
 20
-0.5592106249979452
 30
0.0
 11
-0.0299032260243166
 21
-0.552807226173286
 31
0.0
  0
LINE
  5
10B
330
C9
100
AcDbEntity
  8
Screw
 62
     7
370
     9
100
AcDbLine
 10
-0.0718750000008868
 20
-0.4934212499979367
 30
0.0
 11
-0.049041047168771
 21
-0.5066044388121327
 31
0.0
  0
LINE
  5
10C
330
C9
100
AcDbEntity
  8
Screw
 62
     7
370
     9
100
AcDbLine
 10
-0.0718750000008868
 20
-0.493421249997823
 30
0.0
 11
-0.0600000000015371
 21
-0.48656521555165
 31
0.0
  0
LINE
  5
10D
330
C9
100
AcDbEntity
  8
Screw
 62
     7
370
     9
100
AcDbLine
 10
-0.0000000000007958
 20
-0.6249999999979537
 30
0.0
 11
-0.022931124346087
 21
-0.569639368603248
 31
0.0
  0
LINE
  5
10E
330
C9
100
AcDbEntity
  8
Screw
 62
     7
370
     9
100
AcDbLine
 10
0.0578546239827347
 20
-0.4853265821307105
 30
0.0
 11
0.0490410471670657
 21
-0.5066044388121327
 31
0.0
  0
LINE
  5
10F
330
C9
100
AcDbEntity
  8
Screw
 62
     7
370
     9
100
AcDbLine
 10
0.0299032260226113
 20
-0.552807226173286
 30
0.0
 11
0.022931124344268
 21
-0.569639368603248
 31
0.0
  0
LINE
  5
110
330
C9
100
AcDbEntity
  8
Screw
 62
     7
370
     9
100
AcDbLine
 10
0.0439236020390581
 20
-0.5189590442449799
 30
0.0
 11
0.0490410471670657
 21
-0.5066044388121327
 31
0.0
  0
LINE
  5
111
330
C9
100
AcDbEntity
  8
Screw
 62
     7
370
     9
100
AcDbLine
 10
0.0824999999987313
 20
-0.4612344890164195
 30
0.0
 11
-0.0718750000008868
 21
-0.493421249997823
 31
0.0
  0
LINE
  5
112
330
C9
100
AcDbEntity
  8
Screw
 62
     7
370
     9
100
AcDbLine
 10
0.0550146141443975
 20
-0.5253624430695254
 30
0.0
 11
-0.0409942381297697
 21
-0.5592106249979452
 31
0.0
  0
LINE
  5
113
330
C9
100
AcDbEntity
  8
Screw
 62
     7
370
     9
100
AcDbLine
 10
-0.1450000000420459
 20
-0.0000000000001137
 30
0.0
 11
0.1449999999986176
 21
0.0000000000001137
 31
0.0
  0
LINE
  5
114
330
C9
100
AcDbEntity
  8
Screw
 62
     7
370
     9
100
AcDbLine
 10
-0.1450000000385216
 20
0.0500000000004093
 30
0.0
 11
0.1449999999986176
 21
0.050000000000523
 31
0.0
  0
ARC
  5
115
330
C9
100
AcDbEntity
  8
Screw
 62
     7
370
     9
100
AcDbCircle
 10
0.1449999999986176
 20
0.0100000000001046
 30
0.0
 40
0.01
100
AcDbArc
 50
270.0
 51
0.0
  0
ARC
  5
116
330
C9
100
AcDbEntity
  8
Screw
 62
     7
370
     9
100
AcDbCircle
 10
-0.1450000000420459
 20
0.0099999999998772
 30
0.0
 40
0.01
100
AcDbArc
 50
179.9999999934667
 51
270.0
  0
LINE
  5
117
330
C9
100
AcDbEntity
  8
Screw
 62
     7
370
     9
100
AcDbLine
 10
-0.0570000000392383
 20
0.1000000000004775
 30
0.0
 11
0.0569999999995616
 21
0.1000000000003638
 31
0.0
  0
ARC
  5
118
330
C9
100
AcDbEntity
  8
Screw
 62
     7
370
     9
100
AcDbCircle
 10
0.1449999999986176
 20
0.0400000000003047
 30
0.0
 40
0.01
100
AcDbArc
 50
0.0
 51
90.0
  0
ARC
  5
119
330
C9
100
AcDbEntity
  8
Screw
 62
     7
370
     9
100
AcDbCircle
 10
-0.1450000000385216
 20
0.040000000000191
 30
0.0
 40
0.01
100
AcDbArc
 50
90.0
 51
179.9999999934862
  0
ARC
  5
11A
330
C9
100
AcDbEntity
  8
Screw
 62
     7
370
     9
100
AcDbCircle
 10
-0.0000000000198952
 20
-0.1142505253642412
 30
0.0
 40
0.2217031520327291
100
AcDbArc
 50
46.77058113432305
 51
75.10191228261263
  0
ARC
  5
11B
330
C9
100
AcDbEntity
  8
Screw
 62
     7
370
     9
100
AcDbCircle
 10
-0.0000000000198952
 20
-0.1142505253642412
 30
0.0
 40
0.2217031520327291
100
AcDbArc
 50
104.8980877173874
 51
133.2294188657414
  0
ENDBLK
  5
11C
330
C9
100
AcDbEntity
  8
0
 62
     5
100
AcDbBlockEnd
  0
BLOCK
  5
19B
330
19A
100
AcDbEntity
  8
0
 62
     5
100
AcDbBlockBegin
  2
8 X 1.5 FH
 70
     0
 10
0.0
 20
0.0
 30
0.0
  3
8 X 1.5 FH
  1

  0
LINE
  5
19C
330
19A
100
AcDbEntity
  8
Screw
 62
     7
370
     9
100
AcDbLine
 10
-0.0600000000013097
 20
-0.1430000000001428
 30
0.0
 11
-0.0600000000013097
 21
-0.6283166038209629
 31
0.0
  0
LINE
  5
19D
330
19A
100
AcDbEntity
  8
Screw
 62
     7
370
     9
100
AcDbLine
 10
-0.0825000000012324
 20
-0.6413069848773603
 30
0.0
 11
-0.0600000000013097
 21
-0.6283166038207355
 31
0.0
  0
LINE
  5
19E
330
19A
100
AcDbEntity
  8
Screw
 62
     7
370
     9
100
AcDbLine
 10
-0.0825000000012324
 20
-0.6413069848775877
 30
0.0
 11
-0.0600000000013097
 21
-0.6542973659342124
 31
0.0
  0
LINE
  5
19F
330
19A
100
AcDbEntity
  8
Screw
 62
     7
370
     9
100
AcDbLine
 10
-0.0600000000013097
 20
-0.6542973659340987
 30
0.0
 11
-0.0600000000013097
 21
-0.6941059788205167
 31
0.0
  0
LINE
  5
1A0
330
19A
100
AcDbEntity
  8
Screw
 62
     7
370
     9
100
AcDbLine
 10
0.0599999999989223
 20
-0.1430000000001428
 30
0.0
 11
0.0599999999985812
 21
-0.5995609829597015
 31
0.0
  0
LINE
  5
1A1
330
19A
100
AcDbEntity
  8
Screw
 62
     7
370
     9
100
AcDbLine
 10
0.0599999999988086
 20
-0.6255417450734058
 30
0.0
 11
0.0599999999988086
 21
-0.6653503579598237
 31
0.0
  0
LINE
  5
1A2
330
19A
100
AcDbEntity
  8
Screw
 62
     7
370
     9
100
AcDbLine
 10
0.0824999999987313
 20
-0.6125513640165537
 30
0.0
 11
0.0599999999988086
 21
-0.6255417450734058
 31
0.0
  0
LINE
  5
1A3
330
19A
100
AcDbEntity
  8
Screw
 62
     7
370
     9
100
AcDbLine
 10
0.0824999999987313
 20
-0.6125513640165537
 30
0.0
 11
0.0599999999988086
 21
-0.5995609829599289
 31
0.0
  0
LINE
  5
1A4
330
19A
100
AcDbEntity
  8
Screw
 62
     7
370
     9
100
AcDbLine
 10
0.0824999999987313
 20
-0.6125513640165537
 30
0.0
 11
-0.0825000000013461
 21
-0.641306984877474
 31
0.0
  0
LINE
  5
1A5
330
19A
100
AcDbEntity
  8
Screw
 62
     7
370
     9
100
AcDbLine
 10
0.0550146141445112
 20
-1.400362443069752
 30
0.0
 11
-0.040994238129656
 21
-1.434210624998172
 31
0.0
  0
LINE
  5
1A6
330
19A
100
AcDbEntity
  8
Screw
 62
     7
370
     9
100
AcDbLine
 10
0.082499999998845
 20
-1.336234489016646
 30
0.0
 11
-0.0718750000007731
 21
-1.36842124999805
 31
0.0
  0
LINE
  5
1A7
330
19A
100
AcDbEntity
  8
Screw
 62
     7
370
     9
100
AcDbLine
 10
0.0439236020391718
 20
-1.393959044245207
 30
0.0
 11
0.0490410471671794
 21
-1.38160443881236
 31
0.0
  0
LINE
  5
1A8
330
19A
100
AcDbEntity
  8
Screw
 62
     7
370
     9
100
AcDbLine
 10
0.029903226022725
 20
-1.427807226173513
 30
0.0
 11
0.0229311243443817
 21
-1.444639368603475
 31
0.0
  0
LINE
  5
1A9
330
19A
100
AcDbEntity
  8
Screw
 62
     7
370
     9
100
AcDbLine
 10
0.0578546239828484
 20
-1.360326582130937
 30
0.0
 11
0.0490410471671794
 21
-1.38160443881236
 31
0.0
  0
LINE
  5
1AA
330
19A
100
AcDbEntity
  8
Screw
 62
     7
370
     9
100
AcDbLine
 10
-0.0000000000006821
 20
-1.499999999998181
 30
0.0
 11
-0.0229311243459733
 21
-1.444639368603475
 31
0.0
  0
LINE
  5
1AB
330
19A
100
AcDbEntity
  8
Screw
 62
     7
370
     9
100
AcDbLine
 10
-0.0718750000007731
 20
-1.36842124999805
 30
0.0
 11
-0.0600000000014234
 21
-1.361565215551877
 31
0.0
  0
LINE
  5
1AC
330
19A
100
AcDbEntity
  8
Screw
 62
     7
370
     9
100
AcDbLine
 10
-0.0718750000007731
 20
-1.368421249998164
 30
0.0
 11
-0.0490410471686573
 21
-1.38160443881236
 31
0.0
  0
LINE
  5
1AD
330
19A
100
AcDbEntity
  8
Screw
 62
     7
370
     9
100
AcDbLine
 10
-0.040994238129656
 20
-1.434210624998172
 30
0.0
 11
-0.0299032260242029
 21
-1.427807226173513
 31
0.0
  0
LINE
  5
1AE
330
19A
100
AcDbEntity
  8
Screw
 62
     7
370
     9
100
AcDbLine
 10
-0.040994238129656
 20
-1.434210624998172
 30
0.0
 11
-0.0229311243459733
 21
-1.444639368603475
 31
0.0
  0
LINE
  5
1AF
330
19A
100
AcDbEntity
  8
Screw
 62
     7
370
     9
100
AcDbLine
 10
-0.0299032260242029
 20
-1.427807226173513
 30
0.0
 11
-0.0490410471686573
 21
-1.38160443881236
 31
0.0
  0
LINE
  5
1B0
330
19A
100
AcDbEntity
  8
Screw
 62
     7
370
     9
100
AcDbLine
 10
0.029903226022725
 20
-1.427807226173513
 30
0.0
 11
0.0369515003608285
 21
-1.410791186675169
 31
0.0
  0
LINE
  5
1B1
330
19A
100
AcDbEntity
  8
Screw
 62
     7
370
     9
100
AcDbLine
 10
0.0578546239828484
 20
-1.360326582130937
 30
0.0
 11
0.0632241464040817
 21
-1.347363408278397
 31
0.0
  0
LINE
  5
1B2
330
19A
100
AcDbEntity
  8
Screw
 62
     7
370
     9
100
AcDbLine
 10
0.0550146141445112
 20
-1.400362443069752
 30
0.0
 11
0.0369515003608285
 21
-1.410791186675169
 31
0.0
  0
LINE
  5
1B3
330
19A
100
AcDbEntity
  8
Screw
 62
     7
370
     9
100
AcDbLine
 10
0.0550146141445112
 20
-1.400362443069752
 30
0.0
 11
0.0439236020391718
 21
-1.393959044245207
 31
0.0
  0
LINE
  5
1B4
330
19A
100
AcDbEntity
  8
Screw
 62
     7
370
     9
100
AcDbLine
 10
0.0824999999986176
 20
-1.336234489016646
 30
0.0
 11
0.063224146403968
 21
-1.347363408278283
 31
0.0
  0
LINE
  5
1B5
330
19A
100
AcDbEntity
  8
Screw
 62
     7
370
     9
100
AcDbLine
 10
0.0824999999986176
 20
-1.336234489016646
 30
0.0
 11
0.0684796239821708
 21
-1.32813982114942
 31
0.0
  0
LINE
  5
1B6
330
19A
100
AcDbEntity
  8
Screw
 62
     7
370
     9
100
AcDbLine
 10
-0.0000000000006821
 20
-1.499999999998181
 30
0.0
 11
0.0229311243443817
 21
-1.444639368603475
 31
0.0
  0
LINE
  5
1B7
330
19A
100
AcDbEntity
  8
Screw
 62
     7
370
     9
100
AcDbLine
 10
0.0599999999988086
 20
-1.151856745073359
 30
0.0
 11
0.0599999999988086
 21
-1.191665357960005
 31
0.0
  0
LINE
  5
1B8
330
19A
100
AcDbEntity
  8
Screw
 62
     7
370
     9
100
AcDbLine
 10
0.0824999999987313
 20
-1.138866364016735
 30
0.0
 11
0.0599999999988086
 21
-1.151856745073359
 31
0.0
  0
LINE
  5
1B9
330
19A
100
AcDbEntity
  8
Screw
 62
     7
370
     9
100
AcDbLine
 10
0.0599999999988086
 20
-1.217646120073482
 30
0.0
 11
0.0599999999988086
 21
-1.257454732959899
 31
0.0
  0
LINE
  5
1BA
330
19A
100
AcDbEntity
  8
Screw
 62
     7
370
     9
100
AcDbLine
 10
0.0824999999987313
 20
-1.270445114016752
 30
0.0
 11
0.0599999999988086
 21
-1.28343549507349
 31
0.0
  0
LINE
  5
1BB
330
19A
100
AcDbEntity
  8
Screw
 62
     7
370
     9
100
AcDbLine
 10
0.0824999999987313
 20
-1.270445114016752
 30
0.0
 11
0.0599999999986949
 21
-1.257454732959899
 31
0.0
  0
LINE
  5
1BC
330
19A
100
AcDbEntity
  8
Screw
 62
     7
370
     9
100
AcDbLine
 10
0.0824999999987313
 20
-1.204655739016629
 30
0.0
 11
0.0599999999988086
 21
-1.217646120073482
 31
0.0
  0
LINE
  5
1BD
330
19A
100
AcDbEntity
  8
Screw
 62
     7
370
     9
100
AcDbLine
 10
0.0824999999987313
 20
-1.204655739016629
 30
0.0
 11
0.0599999999988086
 21
-1.191665357960005
 31
0.0
  0
LINE
  5
1BE
330
19A
100
AcDbEntity
  8
Screw
 62
     7
370
     9
100
AcDbLine
 10
0.0824999999987313
 20
-1.138866364016735
 30
0.0
 11
-0.0825000000013461
 21
-1.167621984877541
 31
0.0
  0
LINE
  5
1BF
330
19A
100
AcDbEntity
  8
Screw
 62
     7
370
     9
100
AcDbLine
 10
0.0824999999987313
 20
-1.270445114016752
 30
0.0
 11
-0.0825000000013461
 21
-1.299200734877558
 31
0.0
  0
LINE
  5
1C0
330
19A
100
AcDbEntity
  8
Screw
 62
     7
370
     9
100
AcDbLine
 10
0.0824999999987313
 20
-1.204655739016629
 30
0.0
 11
-0.0825000000013461
 21
-1.23341135987755
 31
0.0
  0
LINE
  5
1C1
330
19A
100
AcDbEntity
  8
Screw
 62
     7
370
     9
100
AcDbLine
 10
0.0824999999987313
 20
-1.138866364016735
 30
0.0
 11
0.0599999999988086
 21
-1.125875982959996
 31
0.0
  0
LINE
  5
1C2
330
19A
100
AcDbEntity
  8
Screw
 62
     7
370
     9
100
AcDbLine
 10
0.0824999999987313
 20
-1.33623448901676
 30
0.0
 11
0.0599999999986949
 21
-1.323244107959908
 31
0.0
  0
LINE
  5
1C3
330
19A
100
AcDbEntity
  8
Screw
 62
     7
370
     9
100
AcDbLine
 10
0.0599999999988086
 20
-1.28343549507349
 30
0.0
 11
0.0599999999988086
 21
-1.323244107959908
 31
0.0
  0
LINE
  5
1C4
330
19A
100
AcDbEntity
  8
Screw
 62
     7
370
     9
100
AcDbLine
 10
-0.0825000000012324
 20
-1.233411359877436
 30
0.0
 11
-0.0600000000013097
 21
-1.220420978820811
 31
0.0
  0
LINE
  5
1C5
330
19A
100
AcDbEntity
  8
Screw
 62
     7
370
     9
100
AcDbLine
 10
-0.0825000000012324
 20
-1.233411359877663
 30
0.0
 11
-0.0600000000013097
 21
-1.246401740934288
 31
0.0
  0
LINE
  5
1C6
330
19A
100
AcDbEntity
  8
Screw
 62
     7
370
     9
100
AcDbLine
 10
-0.0825000000012324
 20
-1.299200734877558
 30
0.0
 11
-0.0600000000013097
 21
-1.286210353820706
 31
0.0
  0
LINE
  5
1C7
330
19A
100
AcDbEntity
  8
Screw
 62
     7
370
     9
100
AcDbLine
 10
-0.0825000000012324
 20
-1.299200734877558
 30
0.0
 11
-0.0600000000013097
 21
-1.312191115934297
 31
0.0
  0
LINE
  5
1C8
330
19A
100
AcDbEntity
  8
Screw
 62
     7
370
     9
100
AcDbLine
 10
-0.0825000000012324
 20
-1.167621984877541
 30
0.0
 11
-0.0600000000013097
 21
-1.180612365934393
 31
0.0
  0
LINE
  5
1C9
330
19A
100
AcDbEntity
  8
Screw
 62
     7
370
     9
100
AcDbLine
 10
-0.0825000000012324
 20
-1.167621984877541
 30
0.0
 11
-0.0600000000013097
 21
-1.154631603820803
 31
0.0
  0
LINE
  5
1CA
330
19A
100
AcDbEntity
  8
Screw
 62
     7
370
     9
100
AcDbLine
 10
-0.0600000000013097
 20
-1.312191115934297
 30
0.0
 11
-0.0600000000013097
 21
-1.361565215551991
 31
0.0
  0
LINE
  5
1CB
330
19A
100
AcDbEntity
  8
Screw
 62
     7
370
     9
100
AcDbLine
 10
-0.0600000000013097
 20
-1.246401740934174
 30
0.0
 11
-0.0600000000013097
 21
-1.286210353820592
 31
0.0
  0
LINE
  5
1CC
330
19A
100
AcDbEntity
  8
Screw
 62
     7
370
     9
100
AcDbLine
 10
-0.0600000000013097
 20
-1.180612365934052
 30
0.0
 11
-0.0600000000013097
 21
-1.220420978820698
 31
0.0
  0
LINE
  5
1CD
330
19A
100
AcDbEntity
  8
Screw
 62
     7
370
     9
100
AcDbLine
 10
0.0824999999987313
 20
-1.007287614016718
 30
0.0
 11
0.0599999999988086
 21
-0.9942972329599797
 31
0.0
  0
LINE
  5
1CE
330
19A
100
AcDbEntity
  8
Screw
 62
     7
370
     9
100
AcDbLine
 10
0.0824999999987313
 20
-1.073076989016612
 30
0.0
 11
-0.0825000000013461
 21
-1.101832609877533
 31
0.0
  0
LINE
  5
1CF
330
19A
100
AcDbEntity
  8
Screw
 62
     7
370
     9
100
AcDbLine
 10
0.0824999999987313
 20
-1.007287614016718
 30
0.0
 11
-0.0825000000013461
 21
-1.036043234877524
 31
0.0
  0
LINE
  5
1D0
330
19A
100
AcDbEntity
  8
Screw
 62
     7
370
     9
100
AcDbLine
 10
0.0824999999987313
 20
-1.073076989016612
 30
0.0
 11
0.0599999999988086
 21
-1.060086607959988
 31
0.0
  0
LINE
  5
1D1
330
19A
100
AcDbEntity
  8
Screw
 62
     7
370
     9
100
AcDbLine
 10
0.0824999999987313
 20
-1.073076989016612
 30
0.0
 11
0.0599999999988086
 21
-1.086067370073465
 31
0.0
  0
LINE
  5
1D2
330
19A
100
AcDbEntity
  8
Screw
 62
     7
370
     9
100
AcDbLine
 10
0.0599999999988086
 20
-1.086067370073465
 30
0.0
 11
0.0599999999988086
 21
-1.125875982959883
 31
0.0
  0
LINE
  5
1D3
330
19A
100
AcDbEntity
  8
Screw
 62
     7
370
     9
100
AcDbLine
 10
0.0824999999987313
 20
-1.007287614016718
 30
0.0
 11
0.0599999999988086
 21
-1.020277995073342
 31
0.0
  0
LINE
  5
1D4
330
19A
100
AcDbEntity
  8
Screw
 62
     7
370
     9
100
AcDbLine
 10
0.0599999999988086
 20
-1.020277995073342
 30
0.0
 11
0.0599999999988086
 21
-1.060086607959988
 31
0.0
  0
LINE
  5
1D5
330
19A
100
AcDbEntity
  8
Screw
 62
     7
370
     9
100
AcDbLine
 10
-0.0600000000013097
 20
-1.049033615934035
 30
0.0
 11
-0.0600000000013097
 21
-1.088842228820681
 31
0.0
  0
LINE
  5
1D6
330
19A
100
AcDbEntity
  8
Screw
 62
     7
370
     9
100
AcDbLine
 10
-0.0600000000013097
 20
-1.114822990934158
 30
0.0
 11
-0.0600000000013097
 21
-1.154631603820575
 31
0.0
  0
LINE
  5
1D7
330
19A
100
AcDbEntity
  8
Screw
 62
     7
370
     9
100
AcDbLine
 10
-0.0825000000012324
 20
-1.036043234877524
 30
0.0
 11
-0.0600000000013097
 21
-1.023052853820786
 31
0.0
  0
LINE
  5
1D8
330
19A
100
AcDbEntity
  8
Screw
 62
     7
370
     9
100
AcDbLine
 10
-0.0825000000012324
 20
-1.036043234877524
 30
0.0
 11
-0.0600000000013097
 21
-1.049033615934376
 31
0.0
  0
LINE
  5
1D9
330
19A
100
AcDbEntity
  8
Screw
 62
     7
370
     9
100
AcDbLine
 10
-0.0825000000012324
 20
-1.101832609877646
 30
0.0
 11
-0.0600000000013097
 21
-1.114822990934271
 31
0.0
  0
LINE
  5
1DA
330
19A
100
AcDbEntity
  8
Screw
 62
     7
370
     9
100
AcDbLine
 10
-0.0825000000012324
 20
-1.101832609877419
 30
0.0
 11
-0.0600000000013097
 21
-1.088842228820794
 31
0.0
  0
LINE
  5
1DB
330
19A
100
AcDbEntity
  8
Screw
 62
     7
370
     9
100
AcDbLine
 10
0.0599999999988086
 20
-0.9544886200734481
 30
0.0
 11
0.0599999999988086
 21
-0.994297232959866
 31
0.0
  0
LINE
  5
1DC
330
19A
100
AcDbEntity
  8
Screw
 62
     7
370
     9
100
AcDbLine
 10
-0.0600000000013097
 20
-0.983244240934141
 30
0.0
 11
-0.0600000000013097
 21
-1.023052853820558
 31
0.0
  0
LINE
  5
1DD
330
19A
100
AcDbEntity
  8
Screw
 62
     7
370
     9
100
AcDbLine
 10
-0.0825000000012324
 20
-0.8386751098773856
 30
0.0
 11
-0.0600000000013097
 21
-0.8256847288207609
 31
0.0
  0
LINE
  5
1DE
330
19A
100
AcDbEntity
  8
Screw
 62
     7
370
     9
100
AcDbLine
 10
-0.0825000000012324
 20
-0.838675109877613
 30
0.0
 11
-0.0600000000013097
 21
-0.8516654909342378
 31
0.0
  0
LINE
  5
1DF
330
19A
100
AcDbEntity
  8
Screw
 62
     7
370
     9
100
AcDbLine
 10
-0.0825000000012324
 20
-0.7728857348774909
 30
0.0
 11
-0.0600000000013097
 21
-0.7858761159343431
 31
0.0
  0
LINE
  5
1E0
330
19A
100
AcDbEntity
  8
Screw
 62
     7
370
     9
100
AcDbLine
 10
-0.0825000000012324
 20
-0.7728857348774909
 30
0.0
 11
-0.0600000000013097
 21
-0.7598953538207525
 31
0.0
  0
LINE
  5
1E1
330
19A
100
AcDbEntity
  8
Screw
 62
     7
370
     9
100
AcDbLine
 10
-0.0600000000013097
 20
-0.8516654909341241
 30
0.0
 11
-0.0600000000013097
 21
-0.891474103820542
 31
0.0
  0
LINE
  5
1E2
330
19A
100
AcDbEntity
  8
Screw
 62
     7
370
     9
100
AcDbLine
 10
-0.0600000000013097
 20
-0.785876115934002
 30
0.0
 11
-0.0600000000013097
 21
-0.8256847288206472
 31
0.0
  0
LINE
  5
1E3
330
19A
100
AcDbEntity
  8
Screw
 62
     7
370
     9
100
AcDbLine
 10
0.0599999999988086
 20
-0.7571204950733091
 30
0.0
 11
0.0599999999988086
 21
-0.7969291079599543
 31
0.0
  0
LINE
  5
1E4
330
19A
100
AcDbEntity
  8
Screw
 62
     7
370
     9
100
AcDbLine
 10
0.0824999999987313
 20
-0.7441301140166843
 30
0.0
 11
0.0599999999988086
 21
-0.7571204950733091
 31
0.0
  0
LINE
  5
1E5
330
19A
100
AcDbEntity
  8
Screw
 62
     7
370
     9
100
AcDbLine
 10
0.0599999999988086
 20
-0.8229098700734311
 30
0.0
 11
0.0599999999988086
 21
-0.862718482959849
 31
0.0
  0
LINE
  5
1E6
330
19A
100
AcDbEntity
  8
Screw
 62
     7
370
     9
100
AcDbLine
 10
0.0824999999987313
 20
-0.809919489016579
 30
0.0
 11
0.0599999999988086
 21
-0.8229098700734311
 31
0.0
  0
LINE
  5
1E7
330
19A
100
AcDbEntity
  8
Screw
 62
     7
370
     9
100
AcDbLine
 10
0.0824999999987313
 20
-0.809919489016579
 30
0.0
 11
0.0599999999988086
 21
-0.7969291079599543
 31
0.0
  0
LINE
  5
1E8
330
19A
100
AcDbEntity
  8
Screw
 62
     7
370
     9
100
AcDbLine
 10
0.0824999999987313
 20
-0.7441301140166843
 30
0.0
 11
-0.0825000000013461
 21
-0.7728857348774909
 31
0.0
  0
LINE
  5
1E9
330
19A
100
AcDbEntity
  8
Screw
 62
     7
370
     9
100
AcDbLine
 10
0.0824999999987313
 20
-0.809919489016579
 30
0.0
 11
-0.0825000000013461
 21
-0.8386751098774993
 31
0.0
  0
LINE
  5
1EA
330
19A
100
AcDbEntity
  8
Screw
 62
     7
370
     9
100
AcDbLine
 10
0.0824999999987313
 20
-0.7441301140166843
 30
0.0
 11
0.0599999999988086
 21
-0.7311397329599459
 31
0.0
  0
LINE
  5
1EB
330
19A
100
AcDbEntity
  8
Screw
 62
     7
370
     9
100
AcDbLine
 10
-0.0600000000013097
 20
-0.9174548659340189
 30
0.0
 11
-0.0600000000013097
 21
-0.9572634788206642
 31
0.0
  0
LINE
  5
1EC
330
19A
100
AcDbEntity
  8
Screw
 62
     7
370
     9
100
AcDbLine
 10
-0.0825000000012324
 20
-0.9044644848775078
 30
0.0
 11
-0.0600000000013097
 21
-0.8914741038207694
 31
0.0
  0
LINE
  5
1ED
330
19A
100
AcDbEntity
  8
Screw
 62
     7
370
     9
100
AcDbLine
 10
-0.0825000000012324
 20
-0.9044644848775078
 30
0.0
 11
-0.0600000000013097
 21
-0.9174548659343599
 31
0.0
  0
LINE
  5
1EE
330
19A
100
AcDbEntity
  8
Screw
 62
     7
370
     9
100
AcDbLine
 10
-0.0825000000012324
 20
-0.97025385987763
 30
0.0
 11
-0.0600000000013097
 21
-0.9832442409342547
 31
0.0
  0
LINE
  5
1EF
330
19A
100
AcDbEntity
  8
Screw
 62
     7
370
     9
100
AcDbLine
 10
-0.0825000000012324
 20
-0.9702538598774026
 30
0.0
 11
-0.0600000000013097
 21
-0.9572634788207778
 31
0.0
  0
LINE
  5
1F0
330
19A
100
AcDbEntity
  8
Screw
 62
     7
370
     9
100
AcDbLine
 10
0.0824999999987313
 20
-0.8757088640167012
 30
0.0
 11
0.0599999999988086
 21
-0.8627184829599627
 31
0.0
  0
LINE
  5
1F1
330
19A
100
AcDbEntity
  8
Screw
 62
     7
370
     9
100
AcDbLine
 10
0.0824999999987313
 20
-0.941498239016596
 30
0.0
 11
-0.0825000000013461
 21
-0.9702538598775163
 31
0.0
  0
LINE
  5
1F2
330
19A
100
AcDbEntity
  8
Screw
 62
     7
370
     9
100
AcDbLine
 10
0.0824999999987313
 20
-0.8757088640167012
 30
0.0
 11
-0.0825000000013461
 21
-0.9044644848775078
 31
0.0
  0
LINE
  5
1F3
330
19A
100
AcDbEntity
  8
Screw
 62
     7
370
     9
100
AcDbLine
 10
0.0824999999987313
 20
-0.941498239016596
 30
0.0
 11
0.0599999999988086
 21
-0.9285078579599712
 31
0.0
  0
LINE
  5
1F4
330
19A
100
AcDbEntity
  8
Screw
 62
     7
370
     9
100
AcDbLine
 10
0.0824999999987313
 20
-0.941498239016596
 30
0.0
 11
0.0599999999988086
 21
-0.9544886200734481
 31
0.0
  0
LINE
  5
1F5
330
19A
100
AcDbEntity
  8
Screw
 62
     7
370
     9
100
AcDbLine
 10
0.0824999999987313
 20
-0.8757088640167012
 30
0.0
 11
0.0599999999988086
 21
-0.8886992450733259
 31
0.0
  0
LINE
  5
1F6
330
19A
100
AcDbEntity
  8
Screw
 62
     7
370
     9
100
AcDbLine
 10
0.0599999999988086
 20
-0.8886992450733259
 30
0.0
 11
0.0599999999988086
 21
-0.9285078579599712
 31
0.0
  0
LINE
  5
1F7
330
19A
100
AcDbEntity
  8
Screw
 62
     7
370
     9
100
AcDbLine
 10
-0.1550000000002001
 20
0.0000000000001137
 30
0.0
 11
-0.1550000000020191
 21
-0.015999999999849
 31
0.0
  0
LINE
  5
1F8
330
19A
100
AcDbEntity
  8
Screw
 62
     7
370
     9
100
AcDbLine
 10
0.1549999999986085
 20
0.0
 30
0.0
 11
0.1549999999986085
 21
-0.0159999999999627
 31
0.0
  0
LINE
  5
1F9
330
19A
100
AcDbEntity
  8
Screw
 62
     7
370
     9
100
AcDbLine
 10
0.1549999999987222
 20
-0.0160000000006448
 30
0.0
 11
-0.155000000001337
 21
-0.0159999999999627
 31
0.0
  0
LINE
  5
1FA
330
19A
100
AcDbEntity
  8
Screw
 62
     7
370
     9
100
AcDbLine
 10
0.1549999999987222
 20
0.0
 30
0.0
 11
-0.155000000001337
 21
0.0
 31
0.0
  0
LINE
  5
1FB
330
19A
100
AcDbEntity
  8
Screw
 62
     7
370
     9
100
AcDbLine
 10
0.0599999999989223
 20
-0.1430000000000291
 30
0.0
 11
-0.0600000000013097
 21
-0.1430000000000291
 31
0.0
  0
LINE
  5
1FC
330
19A
100
AcDbEntity
  8
Screw
 62
     7
370
     9
100
AcDbLine
 10
0.1549999999986085
 20
-0.0160000000006448
 30
0.0
 11
0.0599999999988086
 21
-0.1430000000001428
 31
0.0
  0
LINE
  5
1FD
330
19A
100
AcDbEntity
  8
Screw
 62
     7
370
     9
100
AcDbLine
 10
-0.1550000000020191
 20
-0.0159999999999627
 30
0.0
 11
-0.0600000000013097
 21
-0.1430000000001428
 31
0.0
  0
LINE
  5
1FE
330
19A
100
AcDbEntity
  8
Screw
 62
     7
370
     9
100
AcDbLine
 10
0.0824999999987313
 20
-0.6783407390166758
 30
0.0
 11
0.0599999999988086
 21
-0.6653503579599374
 31
0.0
  0
LINE
  5
1FF
330
19A
100
AcDbEntity
  8
Screw
 62
     7
370
     9
100
AcDbLine
 10
0.0824999999987313
 20
-0.6783407390166758
 30
0.0
 11
-0.0825000000013461
 21
-0.7070963598774825
 31
0.0
  0
LINE
  5
200
330
19A
100
AcDbEntity
  8
Screw
 62
     7
370
     9
100
AcDbLine
 10
0.0824999999987313
 20
-0.6783407390166758
 30
0.0
 11
0.0599999999988086
 21
-0.6913311200733006
 31
0.0
  0
LINE
  5
201
330
19A
100
AcDbEntity
  8
Screw
 62
     7
370
     9
100
AcDbLine
 10
0.0599999999988086
 20
-0.6913311200733006
 30
0.0
 11
0.0599999999988086
 21
-0.7311397329599459
 31
0.0
  0
LINE
  5
202
330
19A
100
AcDbEntity
  8
Screw
 62
     7
370
     9
100
AcDbLine
 10
-0.0600000000013097
 20
-0.7200867409339935
 30
0.0
 11
-0.0600000000013097
 21
-0.7598953538206388
 31
0.0
  0
LINE
  5
203
330
19A
100
AcDbEntity
  8
Screw
 62
     7
370
     9
100
AcDbLine
 10
-0.0825000000012324
 20
-0.7070963598774825
 30
0.0
 11
-0.0600000000013097
 21
-0.694105978820744
 31
0.0
  0
LINE
  5
204
330
19A
100
AcDbEntity
  8
Screw
 62
     7
370
     9
100
AcDbLine
 10
-0.0825000000012324
 20
-0.7070963598774825
 30
0.0
 11
-0.0600000000013097
 21
-0.7200867409343346
 31
0.0
  0
LINE
  5
205
330
19A
100
AcDbEntity
  8
Screw
  6
CENTER
 62
     7
370
     9
100
AcDbLine
 10
0.0
 20
0.0516137131638743
 30
0.0
 11
0.0
 21
-1.551211668604537
 31
0.0
  0
ENDBLK
  5
206
330
19A
100
AcDbEntity
  8
0
 62
     5
100
AcDbBlockEnd
  0
BLOCK
  5
21C
330
21B
100
AcDbEntity
  8
0
100
AcDbBlockBegin
  2
*D4
 70
     1
 10
0.0
 20
0.0
 30
0.0
  3
*D4
  1

  0
LINE
  5
21D
330
21B
100
AcDbEntity
  8
0
 62
     0
370
    -2
100
AcDbLine
 10
3.73810630233757
 20
9.404833640612157
 30
0.0
 11
3.73810630233757
 21
10.4132625777118
 31
0.0
  0
LINE
  5
21E
330
21B
100
AcDbEntity
  8
0
 62
     0
370
    -2
100
AcDbLine
 10
3.23810630233757
 20
9.404833640612157
 30
0.0
 11
3.23810630233757
 21
10.4132625777118
 31
0.0
  0
LINE
  5
21F
330
21B
100
AcDbEntity
  8
0
 62
     0
370
    -2
100
AcDbLine
 10
3.73810630233757
 20
10.3832625777118
 30
0.0
 11
3.23810630233757
 21
10.3832625777118
 31
0.0
  0
LINE
  5
220
330
21B
100
AcDbEntity
  8
0
 62
     0
370
    -2
100
AcDbLine
 10
3.23810630233757
 20
10.3832625777118
 30
0.0
 11
3.08210630233757
 21
10.3832625777118
 31
0.0
  0
INSERT
  5
221
330
21B
100
AcDbEntity
  8
0
 62
     0
370
    -2
100
AcDbBlockReference
  2
_ArchTick
 10
3.73810630233757
 20
10.3832625777118
 30
0.0
 41
0.156
 42
0.156
 43
0.156
  0
INSERT
  5
222
330
21B
100
AcDbEntity
  8
0
 62
     0
370
    -2
100
AcDbBlockReference
  2
_ArchTick
 10
3.23810630233757
 20
10.3832625777118
 30
0.0
 41
0.156
 42
0.156
 43
0.156
 50
180.0
  0
MTEXT
  5
223
330
21B
100
AcDbEntity
  8
0
 62
     0
100
AcDbMText
 10
2.641874019221776
 20
10.58560706325316
 30
0.0
 40
0.3125
 41
0.0
 71
     5
 72
     1
  1
\A1;1/2"
 73
     1
 44
1.0
1001
ACAD
1000
MTEXTBEGIN
1070
    73
1070
     1
1070
    44
1040
1.0
1070
    74
1070
     0
1000
MTEXTEND
  0
MTEXT
  5
224
330
21B
100
AcDbEntity
  8
0
 62
     0
100
AcDbMText
 10
2.641874019221776
 20
10.16337017690481
 30
0.0
 40
0.3125
 41
0.0
 71
     5
 72
     1
  1
\A1;[13mm]
 73
     1
 44
1.0
1001
ACAD
1000
MTEXTBEGIN
1070
    73
1070
     1
1070
    44
1040
1.0
1070
    74
1070
     0
1000
MTEXTEND
  0
POINT
  5
225
330
21B
100
AcDbEntity
  8
Defpoints
 62
     0
100
AcDbPoint
 10
3.73810630233757
 20
9.364833640612157
 30
0.0
  0
POINT
  5
226
330
21B
100
AcDbEntity
  8
Defpoints
 62
     0
100
AcDbPoint
 10
3.23810630233757
 20
9.364833640612157
 30
0.0
  0
POINT
  5
227
330
21B
100
AcDbEntity
  8
Defpoints
 62
     0
100
AcDbPoint
 10
3.23810630233757
 20
10.3832625777118
 30
0.0
  0
ENDBLK
  5
228
330
21B
100
AcDbEntity
  8
0
100
AcDbBlockEnd
  0
BLOCK
  5
22B
330
22A
100
AcDbEntity
  8
0
100
AcDbBlockBegin
  2
*D5
 70
     1
 10
0.0
 20
0.0
 30
0.0
  3
*D5
  1

  0
LINE
  5
22C
330
22A
100
AcDbEntity
  8
0
 62
     0
370
    -2
100
AcDbLine
 10
17.42398948917966
 20
9.404833640612157
 30
0.0
 11
17.42398948917966
 21
11.29994982621193
 31
0.0
  0
LINE
  5
22D
330
22A
100
AcDbEntity
  8
0
 62
     0
370
    -2
100
AcDbLine
 10
3.23810630233757
 20
9.404833640612157
 30
0.0
 11
3.23810630233757
 21
11.29994982621193
 31
0.0
  0
LINE
  5
22E
330
22A
100
AcDbEntity
  8
0
 62
     0
370
    -2
100
AcDbLine
 10
17.42398948917966
 20
11.26994982621193
 30
0.0
 11
10.86348442748646
 21
11.26994982621193
 31
0.0
  0
LINE
  5
22F
330
22A
100
AcDbEntity
  8
0
 62
     0
370
    -2
100
AcDbLine
 10
3.23810630233757
 20
11.26994982621193
 30
0.0
 11
9.798611364030771
 21
11.26994982621193
 31
0.0
  0
INSERT
  5
230
330
22A
100
AcDbEntity
  8
0
 62
     0
370
    -2
100
AcDbBlockReference
  2
_ArchTick
 10
17.42398948917966
 20
11.26994982621193
 30
0.0
 41
0.156
 42
0.156
 43
0.156
  0
INSERT
  5
231
330
22A
100
AcDbEntity
  8
0
 62
     0
370
    -2
100
AcDbBlockReference
  2
_ArchTick
 10
3.23810630233757
 20
11.26994982621193
 30
0.0
 41
0.156
 42
0.156
 43
0.156
 50
180.0
  0
MTEXT
  5
232
330
22A
100
AcDbEntity
  8
0
 62
     0
100
AcDbMText
 10
10.33104789575861
 20
11.26994982621193
 30
0.0
 40
0.3125
 41
0.0
 71
     5
 72
     1
  1
\A1;ROUGH\POPENING
 73
     1
 44
1.0
1001
ACAD
1000
MTEXTBEGIN
1070
    73
1070
     1
1070
    44
1040
1.0
1070
    74
1070
     0
1000
MTEXTEND
  0
POINT
  5
233
330
22A
100
AcDbEntity
  8
Defpoints
 62
     0
100
AcDbPoint
 10
17.42398948917966
 20
9.364833640612157
 30
0.0
  0
POINT
  5
234
330
22A
100
AcDbEntity
  8
Defpoints
 62
     0
100
AcDbPoint
 10
3.23810630233757
 20
9.364833640612157
 30
0.0
  0
POINT
  5
235
330
22A
100
AcDbEntity
  8
Defpoints
 62
     0
100
AcDbPoint
 10
3.23810630233757
 20
11.26994982621193
 30
0.0
  0
ENDBLK
  5
236
330
22A
100
AcDbEntity
  8
0
100
AcDbBlockEnd
  0
BLOCK
  5
248
330
247
100
AcDbEntity
  8
0
100
AcDbBlockBegin
  2
*D6
 70
     1
 10
0.0
 20
0.0
 30
0.0
  3
*D6
  1

  0
LINE
  5
249
330
247
100
AcDbEntity
  8
0
 62
     0
370
    -2
100
AcDbLine
 10
4.551111834842942
 20
3.201341386930585
 30
0.0
 11
4.551111834842942
 21
2.18986414984822
 31
0.0
  0
LINE
  5
24A
330
247
100
AcDbEntity
  8
0
 62
     0
370
    -2
100
AcDbLine
 10
9.143444527614263
 20
3.527586461163997
 30
0.0
 11
9.143444527614263
 21
2.18986414984822
 31
0.0
  0
LINE
  5
24B
330
247
100
AcDbEntity
  8
0
 62
     0
370
    -2
100
AcDbLine
 10
4.551111834842942
 20
2.21986414984822
 30
0.0
 11
6.253616991132635
 21
2.21986414984822
 31
0.0
  0
LINE
  5
24C
330
247
100
AcDbEntity
  8
0
 62
     0
370
    -2
100
AcDbLine
 10
9.143444527614263
 20
2.21986414984822
 30
0.0
 11
7.44093937132457
 21
2.21986414984822
 31
0.0
  0
INSERT
  5
24D
330
247
100
AcDbEntity
  8
0
 62
     0
370
    -2
100
AcDbBlockReference
  2
_ArchTick
 10
4.551111834842942
 20
2.21986414984822
 30
0.0
 41
0.156
 42
0.156
 43
0.156
 50
180.0
  0
INSERT
  5
24E
330
247
100
AcDbEntity
  8
0
 62
     0
370
    -2
100
AcDbBlockReference
  2
_ArchTick
 10
9.143444527614263
 20
2.21986414984822
 30
0.0
 41
0.156
 42
0.156
 43
0.156
  0
MTEXT
  5
24F
330
247
100
AcDbEntity
  8
0
 62
     0
100
AcDbMText
 10
6.847278181228602
 20
2.422208635389578
 30
0.0
 40
0.3125
 41
0.0
 71
     5
 72
     1
  1
\A1;4 19/32"
 73
     1
 44
1.0
1001
ACAD
1000
MTEXTBEGIN
1070
    73
1070
     1
1070
    44
1040
1.0
1070
    74
1070
     0
1000
MTEXTEND
  0
MTEXT
  5
250
330
247
100
AcDbEntity
  8
0
 62
     0
100
AcDbMText
 10
6.847278181228602
 20
1.999971749041226
 30
0.0
 40
0.3125
 41
0.0
 71
     5
 72
     1
  1
\A1;[117mm]
 73
     1
 44
1.0
1001
ACAD
1000
MTEXTBEGIN
1070
    73
1070
     1
1070
    44
1040
1.0
1070
    74
1070
     0
1000
MTEXTEND
  0
POINT
  5
251
330
247
100
AcDbEntity
  8
Defpoints
 62
     0
100
AcDbPoint
 10
4.551111834842942
 20
3.241341386930585
 30
0.0
  0
POINT
  5
252
330
247
100
AcDbEntity
  8
Defpoints
 62
     0
100
AcDbPoint
 10
9.143444527614263
 20
3.567586461163998
 30
0.0
  0
POINT
  5
253
330
247
100
AcDbEntity
  8
Defpoints
 62
     0
100
AcDbPoint
 10
9.143444527614263
 20
2.21986414984822
 30
0.0
  0
ENDBLK
  5
254
330
247
100
AcDbEntity
  8
0
100
AcDbBlockEnd
  0
BLOCK
  5
20D
330
20C
100
AcDbEntity
  8
0
100
AcDbBlockBegin
  2
*D7
 70
     1
 10
0.0
 20
0.0
 30
0.0
  3
*D7
  1

  0
LINE
  5
20E
330
20C
100
AcDbEntity
  8
0
 62
     0
370
    -2
100
AcDbLine
 10
3.73810630233757
 20
9.404833640612157
 30
0.0
 11
3.73810630233757
 21
10.4132625777118
 31
0.0
  0
LINE
  5
20F
330
20C
100
AcDbEntity
  8
0
 62
     0
370
    -2
100
AcDbLine
 10
16.92398948917966
 20
9.404833640612157
 30
0.0
 11
16.92398948917966
 21
10.4132625777118
 31
0.0
  0
LINE
  5
210
330
20C
100
AcDbEntity
  8
0
 62
     0
370
    -2
100
AcDbLine
 10
3.73810630233757
 20
10.3832625777118
 30
0.0
 11
10.08963220835263
 21
10.3832625777118
 31
0.0
  0
LINE
  5
211
330
20C
100
AcDbEntity
  8
0
 62
     0
370
    -2
100
AcDbLine
 10
16.92398948917966
 20
10.3832625777118
 30
0.0
 11
10.5724635831646
 21
10.3832625777118
 31
0.0
  0
INSERT
  5
212
330
20C
100
AcDbEntity
  8
0
 62
     0
370
    -2
100
AcDbBlockReference
  2
_ArchTick
 10
3.73810630233757
 20
10.3832625777118
 30
0.0
 41
0.156
 42
0.156
 43
0.156
 50
180.0
  0
INSERT
  5
213
330
20C
100
AcDbEntity
  8
0
 62
     0
370
    -2
100
AcDbBlockReference
  2
_ArchTick
 10
16.92398948917966
 20
10.3832625777118
 30
0.0
 41
0.156
 42
0.156
 43
0.156
  0
MTEXT
  5
214
330
20C
100
AcDbEntity
  8
0
 62
     0
100
AcDbMText
 10
10.33104789575861
 20
10.3832625777118
 30
0.0
 40
0.3125
 41
0.0
 71
     5
 72
     1
  1
\A1;BOX
 73
     1
 44
1.0
1001
ACAD
1000
MTEXTBEGIN
1070
    73
1070
     1
1070
    44
1040
1.0
1070
    74
1070
     0
1000
MTEXTEND
  0
POINT
  5
215
330
20C
100
AcDbEntity
  8
Defpoints
 62
     0
100
AcDbPoint
 10
3.73810630233757
 20
9.364833640612157
 30
0.0
  0
POINT
  5
217
330
20C
100
AcDbEntity
  8
Defpoints
 62
     0
100
AcDbPoint
 10
16.92398948917966
 20
9.364833640612157
 30
0.0
  0
POINT
  5
218
330
20C
100
AcDbEntity
  8
Defpoints
 62
     0
100
AcDbPoint
 10
16.92398948917966
 20
10.3832625777118
 30
0.0
  0
ENDBLK
  5
219
330
20C
100
AcDbEntity
  8
0
100
AcDbBlockEnd
  0
BLOCK
  5
239
330
238
100
AcDbEntity
  8
0
100
AcDbBlockBegin
  2
*D8
 70
     1
 10
0.0
 20
0.0
 30
0.0
  3
*D8
  1

  0
LINE
  5
23A
330
238
100
AcDbEntity
  8
0
 62
     0
370
    -2
100
AcDbLine
 10
6.68172179629392
 20
4.929341386930587
 30
0.0
 11
6.691721796293919
 21
4.929341386930587
 31
0.0
  0
LINE
  5
23B
330
238
100
AcDbEntity
  8
0
 62
     0
370
    -2
100
AcDbLine
 10
6.68172179629392
 20
3.179341386930573
 30
0.0
 11
6.691721796293919
 21
3.179341386930573
 31
0.0
  0
LINE
  5
23C
330
238
100
AcDbEntity
  8
0
 62
     0
370
    -2
100
AcDbLine
 10
6.72172179629392
 20
4.929341386930587
 30
0.0
 11
6.72172179629392
 21
4.476578273278933
 31
0.0
  0
LINE
  5
23D
330
238
100
AcDbEntity
  8
0
 62
     0
370
    -2
100
AcDbLine
 10
6.72172179629392
 20
3.179341386930573
 30
0.0
 11
6.72172179629392
 21
3.632104500582229
 31
0.0
  0
INSERT
  5
23E
330
238
100
AcDbEntity
  8
0
 62
     0
370
    -2
100
AcDbBlockReference
  2
_ArchTick
 10
6.72172179629392
 20
4.929341386930587
 30
0.0
 41
0.156
 42
0.156
 43
0.156
 50
90.0
  0
INSERT
  5
23F
330
238
100
AcDbEntity
  8
0
 62
     0
370
    -2
100
AcDbBlockReference
  2
_ArchTick
 10
6.72172179629392
 20
3.179341386930573
 30
0.0
 41
0.156
 42
0.156
 43
0.156
 50
270.0
  0
MTEXT
  5
240
330
238
100
AcDbEntity
  8
0
 62
     0
100
AcDbMText
 10
6.721721796293919
 20
4.25668587247194
 30
0.0
 40
0.3125
 41
0.0
 71
     5
 72
     1
  1
\A1;1 3/4"
 73
     1
 44
1.0
1001
ACAD
1000
MTEXTBEGIN
1070
    73
1070
     1
1070
    44
1040
1.0
1070
    74
1070
     0
1000
MTEXTEND
  0
MTEXT
  5
241
330
238
100
AcDbEntity
  8
0
 62
     0
100
AcDbMText
 10
6.721721796293919
 20
3.834448986123588
 30
0.0
 40
0.3125
 41
0.0
 71
     5
 72
     1
  1
\A1;[44mm]
 73
     1
 44
1.0
1001
ACAD
1000
MTEXTBEGIN
1070
    73
1070
     1
1070
    44
1040
1.0
1070
    74
1070
     0
1000
MTEXTEND
  0
POINT
  5
242
330
238
100
AcDbEntity
  8
Defpoints
 62
     0
100
AcDbPoint
 10
6.72172179629392
 20
4.929341386930587
 30
0.0
  0
POINT
  5
243
330
238
100
AcDbEntity
  8
Defpoints
 62
     0
100
AcDbPoint
 10
6.72172179629392
 20
3.179341386930573
 30
0.0
  0
POINT
  5
244
330
238
100
AcDbEntity
  8
Defpoints
 62
     0
100
AcDbPoint
 10
6.72172179629392
 20
3.179341386930573
 30
0.0
  0
ENDBLK
  5
245
330
238
100
AcDbEntity
  8
0
100
AcDbBlockEnd
  0
BLOCK
  5
257
330
256
100
AcDbEntity
  8
0
100
AcDbBlockBegin
  2
*D9
 70
     1
 10
0.0
 20
0.0
 30
0.0
  3
*D9
  1

  0
LINE
  5
258
330
256
100
AcDbEntity
  8
0
 62
     0
370
    -2
100
AcDbLine
 10
3.796106302337583
 20
9.741841386930715
 30
0.0
 11
2.467260547769152
 21
9.741841386930715
 31
0.0
  0
LINE
  5
259
330
256
100
AcDbEntity
  8
0
 62
     0
370
    -2
100
AcDbLine
 10
2.886088038401878
 20
3.241341386930699
 30
0.0
 11
2.467260547769151
 21
3.241341386930699
 31
0.0
  0
LINE
  5
25A
330
256
100
AcDbEntity
  8
0
 62
     0
370
    -2
100
AcDbLine
 10
2.497260547769152
 20
9.741841386930715
 30
0.0
 11
2.497260547769152
 21
6.913828273279059
 31
0.0
  0
LINE
  5
25B
330
256
100
AcDbEntity
  8
0
 62
     0
370
    -2
100
AcDbLine
 10
2.497260547769151
 20
3.241341386930699
 30
0.0
 11
2.497260547769152
 21
6.069354500582353
 31
0.0
  0
INSERT
  5
25C
330
256
100
AcDbEntity
  8
0
 62
     0
370
    -2
100
AcDbBlockReference
  2
_ArchTick
 10
2.497260547769152
 20
9.741841386930715
 30
0.0
 41
0.156
 42
0.156
 43
0.156
 50
90.0
  0
INSERT
  5
25D
330
256
100
AcDbEntity
  8
0
 62
     0
370
    -2
100
AcDbBlockReference
  2
_ArchTick
 10
2.497260547769151
 20
3.241341386930699
 30
0.0
 41
0.156
 42
0.156
 43
0.156
 50
270.0
  0
MTEXT
  5
25E
330
256
100
AcDbEntity
  8
0
 62
     0
100
AcDbMText
 10
2.497260547769151
 20
6.693935872472065
 30
0.0
 40
0.3125
 41
0.0
 71
     5
 72
     1
  1
\A1;6 1/2"
 73
     1
 44
1.0
1001
ACAD
1000
MTEXTBEGIN
1070
    73
1070
     1
1070
    44
1040
1.0
1070
    74
1070
     0
1000
MTEXTEND
  0
MTEXT
  5
25F
330
256
100
AcDbEntity
  8
0
 62
     0
100
AcDbMText
 10
2.497260547769151
 20
6.271698986123714
 30
0.0
 40
0.3125
 41
0.0
 71
     5
 72
     1
  1
\A1;[165mm]
 73
     1
 44
1.0
1001
ACAD
1000
MTEXTBEGIN
1070
    73
1070
     1
1070
    44
1040
1.0
1070
    74
1070
     0
1000
MTEXTEND
  0
POINT
  5
260
330
256
100
AcDbEntity
  8
Defpoints
 62
     0
100
AcDbPoint
 10
3.836106302337583
 20
9.741841386930715
 30
0.0
  0
POINT
  5
261
330
256
100
AcDbEntity
  8
Defpoints
 62
     0
100
AcDbPoint
 10
2.926088038401879
 20
3.241341386930699
 30
0.0
  0
POINT
  5
262
330
256
100
AcDbEntity
  8
Defpoints
 62
     0
100
AcDbPoint
 10
2.497260547769151
 20
3.241341386930699
 30
0.0
  0
ENDBLK
  5
263
330
256
100
AcDbEntity
  8
0
100
AcDbBlockEnd
  0
BLOCK
  5
266
330
265
100
AcDbEntity
  8
0
100
AcDbBlockBegin
  2
*D10
 70
     1
 10
0.0
 20
0.0
 30
0.0
  3
*D10
  1

  0
LINE
  5
267
330
265
100
AcDbEntity
  8
0
 62
     0
370
    -2
100
AcDbLine
 10
16.92398948917966
 20
9.404833640612157
 30
0.0
 11
16.92398948917966
 21
10.4132625777118
 31
0.0
  0
LINE
  5
268
330
265
100
AcDbEntity
  8
0
 62
     0
370
    -2
100
AcDbLine
 10
17.42398948917966
 20
9.404833640612157
 30
0.0
 11
17.42398948917966
 21
10.4132625777118
 31
0.0
  0
LINE
  5
269
330
265
100
AcDbEntity
  8
0
 62
     0
370
    -2
100
AcDbLine
 10
16.92398948917966
 20
10.3832625777118
 30
0.0
 11
17.42398948917966
 21
10.3832625777118
 31
0.0
  0
LINE
  5
26A
330
265
100
AcDbEntity
  8
0
 62
     0
370
    -2
100
AcDbLine
 10
17.42398948917966
 20
10.3832625777118
 30
0.0
 11
17.57998948917966
 21
10.3832625777118
 31
0.0
  0
INSERT
  5
26B
330
265
100
AcDbEntity
  8
0
 62
     0
370
    -2
100
AcDbBlockReference
  2
_ArchTick
 10
16.92398948917966
 20
10.3832625777118
 30
0.0
 41
0.156
 42
0.156
 43
0.156
 50
180.0
  0
INSERT
  5
26C
330
265
100
AcDbEntity
  8
0
 62
     0
370
    -2
100
AcDbBlockReference
  2
_ArchTick
 10
17.42398948917966
 20
10.3832625777118
 30
0.0
 41
0.156
 42
0.156
 43
0.156
  0
MTEXT
  5
26D
330
265
100
AcDbEntity
  8
0
 62
     0
100
AcDbMText
 10
18.02022177229545
 20
10.58560706325316
 30
0.0
 40
0.3125
 41
0.0
 71
     5
 72
     1
  1
\A1;1/2"
 73
     1
 44
1.0
1001
ACAD
1000
MTEXTBEGIN
1070
    73
1070
     1
1070
    44
1040
1.0
1070
    74
1070
     0
1000
MTEXTEND
  0
MTEXT
  5
26E
330
265
100
AcDbEntity
  8
0
 62
     0
100
AcDbMText
 10
18.02022177229545
 20
10.16337017690481
 30
0.0
 40
0.3125
 41
0.0
 71
     5
 72
     1
  1
\A1;[13mm]
 73
     1
 44
1.0
1001
ACAD
1000
MTEXTBEGIN
1070
    73
1070
     1
1070
    44
1040
1.0
1070
    74
1070
     0
1000
MTEXTEND
  0
POINT
  5
26F
330
265
100
AcDbEntity
  8
Defpoints
 62
     0
100
AcDbPoint
 10
16.92398948917966
 20
9.364833640612157
 30
0.0
  0
POINT
  5
270
330
265
100
AcDbEntity
  8
Defpoints
 62
     0
100
AcDbPoint
 10
17.42398948917966
 20
9.364833640612157
 30
0.0
  0
POINT
  5
271
330
265
100
AcDbEntity
  8
Defpoints
 62
     0
100
AcDbPoint
 10
17.42398948917966
 20
10.3832625777118
 30
0.0
  0
ENDBLK
  5
272
330
265
100
AcDbEntity
  8
0
100
AcDbBlockEnd
  0
BLOCK
  5
275
330
274
100
AcDbEntity
  8
0
100
AcDbBlockBegin
  2
*D11
 70
     1
 10
0.0
 20
0.0
 30
0.0
  3
*D11
  1

  0
LINE
  5
276
330
274
100
AcDbEntity
  8
0
 62
     0
370
    -2
100
AcDbLine
 10
16.11098395667429
 20
3.201341386930585
 30
0.0
 11
16.11098395667429
 21
2.18986414984822
 31
0.0
  0
LINE
  5
277
330
274
100
AcDbEntity
  8
0
 62
     0
370
    -2
100
AcDbLine
 10
11.51865126390297
 20
3.527586461163997
 30
0.0
 11
11.51865126390297
 21
2.18986414984822
 31
0.0
  0
LINE
  5
278
330
274
100
AcDbEntity
  8
0
 62
     0
370
    -2
100
AcDbLine
 10
16.11098395667429
 20
2.21986414984822
 30
0.0
 11
14.40847880038459
 21
2.21986414984822
 31
0.0
  0
LINE
  5
279
330
274
100
AcDbEntity
  8
0
 62
     0
370
    -2
100
AcDbLine
 10
11.51865126390297
 20
2.21986414984822
 30
0.0
 11
13.22115642019266
 21
2.21986414984822
 31
0.0
  0
INSERT
  5
27A
330
274
100
AcDbEntity
  8
0
 62
     0
370
    -2
100
AcDbBlockReference
  2
_ArchTick
 10
16.11098395667429
 20
2.21986414984822
 30
0.0
 41
0.156
 42
0.156
 43
0.156
  0
INSERT
  5
27B
330
274
100
AcDbEntity
  8
0
 62
     0
370
    -2
100
AcDbBlockReference
  2
_ArchTick
 10
11.51865126390297
 20
2.21986414984822
 30
0.0
 41
0.156
 42
0.156
 43
0.156
 50
180.0
  0
MTEXT
  5
27C
330
274
100
AcDbEntity
  8
0
 62
     0
100
AcDbMText
 10
13.81481761028863
 20
2.422208635389578
 30
0.0
 40
0.3125
 41
0.0
 71
     5
 72
     1
  1
\A1;4 19/32"
 73
     1
 44
1.0
1001
ACAD
1000
MTEXTBEGIN
1070
    73
1070
     1
1070
    44
1040
1.0
1070
    74
1070
     0
1000
MTEXTEND
  0
MTEXT
  5
27D
330
274
100
AcDbEntity
  8
0
 62
     0
100
AcDbMText
 10
13.81481761028863
 20
1.999971749041226
 30
0.0
 40
0.3125
 41
0.0
 71
     5
 72
     1
  1
\A1;[117mm]
 73
     1
 44
1.0
1001
ACAD
1000
MTEXTBEGIN
1070
    73
1070
     1
1070
    44
1040
1.0
1070
    74
1070
     0
1000
MTEXTEND
  0
POINT
  5
27E
330
274
100
AcDbEntity
  8
Defpoints
 62
     0
100
AcDbPoint
 10
16.11098395667429
 20
3.241341386930585
 30
0.0
  0
POINT
  5
27F
330
274
100
AcDbEntity
  8
Defpoints
 62
     0
100
AcDbPoint
 10
11.51865126390297
 20
3.567586461163998
 30
0.0
  0
POINT
  5
280
330
274
100
AcDbEntity
  8
Defpoints
 62
     0
100
AcDbPoint
 10
11.51865126390297
 20
2.21986414984822
 30
0.0
  0
ENDBLK
  5
281
330
274
100
AcDbEntity
  8
0
100
AcDbBlockEnd
  0
BLOCK
  5
286
330
285
100
AcDbEntity
  8
0
100
AcDbBlockBegin
  2
*D12
 70
     1
 10
0.0
 20
0.0
 30
0.0
  3
*D12
  1

  0
LINE
  5
287
330
285
100
AcDbEntity
  8
0
 62
     0
370
    -2
100
AcDbLine
 10
9.143444527614263
 20
3.527586461163997
 30
0.0
 11
9.143444527614263
 21
2.18986414984822
 31
0.0
  0
LINE
  5
288
330
285
100
AcDbEntity
  8
0
 62
     0
370
    -2
100
AcDbLine
 10
11.51865126390297
 20
3.527586461164029
 30
0.0
 11
11.51865126390297
 21
2.18986414984822
 31
0.0
  0
LINE
  5
289
330
285
100
AcDbEntity
  8
0
 62
     0
370
    -2
100
AcDbLine
 10
9.143444527614263
 20
2.21986414984822
 30
0.0
 11
9.730971734243684
 21
2.21986414984822
 31
0.0
  0
LINE
  5
28A
330
285
100
AcDbEntity
  8
0
 62
     0
370
    -2
100
AcDbLine
 10
11.51865126390297
 20
2.21986414984822
 30
0.0
 11
10.93112405727354
 21
2.21986414984822
 31
0.0
  0
INSERT
  5
28B
330
285
100
AcDbEntity
  8
0
 62
     0
370
    -2
100
AcDbBlockReference
  2
_ArchTick
 10
9.143444527614263
 20
2.21986414984822
 30
0.0
 41
0.156
 42
0.156
 43
0.156
 50
180.0
  0
INSERT
  5
28C
330
285
100
AcDbEntity
  8
0
 62
     0
370
    -2
100
AcDbBlockReference
  2
_ArchTick
 10
11.51865126390297
 20
2.21986414984822
 30
0.0
 41
0.156
 42
0.156
 43
0.156
  0
MTEXT
  5
28D
330
285
100
AcDbEntity
  8
0
 62
     0
100
AcDbMText
 10
10.33104789575861
 20
2.21986414984822
 30
0.0
 40
0.3125
 41
0.0
 71
     5
 72
     1
  1
\A1;DAYLIGHT\POPENING
 73
     1
 44
1.0
1001
ACAD
1000
MTEXTBEGIN
1070
    73
1070
     1
1070
    44
1040
1.0
1070
    74
1070
     0
1000
MTEXTEND
  0
POINT
  5
28E
330
285
100
AcDbEntity
  8
Defpoints
 62
     0
100
AcDbPoint
 10
9.143444527614263
 20
3.567586461163998
 30
0.0
  0
POINT
  5
28F
330
285
100
AcDbEntity
  8
Defpoints
 62
     0
100
AcDbPoint
 10
11.51865126390297
 20
3.567586461164029
 30
0.0
  0
POINT
  5
290
330
285
100
AcDbEntity
  8
Defpoints
 62
     0
100
AcDbPoint
 10
11.51865126390297
 20
2.21986414984822
 30
0.0
  0
ENDBLK
  5
291
330
285
100
AcDbEntity
  8
0
100
AcDbBlockEnd
  0
BLOCK
  5
296
330
295
100
AcDbEntity
  8
0
100
AcDbBlockBegin
  2
*D13
 70
     1
 10
0.0
 20
0.0
 30
0.0
  3
*D13
  1

  0
LINE
  5
297
330
295
100
AcDbEntity
  8
0
 62
     0
370
    -2
100
AcDbLine
 10
16.23598395667432
 20
4.312841386930636
 30
0.0
 11
16.23598395667432
 21
4.440572233825036
 31
0.0
  0
LINE
  5
298
330
295
100
AcDbEntity
  8
0
 62
     0
370
    -2
100
AcDbLine
 10
16.92398948917966
 20
4.312841386930636
 30
0.0
 11
16.92398948917966
 21
4.440572233825036
 31
0.0
  0
LINE
  5
299
330
295
100
AcDbEntity
  8
0
 62
     0
370
    -2
100
AcDbLine
 10
16.23598395667432
 20
4.410572233825035
 30
0.0
 11
16.92398948917966
 21
4.410572233825035
 31
0.0
  0
LINE
  5
29A
330
295
100
AcDbEntity
  8
0
 62
     0
370
    -2
100
AcDbLine
 10
16.92398948917966
 20
4.410572233825035
 30
0.0
 11
17.07998948917966
 21
4.410572233825035
 31
0.0
  0
INSERT
  5
29B
330
295
100
AcDbEntity
  8
0
 62
     0
370
    -2
100
AcDbBlockReference
  2
_ArchTick
 10
16.23598395667432
 20
4.410572233825035
 30
0.0
 41
0.156
 42
0.156
 43
0.156
 50
180.0
  0
INSERT
  5
29C
330
295
100
AcDbEntity
  8
0
 62
     0
370
    -2
100
AcDbBlockReference
  2
_ArchTick
 10
16.92398948917966
 20
4.410572233825035
 30
0.0
 41
0.156
 42
0.156
 43
0.156
  0
MTEXT
  5
29D
330
295
100
AcDbEntity
  8
0
 62
     0
100
AcDbMText
 10
17.52292774719762
 20
4.612916719366394
 30
0.0
 40
0.3125
 41
0.0
 71
     5
 72
     1
  1
\A1;11/16"
 73
     1
 44
1.0
1001
ACAD
1000
MTEXTBEGIN
1070
    73
1070
     1
1070
    44
1040
1.0
1070
    74
1070
     0
1000
MTEXTEND
  0
MTEXT
  5
29E
330
295
100
AcDbEntity
  8
0
 62
     0
100
AcDbMText
 10
17.52292774719762
 20
4.190679833018042
 30
0.0
 40
0.3125
 41
0.0
 71
     5
 72
     1
  1
\A1;[17mm]
 73
     1
 44
1.0
1001
ACAD
1000
MTEXTBEGIN
1070
    73
1070
     1
1070
    44
1040
1.0
1070
    74
1070
     0
1000
MTEXTEND
  0
POINT
  5
29F
330
295
100
AcDbEntity
  8
Defpoints
 62
     0
100
AcDbPoint
 10
16.23598395667432
 20
4.272841386930636
 30
0.0
  0
POINT
  5
2A0
330
295
100
AcDbEntity
  8
Defpoints
 62
     0
100
AcDbPoint
 10
16.92398948917966
 20
4.272841386930636
 30
0.0
  0
POINT
  5
2A1
330
295
100
AcDbEntity
  8
Defpoints
 62
     0
100
AcDbPoint
 10
16.92398948917966
 20
4.410572233825035
 30
0.0
  0
ENDBLK
  5
2A2
330
295
100
AcDbEntity
  8
0
100
AcDbBlockEnd
  0
BLOCK
  5
2A7
330
2A6
100
AcDbEntity
  8
0
100
AcDbBlockBegin
  2
*D14
 70
     1
 10
0.0
 20
0.0
 30
0.0
  3
*D14
  1

  0
LINE
  5
2A8
330
2A6
100
AcDbEntity
  8
0
 62
     0
370
    -2
100
AcDbLine
 10
15.73598145827012
 20
6.482841466758663
 30
0.0
 11
15.73598145827012
 21
6.386539289285978
 31
0.0
  0
LINE
  5
2A9
330
2A6
100
AcDbEntity
  8
0
 62
     0
370
    -2
100
AcDbLine
 10
16.92398948917966
 20
6.482841466758663
 30
0.0
 11
16.92398948917966
 21
6.386539289285978
 31
0.0
  0
LINE
  5
2AA
330
2A6
100
AcDbEntity
  8
0
 62
     0
370
    -2
100
AcDbLine
 10
15.73598145827012
 20
6.416539289285978
 30
0.0
 11
16.92398948917966
 21
6.416539289285978
 31
0.0
  0
LINE
  5
2AB
330
2A6
100
AcDbEntity
  8
0
 62
     0
370
    -2
100
AcDbLine
 10
16.92398948917966
 20
6.416539289285978
 30
0.0
 11
17.07998948917966
 21
6.416539289285978
 31
0.0
  0
INSERT
  5
2AC
330
2A6
100
AcDbEntity
  8
0
 62
     0
370
    -2
100
AcDbBlockReference
  2
_ArchTick
 10
15.73598145827012
 20
6.416539289285978
 30
0.0
 41
0.156
 42
0.156
 43
0.156
 50
180.0
  0
INSERT
  5
2AD
330
2A6
100
AcDbEntity
  8
0
 62
     0
370
    -2
100
AcDbBlockReference
  2
_ArchTick
 10
16.92398948917966
 20
6.416539289285978
 30
0.0
 41
0.156
 42
0.156
 43
0.156
  0
MTEXT
  5
2AE
330
2A6
100
AcDbEntity
  8
0
 62
     0
100
AcDbMText
 10
17.61051494232796
 20
6.416539289285978
 30
0.0
 40
0.3125
 41
0.0
 71
     5
 72
     1
  1
\A1;1 3/16"\P [30mm]
 73
     1
 44
1.0
1001
ACAD
1000
MTEXTBEGIN
1070
    73
1070
     1
1070
    44
1040
1.0
1070
    74
1070
     0
1000
MTEXTEND
  0
POINT
  5
2AF
330
2A6
100
AcDbEntity
  8
Defpoints
 62
     0
100
AcDbPoint
 10
15.73598145827012
 20
6.522841466758663
 30
0.0
  0
POINT
  5
2B0
330
2A6
100
AcDbEntity
  8
Defpoints
 62
     0
100
AcDbPoint
 10
16.92398948917966
 20
6.522841466758663
 30
0.0
  0
POINT
  5
2B1
330
2A6
100
AcDbEntity
  8
Defpoints
 62
     0
100
AcDbPoint
 10
16.92398948917966
 20
6.416539289285978
 30
0.0
  0
ENDBLK
  5
2B2
330
2A6
100
AcDbEntity
  8
0
100
AcDbBlockEnd
  0
BLOCK
  5
2F0
330
2EF
100
AcDbEntity
  8
0
100
AcDbBlockBegin
  2
*D15
 70
     1
 10
0.0
 20
0.0
 30
0.0
  3
*D15
  1

  0
LINE
  5
2F1
330
2EF
100
AcDbEntity
  8
0
 62
     0
370
    -2
100
AcDbLine
 10
8.045856974047893
 20
17.58422985326914
 30
0.0
 11
8.045856974047893
 21
17.72983981472012
 31
0.0
  0
LINE
  5
2F2
330
2EF
100
AcDbEntity
  8
0
 62
     0
370
    -2
100
AcDbLine
 10
9.795856974047893
 20
17.73983981472012
 30
0.0
 11
9.795856974047893
 21
17.72983981472012
 31
0.0
  0
LINE
  5
2F3
330
2EF
100
AcDbEntity
  8
0
 62
     0
370
    -2
100
AcDbLine
 10
8.045856974047893
 20
17.69983981472012
 30
0.0
 11
8.477918716029936
 21
17.69983981472012
 31
0.0
  0
LINE
  5
2F4
330
2EF
100
AcDbEntity
  8
0
 62
     0
370
    -2
100
AcDbLine
 10
9.795856974047893
 20
17.69983981472012
 30
0.0
 11
9.36379523206585
 21
17.69983981472012
 31
0.0
  0
INSERT
  5
2F5
330
2EF
100
AcDbEntity
  8
0
 62
     0
370
    -2
100
AcDbBlockReference
  2
_ArchTick
 10
8.045856974047893
 20
17.69983981472012
 30
0.0
 41
0.156
 42
0.156
 43
0.156
 50
180.0
  0
INSERT
  5
2F6
330
2EF
100
AcDbEntity
  8
0
 62
     0
370
    -2
100
AcDbBlockReference
  2
_ArchTick
 10
9.795856974047893
 20
17.69983981472012
 30
0.0
 41
0.156
 42
0.156
 43
0.156
  0
MTEXT
  5
2F7
330
2EF
100
AcDbEntity
  8
0
 62
     0
100
AcDbMText
 10
8.920856974047893
 20
17.90218430026148
 30
0.0
 40
0.3125
 41
0.0
 71
     5
 72
     1
  1
\A1;1 3/4"
 73
     1
 44
1.0
1001
ACAD
1000
MTEXTBEGIN
1070
    73
1070
     1
1070
    44
1040
1.0
1070
    74
1070
     0
1000
MTEXTEND
  0
MTEXT
  5
2F8
330
2EF
100
AcDbEntity
  8
0
 62
     0
100
AcDbMText
 10
8.920856974047893
 20
17.47994741391313
 30
0.0
 40
0.3125
 41
0.0
 71
     5
 72
     1
  1
\A1;[44mm]
 73
     1
 44
1.0
1001
ACAD
1000
MTEXTBEGIN
1070
    73
1070
     1
1070
    44
1040
1.0
1070
    74
1070
     0
1000
MTEXTEND
  0
POINT
  5
2F9
330
2EF
100
AcDbEntity
  8
Defpoints
 62
     0
100
AcDbPoint
 10
8.045856974047893
 20
17.54422985326914
 30
0.0
  0
POINT
  5
2FA
330
2EF
100
AcDbEntity
  8
Defpoints
 62
     0
100
AcDbPoint
 10
9.795856974047893
 20
17.69983981472012
 30
0.0
  0
POINT
  5
2FB
330
2EF
100
AcDbEntity
  8
Defpoints
 62
     0
100
AcDbPoint
 10
9.795856974047893
 20
17.69983981472012
 30
0.0
  0
ENDBLK
  5
2FC
330
2EF
100
AcDbEntity
  8
0
100
AcDbBlockEnd
  0
BLOCK
  5
2B5
330
2B4
100
AcDbEntity
  8
0
100
AcDbBlockBegin
  2
*D16
 70
     1
 10
0.0
 20
0.0
 30
0.0
  3
*D16
  1

  0
LINE
  5
2B6
330
2B4
100
AcDbEntity
  8
0
 62
     0
370
    -2
100
AcDbLine
 10
8.067856974047906
 20
14.13772985326916
 30
0.0
 11
5.972993131255691
 21
14.13772985326916
 31
0.0
  0
LINE
  5
2B7
330
2B4
100
AcDbEntity
  8
0
 62
     0
370
    -2
100
AcDbLine
 10
8.39410204828129
 20
21.5130625460405
 30
0.0
 11
5.972993131255692
 21
21.51306254604051
 31
0.0
  0
LINE
  5
2B8
330
2B4
100
AcDbEntity
  8
0
 62
     0
370
    -2
100
AcDbLine
 10
6.002993131255691
 20
14.13772985326916
 30
0.0
 11
6.002993131255691
 21
17.40315931330648
 31
0.0
  0
LINE
  5
2B9
330
2B4
100
AcDbEntity
  8
0
 62
     0
370
    -2
100
AcDbLine
 10
6.002993131255692
 20
21.51306254604051
 30
0.0
 11
6.002993131255692
 21
18.24763308600319
 31
0.0
  0
INSERT
  5
2BA
330
2B4
100
AcDbEntity
  8
0
 62
     0
370
    -2
100
AcDbBlockReference
  2
_ArchTick
 10
6.002993131255691
 20
14.13772985326916
 30
0.0
 41
0.156
 42
0.156
 43
0.156
 50
270.0
  0
INSERT
  5
2BB
330
2B4
100
AcDbEntity
  8
0
 62
     0
370
    -2
100
AcDbBlockReference
  2
_ArchTick
 10
6.002993131255692
 20
21.51306254604051
 30
0.0
 41
0.156
 42
0.156
 43
0.156
 50
90.0
  0
MTEXT
  5
2BC
330
2B4
100
AcDbEntity
  8
0
 62
     0
100
AcDbMText
 10
6.002993131255689
 20
18.02774068519619
 30
0.0
 40
0.3125
 41
0.0
 71
     5
 72
     1
  1
\A1;7 3/8"
 73
     1
 44
1.0
1001
ACAD
1000
MTEXTBEGIN
1070
    73
1070
     1
1070
    44
1040
1.0
1070
    74
1070
     0
1000
MTEXTEND
  0
MTEXT
  5
2BD
330
2B4
100
AcDbEntity
  8
0
 62
     0
100
AcDbMText
 10
6.002993131255689
 20
17.60550379884784
 30
0.0
 40
0.3125
 41
0.0
 71
     5
 72
     1
  1
\A1;[187mm]
 73
     1
 44
1.0
1001
ACAD
1000
MTEXTBEGIN
1070
    73
1070
     1
1070
    44
1040
1.0
1070
    74
1070
     0
1000
MTEXTEND
  0
POINT
  5
2BE
330
2B4
100
AcDbEntity
  8
Defpoints
 62
     0
100
AcDbPoint
 10
8.107856974047905
 20
14.13772985326916
 30
0.0
  0
POINT
  5
2BF
330
2B4
100
AcDbEntity
  8
Defpoints
 62
     0
100
AcDbPoint
 10
8.434102048281289
 20
21.5130625460405
 30
0.0
  0
POINT
  5
2C0
330
2B4
100
AcDbEntity
  8
Defpoints
 62
     0
100
AcDbPoint
 10
6.002993131255692
 20
21.51306254604051
 30
0.0
  0
ENDBLK
  5
2C1
330
2B4
100
AcDbEntity
  8
0
100
AcDbBlockEnd
  0
BLOCK
  5
2C4
330
2C3
100
AcDbEntity
  8
0
100
AcDbBlockBegin
  2
*D17
 70
     1
 10
0.0
 20
0.0
 30
0.0
  3
*D17
  1

  0
LINE
  5
2C5
330
2C3
100
AcDbEntity
  8
0
 62
     0
370
    -2
100
AcDbLine
 10
8.067856974047892
 20
14.13772985326916
 30
0.0
 11
5.972993131255693
 21
14.13772985326916
 31
0.0
  0
LINE
  5
2C6
330
2C3
100
AcDbEntity
  8
0
 62
     0
370
    -2
100
AcDbLine
 10
7.037737908266243
 20
12.82522985326916
 30
0.0
 11
5.972993131255692
 21
12.82522985326916
 31
0.0
  0
LINE
  5
2C7
330
2C3
100
AcDbEntity
  8
0
 62
     0
370
    -2
100
AcDbLine
 10
6.002993131255693
 20
14.13772985326916
 30
0.0
 11
6.002993131255692
 21
13.90371673961751
 31
0.0
  0
LINE
  5
2C8
330
2C3
100
AcDbEntity
  8
0
 62
     0
370
    -2
100
AcDbLine
 10
6.002993131255692
 20
12.82522985326916
 30
0.0
 11
6.002993131255692
 21
13.05924296692081
 31
0.0
  0
INSERT
  5
2C9
330
2C3
100
AcDbEntity
  8
0
 62
     0
370
    -2
100
AcDbBlockReference
  2
_ArchTick
 10
6.002993131255693
 20
14.13772985326916
 30
0.0
 41
0.156
 42
0.156
 43
0.156
 50
90.0
  0
INSERT
  5
2CA
330
2C3
100
AcDbEntity
  8
0
 62
     0
370
    -2
100
AcDbBlockReference
  2
_ArchTick
 10
6.002993131255692
 20
12.82522985326916
 30
0.0
 41
0.156
 42
0.156
 43
0.156
 50
270.0
  0
MTEXT
  5
2CB
330
2C3
100
AcDbEntity
  8
0
 62
     0
100
AcDbMText
 10
6.00299313125569
 20
13.68382433881052
 30
0.0
 40
0.3125
 41
0.0
 71
     5
 72
     1
  1
\A1;1 5/16"
 73
     1
 44
1.0
1001
ACAD
1000
MTEXTBEGIN
1070
    73
1070
     1
1070
    44
1040
1.0
1070
    74
1070
     0
1000
MTEXTEND
  0
MTEXT
  5
2CC
330
2C3
100
AcDbEntity
  8
0
 62
     0
100
AcDbMText
 10
6.00299313125569
 20
13.26158745246217
 30
0.0
 40
0.3125
 41
0.0
 71
     5
 72
     1
  1
\A1;[33mm]
 73
     1
 44
1.0
1001
ACAD
1000
MTEXTBEGIN
1070
    73
1070
     1
1070
    44
1040
1.0
1070
    74
1070
     0
1000
MTEXTEND
  0
POINT
  5
2CD
330
2C3
100
AcDbEntity
  8
Defpoints
 62
     0
100
AcDbPoint
 10
8.107856974047891
 20
14.13772985326916
 30
0.0
  0
POINT
  5
2CE
330
2C3
100
AcDbEntity
  8
Defpoints
 62
     0
100
AcDbPoint
 10
7.077737908266243
 20
12.82522985326916
 30
0.0
  0
POINT
  5
2CF
330
2C3
100
AcDbEntity
  8
Defpoints
 62
     0
100
AcDbPoint
 10
6.002993131255692
 20
12.82522985326916
 30
0.0
  0
ENDBLK
  5
2D0
330
2C3
100
AcDbEntity
  8
0
100
AcDbBlockEnd
  0
BLOCK
  5
2D3
330
2D2
100
AcDbEntity
  8
0
100
AcDbBlockBegin
  2
*D18
 70
     1
 10
0.0
 20
0.0
 30
0.0
  3
*D18
  1

  0
LINE
  5
2D4
330
2D2
100
AcDbEntity
  8
0
 62
     0
370
    -2
100
AcDbLine
 10
8.394102048281318
 20
22.8882692823292
 30
0.0
 11
5.972993131255691
 21
22.88826928232921
 31
0.0
  0
LINE
  5
2D5
330
2D2
100
AcDbEntity
  8
0
 62
     0
370
    -2
100
AcDbLine
 10
8.067856974047906
 20
27.48060197510056
 30
0.0
 11
5.972993131255692
 21
27.48060197510056
 31
0.0
  0
LINE
  5
2D6
330
2D2
100
AcDbEntity
  8
0
 62
     0
370
    -2
100
AcDbLine
 10
6.002993131255691
 20
22.88826928232921
 30
0.0
 11
6.002993131255691
 21
24.76219874236653
 31
0.0
  0
LINE
  5
2D7
330
2D2
100
AcDbEntity
  8
0
 62
     0
370
    -2
100
AcDbLine
 10
6.002993131255692
 20
27.48060197510056
 30
0.0
 11
6.002993131255691
 21
25.60667251506324
 31
0.0
  0
INSERT
  5
2D8
330
2D2
100
AcDbEntity
  8
0
 62
     0
370
    -2
100
AcDbBlockReference
  2
_ArchTick
 10
6.002993131255691
 20
22.88826928232921
 30
0.0
 41
0.156
 42
0.156
 43
0.156
 50
270.0
  0
INSERT
  5
2D9
330
2D2
100
AcDbEntity
  8
0
 62
     0
370
    -2
100
AcDbBlockReference
  2
_ArchTick
 10
6.002993131255692
 20
27.48060197510056
 30
0.0
 41
0.156
 42
0.156
 43
0.156
 50
90.0
  0
MTEXT
  5
2DA
330
2D2
100
AcDbEntity
  8
0
 62
     0
100
AcDbMText
 10
6.002993131255688
 20
25.38678011425624
 30
0.0
 40
0.3125
 41
0.0
 71
     5
 72
     1
  1
\A1;4 19/32"
 73
     1
 44
1.0
1001
ACAD
1000
MTEXTBEGIN
1070
    73
1070
     1
1070
    44
1040
1.0
1070
    74
1070
     0
1000
MTEXTEND
  0
MTEXT
  5
2DB
330
2D2
100
AcDbEntity
  8
0
 62
     0
100
AcDbMText
 10
6.002993131255688
 20
24.96454322790789
 30
0.0
 40
0.3125
 41
0.0
 71
     5
 72
     1
  1
\A1;[117mm]
 73
     1
 44
1.0
1001
ACAD
1000
MTEXTBEGIN
1070
    73
1070
     1
1070
    44
1040
1.0
1070
    74
1070
     0
1000
MTEXTEND
  0
POINT
  5
2DC
330
2D2
100
AcDbEntity
  8
Defpoints
 62
     0
100
AcDbPoint
 10
8.434102048281317
 20
22.8882692823292
 30
0.0
  0
POINT
  5
2DD
330
2D2
100
AcDbEntity
  8
Defpoints
 62
     0
100
AcDbPoint
 10
8.107856974047905
 20
27.48060197510056
 30
0.0
  0
POINT
  5
2DE
330
2D2
100
AcDbEntity
  8
Defpoints
 62
     0
100
AcDbPoint
 10
6.002993131255692
 20
27.48060197510056
 30
0.0
  0
ENDBLK
  5
2DF
330
2D2
100
AcDbEntity
  8
0
100
AcDbBlockEnd
  0
BLOCK
  5
2E2
330
2E1
100
AcDbEntity
  8
0
100
AcDbBlockBegin
  2
*D19
 70
     1
 10
0.0
 20
0.0
 30
0.0
  3
*D19
  1

  0
LINE
  5
2E3
330
2E1
100
AcDbEntity
  8
0
 62
     0
370
    -2
100
AcDbLine
 10
8.394102048281318
 20
22.8882692823292
 30
0.0
 11
5.972993131255693
 21
22.88826928232921
 31
0.0
  0
LINE
  5
2E4
330
2E1
100
AcDbEntity
  8
0
 62
     0
370
    -2
100
AcDbLine
 10
8.39410204828129
 20
21.5130625460405
 30
0.0
 11
5.972993131255692
 21
21.51306254604051
 31
0.0
  0
LINE
  5
2E5
330
2E1
100
AcDbEntity
  8
0
 62
     0
370
    -2
100
AcDbLine
 10
6.002993131255693
 20
22.88826928232921
 30
0.0
 11
6.002993131255693
 21
22.40301039972622
 31
0.0
  0
LINE
  5
2E6
330
2E1
100
AcDbEntity
  8
0
 62
     0
370
    -2
100
AcDbLine
 10
6.002993131255692
 20
21.51306254604051
 30
0.0
 11
6.002993131255692
 21
21.9983214286435
 31
0.0
  0
INSERT
  5
2E7
330
2E1
100
AcDbEntity
  8
0
 62
     0
370
    -2
100
AcDbBlockReference
  2
_ArchTick
 10
6.002993131255693
 20
22.88826928232921
 30
0.0
 41
0.156
 42
0.156
 43
0.156
 50
90.0
  0
INSERT
  5
2E8
330
2E1
100
AcDbEntity
  8
0
 62
     0
370
    -2
100
AcDbBlockReference
  2
_ArchTick
 10
6.002993131255692
 20
21.51306254604051
 30
0.0
 41
0.156
 42
0.156
 43
0.156
 50
270.0
  0
MTEXT
  5
2E9
330
2E1
100
AcDbEntity
  8
0
 62
     0
100
AcDbMText
 10
6.002993131255689
 20
22.20066591418486
 30
0.0
 40
0.3125
 41
0.0
 71
     5
 72
     1
  1
\A1;DAYLIGHT OPENING
 73
     1
 44
1.0
1001
ACAD
1000
MTEXTBEGIN
1070
    73
1070
     1
1070
    44
1040
1.0
1070
    74
1070
     0
1000
MTEXTEND
  0
POINT
  5
2EA
330
2E1
100
AcDbEntity
  8
Defpoints
 62
     0
100
AcDbPoint
 10
8.434102048281317
 20
22.8882692823292
 30
0.0
  0
POINT
  5
2EB
330
2E1
100
AcDbEntity
  8
Defpoints
 62
     0
100
AcDbPoint
 10
8.434102048281289
 20
21.5130625460405
 30
0.0
  0
POINT
  5
2EC
330
2E1
100
AcDbEntity
  8
Defpoints
 62
     0
100
AcDbPoint
 10
6.002993131255692
 20
21.51306254604051
 30
0.0
  0
ENDBLK
  5
2ED
330
2E1
100
AcDbEntity
  8
0
100
AcDbBlockEnd
  0
BLOCK
  5
301
330
300
100
AcDbEntity
  8
0
100
AcDbBlockBegin
  2
*D20
 70
     1
 10
0.0
 20
0.0
 30
0.0
  3
*D20
  1

  0
LINE
  5
302
330
300
100
AcDbEntity
  8
0
 62
     0
370
    -2
100
AcDbLine
 10
8.107856974047962
 20
29.1456075076059
 30
0.0
 11
8.107856974047962
 21
29.65229488706098
 31
0.0
  0
LINE
  5
303
330
300
100
AcDbEntity
  8
0
 62
     0
370
    -2
100
AcDbLine
 10
14.60835697404798
 20
28.23560750760588
 30
0.0
 11
14.60835697404798
 21
29.65229488706098
 31
0.0
  0
LINE
  5
304
330
300
100
AcDbEntity
  8
0
 62
     0
370
    -2
100
AcDbLine
 10
8.107856974047962
 20
29.62229488706098
 30
0.0
 11
10.84684766504112
 21
29.62229488706098
 31
0.0
  0
LINE
  5
305
330
300
100
AcDbEntity
  8
0
 62
     0
370
    -2
100
AcDbLine
 10
14.60835697404798
 20
29.62229488706098
 30
0.0
 11
11.86936628305482
 21
29.62229488706098
 31
0.0
  0
INSERT
  5
306
330
300
100
AcDbEntity
  8
0
 62
     0
370
    -2
100
AcDbBlockReference
  2
_ArchTick
 10
8.107856974047962
 20
29.62229488706098
 30
0.0
 41
0.156
 42
0.156
 43
0.156
 50
180.0
  0
INSERT
  5
307
330
300
100
AcDbEntity
  8
0
 62
     0
370
    -2
100
AcDbBlockReference
  2
_ArchTick
 10
14.60835697404798
 20
29.62229488706098
 30
0.0
 41
0.156
 42
0.156
 43
0.156
  0
MTEXT
  5
308
330
300
100
AcDbEntity
  8
0
 62
     0
100
AcDbMText
 10
11.35810697404797
 20
29.82463937260233
 30
0.0
 40
0.3125
 41
0.0
 71
     5
 72
     1
  1
\A1;6 1/2"
 73
     1
 44
1.0
1001
ACAD
1000
MTEXTBEGIN
1070
    73
1070
     1
1070
    44
1040
1.0
1070
    74
1070
     0
1000
MTEXTEND
  0
MTEXT
  5
309
330
300
100
AcDbEntity
  8
0
 62
     0
100
AcDbMText
 10
11.35810697404797
 20
29.40240248625398
 30
0.0
 40
0.3125
 41
0.0
 71
     5
 72
     1
  1
\A1;[165mm]
 73
     1
 44
1.0
1001
ACAD
1000
MTEXTBEGIN
1070
    73
1070
     1
1070
    44
1040
1.0
1070
    74
1070
     0
1000
MTEXTEND
  0
POINT
  5
30A
330
300
100
AcDbEntity
  8
Defpoints
 62
     0
100
AcDbPoint
 10
8.107856974047962
 20
29.1056075076059
 30
0.0
  0
POINT
  5
30B
330
300
100
AcDbEntity
  8
Defpoints
 62
     0
100
AcDbPoint
 10
14.60835697404798
 20
28.19560750760589
 30
0.0
  0
POINT
  5
30C
330
300
100
AcDbEntity
  8
Defpoints
 62
     0
100
AcDbPoint
 10
14.60835697404798
 20
29.62229488706098
 30
0.0
  0
ENDBLK
  5
30D
330
300
100
AcDbEntity
  8
0
100
AcDbBlockEnd
  0
BLOCK
  5
312
330
311
100
AcDbEntity
  8
0
100
AcDbBlockBegin
  2
*D21
 70
     1
 10
0.0
 20
0.0
 30
0.0
  3
*D21
  1

  0
LINE
  5
313
330
311
100
AcDbEntity
  8
0
 62
     0
370
    -2
100
AcDbLine
 10
9.099356974047914
 20
27.60560197510056
 30
0.0
 11
8.978635789296589
 21
27.60560197510056
 31
0.0
  0
LINE
  5
314
330
311
100
AcDbEntity
  8
0
 62
     0
370
    -2
100
AcDbLine
 10
8.835915482935952
 20
28.2936075076059
 30
0.0
 11
9.03863578929659
 21
28.2936075076059
 31
0.0
  0
LINE
  5
315
330
311
100
AcDbEntity
  8
0
 62
     0
370
    -2
100
AcDbLine
 10
9.008635789296588
 20
27.60560197510056
 30
0.0
 11
9.00863578929659
 21
28.2936075076059
 31
0.0
  0
LINE
  5
316
330
311
100
AcDbEntity
  8
0
 62
     0
370
    -2
100
AcDbLine
 10
9.00863578929659
 20
28.2936075076059
 30
0.0
 11
9.00863578929659
 21
28.80890660954908
 31
0.0
  0
LINE
  5
317
330
311
100
AcDbEntity
  8
0
 62
     0
370
    -2
100
AcDbLine
 10
9.00863578929659
 20
28.80890660954908
 30
0.0
 11
9.164635789296591
 21
28.80890660954908
 31
0.0
  0
INSERT
  5
318
330
311
100
AcDbEntity
  8
0
 62
     0
370
    -2
100
AcDbBlockReference
  2
_ArchTick
 10
9.008635789296588
 20
27.60560197510056
 30
0.0
 41
0.156
 42
0.156
 43
0.156
 50
270.0
  0
INSERT
  5
319
330
311
100
AcDbEntity
  8
0
 62
     0
370
    -2
100
AcDbBlockReference
  2
_ArchTick
 10
9.00863578929659
 20
28.2936075076059
 30
0.0
 41
0.156
 42
0.156
 43
0.156
 50
90.0
  0
MTEXT
  5
31A
330
311
100
AcDbEntity
  8
0
 62
     0
100
AcDbMText
 10
9.695161242444882
 20
28.80890660954908
 30
0.0
 40
0.3125
 41
0.0
 71
     5
 72
     1
  1
\A1;11/16"\P [17mm]
 73
     1
 44
1.0
1001
ACAD
1000
MTEXTBEGIN
1070
    73
1070
     1
1070
    44
1040
1.0
1070
    74
1070
     0
1000
MTEXTEND
  0
POINT
  5
31B
330
311
100
AcDbEntity
  8
Defpoints
 62
     0
100
AcDbPoint
 10
9.139356974047913
 20
27.60560197510056
 30
0.0
  0
POINT
  5
31C
330
311
100
AcDbEntity
  8
Defpoints
 62
     0
100
AcDbPoint
 10
8.795915482935953
 20
28.2936075076059
 30
0.0
  0
POINT
  5
31D
330
311
100
AcDbEntity
  8
Defpoints
 62
     0
100
AcDbPoint
 10
9.00863578929659
 20
28.2936075076059
 30
0.0
  0
ENDBLK
  5
31E
330
311
100
AcDbEntity
  8
0
100
AcDbBlockEnd
  0
BLOCK
  5
323
330
322
100
AcDbEntity
  8
0
100
AcDbBlockBegin
  2
*D22
 70
     1
 10
0.0
 20
0.0
 30
0.0
  3
*D22
  1

  0
LINE
  5
324
330
322
100
AcDbEntity
  8
0
 62
     0
370
    -2
100
AcDbLine
 10
11.08184088867569
 20
28.2936075076059
 30
0.0
 11
11.29790505948097
 21
28.2936075076059
 31
0.0
  0
LINE
  5
325
330
322
100
AcDbEntity
  8
0
 62
     0
370
    -2
100
AcDbLine
 10
11.08184400544098
 20
27.1055985649889
 30
0.0
 11
11.29790505948096
 21
27.1055985649889
 31
0.0
  0
LINE
  5
326
330
322
100
AcDbEntity
  8
0
 62
     0
370
    -2
100
AcDbLine
 10
11.26790505948097
 20
28.2936075076059
 30
0.0
 11
11.26790505948097
 21
28.12183992264575
 31
0.0
  0
LINE
  5
327
330
322
100
AcDbEntity
  8
0
 62
     0
370
    -2
100
AcDbLine
 10
11.26790505948096
 20
27.1055985649889
 30
0.0
 11
11.26790505948096
 21
27.27736614994905
 31
0.0
  0
INSERT
  5
328
330
322
100
AcDbEntity
  8
0
 62
     0
370
    -2
100
AcDbBlockReference
  2
_ArchTick
 10
11.26790505948097
 20
28.2936075076059
 30
0.0
 41
0.156
 42
0.156
 43
0.156
 50
90.0
  0
INSERT
  5
329
330
322
100
AcDbEntity
  8
0
 62
     0
370
    -2
100
AcDbBlockReference
  2
_ArchTick
 10
11.26790505948096
 20
27.1055985649889
 30
0.0
 41
0.156
 42
0.156
 43
0.156
 50
270.0
  0
MTEXT
  5
32A
330
322
100
AcDbEntity
  8
0
 62
     0
100
AcDbMText
 10
11.26790505948096
 20
27.90194752183876
 30
0.0
 40
0.3125
 41
0.0
 71
     5
 72
     1
  1
\A1;1 3/16"
 73
     1
 44
1.0
1001
ACAD
1000
MTEXTBEGIN
1070
    73
1070
     1
1070
    44
1040
1.0
1070
    74
1070
     0
1000
MTEXTEND
  0
MTEXT
  5
32B
330
322
100
AcDbEntity
  8
0
 62
     0
100
AcDbMText
 10
11.26790505948096
 20
27.47971063549041
 30
0.0
 40
0.3125
 41
0.0
 71
     5
 72
     1
  1
\A1;[30mm]
 73
     1
 44
1.0
1001
ACAD
1000
MTEXTBEGIN
1070
    73
1070
     1
1070
    44
1040
1.0
1070
    74
1070
     0
1000
MTEXTEND
  0
POINT
  5
32C
330
322
100
AcDbEntity
  8
Defpoints
 62
     0
100
AcDbPoint
 10
11.04184088867569
 20
28.2936075076059
 30
0.0
  0
POINT
  5
32D
330
322
100
AcDbEntity
  8
Defpoints
 62
     0
100
AcDbPoint
 10
11.04184400544098
 20
27.1055985649889
 30
0.0
  0
POINT
  5
32E
330
322
100
AcDbEntity
  8
Defpoints
 62
     0
100
AcDbPoint
 10
11.26790505948096
 20
27.1055985649889
 30
0.0
  0
ENDBLK
  5
32F
330
322
100
AcDbEntity
  8
0
100
AcDbBlockEnd
  0
BLOCK
  5
340
330
33F
100
AcDbEntity
  8
0
100
AcDbBlockBegin
  2
*D23
 70
     1
 10
0.0
 20
0.0
 30
0.0
  3
*D23
  1

  0
LINE
  5
341
330
33F
100
AcDbEntity
  8
0
 62
     0
370
    -2
100
AcDbLine
 10
12.89801312031697
 20
12.82522984335138
 30
0.0
 11
16.41137082337786
 21
12.82522984335138
 31
0.0
  0
LINE
  5
342
330
33F
100
AcDbEntity
  8
0
 62
     0
370
    -2
100
AcDbLine
 10
13.62082387629743
 20
29.0436075076059
 30
0.0
 11
16.41137082337786
 21
29.0436075076059
 31
0.0
  0
LINE
  5
343
330
33F
100
AcDbEntity
  8
0
 62
     0
370
    -2
100
AcDbLine
 10
16.38137082337786
 20
12.82522984335138
 30
0.0
 11
16.38137082337786
 21
20.46861028049994
 31
0.0
  0
LINE
  5
344
330
33F
100
AcDbEntity
  8
0
 62
     0
370
    -2
100
AcDbLine
 10
16.38137082337786
 20
29.0436075076059
 30
0.0
 11
16.38137082337786
 21
21.40022707045734
 31
0.0
  0
INSERT
  5
345
330
33F
100
AcDbEntity
  8
0
 62
     0
370
    -2
100
AcDbBlockReference
  2
_ArchTick
 10
16.38137082337786
 20
12.82522984335138
 30
0.0
 41
0.156
 42
0.156
 43
0.156
 50
270.0
  0
INSERT
  5
346
330
33F
100
AcDbEntity
  8
0
 62
     0
370
    -2
100
AcDbBlockReference
  2
_ArchTick
 10
16.38137082337786
 20
29.0436075076059
 30
0.0
 41
0.156
 42
0.156
 43
0.156
 50
90.0
  0
MTEXT
  5
347
330
33F
100
AcDbEntity
  8
0
 62
     0
100
AcDbMText
 10
16.38137082337786
 20
20.93441867547864
 30
0.0
 40
0.3125
 41
0.0
 71
     5
 72
     1
  1
\A1;ROUGH\POPENING
 73
     1
 44
1.0
1001
ACAD
1000
MTEXTBEGIN
1070
    73
1070
     1
1070
    44
1040
1.0
1070
    74
1070
     0
1000
MTEXTEND
  0
POINT
  5
348
330
33F
100
AcDbEntity
  8
Defpoints
 62
     0
100
AcDbPoint
 10
12.85801312031697
 20
12.82522984335138
 30
0.0
  0
POINT
  5
349
330
33F
100
AcDbEntity
  8
Defpoints
 62
     0
100
AcDbPoint
 10
13.58082387629743
 20
29.0436075076059
 30
0.0
  0
POINT
  5
34A
330
33F
100
AcDbEntity
  8
Defpoints
 62
     0
100
AcDbPoint
 10
16.38137082337786
 20
29.0436075076059
 30
0.0
  0
ENDBLK
  5
34B
330
33F
100
AcDbEntity
  8
0
100
AcDbBlockEnd
  0
BLOCK
  5
34E
330
34D
100
AcDbEntity
  8
0
100
AcDbBlockBegin
  2
*D24
 70
     1
 10
0.0
 20
0.0
 30
0.0
  3
*D24
  1

  0
LINE
  5
34F
330
34D
100
AcDbEntity
  8
0
 62
     0
370
    -2
100
AcDbLine
 10
11.96135697404796
 20
28.2936075076059
 30
0.0
 11
15.20029077854689
 21
28.2936075076059
 31
0.0
  0
LINE
  5
350
330
34D
100
AcDbEntity
  8
0
 62
     0
370
    -2
100
AcDbLine
 10
13.62082387629743
 20
29.0436075076059
 30
0.0
 11
15.20029077854689
 21
29.0436075076059
 31
0.0
  0
LINE
  5
351
330
34D
100
AcDbEntity
  8
0
 62
     0
370
    -2
100
AcDbLine
 10
15.17029077854689
 20
28.2936075076059
 30
0.0
 11
15.17029077854689
 21
29.0436075076059
 31
0.0
  0
LINE
  5
352
330
34D
100
AcDbEntity
  8
0
 62
     0
370
    -2
100
AcDbLine
 10
15.17029077854689
 20
29.0436075076059
 30
0.0
 11
15.17029077854689
 21
29.59321829161219
 31
0.0
  0
LINE
  5
353
330
34D
100
AcDbEntity
  8
0
 62
     0
370
    -2
100
AcDbLine
 10
15.17029077854689
 20
29.59321829161219
 30
0.0
 11
15.32629077854689
 21
29.59321829161219
 31
0.0
  0
INSERT
  5
354
330
34D
100
AcDbEntity
  8
0
 62
     0
370
    -2
100
AcDbBlockReference
  2
_ArchTick
 10
15.17029077854689
 20
28.2936075076059
 30
0.0
 41
0.156
 42
0.156
 43
0.156
 50
270.0
  0
INSERT
  5
355
330
34D
100
AcDbEntity
  8
0
 62
     0
370
    -2
100
AcDbBlockReference
  2
_ArchTick
 10
15.17029077854689
 20
29.0436075076059
 30
0.0
 41
0.156
 42
0.156
 43
0.156
 50
90.0
  0
MTEXT
  5
356
330
34D
100
AcDbEntity
  8
0
 62
     0
100
AcDbMText
 10
15.85681623169518
 20
29.59321829161219
 30
0.0
 40
0.3125
 41
0.0
 71
     5
 72
     1
  1
\A1;3/4"\P [19mm]
 73
     1
 44
1.0
1001
ACAD
1000
MTEXTBEGIN
1070
    73
1070
     1
1070
    44
1040
1.0
1070
    74
1070
     0
1000
MTEXTEND
  0
POINT
  5
357
330
34D
100
AcDbEntity
  8
Defpoints
 62
     0
100
AcDbPoint
 10
11.92135697404796
 20
28.2936075076059
 30
0.0
  0
POINT
  5
358
330
34D
100
AcDbEntity
  8
Defpoints
 62
     0
100
AcDbPoint
 10
13.58082387629743
 20
29.0436075076059
 30
0.0
  0
POINT
  5
359
330
34D
100
AcDbEntity
  8
Defpoints
 62
     0
100
AcDbPoint
 10
15.17029077854689
 20
29.0436075076059
 30
0.0
  0
ENDBLK
  5
35A
330
34D
100
AcDbEntity
  8
0
100
AcDbBlockEnd
  0
BLOCK
  5
332
330
331
100
AcDbEntity
  8
0
100
AcDbBlockBegin
  2
*D25
 70
     1
 10
0.0
 20
0.0
 30
0.0
  3
*D25
  1

  0
LINE
  5
333
330
331
100
AcDbEntity
  8
0
 62
     0
370
    -2
100
AcDbLine
 10
11.96135697404796
 20
28.2936075076059
 30
0.0
 11
15.20029077854689
 21
28.2936075076059
 31
0.0
  0
LINE
  5
334
330
331
100
AcDbEntity
  8
0
 62
     0
370
    -2
100
AcDbLine
 10
12.89801312031697
 20
12.82522984335138
 30
0.0
 11
15.20029077854688
 21
12.82522984335138
 31
0.0
  0
LINE
  5
335
330
331
100
AcDbEntity
  8
0
 62
     0
370
    -2
100
AcDbLine
 10
15.17029077854689
 20
28.2936075076059
 30
0.0
 11
15.17029077854689
 21
21.14383546184718
 31
0.0
  0
LINE
  5
336
330
331
100
AcDbEntity
  8
0
 62
     0
370
    -2
100
AcDbLine
 10
15.17029077854689
 20
12.82522984335138
 30
0.0
 11
15.17029077854689
 21
20.73914649076447
 31
0.0
  0
INSERT
  5
337
330
331
100
AcDbEntity
  8
0
 62
     0
370
    -2
100
AcDbBlockReference
  2
_ArchTick
 10
15.17029077854689
 20
28.2936075076059
 30
0.0
 41
0.156
 42
0.156
 43
0.156
 50
90.0
  0
INSERT
  5
338
330
331
100
AcDbEntity
  8
0
 62
     0
370
    -2
100
AcDbBlockReference
  2
_ArchTick
 10
15.17029077854689
 20
12.82522984335138
 30
0.0
 41
0.156
 42
0.156
 43
0.156
 50
270.0
  0
MTEXT
  5
339
330
331
100
AcDbEntity
  8
0
 62
     0
100
AcDbMText
 10
15.17029077854688
 20
20.94149097630583
 30
0.0
 40
0.3125
 41
0.0
 71
     5
 72
     1
  1
\A1;BOX
 73
     1
 44
1.0
1001
ACAD
1000
MTEXTBEGIN
1070
    73
1070
     1
1070
    44
1040
1.0
1070
    74
1070
     0
1000
MTEXTEND
  0
POINT
  5
33A
330
331
100
AcDbEntity
  8
Defpoints
 62
     0
100
AcDbPoint
 10
11.92135697404796
 20
28.2936075076059
 30
0.0
  0
POINT
  5
33B
330
331
100
AcDbEntity
  8
Defpoints
 62
     0
100
AcDbPoint
 10
12.85801312031697
 20
12.82522984335138
 30
0.0
  0
POINT
  5
33C
330
331
100
AcDbEntity
  8
Defpoints
 62
     0
100
AcDbPoint
 10
15.17029077854689
 20
12.82522984335138
 30
0.0
  0
ENDBLK
  5
33D
330
331
100
AcDbEntity
  8
0
100
AcDbBlockEnd
  0
BLOCK
  5
360
330
35F
100
AcDbEntity
  8
0
100
AcDbBlockBegin
  2
*D26
 70
     1
 10
0.0
 20
0.0
 30
0.0
  3
*D26
  1

  0
LINE
  5
361
330
35F
100
AcDbEntity
  8
0
 62
     0
370
    -2
100
AcDbLine
 10
8.394102048281322
 20
22.8882692823292
 30
0.0
 11
4.295418220419065
 21
22.88826928232921
 31
0.0
  0
LINE
  5
362
330
35F
100
AcDbEntity
  8
0
 62
     0
370
    -2
100
AcDbLine
 10
7.066856974047929
 20
28.2936075076059
 30
0.0
 11
4.295418220419066
 21
28.2936075076059
 31
0.0
  0
LINE
  5
363
330
35F
100
AcDbEntity
  8
0
 62
     0
370
    -2
100
AcDbLine
 10
4.325418220419066
 20
22.88826928232921
 30
0.0
 11
4.325418220419066
 21
25.1687015086192
 31
0.0
  0
LINE
  5
364
330
35F
100
AcDbEntity
  8
0
 62
     0
370
    -2
100
AcDbLine
 10
4.325418220419066
 20
28.2936075076059
 30
0.0
 11
4.325418220419066
 21
26.0131752813159
 31
0.0
  0
INSERT
  5
365
330
35F
100
AcDbEntity
  8
0
 62
     0
370
    -2
100
AcDbBlockReference
  2
_ArchTick
 10
4.325418220419066
 20
22.88826928232921
 30
0.0
 41
0.156
 42
0.156
 43
0.156
 50
270.0
  0
INSERT
  5
366
330
35F
100
AcDbEntity
  8
0
 62
     0
370
    -2
100
AcDbBlockReference
  2
_ArchTick
 10
4.325418220419066
 20
28.2936075076059
 30
0.0
 41
0.156
 42
0.156
 43
0.156
 50
90.0
  0
MTEXT
  5
367
330
35F
100
AcDbEntity
  8
0
 62
     0
100
AcDbMText
 10
4.325418220419062
 20
25.79328288050891
 30
0.0
 40
0.3125
 41
0.0
 71
     5
 72
     1
  1
\A1;5 13/32"
 73
     1
 44
1.0
1001
ACAD
1000
MTEXTBEGIN
1070
    73
1070
     1
1070
    44
1040
1.0
1070
    74
1070
     0
1000
MTEXTEND
  0
MTEXT
  5
368
330
35F
100
AcDbEntity
  8
0
 62
     0
100
AcDbMText
 10
4.325418220419062
 20
25.37104599416056
 30
0.0
 40
0.3125
 41
0.0
 71
     5
 72
     1
  1
\A1;[137mm]
 73
     1
 44
1.0
1001
ACAD
1000
MTEXTBEGIN
1070
    73
1070
     1
1070
    44
1040
1.0
1070
    74
1070
     0
1000
MTEXTEND
  0
POINT
  5
369
330
35F
100
AcDbEntity
  8
Defpoints
 62
     0
100
AcDbPoint
 10
8.434102048281321
 20
22.8882692823292
 30
0.0
  0
POINT
  5
36A
330
35F
100
AcDbEntity
  8
Defpoints
 62
     0
100
AcDbPoint
 10
7.106856974047929
 20
28.2936075076059
 30
0.0
  0
POINT
  5
36B
330
35F
100
AcDbEntity
  8
Defpoints
 62
     0
100
AcDbPoint
 10
4.325418220419066
 20
28.2936075076059
 30
0.0
  0
ENDBLK
  5
36C
330
35F
100
AcDbEntity
  8
0
100
AcDbBlockEnd
  0
BLOCK
  5
371
330
370
100
AcDbEntity
  8
0
100
AcDbBlockBegin
  2
*D27
 70
     1
 10
0.0
 20
0.0
 30
0.0
  3
*D27
  1

  0
LINE
  5
372
330
370
100
AcDbEntity
  8
0
 62
     0
370
    -2
100
AcDbLine
 10
8.394102048281293
 20
21.5130625460405
 30
0.0
 11
4.295418220419064
 21
21.51306254604051
 31
0.0
  0
LINE
  5
373
330
370
100
AcDbEntity
  8
0
 62
     0
370
    -2
100
AcDbLine
 10
6.997737908266243
 20
12.82522985326916
 30
0.0
 11
4.295418220419063
 21
12.82522985326916
 31
0.0
  0
LINE
  5
374
330
370
100
AcDbEntity
  8
0
 62
     0
370
    -2
100
AcDbLine
 10
4.325418220419065
 20
21.51306254604051
 30
0.0
 11
4.325418220419064
 21
17.59138308600318
 31
0.0
  0
LINE
  5
375
330
370
100
AcDbEntity
  8
0
 62
     0
370
    -2
100
AcDbLine
 10
4.325418220419063
 20
12.82522985326916
 30
0.0
 11
4.325418220419064
 21
16.74690931330648
 31
0.0
  0
INSERT
  5
376
330
370
100
AcDbEntity
  8
0
 62
     0
370
    -2
100
AcDbBlockReference
  2
_ArchTick
 10
4.325418220419065
 20
21.51306254604051
 30
0.0
 41
0.156
 42
0.156
 43
0.156
 50
90.0
  0
INSERT
  5
377
330
370
100
AcDbEntity
  8
0
 62
     0
370
    -2
100
AcDbBlockReference
  2
_ArchTick
 10
4.325418220419063
 20
12.82522985326916
 30
0.0
 41
0.156
 42
0.156
 43
0.156
 50
270.0
  0
MTEXT
  5
378
330
370
100
AcDbEntity
  8
0
 62
     0
100
AcDbMText
 10
4.325418220419061
 20
17.37149068519619
 30
0.0
 40
0.3125
 41
0.0
 71
     5
 72
     1
  1
\A1;8 11/16"
 73
     1
 44
1.0
1001
ACAD
1000
MTEXTBEGIN
1070
    73
1070
     1
1070
    44
1040
1.0
1070
    74
1070
     0
1000
MTEXTEND
  0
MTEXT
  5
379
330
370
100
AcDbEntity
  8
0
 62
     0
100
AcDbMText
 10
4.325418220419061
 20
16.94925379884784
 30
0.0
 40
0.3125
 41
0.0
 71
     5
 72
     1
  1
\A1;[221mm]
 73
     1
 44
1.0
1001
ACAD
1000
MTEXTBEGIN
1070
    73
1070
     1
1070
    44
1040
1.0
1070
    74
1070
     0
1000
MTEXTEND
  0
POINT
  5
37A
330
370
100
AcDbEntity
  8
Defpoints
 62
     0
100
AcDbPoint
 10
8.434102048281292
 20
21.5130625460405
 30
0.0
  0
POINT
  5
37B
330
370
100
AcDbEntity
  8
Defpoints
 62
     0
100
AcDbPoint
 10
7.037737908266243
 20
12.82522985326916
 30
0.0
  0
POINT
  5
37C
330
370
100
AcDbEntity
  8
Defpoints
 62
     0
100
AcDbPoint
 10
4.325418220419063
 20
12.82522985326916
 30
0.0
  0
ENDBLK
  5
37D
330
370
100
AcDbEntity
  8
0
100
AcDbBlockEnd
  0
BLOCK
  5
380
330
37F
100
AcDbEntity
  8
0
100
AcDbBlockBegin
  2
*D28
 70
     1
 10
0.0
 20
0.0
 30
0.0
  3
*D28
  1

  0
LINE
  5
381
330
37F
100
AcDbEntity
  8
0
 62
     0
370
    -2
100
AcDbLine
 10
3.73810630233757
 20
2.200341386930666
 30
0.0
 11
3.73810630233757
 21
1.138243513903746
 31
0.0
  0
LINE
  5
382
330
37F
100
AcDbEntity
  8
0
 62
     0
370
    -2
100
AcDbLine
 10
9.143444527614263
 20
3.527586461163997
 30
0.0
 11
9.143444527614263
 21
1.138243513903746
 31
0.0
  0
LINE
  5
383
330
37F
100
AcDbEntity
  8
0
 62
     0
370
    -2
100
AcDbLine
 10
3.73810630233757
 20
1.168243513903746
 30
0.0
 11
5.852104112314687
 21
1.168243513903746
 31
0.0
  0
LINE
  5
384
330
37F
100
AcDbEntity
  8
0
 62
     0
370
    -2
100
AcDbLine
 10
9.143444527614263
 20
1.168243513903746
 30
0.0
 11
7.029446717637147
 21
1.168243513903746
 31
0.0
  0
INSERT
  5
385
330
37F
100
AcDbEntity
  8
0
 62
     0
370
    -2
100
AcDbBlockReference
  2
_ArchTick
 10
3.73810630233757
 20
1.168243513903746
 30
0.0
 41
0.156
 42
0.156
 43
0.156
 50
180.0
  0
INSERT
  5
386
330
37F
100
AcDbEntity
  8
0
 62
     0
370
    -2
100
AcDbBlockReference
  2
_ArchTick
 10
9.143444527614263
 20
1.168243513903746
 30
0.0
 41
0.156
 42
0.156
 43
0.156
  0
MTEXT
  5
387
330
37F
100
AcDbEntity
  8
0
 62
     0
100
AcDbMText
 10
6.440775414975917
 20
1.370587999445105
 30
0.0
 40
0.3125
 41
0.0
 71
     5
 72
     1
  1
\A1;5 13/32"
 73
     1
 44
1.0
1001
ACAD
1000
MTEXTBEGIN
1070
    73
1070
     1
1070
    44
1040
1.0
1070
    74
1070
     0
1000
MTEXTEND
  0
MTEXT
  5
388
330
37F
100
AcDbEntity
  8
0
 62
     0
100
AcDbMText
 10
6.440775414975917
 20
0.9483511130967524
 30
0.0
 40
0.3125
 41
0.0
 71
     5
 72
     1
  1
\A1;[137mm]
 73
     1
 44
1.0
1001
ACAD
1000
MTEXTBEGIN
1070
    73
1070
     1
1070
    44
1040
1.0
1070
    74
1070
     0
1000
MTEXTEND
  0
POINT
  5
389
330
37F
100
AcDbEntity
  8
Defpoints
 62
     0
100
AcDbPoint
 10
3.73810630233757
 20
2.240341386930666
 30
0.0
  0
POINT
  5
38A
330
37F
100
AcDbEntity
  8
Defpoints
 62
     0
100
AcDbPoint
 10
9.143444527614263
 20
3.567586461163998
 30
0.0
  0
POINT
  5
38B
330
37F
100
AcDbEntity
  8
Defpoints
 62
     0
100
AcDbPoint
 10
9.143444527614263
 20
1.168243513903746
 30
0.0
  0
ENDBLK
  5
38C
330
37F
100
AcDbEntity
  8
0
100
AcDbBlockEnd
  0
BLOCK
  5
391
330
390
100
AcDbEntity
  8
0
100
AcDbBlockBegin
  2
*D29
 70
     1
 10
0.0
 20
0.0
 30
0.0
  3
*D29
  1

  0
LINE
  5
392
330
390
100
AcDbEntity
  8
0
 62
     0
370
    -2
100
AcDbLine
 10
11.51865126390296
 20
3.527586461164027
 30
0.0
 11
11.51865126390296
 21
1.138243513903746
 31
0.0
  0
LINE
  5
393
330
390
100
AcDbEntity
  8
0
 62
     0
370
    -2
100
AcDbLine
 10
16.92398948917966
 20
2.20034138693067
 30
0.0
 11
16.92398948917966
 21
1.138243513903746
 31
0.0
  0
LINE
  5
394
330
390
100
AcDbEntity
  8
0
 62
     0
370
    -2
100
AcDbLine
 10
11.51865126390296
 20
1.168243513903746
 30
0.0
 11
13.63264907388008
 21
1.168243513903746
 31
0.0
  0
LINE
  5
395
330
390
100
AcDbEntity
  8
0
 62
     0
370
    -2
100
AcDbLine
 10
16.92398948917966
 20
1.168243513903746
 30
0.0
 11
14.80999167920254
 21
1.168243513903746
 31
0.0
  0
INSERT
  5
396
330
390
100
AcDbEntity
  8
0
 62
     0
370
    -2
100
AcDbBlockReference
  2
_ArchTick
 10
11.51865126390296
 20
1.168243513903746
 30
0.0
 41
0.156
 42
0.156
 43
0.156
 50
180.0
  0
INSERT
  5
397
330
390
100
AcDbEntity
  8
0
 62
     0
370
    -2
100
AcDbBlockReference
  2
_ArchTick
 10
16.92398948917966
 20
1.168243513903746
 30
0.0
 41
0.156
 42
0.156
 43
0.156
  0
MTEXT
  5
398
330
390
100
AcDbEntity
  8
0
 62
     0
100
AcDbMText
 10
14.22132037654131
 20
1.370587999445105
 30
0.0
 40
0.3125
 41
0.0
 71
     5
 72
     1
  1
\A1;5 13/32"
 73
     1
 44
1.0
1001
ACAD
1000
MTEXTBEGIN
1070
    73
1070
     1
1070
    44
1040
1.0
1070
    74
1070
     0
1000
MTEXTEND
  0
MTEXT
  5
399
330
390
100
AcDbEntity
  8
0
 62
     0
100
AcDbMText
 10
14.22132037654131
 20
0.9483511130967524
 30
0.0
 40
0.3125
 41
0.0
 71
     5
 72
     1
  1
\A1;[137mm]
 73
     1
 44
1.0
1001
ACAD
1000
MTEXTBEGIN
1070
    73
1070
     1
1070
    44
1040
1.0
1070
    74
1070
     0
1000
MTEXTEND
  0
POINT
  5
39A
330
390
100
AcDbEntity
  8
Defpoints
 62
     0
100
AcDbPoint
 10
11.51865126390296
 20
3.567586461164027
 30
0.0
  0
POINT
  5
39B
330
390
100
AcDbEntity
  8
Defpoints
 62
     0
100
AcDbPoint
 10
16.92398948917966
 20
2.24034138693067
 30
0.0
  0
POINT
  5
39C
330
390
100
AcDbEntity
  8
Defpoints
 62
     0
100
AcDbPoint
 10
16.92398948917966
 20
1.168243513903746
 30
0.0
  0
ENDBLK
  5
39D
330
390
100
AcDbEntity
  8
0
100
AcDbBlockEnd
  0
ENDSEC
  0
SECTION
  2
ENTITIES
  0
LWPOLYLINE
  5
6A
330
2
100
AcDbEntity
  8
0
  6
Continuous
100
AcDbPolyline
 90
       19
 70
     1
 43
0.0
 10
9.420856974047921
 20
23.20110197510057
 10
9.420856974047921
 20
23.4507692823292
 10
9.23385697404791
 20
23.4507692823292
 10
9.23385697404791
 20
23.55060197510058
 42
1.045128398166766
 10
9.047265023299701
 20
23.54136049075352
 42
-0.4419056050544676
 10
8.96462843676042
 20
23.45060197510056
 10
8.107856974047905
 20
23.45060197510056
 10
8.045856974047893
 20
23.51260197510057
 10
8.045856974047893
 20
27.41860197510057
 42
-0.4142135623730951
 10
8.107856974047905
 20
27.48060197510056
 10
9.73385697404791
 20
27.48060197510056
 42
-0.4142135623730951
 10
9.795856974047893
 20
27.41860197510057
 10
9.795856974047893
 20
23.20138205219861
 10
9.73385697404791
 20
23.1393820521986
 10
9.700818026929624
 20
23.1393820521986
 42
-0.3899024490717814
 10
9.515818026929622
 20
22.93820920087144
 10
9.515818026929622
 20
22.88860197510054
 10
9.420856974047893
 20
22.88860197510057
 10
9.420856974047893
 20
23.01360197510057
 42
0.7066666666666829
  0
LWPOLYLINE
  5
6B
330
2
100
AcDbEntity
  8
0
  6
Continuous
100
AcDbPolyline
 90
       19
 70
     1
 43
0.0
 10
9.420856974047893
 20
21.20022985326913
 10
9.420856974047893
 20
20.9505625460405
 10
9.233856974047938
 20
20.9505625460405
 10
9.233856974047938
 20
20.85072985326913
 42
-1.045128398166766
 10
9.047265023299729
 20
20.85997133761619
 42
0.4419056050544676
 10
8.96462843676042
 20
20.95072985326915
 10
8.107856974047905
 20
20.95072985326915
 10
8.045856974047893
 20
20.88872985326914
 10
8.045856974047893
 20
14.19972985326914
 42
0.4142135623730951
 10
8.107856974047905
 20
14.13772985326916
 10
9.733856974047881
 20
14.13772985326916
 42
0.4142135623730951
 10
9.795856974047893
 20
14.19972985326914
 10
9.795856974047893
 20
21.1999497761711
 10
9.733856974047881
 20
21.26194977617111
 10
9.700818026929624
 20
21.26194977617111
 42
0.3899024490717814
 10
9.515818026929622
 20
21.46312262749827
 10
9.515818026929622
 20
21.51272985326917
 10
9.420856974047893
 20
21.51272985326913
 10
9.420856974047893
 20
21.38772985326914
 42
-0.7066666666666826
  0
LINE
  5
6C
330
2
100
AcDbEntity
  8
0
  6
Continuous
100
AcDbLine
 10
9.795889144792283
 20
14.13772985326916
 30
0.0
 11
8.045856974047893
 21
14.13772985326916
 31
0.0
  0
LINE
  5
6D
330
2
100
AcDbEntity
  8
0
  6
Continuous
100
AcDbLine
 10
8.045856974047893
 20
14.13772985326916
 30
0.0
 11
8.045856974047893
 21
14.02872985326915
 31
0.0
  0
LINE
  5
6E
330
2
100
AcDbEntity
  8
0
  6
Continuous
100
AcDbLine
 10
8.045856974047893
 20
14.02872985326915
 30
0.0
 11
9.90485697404793
 21
14.02872985326915
 31
0.0
  0
LINE
  5
6F
330
2
100
AcDbEntity
  8
0
  6
Continuous
100
AcDbLine
 10
9.90485697404793
 20
14.02872985326915
 30
0.0
 11
9.90485697404793
 21
14.32572985326915
 31
0.0
  0
ARC
  5
70
330
2
100
AcDbEntity
  8
0
  6
Continuous
100
AcDbCircle
 10
9.842856974047919
 20
14.32572985326915
 30
0.0
 40
0.0620000000000118
100
AcDbArc
 50
0.0
 51
90.0
  0
LINE
  5
71
330
2
100
AcDbEntity
  8
0
  6
Continuous
100
AcDbLine
 10
9.842856974047919
 20
14.38772985326916
 30
0.0
 11
9.795856974047893
 21
14.38772985326916
 31
0.0
  0
LINE
  5
72
330
2
100
AcDbEntity
  8
0
  6
Continuous
100
AcDbLine
 10
9.795856974047893
 20
14.38772985326916
 30
0.0
 11
9.795856974047893
 21
14.13772985326916
 31
0.0
  0
LWPOLYLINE
  5
73
102
{ACAD_REACTORS
330
2FF
102
}
330
2
100
AcDbEntity
  8
0
100
AcDbPolyline
 90
       15
 70
     0
 43
0.0
 10
7.106856974047929
 20
27.91760750760591
 42
0.4142135623730951
 10
7.16885697404794
 20
27.8556075076059
 10
8.045856974047893
 20
27.8556075076059
 10
8.045856974048007
 20
29.1056075076059
 10
8.107856974047962
 20
29.1056075076059
 10
8.107856974047933
 20
29.7306075076059
 10
7.044856974047945
 20
29.7306075076059
 42
0.4142135623731003
 10
6.982856974047933
 20
29.66860750760589
 10
6.982856974047933
 20
29.13660750760591
 42
0.4142135623730951
 10
7.013856974047939
 20
29.1056075076059
 10
7.044856974047945
 20
29.1056075076059
 10
7.044856974047945
 20
28.88660750760591
 42
0.4142135623730951
 10
7.075856974047951
 20
28.85560750760591
 10
7.106856974047929
 20
28.85560750760591
 10
7.106856974047929
 20
27.91760751707523
  0
HATCH
  5
74
330
2
100
AcDbEntity
  8
0
  6
Continuous
100
AcDbHatch
 10
0.0
 20
0.0
 30
0.0
210
0.0
220
0.0
230
1.0
  2
STEEL
 70
     0
 71
     0
 91
        1
 92
        7
 72
     0
 73
     1
 93
        6
 10
8.107856974047905
 20
28.35560750760591
 10
8.10785697404799
 20
29.07542577154159
 10
8.045856974047978
 20
29.07542577154159
 10
8.045856974047893
 20
28.2936075076059
 10
8.70298836832265
 20
28.2936075076059
 10
8.70298836832265
 20
28.35560750760591
 97
        0
 75
     0
 76
     1
 52
-0.0000000000000127
 41
1.0
 77
     0
 78
     2
 53
44.99999999999999
 43
106.0012418095736
 44
-14.91044497340117
 45
-0.0883883476483184
 46
0.0883883476483185
 79
     0
 53
44.99999999999999
 43
106.0012418095736
 44
-14.84794497340117
 45
-0.0883883476483184
 46
0.0883883476483185
 79
     0
 47
0.003572857848563
 98
        1
 10
8.216432539192311
 20
28.32798942064967
  0
LINE
  5
75
330
2
100
AcDbEntity
  8
0
100
AcDbLine
 10
8.045856974047978
 20
29.07542577154159
 30
0.0
 11
8.045856974047893
 21
28.2936075076059
 31
0.0
  0
LINE
  5
76
330
2
100
AcDbEntity
  8
0
  6
Continuous
100
AcDbLine
 10
8.045856974047893
 20
28.2936075076059
 30
0.0
 11
8.70298836832265
 21
28.2936075076059
 31
0.0
  0
LINE
  5
77
330
2
100
AcDbEntity
  8
0
  6
Continuous
100
AcDbLine
 10
8.107856974047905
 20
28.35560750760591
 30
0.0
 11
8.70298836832265
 21
28.35560750760591
 31
0.0
  0
LINE
  5
78
330
2
100
AcDbEntity
  8
0
  6
Continuous
100
AcDbLine
 10
8.70298836832265
 20
28.35560750760591
 30
0.0
 11
8.70298836832265
 21
28.2936075076059
 31
0.0
  0
LINE
  5
79
330
2
100
AcDbEntity
  8
0
100
AcDbLine
 10
8.10785697404799
 20
29.07542577154159
 30
0.0
 11
8.107856974047905
 21
28.35560750760591
 31
0.0
  0
INSERT
  5
7A
330
2
100
AcDbEntity
  8
0
100
AcDbBlockReference
  2
8 x .75 FH
 10
8.107856974047933
 20
28.71551663957378
 30
0.0
 50
270.0
  0
INSERT
  5
C8
330
2
100
AcDbEntity
  8
0
100
AcDbBlockReference
  2
8 X .625 PH
 10
8.405422671185277
 20
28.35560750760591
 30
0.0
  0
LINE
  5
11D
330
2
100
AcDbEntity
  8
0
100
AcDbLine
 10
8.10785697404799
 20
29.07542577154159
 30
0.0
 11
8.045856974048007
 21
29.07542577154162
 31
0.0
  0
HATCH
  5
11E
330
2
100
AcDbEntity
  8
0
100
AcDbHatch
 10
0.0
 20
0.0
 30
0.0
210
0.0
220
0.0
230
1.0
  2
SOLID
 70
     1
 71
     0
 91
        1
 92
        7
 72
     1
 73
     1
 93
        2
 10
9.420856974047893
 20
23.01326928232921
 42
0.0
 10
9.420856974047921
 20
23.20076928232918
 42
-0.6666666666666311
 97
        0
 75
     1
 76
     1
 47
0.0010014887122476
 98
        1
 10
9.466917050394812
 20
23.12817447837334
1001
GradientColor1ACI
1070
     5
1001
GradientColor2ACI
1070
     2
1001
ACAD
1010
0.0
1020
0.0
1030
0.0
  0
HATCH
  5
121
330
2
100
AcDbEntity
  8
0
100
AcDbHatch
 10
0.0
 20
0.0
 30
0.0
210
0.0
220
0.0
230
1.0
  2
SOLID
 70
     1
 71
     0
 91
        1
 92
        7
 72
     1
 73
     1
 93
        2
 10
8.511626816567826
 20
23.01326928232921
 42
0.0
 10
8.511626816567797
 20
23.20076928232918
 42
0.6666666666666311
 97
        0
 75
     1
 76
     1
 47
0.0010014887122476
 98
        1
 10
8.465566740220907
 20
23.12817447837334
1001
GradientColor1ACI
1070
     5
1001
GradientColor2ACI
1070
     2
1001
ACAD
1010
0.0
1020
0.0
1030
0.0
  0
LWPOLYLINE
  5
122
102
{ACAD_REACTORS
330
35E
102
}
330
2
100
AcDbEntity
  8
0
100
AcDbPolyline
 90
       11
 70
     1
 43
0.0
 10
8.511626816567797
 20
23.20076928232918
 10
8.511626816567797
 20
23.4507692823292
 10
8.137626816567802
 20
23.45076928232918
 10
8.137626816567774
 20
23.16926928232918
 42
0.4142135623731695
 10
8.16862681656778
 20
23.1382692823292
 10
8.215151584854254
 20
23.1382692823292
 42
-0.235730494161761
 10
8.239927779430274
 20
23.12590098065037
 10
8.409325853705297
 20
22.90063758400804
 42
0.235730494161718
 10
8.434102048281317
 20
22.8882692823292
 10
8.511626816567826
 20
22.8882692823292
 10
8.511626816567826
 20
23.01326928232921
 42
-0.6666666666666588
  0
LWPOLYLINE
  5
123
330
2
100
AcDbEntity
  8
0
100
AcDbPolyline
 90
        4
 70
     0
 43
0.0
 10
9.263116895307859
 20
22.26316591418485
 10
9.263116895307859
 20
23.34176928232883
 10
9.420856974047921
 20
23.34176928232883
 10
9.420856974047921
 20
22.26316591418485
  0
LWPOLYLINE
  5
124
330
2
100
AcDbEntity
  8
0
100
AcDbPolyline
 90
        4
 70
     0
 43
0.0
 10
8.669366895307859
 20
22.26316591418485
 10
8.669366895307859
 20
23.34176928232883
 10
8.511626816567797
 20
23.34176928232883
 10
8.511626816567797
 20
22.26316591418485
  0
LWPOLYLINE
  5
125
330
2
100
AcDbEntity
  8
0
100
AcDbPolyline
 90
       14
 70
     1
 43
0.0
 10
8.778741895307859
 20
23.13194454138029
 42
-0.3359746306540741
 10
8.746237985560867
 20
23.11158178232854
 10
8.710366895308027
 20
23.13576928232869
 42
0.4142135623730951
 10
8.694741895308027
 20
23.1201442823287
 10
8.694741895308027
 20
22.93851928232853
 10
9.237741895307692
 20
22.93851928232853
 10
9.237741895307692
 20
23.1201442823287
 42
0.414213562373094
 10
9.222116895307692
 20
23.13576928232869
 10
9.18662910724953
 20
23.11158178232854
 42
-0.3208708054700532
 10
9.153741895307859
 20
23.13230745046094
 10
9.153741895307859
 20
23.18914428232911
 42
0.4142135623730951
 10
9.138116895307859
 20
23.20476928232911
 10
8.794366895307859
 20
23.20476928232911
 42
0.4142135623730951
 10
8.778741895307859
 20
23.18914428232911
  0
LWPOLYLINE
  5
126
330
2
100
AcDbEntity
  8
0
100
AcDbPolyline
 90
       14
 70
     1
 43
0.0
 10
8.785741895308376
 20
23.13072614123594
 42
-0.3593608004949541
 10
8.743742007984394
 20
23.10482212535517
 10
8.708523060872096
 20
23.12856989207394
 42
0.3524310491054993
 10
8.701741895307634
 20
23.1201442823287
 10
8.701741895307634
 20
22.93851928232853
 10
9.230741895308085
 20
22.93851928232853
 10
9.230741895308085
 20
23.1201442823287
 42
0.3518693664465323
 10
9.223977567606482
 20
23.12856618969018
 10
9.189053176440495
 20
23.10476268551084
 42
-0.3446308864324803
 10
9.146741895307343
 20
23.13100159951246
 10
9.146741895307343
 20
23.18914428232911
 42
0.4142135623730946
 10
9.138116895307859
 20
23.19776928232859
 10
8.794366895307859
 20
23.19776928232859
 42
0.4142135623730946
 10
8.785741895308376
 20
23.18914428232911
  0
LWPOLYLINE
  5
127
330
2
100
AcDbEntity
  8
0
100
AcDbPolyline
 90
       10
 70
     1
 43
0.0
 10
8.809991895307859
 20
23.12720678232854
 42
-0.3584554666094669
 10
8.745088049154503
 20
23.08033178232854
 10
8.725991895308027
 20
23.08033178232854
 10
8.725991895308027
 20
22.96976928232853
 10
9.206491895307692
 20
22.96976928232853
 10
9.206491895307692
 20
23.08033178232854
 10
9.187395741461216
 20
23.08033178232854
 42
-0.3467993108968364
 10
9.122491895307859
 20
23.12720678232854
 10
9.122491895307859
 20
23.17351928232911
 10
8.809991895307859
 20
23.17351928232911
  0
LWPOLYLINE
  5
128
330
2
100
AcDbEntity
  8
0
100
AcDbPolyline
 90
        6
 70
     0
 43
0.0
 10
8.694741895308027
 20
22.96676928232883
 10
8.684991895307859
 20
22.96676928232883
 10
8.684991895307859
 20
22.92876928232836
 10
9.247491895307859
 20
22.92876928232836
 10
9.247491895307859
 20
22.96676928232883
 10
9.237741895307692
 20
22.96676928232883
  0
LINE
  5
129
330
2
100
AcDbEntity
  8
0
100
AcDbLine
 10
9.237741895307692
 20
23.1201442823287
 30
0.0
 11
9.263116895307859
 21
23.1201442823287
 31
0.0
  0
LINE
  5
12A
330
2
100
AcDbEntity
  8
0
100
AcDbLine
 10
9.237741895307692
 20
22.96676928232883
 30
0.0
 11
9.263116895307859
 21
22.96676928232883
 31
0.0
  0
LINE
  5
12B
330
2
100
AcDbEntity
  8
0
100
AcDbLine
 10
8.694741895308027
 20
23.1201442823287
 30
0.0
 11
8.669366895307859
 21
23.1201442823287
 31
0.0
  0
LINE
  5
12C
330
2
100
AcDbEntity
  8
0
100
AcDbLine
 10
8.694741895308027
 20
22.96676928232883
 30
0.0
 11
8.669366895307859
 21
22.96676928232883
 31
0.0
  0
HATCH
  5
12D
330
2
100
AcDbEntity
  8
0
  6
Continuous
100
AcDbHatch
 10
0.0
 20
0.0
 30
0.0
210
0.0
220
0.0
230
1.0
  2
DOTS
 70
     0
 71
     0
 91
        2
 92
        7
 72
     0
 73
     1
 93
        4
 10
8.694741895308027
 20
23.1201442823287
 10
8.669366895307859
 20
23.1201442823287
 10
8.669366895307859
 20
22.96676928232883
 10
8.694741895308027
 20
22.96676928232883
 97
        0
 92
        7
 72
     0
 73
     1
 93
        4
 10
9.263116895307859
 20
23.1201442823287
 10
9.237741895307692
 20
23.1201442823287
 10
9.237741895307692
 20
22.96676928232883
 10
9.263116895307859
 20
22.96676928232883
 97
        0
 75
     0
 76
     1
 52
360.0
 41
0.1
 77
     0
 78
     1
 53
360.0
 43
2.57588714977129
 44
25.41447402591548
 45
0.003125
 46
-0.00625
 79
     2
 49
0.0
 49
-0.00625
 47
0.0006001443632006
 98
        2
 10
8.683021605160604
 20
23.0625593422803
 10
9.252906534556416
 20
23.05895846848144
  0
HATCH
  5
12E
330
2
100
AcDbEntity
  8
0
  6
Continuous
100
AcDbHatch
 10
0.0
 20
0.0
 30
0.0
210
0.0
220
0.0
230
1.0
  2
DASH
 70
     0
 71
     0
 91
        1
 92
        7
 72
     1
 73
     1
 93
       16
 10
9.138116895307859
 20
23.20476928232911
 42
-0.4142135623730951
 10
9.153741895307859
 20
23.18914428232911
 42
0.0
 10
9.153741895307859
 20
23.13230745046094
 42
0.3208708054700533
 10
9.18662910724953
 20
23.11158178232854
 42
0.0
 10
9.222116895307692
 20
23.13576928232869
 42
-0.414213562373094
 10
9.237741895307692
 20
23.1201442823287
 42
0.0
 10
9.263116895308769
 20
23.1201442823287
 42
0.0
 10
9.26311689530695
 20
23.34176928232792
 42
0.0
 10
8.669366895307859
 20
23.34176928232792
 42
0.0
 10
8.669366895307859
 20
23.1201442823287
 42
0.0
 10
8.694741895308027
 20
23.1201442823287
 42
-0.4142135623730951
 10
8.710366895308027
 20
23.13576928232869
 42
0.0
 10
8.746237985560867
 20
23.11158178232854
 42
0.3359746306540741
 10
8.778741895307859
 20
23.13194454138029
 42
0.0
 10
8.778741895307859
 20
23.18914428232911
 42
-0.4142135623730951
 10
8.794366895307859
 20
23.20476928232911
 42
0.0
 97
        0
 75
     0
 76
     1
 52
360.0
 41
0.1
 77
     0
 78
     1
 53
360.0
 43
2.57588714977129
 44
25.41447402591548
 45
0.0125
 46
-0.0125
 79
     2
 49
0.0125
 49
-0.0125
 47
0.0009600803746669
 98
        1
 10
9.015263375392635
 20
23.25560855452314
  0
LINE
  5
12F
330
2
100
AcDbEntity
  8
0
100
AcDbLine
 10
8.511626816567797
 20
23.4507692823292
 30
0.0
 11
9.420856974047921
 21
23.34176928232883
 31
0.0
  0
LWPOLYLINE
  5
130
330
2
100
AcDbEntity
  8
0
100
AcDbPolyline
 90
        8
 70
     0
 43
0.0
 10
8.511626816567797
 20
23.4507692823292
 10
9.420856974047921
 20
23.4507692823292
 10
9.420856974047921
 20
23.34176928232883
 10
8.511626816567797
 20
23.34176928232883
 10
8.511626816567797
 20
23.4507692823292
 10
9.420856974047921
 20
23.34176928232883
 10
8.511626816567797
 20
23.34176928232883
 10
9.420856974047921
 20
23.4507692823292
  0
HATCH
  5
131
330
2
100
AcDbEntity
  8
0
100
AcDbHatch
 10
0.0
 20
0.0
 30
0.0
210
0.0
220
0.0
230
1.0
  2
SOLID
 70
     1
 71
     0
 91
        1
 92
        7
 72
     1
 73
     1
 93
        2
 10
9.420856974047893
 20
21.3880625460405
 42
0.0
 10
9.420856974047893
 20
21.20056254604053
 42
0.6666666666666311
 97
        0
 75
     1
 76
     1
 47
0.0010014887122476
 98
        1
 10
9.466917050394812
 20
21.27315734999637
1001
GradientColor1ACI
1070
     5
1001
GradientColor2ACI
1070
     2
1001
ACAD
1010
0.0
1020
0.0
1030
0.0
  0
HATCH
  5
132
330
2
100
AcDbEntity
  8
0
100
AcDbHatch
 10
0.0
 20
0.0
 30
0.0
210
0.0
220
0.0
230
1.0
  2
SOLID
 70
     1
 71
     0
 91
        1
 92
        7
 72
     1
 73
     1
 93
        2
 10
8.511626816567826
 20
21.3880625460405
 42
0.0
 10
8.511626816567769
 20
21.20056254604053
 42
-0.6666666666666311
 97
        0
 75
     1
 76
     1
 47
0.0010014887122476
 98
        1
 10
8.465566740220907
 20
21.27315734999637
1001
GradientColor1ACI
1070
     5
1001
GradientColor2ACI
1070
     2
1001
ACAD
1010
0.0
1020
0.0
1030
0.0
  0
LWPOLYLINE
  5
133
102
{ACAD_REACTORS
330
36F
102
}
330
2
100
AcDbEntity
  8
0
100
AcDbPolyline
 90
       11
 70
     1
 43
0.0
 10
8.511626816567769
 20
21.20056254604053
 10
8.511626816567769
 20
20.9505625460405
 10
8.137626816567802
 20
20.95056254604053
 10
8.137626816567745
 20
21.23206254604053
 42
-0.4142135623731695
 10
8.168626816567751
 20
21.2630625460405
 10
8.215151584854226
 20
21.2630625460405
 42
0.235730494161761
 10
8.239927779430246
 20
21.27543084771934
 10
8.409325853705269
 20
21.50069424436167
 42
-0.235730494161718
 10
8.434102048281289
 20
21.5130625460405
 10
8.511626816567826
 20
21.5130625460405
 10
8.511626816567826
 20
21.3880625460405
 42
0.6666666666666588
  0
LWPOLYLINE
  5
134
330
2
100
AcDbEntity
  8
0
100
AcDbPolyline
 90
        4
 70
     0
 43
0.0
 10
9.263116895307831
 20
22.13816591418485
 10
9.263116895307831
 20
21.05956254604088
 10
9.420856974047893
 20
21.05956254604088
 10
9.420856974047893
 20
22.13816591418485
  0
LWPOLYLINE
  5
135
330
2
100
AcDbEntity
  8
0
100
AcDbPolyline
 90
        4
 70
     0
 43
0.0
 10
8.669366895307831
 20
22.13816591418485
 10
8.669366895307831
 20
21.05956254604088
 10
8.511626816567769
 20
21.05956254604088
 10
8.511626816567769
 20
22.13816591418485
  0
LWPOLYLINE
  5
136
330
2
100
AcDbEntity
  8
0
100
AcDbPolyline
 90
       14
 70
     1
 43
0.0
 10
8.778741895307831
 20
21.26938728698942
 42
0.3359746306540741
 10
8.746237985560838
 20
21.28975004604116
 10
8.710366895307998
 20
21.26556254604101
 42
-0.4142135623730951
 10
8.694741895307998
 20
21.28118754604101
 10
8.694741895307998
 20
21.46281254604118
 10
9.237741895307664
 20
21.46281254604118
 10
9.237741895307664
 20
21.28118754604101
 42
-0.414213562373094
 10
9.222116895307664
 20
21.26556254604101
 10
9.186629107249501
 20
21.28975004604116
 42
0.3208708054700532
 10
9.153741895307831
 20
21.26902437790876
 10
9.153741895307831
 20
21.21218754604059
 42
-0.4142135623730951
 10
9.138116895307831
 20
21.1965625460406
 10
8.794366895307831
 20
21.1965625460406
 42
-0.4142135623730951
 10
8.778741895307831
 20
21.21218754604059
  0
LWPOLYLINE
  5
137
330
2
100
AcDbEntity
  8
0
100
AcDbPolyline
 90
       14
 70
     1
 43
0.0
 10
8.785741895308348
 20
21.27060568713377
 42
0.3593608004949541
 10
8.743742007984366
 20
21.29650970301454
 10
8.708523060872067
 20
21.27276193629576
 42
-0.3524310491054993
 10
8.701741895307606
 20
21.28118754604101
 10
8.701741895307606
 20
21.46281254604118
 10
9.230741895308057
 20
21.46281254604118
 10
9.230741895308057
 20
21.28118754604101
 42
-0.3518693664465323
 10
9.223977567606453
 20
21.27276563867953
 10
9.189053176440467
 20
21.29656914285887
 42
0.3446308864324803
 10
9.146741895307314
 20
21.27033022885725
 10
9.146741895307314
 20
21.21218754604059
 42
-0.4142135623730946
 10
9.138116895307831
 20
21.20356254604111
 10
8.794366895307831
 20
21.20356254604111
 42
-0.4142135623730946
 10
8.785741895308348
 20
21.21218754604059
  0
LWPOLYLINE
  5
138
330
2
100
AcDbEntity
  8
0
100
AcDbPolyline
 90
       10
 70
     1
 43
0.0
 10
8.809991895307831
 20
21.27412504604116
 42
0.3584554666094669
 10
8.745088049154475
 20
21.32100004604116
 10
8.725991895307998
 20
21.32100004604116
 10
8.725991895307998
 20
21.43156254604118
 10
9.206491895307664
 20
21.43156254604118
 10
9.206491895307664
 20
21.32100004604116
 10
9.187395741461187
 20
21.32100004604116
 42
0.3467993108968364
 10
9.122491895307831
 20
21.27412504604116
 10
9.122491895307831
 20
21.2278125460406
 10
8.809991895307831
 20
21.2278125460406
  0
LWPOLYLINE
  5
139
330
2
100
AcDbEntity
  8
0
100
AcDbPolyline
 90
        6
 70
     0
 43
0.0
 10
8.694741895307998
 20
21.43456254604088
 10
8.684991895307831
 20
21.43456254604088
 10
8.684991895307831
 20
21.47256254604135
 10
9.247491895307831
 20
21.47256254604135
 10
9.247491895307831
 20
21.43456254604088
 10
9.237741895307664
 20
21.43456254604088
  0
LINE
  5
13A
330
2
100
AcDbEntity
  8
0
100
AcDbLine
 10
9.237741895307664
 20
21.28118754604101
 30
0.0
 11
9.263116895307831
 21
21.28118754604101
 31
0.0
  0
LINE
  5
13B
330
2
100
AcDbEntity
  8
0
100
AcDbLine
 10
9.237741895307664
 20
21.43456254604088
 30
0.0
 11
9.263116895307831
 21
21.43456254604088
 31
0.0
  0
LINE
  5
13C
330
2
100
AcDbEntity
  8
0
100
AcDbLine
 10
8.694741895307998
 20
21.28118754604101
 30
0.0
 11
8.669366895307831
 21
21.28118754604101
 31
0.0
  0
LINE
  5
13D
330
2
100
AcDbEntity
  8
0
100
AcDbLine
 10
8.694741895307998
 20
21.43456254604088
 30
0.0
 11
8.669366895307831
 21
21.43456254604088
 31
0.0
  0
HATCH
  5
13E
330
2
100
AcDbEntity
  8
0
  6
Continuous
100
AcDbHatch
 10
0.0
 20
0.0
 30
0.0
210
0.0
220
0.0
230
1.0
  2
DOTS
 70
     0
 71
     0
 91
        2
 92
        7
 72
     0
 73
     1
 93
        4
 10
8.694741895307998
 20
21.28118754604101
 10
8.669366895307831
 20
21.28118754604101
 10
8.669366895307831
 20
21.43456254604088
 10
8.694741895307998
 20
21.43456254604088
 97
        0
 92
        7
 72
     0
 73
     1
 93
        4
 10
9.263116895307831
 20
21.28118754604101
 10
9.237741895307664
 20
21.28118754604101
 10
9.237741895307664
 20
21.43456254604088
 10
9.263116895307831
 20
21.43456254604088
 97
        0
 75
     0
 76
     1
 52
360.0
 41
0.1
 77
     0
 78
     1
 53
360.0
 43
2.575887149771261
 44
24.53947402591548
 45
0.003125
 46
-0.00625
 79
     2
 49
0.0
 49
-0.00625
 47
0.0006001443632006
 98
        2
 10
8.683021605160575
 20
21.33877248608941
 10
9.252906534556387
 20
21.34237335988827
  0
HATCH
  5
13F
330
2
100
AcDbEntity
  8
0
  6
Continuous
100
AcDbHatch
 10
0.0
 20
0.0
 30
0.0
210
0.0
220
0.0
230
1.0
  2
DASH
 70
     0
 71
     0
 91
        1
 92
        7
 72
     1
 73
     1
 93
       16
 10
9.138116895307831
 20
21.1965625460406
 42
0.4142135623730951
 10
9.153741895307831
 20
21.21218754604059
 42
0.0
 10
9.153741895307831
 20
21.26902437790876
 42
-0.3208708054700533
 10
9.186629107249501
 20
21.28975004604116
 42
0.0
 10
9.222116895307664
 20
21.26556254604101
 42
0.414213562373094
 10
9.237741895307664
 20
21.28118754604101
 42
0.0
 10
9.263116895308741
 20
21.28118754604101
 42
0.0
 10
9.263116895306922
 20
21.05956254604179
 42
0.0
 10
8.669366895307831
 20
21.05956254604179
 42
0.0
 10
8.669366895307831
 20
21.28118754604101
 42
0.0
 10
8.694741895307998
 20
21.28118754604101
 42
0.4142135623730951
 10
8.710366895307998
 20
21.26556254604101
 42
0.0
 10
8.746237985560838
 20
21.28975004604116
 42
-0.3359746306540741
 10
8.778741895307831
 20
21.26938728698942
 42
0.0
 10
8.778741895307831
 20
21.21218754604059
 42
0.4142135623730951
 10
8.794366895307831
 20
21.1965625460406
 42
0.0
 97
        0
 75
     0
 76
     1
 52
360.0
 41
0.1
 77
     0
 78
     1
 53
360.0
 43
2.575887149771261
 44
24.53947402591548
 45
0.0125
 46
-0.0125
 79
     2
 49
0.0125
 49
-0.0125
 47
0.0009600803746669
 98
        1
 10
9.015263375392606
 20
21.14572327384657
  0
LINE
  5
140
330
2
100
AcDbEntity
  8
0
100
AcDbLine
 10
8.511626816567769
 20
20.9505625460405
 30
0.0
 11
9.420856974047893
 21
21.05956254604088
 31
0.0
  0
LWPOLYLINE
  5
141
330
2
100
AcDbEntity
  8
0
100
AcDbPolyline
 90
        8
 70
     0
 43
0.0
 10
8.511626816567769
 20
20.9505625460405
 10
9.420856974047893
 20
20.9505625460405
 10
9.420856974047893
 20
21.05956254604088
 10
8.511626816567769
 20
21.05956254604088
 10
8.511626816567769
 20
20.9505625460405
 10
9.420856974047893
 20
21.05956254604088
 10
8.511626816567769
 20
21.05956254604088
 10
9.420856974047893
 20
20.9505625460405
  0
LINE
  5
142
330
2
100
AcDbEntity
  8
0
  6
HIDDEN2
100
AcDbLine
 10
8.511626816567769
 20
22.26316591418485
 30
0.0
 11
9.420856974047893
 21
22.26316591418485
 31
0.0
  0
LINE
  5
144
330
2
100
AcDbEntity
  8
0
  6
HIDDEN2
100
AcDbLine
 10
9.420856974047921
 20
22.13816591418485
 30
0.0
 11
8.511626816567797
 21
22.13816591418485
 31
0.0
  0
LWPOLYLINE
  5
145
330
2
100
AcDbEntity
  8
0
  6
Continuous
100
AcDbPolyline
 90
       19
 70
     1
 43
0.0
 10
8.830611834842926
 20
4.554341386930602
 10
8.580944527614263
 20
4.554341386930602
 10
8.580944527614263
 20
4.36734138693059
 10
8.48111183484292
 20
4.36734138693059
 42
1.045128398166766
 10
8.490353319189949
 20
4.180749436182381
 42
-0.4419056050544676
 10
8.581111834842914
 20
4.098112849643101
 10
8.581111834842914
 20
3.241341386930585
 10
8.519111834842902
 20
3.179341386930573
 10
4.613111834842953
 20
3.179341386930573
 42
-0.4142135623730951
 10
4.551111834842942
 20
3.241341386930585
 10
4.551111834842942
 20
4.867341386930618
 42
-0.4142135623730951
 10
4.613111834842953
 20
4.929341386930573
 10
8.830331757744886
 20
4.929341386930602
 10
8.892331757744869
 20
4.867341386930618
 10
8.892331757744869
 20
4.834302439812304
 42
-0.3899024490717814
 10
9.093504609072056
 20
4.649302439812331
 10
9.143111834842926
 20
4.649302439812302
 10
9.143111834842926
 20
4.554341386930602
 10
9.018111834842926
 20
4.554341386930602
 42
0.7066666666666829
  0
LWPOLYLINE
  5
146
330
2
100
AcDbEntity
  8
0
  6
Continuous
100
AcDbPolyline
 90
       26
 70
     0
 43
0.0
 10
4.426106302337558
 20
3.241341386930585
 10
4.426117367348325
 20
5.304341386930687
 10
4.488117367348337
 20
5.304341386930687
 10
4.488117367348337
 20
5.79630921618623
 10
4.613117367348337
 20
5.79630921618623
 10
4.613117367348337
 20
5.30434138693063
 10
4.864117367348313
 20
5.304341386930687
 42
0.4142135623730951
 10
4.926117367348325
 20
5.366341386930699
 10
4.926111299146015
 20
7.679341546586627
 42
0.4142128141791537
 10
4.863611299146185
 20
7.741841386930715
 10
4.081106297761806
 20
7.741841386930715
 42
-1.000000000000008
 10
3.863106297761788
 20
7.741841386930715
 10
3.788106302337581
 20
7.741841386930715
 10
3.788106302337581
 20
7.054841386930704
 10
3.73810630233757
 20
7.054841386930704
 10
3.73810630233757
 20
6.836398659862695
 42
-0.9999999999999998
 10
3.73810630233757
 20
6.586398659862695
 10
3.73810630233757
 20
6.17532530155843
 42
-0.9999999999999998
 10
3.73810630233757
 20
5.92532530155843
 10
3.73810630233757
 20
5.67532530155843
 42
-0.9999999999999998
 10
3.73810630233757
 20
5.42532530155843
 10
3.73810630233757
 20
3.92939989581869
 42
-0.9999999999999998
 10
3.73810630233757
 20
3.67939989581869
 10
3.73810630233757
 20
3.17934138693063
 10
4.363606302337558
 20
3.17934138693063
 42
0.4142135623730951
 10
4.426106302337558
 20
3.24184138693063
  0
LWPOLYLINE
  5
147
330
2
100
AcDbEntity
  8
0
100
AcDbPolyline
 90
       15
 70
     0
 43
0.0
 10
4.114106302337603
 20
2.240341386930666
 42
0.4142135623730951
 10
4.176106302337558
 20
2.302341386930677
 10
4.176106302337558
 20
3.17934138693063
 10
2.926106302337558
 20
3.179341386930744
 10
2.926106302337558
 20
3.241341386930699
 10
2.301106302337615
 20
3.24134138693067
 10
2.301106302337615
 20
2.178341386930682
 42
0.4142135623731003
 10
2.36310630233757
 20
2.11634138693067
 10
2.895106302337609
 20
2.11634138693067
 42
0.4142135623730951
 10
2.926106302337558
 20
2.147341386930676
 10
2.926106302337558
 20
2.178341386930682
 10
3.145106302337609
 20
2.178341386930682
 42
0.4142135623730951
 10
3.176106302337615
 20
2.209341386930688
 10
3.176106302337615
 20
2.240341386930666
 10
4.114106292868285
 20
2.240341386930666
  0
HATCH
  5
148
330
2
100
AcDbEntity
  8
0
  6
Continuous
100
AcDbHatch
 10
0.0
 20
0.0
 30
0.0
210
0.0
220
0.0
230
1.0
  2
STEEL
 70
     0
 71
     0
 91
        1
 92
        7
 72
     0
 73
     1
 93
        6
 10
3.676106302337558
 20
3.241341386930642
 10
2.956288038401879
 20
3.241341386930727
 10
2.956288038401879
 20
3.179341386930715
 10
3.73810630233757
 20
3.17934138693063
 10
3.73810630233757
 20
3.836472781205387
 10
3.676106302337558
 20
3.836472781205387
 97
        0
 75
     0
 76
     1
 52
89.99999999999998
 41
1.0
 77
     0
 78
     2
 53
135.0
 43
46.94215878334467
 44
101.1347262224563
 45
-0.0883883476483185
 46
-0.0883883476483184
 79
     0
 53
135.0
 43
46.87965878334466
 44
101.1347262224563
 45
-0.0883883476483185
 46
-0.0883883476483184
 79
     0
 47
0.003572857848563
 98
        1
 10
3.703724389293853
 20
3.349916952075048
  0
LINE
  5
149
330
2
100
AcDbEntity
  8
0
100
AcDbLine
 10
2.956288038401879
 20
3.179341386930715
 30
0.0
 11
3.73810630233757
 21
3.17934138693063
 31
0.0
  0
LINE
  5
14A
330
2
100
AcDbEntity
  8
0
  6
Continuous
100
AcDbLine
 10
3.73810630233757
 20
3.17934138693063
 30
0.0
 11
3.73810630233757
 21
3.836472781205387
 31
0.0
  0
LINE
  5
14B
330
2
100
AcDbEntity
  8
0
  6
Continuous
100
AcDbLine
 10
3.676106302337558
 20
3.241341386930642
 30
0.0
 11
3.676106302337558
 21
3.836472781205387
 31
0.0
  0
LINE
  5
14C
330
2
100
AcDbEntity
  8
0
  6
Continuous
100
AcDbLine
 10
3.676106302337558
 20
3.836472781205387
 30
0.0
 11
3.73810630233757
 21
3.836472781205387
 31
0.0
  0
LINE
  5
14D
330
2
100
AcDbEntity
  8
0
100
AcDbLine
 10
2.956288038401879
 20
3.241341386930727
 30
0.0
 11
3.676106302337558
 21
3.241341386930642
 31
0.0
  0
INSERT
  5
14E
330
2
100
AcDbEntity
  8
0
100
AcDbBlockReference
  2
8 x .75 FH
 10
3.316197170369747
 20
3.24134138693067
 30
0.0
  0
INSERT
  5
14F
330
2
100
AcDbEntity
  8
0
100
AcDbBlockReference
  2
8 X .625 PH
 10
3.676106302337558
 20
3.538907084068014
 30
0.0
 50
90.0
  0
LINE
  5
150
330
2
100
AcDbEntity
  8
0
100
AcDbLine
 10
2.956288038401879
 20
3.241341386930727
 30
0.0
 11
2.956288038401879
 21
3.179341386930744
 31
0.0
  0
HATCH
  5
151
330
2
100
AcDbEntity
  8
0
100
AcDbHatch
 10
0.0
 20
0.0
 30
0.0
210
0.0
220
0.0
230
1.0
  2
SOLID
 70
     1
 71
     0
 91
        1
 92
        7
 72
     1
 73
     1
 93
        2
 10
9.018444527614263
 20
4.554341386930573
 42
0.0
 10
8.83094452761432
 20
4.554341386930602
 42
-0.6666666666666311
 97
        0
 75
     1
 76
     1
 47
0.0010014887122476
 98
        1
 10
8.903539331570158
 20
4.600401463277492
1001
GradientColor1ACI
1070
     5
1001
GradientColor2ACI
1070
     2
1001
ACAD
1010
0.0
1020
0.0
1030
0.0
  0
HATCH
  5
152
330
2
100
AcDbEntity
  8
0
100
AcDbHatch
 10
0.0
 20
0.0
 30
0.0
210
0.0
220
0.0
230
1.0
  2
SOLID
 70
     1
 71
     0
 91
        1
 92
        7
 72
     1
 73
     1
 93
        2
 10
9.018444527614263
 20
3.645111229450506
 42
0.0
 10
8.83094452761432
 20
3.645111229450478
 42
0.6666666666666311
 97
        0
 75
     1
 76
     1
 47
0.0010014887122476
 98
        1
 10
8.903539331570158
 20
3.599051153103587
1001
GradientColor1ACI
1070
     5
1001
GradientColor2ACI
1070
     2
1001
ACAD
1010
0.0
1020
0.0
1030
0.0
  0
LWPOLYLINE
  5
153
330
2
100
AcDbEntity
  8
0
100
AcDbPolyline
 90
       11
 70
     1
 43
0.0
 10
8.83094452761432
 20
3.645111229450478
 10
8.580944527614263
 20
3.645111229450478
 10
8.58094452761432
 20
3.271111229450482
 10
8.862444527614314
 20
3.271111229450454
 42
0.4142135623731695
 10
8.893444527614263
 20
3.30211122945046
 10
8.893444527614263
 20
3.348635997736934
 42
-0.235730494161761
 10
8.905812829293125
 20
3.373412192312954
 10
9.131076225935458
 20
3.542810266587977
 42
0.235730494161718
 10
9.143444527614263
 20
3.567586461163998
 10
9.143444527614263
 20
3.645111229450506
 10
9.018444527614263
 20
3.645111229450506
 42
-0.6666666666666588
  0
LWPOLYLINE
  5
154
330
2
100
AcDbEntity
  8
0
100
AcDbPolyline
 90
        4
 70
     0
 43
0.0
 10
9.768547895758644
 20
4.39660130819054
 10
8.689944527614642
 20
4.39660130819054
 10
8.689944527614642
 20
4.554341386930602
 10
9.768547895758644
 20
4.554341386930602
  0
LWPOLYLINE
  5
155
330
2
100
AcDbEntity
  8
0
100
AcDbPolyline
 90
        4
 70
     0
 43
0.0
 10
9.768547895758644
 20
3.80285130819054
 10
8.689944527614642
 20
3.80285130819054
 10
8.689944527614642
 20
3.645111229450478
 10
9.768547895758644
 20
3.645111229450478
  0
LWPOLYLINE
  5
156
330
2
100
AcDbEntity
  8
0
100
AcDbPolyline
 90
       14
 70
     1
 43
0.0
 10
8.899769268563176
 20
3.91222630819054
 42
-0.3359746306540741
 10
8.920132027614926
 20
3.879722398443547
 10
8.895944527614773
 20
3.843851308190707
 42
0.4142135623730951
 10
8.911569527614773
 20
3.828226308190707
 10
9.09319452761494
 20
3.828226308190707
 10
9.09319452761494
 20
4.371226308190372
 10
8.911569527614773
 20
4.371226308190372
 42
0.414213562373094
 10
8.895944527614773
 20
4.355601308190372
 10
8.920132027614926
 20
4.32011352013221
 42
-0.3208708054700532
 10
8.899406359482526
 20
4.28722630819054
 10
8.842569527614358
 20
4.28722630819054
 42
0.4142135623730951
 10
8.826944527614358
 20
4.27160130819054
 10
8.826944527614358
 20
3.92785130819054
 42
0.4142135623730951
 10
8.842569527614358
 20
3.91222630819054
  0
LWPOLYLINE
  5
157
330
2
100
AcDbEntity
  8
0
100
AcDbPolyline
 90
       14
 70
     1
 43
0.0
 10
8.900987668707529
 20
3.919226308191056
 42
-0.3593608004949541
 10
8.926891684588298
 20
3.877226420867074
 10
8.903143917869527
 20
3.842007473754776
 42
0.3524310491054993
 10
8.911569527614773
 20
3.835226308190314
 10
9.09319452761494
 20
3.835226308190314
 10
9.09319452761494
 20
4.364226308190765
 10
8.911569527614773
 20
4.364226308190765
 42
0.3518693664465323
 10
8.903147620253292
 20
4.357461980489162
 10
8.926951124432633
 20
4.322537589323175
 42
-0.3446308864324803
 10
8.900712210431009
 20
4.280226308190023
 10
8.842569527614358
 20
4.280226308190023
 42
0.4142135623730946
 10
8.833944527614875
 20
4.27160130819054
 10
8.833944527614875
 20
3.92785130819054
 42
0.4142135623730946
 10
8.842569527614358
 20
3.919226308191056
  0
LWPOLYLINE
  5
158
330
2
100
AcDbEntity
  8
0
100
AcDbPolyline
 90
       10
 70
     1
 43
0.0
 10
8.904507027614926
 20
3.94347630819054
 42
-0.3584554666094669
 10
8.951382027614926
 20
3.878572462037183
 10
8.951382027614926
 20
3.859476308190707
 10
9.06194452761494
 20
3.859476308190707
 10
9.06194452761494
 20
4.339976308190372
 10
8.951382027614926
 20
4.339976308190372
 10
8.951382027614926
 20
4.320880154343896
 42
-0.3467993108968364
 10
8.904507027614926
 20
4.25597630819054
 10
8.858194527614358
 20
4.25597630819054
 10
8.858194527614358
 20
3.94347630819054
  0
LWPOLYLINE
  5
159
330
2
100
AcDbEntity
  8
0
100
AcDbPolyline
 90
        6
 70
     0
 43
0.0
 10
9.064944527614642
 20
3.828226308190707
 10
9.064944527614642
 20
3.81847630819054
 10
9.102944527615107
 20
3.81847630819054
 10
9.102944527615107
 20
4.38097630819054
 10
9.064944527614642
 20
4.38097630819054
 10
9.064944527614642
 20
4.371226308190372
  0
LINE
  5
15A
330
2
100
AcDbEntity
  8
0
100
AcDbLine
 10
8.911569527614773
 20
4.371226308190372
 30
0.0
 11
8.911569527614773
 21
4.39660130819054
 31
0.0
  0
LINE
  5
15B
330
2
100
AcDbEntity
  8
0
100
AcDbLine
 10
9.064944527614642
 20
4.371226308190372
 30
0.0
 11
9.064944527614642
 21
4.39660130819054
 31
0.0
  0
LINE
  5
15C
330
2
100
AcDbEntity
  8
0
100
AcDbLine
 10
8.911569527614773
 20
3.828226308190707
 30
0.0
 11
8.911569527614773
 21
3.80285130819054
 31
0.0
  0
LINE
  5
15D
330
2
100
AcDbEntity
  8
0
100
AcDbLine
 10
9.064944527614642
 20
3.828226308190707
 30
0.0
 11
9.064944527614642
 21
3.80285130819054
 31
0.0
  0
HATCH
  5
15E
330
2
100
AcDbEntity
  8
0
  6
Continuous
100
AcDbHatch
 10
0.0
 20
0.0
 30
0.0
210
0.0
220
0.0
230
1.0
  2
DOTS
 70
     0
 71
     0
 91
        2
 92
        7
 72
     0
 73
     1
 93
        4
 10
8.911569527614773
 20
3.828226308190707
 10
8.911569527614773
 20
3.80285130819054
 10
9.064944527614642
 20
3.80285130819054
 10
9.064944527614642
 20
3.828226308190707
 97
        0
 92
        7
 72
     0
 73
     1
 93
        4
 10
8.911569527614773
 20
4.39660130819054
 10
8.911569527614773
 20
4.371226308190372
 10
9.064944527614642
 20
4.371226308190372
 10
9.064944527614642
 20
4.39660130819054
 97
        0
 75
     0
 76
     1
 52
450.0
 41
0.1
 77
     0
 78
     1
 53
90.0
 43
6.617239784027987
 44
-2.290628437346029
 45
0.00625
 46
0.003125
 79
     2
 49
0.0
 49
-0.00625
 47
0.0006001443632006
 98
        2
 10
8.969154467663173
 20
3.816506018043284
 10
8.972755341462033
 20
4.386390947439096
  0
HATCH
  5
15F
330
2
100
AcDbEntity
  8
0
  6
Continuous
100
AcDbHatch
 10
0.0
 20
0.0
 30
0.0
210
0.0
220
0.0
230
1.0
  2
DASH
 70
     0
 71
     0
 91
        1
 92
        7
 72
     1
 73
     1
 93
       16
 10
8.826944527614358
 20
4.27160130819054
 42
-0.4142135623730951
 10
8.842569527614358
 20
4.28722630819054
 42
0.0
 10
8.899406359482526
 20
4.28722630819054
 42
0.3208708054700533
 10
8.920132027614926
 20
4.32011352013221
 42
0.0
 10
8.895944527614773
 20
4.355601308190372
 42
-0.414213562373094
 10
8.911569527614773
 20
4.371226308190372
 42
0.0
 10
8.911569527614773
 20
4.396601308191449
 42
0.0
 10
8.689944527615551
 20
4.39660130818963
 42
0.0
 10
8.689944527615551
 20
3.80285130819054
 42
0.0
 10
8.911569527614773
 20
3.80285130819054
 42
0.0
 10
8.911569527614773
 20
3.828226308190707
 42
-0.4142135623730951
 10
8.895944527614773
 20
3.843851308190707
 42
0.0
 10
8.920132027614926
 20
3.879722398443547
 42
0.3359746306540741
 10
8.899769268563176
 20
3.91222630819054
 42
0.0
 10
8.842569527614358
 20
3.91222630819054
 42
-0.4142135623730951
 10
8.826944527614358
 20
3.92785130819054
 42
0.0
 97
        0
 75
     0
 76
     1
 52
450.0
 41
0.1
 77
     0
 78
     1
 53
90.0
 43
6.617239784027987
 44
-2.290628437346029
 45
0.0125
 46
0.0125
 79
     2
 49
0.0125
 49
-0.0125
 47
0.0009600803746669
 98
        1
 10
8.776105255420333
 20
4.148747788275315
  0
LINE
  5
160
330
2
100
AcDbEntity
  8
0
100
AcDbLine
 10
8.580944527614263
 20
3.645111229450478
 30
0.0
 11
8.689944527614642
 21
4.554341386930602
 31
0.0
  0
LWPOLYLINE
  5
161
330
2
100
AcDbEntity
  8
0
100
AcDbPolyline
 90
        8
 70
     0
 43
0.0
 10
8.580944527614263
 20
3.645111229450478
 10
8.580944527614263
 20
4.554341386930602
 10
8.689944527614642
 20
4.554341386930602
 10
8.689944527614642
 20
3.645111229450478
 10
8.580944527614263
 20
3.645111229450478
 10
8.689944527614642
 20
4.554341386930602
 10
8.689944527614642
 20
3.645111229450478
 10
8.580944527614263
 20
4.554341386930602
  0
LINE
  5
162
330
2
100
AcDbEntity
  8
0
  6
HIDDEN2
100
AcDbLine
 10
9.768547895758644
 20
3.645111229450478
 30
0.0
 11
9.768547895758644
 21
4.554341386930602
 31
0.0
  0
HATCH
  5
163
330
2
100
AcDbEntity
  8
0
100
AcDbHatch
 10
0.0
 20
0.0
 30
0.0
210
0.0
220
0.0
230
1.0
  2
HONEY
 70
     0
 71
     0
 91
        2
 92
       16
 93
        9
 72
     1
 10
4.518574765298609
 20
5.64748379045163
 11
4.488898074919148
 21
5.64748379045163
 72
     1
 10
4.488898074919148
 20
5.64748379045163
 11
4.489053733989607
 21
5.270086404064286
 72
     1
 10
4.489053733989607
 20
5.270086404064286
 11
4.809402297283185
 21
5.270218533118125
 72
     1
 10
4.809402297283185
 20
5.270218533118125
 11
4.80938847943284
 21
5.303720086127626
 72
     1
 10
4.80938847943284
 20
5.303720086127654
 11
4.517117921412278
 21
5.303599537960039
 72
     1
 10
4.517117921412278
 20
5.303599537960039
 11
4.516988647377758
 21
5.617026070801713
 72
     1
 10
4.516988647377758
 20
5.617026070801713
 11
4.611973608746865
 21
5.52211943098753
 72
     1
 10
4.611973608746865
 20
5.52211943098753
 11
4.611973608746865
 21
5.554161960696276
 72
     1
 10
4.611973608746865
 20
5.554161960696276
 11
4.518574765298581
 21
5.64748379045163
 97
        0
 92
        1
 93
       11
 72
     1
 10
4.81815375275201
 20
5.200418004505351
 11
4.545430161157781
 21
5.2003055185627
 72
     2
 10
4.545406598479729
 20
5.257433529675083
 40
0.0571280159716573
 50
449.9763681265572
 51
539.9763681265643
 73
     0
 72
     1
 10
4.488278587367318
 20
5.257409966997059
 11
4.488117377980614
 21
5.648264165388596
 72
     1
 10
4.488117377980614
 20
5.648264165388596
 11
4.613117367348223
 21
5.648315722137155
 72
     1
 10
4.613117367348223
 20
5.648315722137155
 11
4.613259240946746
 21
5.30434138693063
 72
     1
 10
4.613259240946746
 20
5.30434138693063
 11
4.896214252443314
 21
5.304458092863583
 72
     2
 10
4.874369850980912
 20
5.116949067103703
 40
0.1887771506741734
 50
276.6448831998169
 51
443.3078530532887
 73
     0
 72
     1
 10
4.896368922688992
 20
4.929458124760756
 11
4.584360812885762
 21
4.929329435760493
 72
     2
 10
4.590450329380331
 20
5.018131558508244
 40
0.0890106691113012
 50
93.92285935909901
 51
266.0298768940037
 73
     0
 72
     1
 10
4.584287561384456
 20
5.106928627751969
 11
4.794724621506873
 21
5.042841715269119
 72
     2
 10
4.818186969677498
 20
5.119883148243658
 40
0.0805348631119007
 50
253.0623079543601
 51
450.0236318734478
 73
     1
 97
        0
 75
     1
 76
     1
 52
90.0
 41
0.2
 77
     0
 78
     3
 53
90.0
 43
55.73446122505425
 44
-102.8465577646844
 45
-0.021650635094611
 46
0.0375
 79
     2
 49
0.025
 49
-0.05
 53
210.0
 43
55.73446122505425
 44
-102.8465577646844
 45
-0.021650635094611
 46
-0.0375
 79
     2
 49
0.025
 49
-0.05
 53
150.0
 43
55.73446122505425
 44
-102.8465577646844
 45
-0.043301270189222
 46
0.0
 79
     2
 49
-0.05
 49
0.025
 98
        1
 10
55.73446122505425
 20
110.9552405385456
1001
GradientColor1ACI
1070
     5
1001
GradientColor2ACI
1070
     2
1001
ACAD
1010
0.0
1020
0.0
1030
0.0
  0
LWPOLYLINE
  5
164
330
2
100
AcDbEntity
  8
0
100
AcDbPolyline
 90
       11
 70
     1
 43
0.0
 10
4.81815375275201
 20
5.200418004505351
 10
4.545430161157781
 20
5.2003055185627
 42
-0.4142135623731042
 10
4.488278587367318
 20
5.257409966997059
 10
4.488117377980614
 20
5.648264165388596
 10
4.613117367348223
 20
5.648315722137155
 10
4.613259240946746
 20
5.30434138693063
 10
4.896214252443343
 20
5.304458092863555
 42
-0.8898955318630001
 10
4.896368922688992
 20
4.929458124760756
 10
4.584360812885762
 20
4.929329435760493
 42
-0.9333884728362816
 10
4.584287561384456
 20
5.106928627751969
 10
4.794724621506844
 20
5.042841715269091
 42
1.16016115395227
  0
LWPOLYLINE
  5
165
330
2
100
AcDbEntity
  8
0
  6
Continuous
100
AcDbPolyline
 90
        9
 70
     1
 43
0.0
 10
4.518574765298609
 20
5.64748379045163
 10
4.488898074919148
 20
5.64748379045163
 10
4.489053733989607
 20
5.270086404064286
 10
4.809402297283185
 20
5.270218533118125
 10
4.80938847943284
 20
5.303720086127654
 10
4.517117921412278
 20
5.303599537960039
 10
4.516988647377758
 20
5.617026070801713
 10
4.611973608746865
 20
5.52211943098753
 10
4.611973608746865
 20
5.554161960696276
  0
LWPOLYLINE
  5
166
330
2
100
AcDbEntity
  8
0
100
AcDbPolyline
 90
        5
 70
     1
 43
0.0
 10
4.457360068606277
 20
2.927380572342897
 42
-5.689634243636946
 10
4.305610068606284
 20
2.849667544639899
 42
0.1896103651935995
 10
4.322360068606258
 20
2.892249084067216
 10
4.322360068606258
 20
4.67934138693063
 10
4.457360068606249
 20
4.67934138693063
  0
LWPOLYLINE
  5
167
330
2
100
AcDbEntity
  8
0
100
AcDbPolyline
 90
        4
 70
     1
 43
0.0
 10
4.519860068606249
 20
2.990274961026401
 10
4.519860068606249
 20
4.67934138693063
 10
4.65486006860624
 20
4.67934138693063
 10
4.654860068606268
 20
2.94394899736541
 42
0.1157106517014934
  0
LWPOLYLINE
  5
168
330
2
100
AcDbEntity
  8
0
  6
Continuous
100
AcDbPolyline
 90
       21
 70
     0
 43
0.0
 10
16.04848395667434
 20
4.376341386930718
 10
16.04848395667434
 20
4.867341386930618
 42
0.4142135623730951
 10
15.98648395667433
 20
4.929341386930573
 10
11.83176403377237
 20
4.929341386930602
 10
11.76976403377236
 20
4.867341386930618
 10
11.76976403377236
 20
4.834302439812304
 42
0.3899024490717814
 10
11.5685911824452
 20
4.649302439812331
 10
11.51898395667433
 20
4.649302439812302
 10
11.51898395667436
 20
4.554341386930602
 10
11.64398395667436
 20
4.554341386930602
 42
-0.7066666666666829
 10
11.83148395667436
 20
4.554341386930602
 10
12.08115126390296
 20
4.554341386930602
 10
12.08115126390296
 20
4.36734138693059
 10
12.18098395667434
 20
4.36734138693059
 42
-1.045128398166766
 10
12.17174247232728
 20
4.180749436182381
 42
0.4419056050544676
 10
12.08098395667432
 20
4.098112849643101
 10
12.08098395667432
 20
3.241341386930585
 10
12.14298395667433
 20
3.179341386930573
 10
16.04898395667433
 20
3.179341386930573
 42
0.4142135623730951
 10
16.11098395667434
 20
3.241341386930585
 10
16.11098395667434
 20
3.732341386930713
  0
LWPOLYLINE
  5
169
102
{ACAD_REACTORS
330
294
330
2A5
102
}
330
2
100
AcDbEntity
  8
0
  6
Continuous
100
AcDbPolyline
 90
       26
 70
     0
 43
0.0
 10
16.23598948917967
 20
3.241341386930585
 10
16.23597842416896
 20
5.304341386930687
 10
16.17397842416895
 20
5.304341386930687
 10
16.17397842416895
 20
5.79630921618623
 10
16.04897842416895
 20
5.79630921618623
 10
16.04897842416895
 20
5.30434138693063
 10
15.79797842416897
 20
5.304341386930687
 42
-0.4142135623730951
 10
15.73597842416896
 20
5.366341386930699
 10
15.73598449237127
 20
7.679341546586627
 42
-0.4142128141791537
 10
15.79848449237104
 20
7.741841386930715
 10
16.58098949375548
 20
7.741841386930715
 42
1.000000000000008
 10
16.7989894937555
 20
7.741841386930715
 10
16.87398948917965
 20
7.741841386930715
 10
16.87398948917965
 20
7.054841386930704
 10
16.92398948917966
 20
7.054841386930704
 10
16.92398948917966
 20
6.836398659862695
 42
0.9999999999999998
 10
16.92398948917966
 20
6.586398659862695
 10
16.92398948917966
 20
6.17532530155843
 42
0.9999999999999998
 10
16.92398948917966
 20
5.92532530155843
 10
16.92398948917966
 20
5.67532530155843
 42
0.9999999999999998
 10
16.92398948917966
 20
5.42532530155843
 10
16.92398948917966
 20
3.92939989581869
 42
0.9999999999999998
 10
16.92398948917966
 20
3.67939989581869
 10
16.92398948917966
 20
3.17934138693063
 10
16.29848948917967
 20
3.17934138693063
 42
-0.4142135623730951
 10
16.23598948917967
 20
3.24184138693063
  0
LWPOLYLINE
  5
16A
330
2
100
AcDbEntity
  8
0
100
AcDbPolyline
 90
       15
 70
     0
 43
0.0
 10
16.54798948917968
 20
2.24034138693067
 42
-0.4142135623730951
 10
16.48598948917967
 20
2.302341386930681
 10
16.48598948917967
 20
3.179341386930634
 10
17.73598948917967
 20
3.179341386930748
 10
17.73598948917967
 20
3.241341386930703
 10
18.36098948917967
 20
3.241341386930674
 10
18.36098948917967
 20
2.178341386930686
 42
-0.4142135623731003
 10
18.29898948917966
 20
2.116341386930674
 10
17.76698948917968
 20
2.116341386930674
 42
-0.4142135623730951
 10
17.73598948917967
 20
2.14734138693068
 10
17.73598948917967
 20
2.178341386930686
 10
17.51698948917968
 20
2.178341386930686
 42
-0.4142135623730951
 10
17.48598948917967
 20
2.209341386930692
 10
17.48598948917967
 20
2.24034138693067
 10
16.547989498649
 20
2.24034138693067
  0
HATCH
  5
16B
330
2
100
AcDbEntity
  8
0
  6
Continuous
100
AcDbHatch
 10
0.0
 20
0.0
 30
0.0
210
0.0
220
0.0
230
1.0
  2
STEEL
 70
     0
 71
     0
 91
        1
 92
        7
 72
     0
 73
     1
 93
        6
 10
16.98598948917967
 20
3.241341386930646
 10
17.70580775311535
 20
3.241341386930732
 10
17.70580775311535
 20
3.17934138693072
 10
16.92398948917966
 20
3.179341386930635
 10
16.92398948917966
 20
3.836472781205391
 10
16.98598948917967
 20
3.836472781205391
 97
        0
 75
     0
 76
     1
 52
89.99999999999998
 41
1.0
 77
     0
 78
     2
 53
135.0
 43
48.04215878334469
 44
101.1347262224563
 45
-0.0883883476483185
 46
-0.0883883476483184
 79
     0
 53
135.0
 43
47.97965878334468
 44
101.1347262224563
 45
-0.0883883476483185
 46
-0.0883883476483184
 79
     0
 47
0.003572857848563
 98
        1
 10
16.95837140222343
 20
3.349916952075052
  0
LINE
  5
16C
330
2
100
AcDbEntity
  8
0
100
AcDbLine
 10
17.70580775311535
 20
3.17934138693072
 30
0.0
 11
16.92398948917966
 21
3.179341386930635
 31
0.0
  0
LINE
  5
16D
330
2
100
AcDbEntity
  8
0
  6
Continuous
100
AcDbLine
 10
16.92398948917966
 20
3.179341386930635
 30
0.0
 11
16.92398948917966
 21
3.836472781205391
 31
0.0
  0
LINE
  5
16E
330
2
100
AcDbEntity
  8
0
  6
Continuous
100
AcDbLine
 10
16.98598948917967
 20
3.241341386930646
 30
0.0
 11
16.98598948917967
 21
3.836472781205391
 31
0.0
  0
LINE
  5
16F
330
2
100
AcDbEntity
  8
0
  6
Continuous
100
AcDbLine
 10
16.98598948917967
 20
3.836472781205391
 30
0.0
 11
16.92398948917966
 21
3.836472781205391
 31
0.0
  0
LINE
  5
170
330
2
100
AcDbEntity
  8
0
100
AcDbLine
 10
17.70580775311535
 20
3.241341386930732
 30
0.0
 11
16.98598948917967
 21
3.241341386930646
 31
0.0
  0
INSERT
  5
171
330
2
100
AcDbEntity
  8
0
100
AcDbBlockReference
  2
8 x .75 FH
 10
17.34589862114754
 20
3.241341386930675
 30
0.0
 41
-1.0
  0
INSERT
  5
172
330
2
100
AcDbEntity
  8
0
100
AcDbBlockReference
  2
8 X .625 PH
 10
16.98598948917967
 20
3.538907084068019
 30
0.0
 41
-1.0
 50
270.0
  0
HATCH
  5
173
330
2
100
AcDbEntity
  8
0
100
AcDbHatch
 10
0.0
 20
0.0
 30
0.0
210
0.0
220
0.0
230
1.0
  2
SOLID
 70
     1
 71
     0
 91
        1
 92
        7
 72
     1
 73
     1
 93
        2
 10
11.64365126390296
 20
4.554341386930573
 42
0.0
 10
11.83115126390297
 20
4.554341386930602
 42
0.6666666666666311
 97
        0
 75
     1
 76
     1
 47
0.0010014887122476
 98
        1
 10
11.75855645994713
 20
4.600401463277492
1001
GradientColor1ACI
1070
     5
1001
GradientColor2ACI
1070
     2
1001
ACAD
1010
0.0
1020
0.0
1030
0.0
  0
HATCH
  5
174
330
2
100
AcDbEntity
  8
0
100
AcDbHatch
 10
0.0
 20
0.0
 30
0.0
210
0.0
220
0.0
230
1.0
  2
SOLID
 70
     1
 71
     0
 91
        1
 92
        7
 72
     1
 73
     1
 93
        2
 10
11.64365126390296
 20
3.645111229450506
 42
0.0
 10
11.83115126390297
 20
3.645111229450478
 42
-0.6666666666666311
 97
        0
 75
     1
 76
     1
 47
0.0010014887122476
 98
        1
 10
11.75855645994713
 20
3.599051153103587
1001
GradientColor1ACI
1070
     5
1001
GradientColor2ACI
1070
     2
1001
ACAD
1010
0.0
1020
0.0
1030
0.0
  0
LWPOLYLINE
  5
175
102
{ACAD_REACTORS
330
284
330
38F
102
}
330
2
100
AcDbEntity
  8
0
100
AcDbPolyline
 90
       11
 70
     1
 43
0.0
 10
11.83115126390297
 20
3.645111229450478
 10
12.08115126390296
 20
3.645111229450478
 10
12.08115126390296
 20
3.271111229450482
 10
11.79965126390297
 20
3.271111229450454
 42
-0.4142135623731695
 10
11.76865126390296
 20
3.30211122945046
 10
11.76865126390296
 20
3.348635997736934
 42
0.235730494161761
 10
11.75628296222416
 20
3.373412192312954
 10
11.53101956558183
 20
3.542810266587977
 42
-0.235730494161718
 10
11.51865126390297
 20
3.567586461163998
 10
11.51865126390297
 20
3.645111229450506
 10
11.64365126390296
 20
3.645111229450506
 42
0.6666666666666588
  0
LWPOLYLINE
  5
176
330
2
100
AcDbEntity
  8
0
100
AcDbPolyline
 90
        4
 70
     0
 43
0.0
 10
10.89354789575864
 20
4.39660130819054
 10
11.97215126390259
 20
4.39660130819054
 10
11.97215126390259
 20
4.554341386930602
 10
10.89354789575864
 20
4.554341386930602
  0
LWPOLYLINE
  5
177
330
2
100
AcDbEntity
  8
0
100
AcDbPolyline
 90
        4
 70
     0
 43
0.0
 10
10.89354789575864
 20
3.80285130819054
 10
11.97215126390259
 20
3.80285130819054
 10
11.97215126390259
 20
3.645111229450478
 10
10.89354789575864
 20
3.645111229450478
  0
LWPOLYLINE
  5
178
330
2
100
AcDbEntity
  8
0
100
AcDbPolyline
 90
       14
 70
     1
 43
0.0
 10
11.76232652295405
 20
3.91222630819054
 42
0.3359746306540741
 10
11.7419637639023
 20
3.879722398443547
 10
11.76615126390246
 20
3.843851308190707
 42
-0.4142135623730951
 10
11.75052626390246
 20
3.828226308190707
 10
11.56890126390229
 20
3.828226308190707
 10
11.56890126390229
 20
4.371226308190372
 10
11.75052626390246
 20
4.371226308190372
 42
-0.414213562373094
 10
11.76615126390246
 20
4.355601308190372
 10
11.7419637639023
 20
4.32011352013221
 42
0.3208708054700532
 10
11.7626894320347
 20
4.28722630819054
 10
11.81952626390287
 20
4.28722630819054
 42
-0.4142135623730951
 10
11.83515126390287
 20
4.27160130819054
 10
11.83515126390287
 20
3.92785130819054
 42
-0.4142135623730951
 10
11.81952626390287
 20
3.91222630819054
  0
LWPOLYLINE
  5
179
330
2
100
AcDbEntity
  8
0
100
AcDbPolyline
 90
       14
 70
     1
 43
0.0
 10
11.7611081228097
 20
3.919226308191056
 42
0.3593608004949541
 10
11.73520410692893
 20
3.877226420867074
 10
11.7589518736477
 20
3.842007473754776
 42
-0.3524310491054993
 10
11.75052626390246
 20
3.835226308190314
 10
11.56890126390229
 20
3.835226308190314
 10
11.56890126390229
 20
4.364226308190765
 10
11.75052626390246
 20
4.364226308190765
 42
-0.3518693664465323
 10
11.75894817126394
 20
4.357461980489162
 10
11.7351446670846
 20
4.322537589323175
 42
0.3446308864324803
 10
11.76138358108622
 20
4.280226308190023
 10
11.81952626390287
 20
4.280226308190023
 42
-0.4142135623730946
 10
11.82815126390235
 20
4.27160130819054
 10
11.82815126390235
 20
3.92785130819054
 42
-0.4142135623730946
 10
11.81952626390287
 20
3.919226308191056
  0
LWPOLYLINE
  5
17A
330
2
100
AcDbEntity
  8
0
100
AcDbPolyline
 90
       10
 70
     1
 43
0.0
 10
11.7575887639023
 20
3.94347630819054
 42
0.3584554666094669
 10
11.7107137639023
 20
3.878572462037183
 10
11.7107137639023
 20
3.859476308190707
 10
11.60015126390229
 20
3.859476308190707
 10
11.60015126390229
 20
4.339976308190372
 10
11.7107137639023
 20
4.339976308190372
 10
11.7107137639023
 20
4.320880154343896
 42
0.3467993108968364
 10
11.7575887639023
 20
4.25597630819054
 10
11.80390126390287
 20
4.25597630819054
 10
11.80390126390287
 20
3.94347630819054
  0
LWPOLYLINE
  5
17B
330
2
100
AcDbEntity
  8
0
100
AcDbPolyline
 90
        6
 70
     0
 43
0.0
 10
11.59715126390259
 20
3.828226308190707
 10
11.59715126390259
 20
3.81847630819054
 10
11.55915126390212
 20
3.81847630819054
 10
11.55915126390212
 20
4.38097630819054
 10
11.59715126390259
 20
4.38097630819054
 10
11.59715126390259
 20
4.371226308190372
  0
LINE
  5
17C
330
2
100
AcDbEntity
  8
0
100
AcDbLine
 10
11.75052626390246
 20
4.371226308190372
 30
0.0
 11
11.75052626390246
 21
4.39660130819054
 31
0.0
  0
LINE
  5
17D
330
2
100
AcDbEntity
  8
0
100
AcDbLine
 10
11.59715126390259
 20
4.371226308190372
 30
0.0
 11
11.59715126390259
 21
4.39660130819054
 31
0.0
  0
LINE
  5
17E
330
2
100
AcDbEntity
  8
0
100
AcDbLine
 10
11.75052626390246
 20
3.828226308190707
 30
0.0
 11
11.75052626390246
 21
3.80285130819054
 31
0.0
  0
LINE
  5
17F
330
2
100
AcDbEntity
  8
0
100
AcDbLine
 10
11.59715126390259
 20
3.828226308190707
 30
0.0
 11
11.59715126390259
 21
3.80285130819054
 31
0.0
  0
HATCH
  5
180
330
2
100
AcDbEntity
  8
0
  6
Continuous
100
AcDbHatch
 10
0.0
 20
0.0
 30
0.0
210
0.0
220
0.0
230
1.0
  2
DOTS
 70
     0
 71
     0
 91
        2
 92
        7
 72
     0
 73
     1
 93
        4
 10
11.75052626390246
 20
3.828226308190707
 10
11.75052626390246
 20
3.80285130819054
 10
11.59715126390259
 20
3.80285130819054
 10
11.59715126390259
 20
3.828226308190707
 97
        0
 92
        7
 72
     0
 73
     1
 93
        4
 10
11.75052626390246
 20
4.39660130819054
 10
11.75052626390246
 20
4.371226308190372
 10
11.59715126390259
 20
4.371226308190372
 10
11.59715126390259
 20
4.39660130819054
 97
        0
 75
     0
 76
     1
 52
450.0
 41
0.1
 77
     0
 78
     1
 53
90.0
 43
7.617239784027987
 44
-2.290628437346029
 45
0.00625
 46
0.003125
 79
     2
 49
0.0
 49
-0.00625
 47
0.0006001443632006
 98
        2
 10
11.69294132385406
 20
3.816506018043284
 10
11.6893404500552
 20
4.386390947439096
  0
HATCH
  5
181
330
2
100
AcDbEntity
  8
0
  6
Continuous
100
AcDbHatch
 10
0.0
 20
0.0
 30
0.0
210
0.0
220
0.0
230
1.0
  2
DASH
 70
     0
 71
     0
 91
        1
 92
        7
 72
     1
 73
     1
 93
       16
 10
11.83515126390287
 20
4.27160130819054
 42
0.4142135623730951
 10
11.81952626390287
 20
4.28722630819054
 42
0.0
 10
11.7626894320347
 20
4.28722630819054
 42
-0.3208708054700533
 10
11.7419637639023
 20
4.32011352013221
 42
0.0
 10
11.76615126390246
 20
4.355601308190372
 42
0.414213562373094
 10
11.75052626390246
 20
4.371226308190372
 42
0.0
 10
11.75052626390246
 20
4.396601308191449
 42
0.0
 10
11.97215126390168
 20
4.39660130818963
 42
0.0
 10
11.97215126390168
 20
3.80285130819054
 42
0.0
 10
11.75052626390246
 20
3.80285130819054
 42
0.0
 10
11.75052626390246
 20
3.828226308190707
 42
0.4142135623730951
 10
11.76615126390246
 20
3.843851308190707
 42
0.0
 10
11.7419637639023
 20
3.879722398443547
 42
-0.3359746306540741
 10
11.76232652295405
 20
3.91222630819054
 42
0.0
 10
11.81952626390287
 20
3.91222630819054
 42
0.4142135623730951
 10
11.83515126390287
 20
3.92785130819054
 42
0.0
 97
        0
 75
     0
 76
     1
 52
450.0
 41
0.1
 77
     0
 78
     1
 53
90.0
 43
7.617239784027987
 44
-2.290628437346029
 45
0.0125
 46
0.0125
 79
     2
 49
0.0125
 49
-0.0125
 47
0.0009600803746669
 98
        1
 10
11.88599053609689
 20
4.148747788275315
  0
LINE
  5
182
330
2
100
AcDbEntity
  8
0
100
AcDbLine
 10
12.08115126390296
 20
3.645111229450478
 30
0.0
 11
11.97215126390259
 21
4.554341386930602
 31
0.0
  0
LWPOLYLINE
  5
183
330
2
100
AcDbEntity
  8
0
100
AcDbPolyline
 90
        8
 70
     0
 43
0.0
 10
12.08115126390296
 20
3.645111229450478
 10
12.08115126390296
 20
4.554341386930602
 10
11.97215126390259
 20
4.554341386930602
 10
11.97215126390259
 20
3.645111229450478
 10
12.08115126390296
 20
3.645111229450478
 10
11.97215126390259
 20
4.554341386930602
 10
11.97215126390259
 20
3.645111229450478
 10
12.08115126390296
 20
4.554341386930602
  0
LINE
  5
184
330
2
100
AcDbEntity
  8
0
  6
HIDDEN2
100
AcDbLine
 10
10.89354789575864
 20
3.645111229450478
 30
0.0
 11
10.89354789575864
 21
4.554341386930602
 31
0.0
  0
HATCH
  5
185
330
2
100
AcDbEntity
  8
0
100
AcDbHatch
 10
0.0
 20
0.0
 30
0.0
210
0.0
220
0.0
230
1.0
  2
HONEY
 70
     0
 71
     0
 91
        2
 92
       16
 93
        9
 72
     1
 10
16.14352102621868
 20
5.64748379045163
 11
16.17319771659814
 21
5.64748379045163
 72
     1
 10
16.17319771659814
 20
5.64748379045163
 11
16.17304205752768
 21
5.270086404064286
 72
     1
 10
16.17304205752768
 20
5.270086404064286
 11
15.8526934942341
 21
5.270218533118125
 72
     1
 10
15.8526934942341
 20
5.270218533118125
 11
15.85270731208445
 21
5.303720086127626
 72
     1
 10
15.85270731208439
 20
5.303720086127654
 11
16.14497787010495
 21
5.303599537960067
 72
     1
 10
16.14497787010495
 20
5.303599537960039
 11
16.14510714413947
 21
5.617026070801713
 72
     1
 10
16.14510714413947
 20
5.617026070801713
 11
16.05012218277036
 21
5.52211943098753
 72
     1
 10
16.05012218277036
 20
5.52211943098753
 11
16.05012218277036
 21
5.554161960696276
 72
     1
 10
16.05012218277036
 20
5.554161960696276
 11
16.14352102621865
 21
5.64748379045163
 97
        0
 92
        1
 93
       11
 72
     1
 10
15.84394203876527
 20
5.200418004505351
 11
16.1166656303595
 21
5.2003055185627
 72
     2
 10
16.1166891930375
 20
5.257433529675083
 40
0.0571280159716573
 50
269.9763681265572
 51
359.9763681265644
 73
     1
 72
     1
 10
16.17381720414991
 20
5.257409966997059
 11
16.17397841353662
 21
5.648264165388596
 72
     1
 10
16.17397841353662
 20
5.648264165388596
 11
16.04897842416901
 21
5.648315722137155
 72
     1
 10
16.04897842416901
 20
5.648315722137155
 11
16.04883655057048
 21
5.30434138693063
 72
     1
 10
16.04883655057048
 20
5.30434138693063
 11
15.76588153907391
 21
5.304458092863583
 72
     2
 10
15.78772594053632
 20
5.116949067103703
 40
0.1887771506741734
 50
96.64488319981693
 51
263.3078530532888
 73
     1
 72
     1
 10
15.76572686882829
 20
4.929458124760756
 11
16.07773497863152
 21
4.929329435760521
 72
     2
 10
16.07164546213695
 20
5.018131558508244
 40
0.0890106691113012
 50
-86.07714064090098
 51
86.02987689400375
 73
     1
 72
     1
 10
16.07780823013283
 20
5.106928627751969
 11
15.86737117001041
 21
5.042841715269119
 72
     2
 10
15.84390882183979
 20
5.119883148243658
 40
0.0805348631119007
 50
433.0623079543601
 51
630.0236318734479
 73
     0
 97
        0
 75
     1
 76
     1
 52
90.0
 41
0.2
 77
     0
 78
     3
 53
90.0
 43
56.73446122505424
 44
-102.8465577646844
 45
-0.021650635094611
 46
0.0375
 79
     2
 49
0.025
 49
-0.05
 53
210.0
 43
56.73446122505424
 44
-102.8465577646844
 45
-0.021650635094611
 46
-0.0375
 79
     2
 49
0.025
 49
-0.05
 53
150.0
 43
56.73446122505424
 44
-102.8465577646844
 45
-0.043301270189222
 46
0.0
 79
     2
 49
-0.05
 49
0.025
 98
        1
 10
-35.07236543353699
 20
110.9552405385456
1001
GradientColor1ACI
1070
     5
1001
GradientColor2ACI
1070
     2
1001
ACAD
1010
0.0
1020
0.0
1030
0.0
  0
LWPOLYLINE
  5
186
330
2
100
AcDbEntity
  8
0
100
AcDbPolyline
 90
       11
 70
     1
 43
0.0
 10
15.84394203876527
 20
5.200418004505351
 10
16.1166656303595
 20
5.2003055185627
 42
0.4142135623731042
 10
16.17381720414991
 20
5.257409966997059
 10
16.17397841353662
 20
5.648264165388596
 10
16.04897842416901
 20
5.648315722137155
 10
16.04883655057048
 20
5.30434138693063
 10
15.76588153907394
 20
5.304458092863555
 42
0.8898955318630001
 10
15.76572686882829
 20
4.929458124760756
 10
16.07773497863152
 20
4.929329435760493
 42
0.9333884728362816
 10
16.07780823013283
 20
5.106928627751969
 10
15.86737117001038
 20
5.042841715269091
 42
-1.16016115395227
  0
LWPOLYLINE
  5
187
330
2
100
AcDbEntity
  8
0
  6
Continuous
100
AcDbPolyline
 90
        9
 70
     1
 43
0.0
 10
16.14352102621868
 20
5.64748379045163
 10
16.17319771659814
 20
5.64748379045163
 10
16.17304205752768
 20
5.270086404064286
 10
15.8526934942341
 20
5.270218533118125
 10
15.85270731208439
 20
5.303720086127654
 10
16.14497787010495
 20
5.303599537960039
 10
16.14510714413947
 20
5.617026070801713
 10
16.05012218277036
 20
5.52211943098753
 10
16.05012218277036
 20
5.554161960696276
  0
LWPOLYLINE
  5
188
330
2
100
AcDbEntity
  8
0
100
AcDbPolyline
 90
        8
 70
     0
 43
0.0
 10
16.04848395667434
 20
4.376341386930718
 10
15.92348500388837
 20
4.376341386930718
 10
15.92348500388837
 20
4.304341386930602
 10
15.54848500388837
 20
4.304341386930602
 10
15.54848500388837
 20
3.804341386930602
 10
15.92348500388837
 20
3.804341386930602
 10
15.92348500388837
 20
3.732341386930713
 10
16.11098395667434
 20
3.732341386930713
  0
LWPOLYLINE
  5
189
330
2
100
AcDbEntity
  8
0
100
AcDbPolyline
 90
        4
 70
     1
 43
0.0
 10
16.02348500388828
 20
4.366841386930715
 10
16.02348500388828
 20
3.741841386930715
 10
15.92348500388826
 20
3.741841386930715
 10
15.92348500388826
 20
4.366841386930715
  0
LWPOLYLINE
  5
18A
330
2
100
AcDbEntity
  8
0
100
AcDbPolyline
 90
        4
 70
     1
 43
0.0
 10
15.56348500388824
 20
4.288341386930639
 10
15.92348500388826
 20
4.288341386930639
 10
15.92348500388826
 20
3.820341386930678
 10
15.56348500388824
 20
3.820341386930678
  0
LWPOLYLINE
  5
18B
330
2
100
AcDbEntity
  8
0
100
AcDbPolyline
 90
        4
 70
     0
 43
0.0
 10
15.92348500388826
 20
3.870341386930633
 10
15.6134850038882
 20
3.870341386930633
 10
15.6134850038882
 20
4.238341386930684
 10
15.92348500388826
 20
4.238341386930684
  0
LWPOLYLINE
  5
18C
330
2
100
AcDbEntity
  8
0
100
AcDbPolyline
 90
        4
 70
     1
 43
0.0
 10
15.90848500388816
 20
4.161341386930658
 42
0.4999999999999347
 10
15.62848500388819
 20
4.161341386930686
 10
15.62848500388819
 20
3.95134138693065
 42
0.4999999999998935
 10
15.90848500388816
 20
3.95134138693065
  0
LWPOLYLINE
  5
18D
102
{ACAD_REACTORS
330
310
330
321
102
}
330
2
100
AcDbEntity
  8
0
  6
Continuous
100
AcDbPolyline
 90
       26
 70
     0
 43
0.0
 10
8.107856974047876
 20
27.60560750760591
 10
10.17085697404795
 20
27.6055964425952
 10
10.17085697404795
 20
27.54359644259519
 10
10.66282480330349
 20
27.54359644259519
 10
10.66282480330349
 20
27.41859644259519
 10
10.17085697404789
 20
27.41859644259519
 10
10.17085697404795
 20
27.16759644259518
 42
0.4142135623730951
 10
10.23285697404796
 20
27.1055964425952
 10
12.54585713370389
 20
27.10560251079751
 42
0.4142128141791537
 10
12.60835697404798
 20
27.16810251079728
 10
12.60835697404798
 20
27.95060751218172
 42
-1.000000000000008
 10
12.60835697404798
 20
28.16860751218174
 10
12.60835697404798
 20
28.24360750760589
 10
11.92135697404796
 20
28.24360750760589
 10
11.92135697404796
 20
28.2936075076059
 10
11.70291424697996
 20
28.2936075076059
 42
-0.9999999999999998
 10
11.45291424697996
 20
28.2936075076059
 10
11.04184088867569
 20
28.2936075076059
 42
-0.9999999999999998
 10
10.79184088867569
 20
28.2936075076059
 10
10.54184088867569
 20
28.2936075076059
 42
-0.9999999999999998
 10
10.29184088867569
 20
28.2936075076059
 10
8.795915482935953
 20
28.2936075076059
 42
-0.9999999999999998
 10
8.545915482935953
 20
28.2936075076059
 10
8.045856974047893
 20
28.2936075076059
 10
8.045856974047893
 20
27.66810750760591
 42
0.4142135623730951
 10
8.108356974047893
 20
27.60560750760591
  0
HATCH
  5
18E
330
2
100
AcDbEntity
  8
0
100
AcDbHatch
 10
0.0
 20
0.0
 30
0.0
210
0.0
220
0.0
230
1.0
  2
HONEY
 70
     0
 71
     0
 91
        2
 92
       16
 93
        9
 72
     1
 10
10.51399937756892
 20
27.51313904464489
 11
10.51399937756892
 21
27.54281573502438
 72
     1
 10
10.51399937756892
 20
27.54281573502435
 11
10.13660199118158
 21
27.54266007595389
 72
     1
 10
10.13660199118155
 20
27.54266007595389
 11
10.13673412023539
 21
27.22231151266028
 72
     1
 10
10.13673412023539
 20
27.22231151266031
 11
10.17023567324489
 21
27.22232533051063
 72
     1
 10
10.17023567324492
 20
27.22232533051063
 11
10.17011512507733
 21
27.51459588853119
 72
     1
 10
10.17011512507733
 20
27.51459588853119
 11
10.483541657919
 21
27.51472516256571
 72
     1
 10
10.483541657919
 20
27.51472516256571
 11
10.38863501810479
 21
27.4197402011966
 72
     1
 10
10.38863501810479
 20
27.4197402011966
 11
10.42067754781354
 21
27.4197402011966
 72
     1
 10
10.42067754781354
 20
27.4197402011966
 11
10.51399937756889
 21
27.51313904464489
 97
        0
 92
        1
 93
       11
 72
     1
 10
10.06693359162261
 20
27.21356005719149
 11
10.06682110567996
 21
27.48628364878572
 72
     2
 10
10.12394911679237
 20
27.48630721146374
 40
0.0571280159716573
 50
179.9763681265573
 51
269.9763681265644
 73
     0
 72
     1
 10
10.12392555411432
 20
27.54343522257615
 11
10.51477975250586
 21
27.54359643196286
 72
     1
 10
10.51477975250586
 20
27.54359643196286
 11
10.51483130925442
 21
27.41859644259525
 72
     1
 10
10.51483130925442
 20
27.41859644259525
 11
10.17085697404789
 21
27.41845456899672
 72
     1
 10
10.17085697404789
 20
27.41845456899672
 11
10.17097367998085
 21
27.13549955750016
 72
     2
 10
9.983464654220966
 20
27.15734395896256
 40
0.1887771506741734
 50
6.644883199816937
 51
173.3078530532888
 73
     0
 72
     1
 10
9.795973711878019
 20
27.1353448872545
 11
9.795845022877784
 21
27.44735299705773
 72
     2
 10
9.884647145625507
 20
27.44126348056317
 40
0.0890106691113012
 50
-176.077140640901
 51
-3.970123105996244
 73
     0
 72
     1
 10
9.973444214869232
 20
27.44742624855904
 11
9.909357302386382
 21
27.23698918843663
 72
     2
 10
9.986398735360921
 20
27.213526840266
 40
0.0805348631119007
 50
523.0623079543601
 51
720.0236318734479
 73
     1
 97
        0
 75
     1
 76
     1
 52
0.0
 41
0.2
 77
     0
 78
     3
 53
0.0
 43
-97.98004217756707
 44
-23.70274741511075
 45
0.0375
 46
0.021650635094611
 79
     2
 49
0.025
 49
-0.05
 53
120.0
 43
-97.98004217756707
 44
-23.70274741511075
 45
-0.0375
 46
0.021650635094611
 79
     2
 49
0.025
 49
-0.0499999999999999
 53
60.0
 43
-97.98004217756707
 44
-23.70274741511075
 45
0.0
 46
0.043301270189222
 79
     2
 49
-0.05
 49
0.025
 98
        1
 10
115.8217561256628
 20
-23.70274741511075
1001
GradientColor1ACI
1070
     5
1001
GradientColor2ACI
1070
     2
1001
ACAD
1010
0.0
1020
0.0
1030
0.0
  0
LWPOLYLINE
  5
18F
330
2
100
AcDbEntity
  8
0
100
AcDbPolyline
 90
       11
 70
     1
 43
0.0
 10
10.06693359162261
 20
27.21356005719149
 10
10.06682110567996
 20
27.48628364878572
 42
-0.4142135623731042
 10
10.12392555411432
 20
27.54343522257615
 10
10.51477975250586
 20
27.54359643196286
 10
10.51483130925442
 20
27.41859644259525
 10
10.17085697404789
 20
27.41845456899672
 10
10.17097367998085
 20
27.13549955750016
 42
-0.8898955318630001
 10
9.795973711878019
 20
27.1353448872545
 10
9.795845022877784
 20
27.44735299705773
 42
-0.9333884728362816
 10
9.973444214869232
 20
27.44742624855904
 10
9.909357302386382
 20
27.23698918843663
 42
1.16016115395227
  0
LWPOLYLINE
  5
190
330
2
100
AcDbEntity
  8
0
  6
Continuous
100
AcDbPolyline
 90
        9
 70
     1
 43
0.0
 10
10.51399937756892
 20
27.51313904464489
 10
10.51399937756892
 20
27.54281573502435
 10
10.13660199118155
 20
27.54266007595389
 10
10.13673412023539
 20
27.22231151266031
 10
10.17023567324492
 20
27.22232533051063
 10
10.17011512507733
 20
27.51459588853119
 10
10.483541657919
 20
27.51472516256571
 10
10.38863501810479
 20
27.4197402011966
 10
10.42067754781354
 20
27.4197402011966
  0
LWPOLYLINE
  5
191
330
2
100
AcDbEntity
  8
0
  6
Continuous
100
AcDbPolyline
 90
        7
 70
     0
 43
0.0
 10
12.60801312031697
 20
14.20091588986302
 10
12.60801312031697
 20
12.82522984335138
 10
12.85801312031697
 20
12.82522984335138
 10
12.85801312031697
 20
14.07447618091051
 42
0.2679491924311228
 10
12.82701312031696
 20
14.12816975594514
 10
12.70101312031696
 20
14.20091588986302
 10
12.60801312031697
 20
14.20091588986302
  0
LWPOLYLINE
  5
192
330
2
100
AcDbEntity
  8
0
  6
Continuous
100
AcDbPolyline
 90
       22
 70
     1
 43
0.0
 10
10.26501312031698
 20
13.49459701423363
 10
10.26501312031698
 20
13.63822985326918
 42
-0.4142135623730938
 10
10.32701312031696
 20
13.70022985326919
 10
10.67051312031697
 20
13.70022985326919
 10
10.67051312031697
 20
13.76272985326919
 42
-0.4142135623730951
 10
10.73251312031695
 20
13.82472985326917
 10
12.29651312031697
 20
13.82472985326917
 42
-0.4142135623730951
 10
12.35851312031698
 20
13.76272985326919
 10
12.35851312031698
 20
13.62122985326918
 10
12.60801312031697
 20
13.62122985326918
 10
12.60801312031697
 20
12.82522985326919
 10
7.811013120316971
 20
12.82522985326916
 42
-0.4142135623730951
 10
7.749013120316959
 20
12.88722985326917
 10
7.749013120316959
 20
13.10522985326916
 10
7.499013120316959
 20
13.10522985326916
 10
7.499013120316959
 20
12.99722985326919
 42
-0.4142135623730961
 10
7.437013120316976
 20
12.93522985326918
 10
7.171013120316985
 20
12.93522985326918
 10
7.171013120316985
 20
13.5042941864573
 10
10.08913779484337
 20
13.75959701423365
 42
-0.4348123749609336
 10
10.15546269621549
 20
13.69774804311753
 10
10.15546269621549
 20
13.49459701423363
  0
LWPOLYLINE
  5
193
330
2
100
AcDbEntity
  8
0
  6
Continuous
100
AcDbPolyline
 90
       11
 70
     0
 43
0.0
 10
10.17082246281552
 20
14.13752284342386
 10
10.67085697404789
 20
14.13752284342386
 10
10.67085697404789
 20
14.01252284342389
 10
10.17086129896805
 20
14.01252284342389
 10
10.17092824982936
 20
13.82472985326917
 10
12.60801312031697
 20
13.82472985326917
 10
12.60801312031697
 20
14.44972985326917
 42
0.4142135623730955
 10
12.54601312031698
 20
14.51172985326919
 10
10.2018569740479
 20
14.51172985326919
 42
0.4142135623730951
 10
10.17085697404789
 20
14.48072985326918
 10
10.17085697404789
 20
14.13752284342386
  0
LWPOLYLINE
  5
194
330
2
100
AcDbEntity
  8
0
100
AcDbPolyline
 90
       14
 70
     1
 43
0.0
 10
7.139737908266255
 20
12.88722985326917
 10
7.139737908266255
 20
13.50017780773432
 10
10.17123790826625
 20
13.76539969121317
 10
10.17123790826625
 20
13.49459701423363
 10
10.24923790826622
 20
13.49459701423363
 10
10.24923790826622
 20
13.76334331939897
 10
10.64023790826624
 20
13.76334331939897
 10
10.64023790826624
 20
13.82534331939898
 10
10.14502649241566
 20
13.82534331939898
 10
7.077737908266243
 20
13.5569903405234
 10
7.077737908266243
 20
12.82522985326916
 10
7.452894276037994
 20
12.82522985326916
 10
7.452894276037994
 20
12.88722985326917
 10
7.389737908266255
 20
12.88722985326917
  0
HATCH
  5
195
330
2
100
AcDbEntity
  8
0
100
AcDbHatch
 10
0.0
 20
0.0
 30
0.0
210
0.0
220
0.0
230
1.0
  2
HONEY
 70
     0
 71
     0
 91
        2
 92
       16
 93
        9
 72
     1
 10
10.51399937756892
 20
14.04298023074186
 11
10.51399937756892
 21
14.01330354036237
 72
     1
 10
10.51399937756892
 20
14.0133035403624
 11
10.13660199118158
 21
14.01345919943286
 72
     1
 10
10.13660199118155
 20
14.01345919943286
 11
10.13673412023539
 21
14.33380776272646
 72
     1
 10
10.13673412023539
 20
14.33380776272644
 11
10.17023567324489
 21
14.33379394487612
 72
     1
 10
10.17023567324492
 20
14.33379394487612
 11
10.17011512507733
 21
14.04152338685556
 72
     1
 10
10.17011512507733
 20
14.04152338685556
 11
10.483541657919
 21
14.04139411282104
 72
     1
 10
10.483541657919
 20
14.04139411282104
 11
10.38863501810479
 21
14.13637907419014
 72
     1
 10
10.38863501810479
 20
14.13637907419014
 11
10.42067754781354
 21
14.13637907419014
 72
     1
 10
10.42067754781354
 20
14.13637907419014
 11
10.51399937756889
 21
14.04298023074186
 97
        0
 92
        1
 93
       11
 72
     1
 10
10.06693359162261
 20
14.34255921819526
 11
10.06682110567996
 21
14.06983562660103
 72
     2
 10
10.12394911679237
 20
14.06981206392301
 40
0.0571280159716573
 50
179.9763681265573
 51
269.9763681265644
 73
     1
 72
     1
 10
10.12392555411432
 20
14.0126840528106
 11
10.51477975250586
 21
14.01252284342389
 72
     1
 10
10.51477975250586
 20
14.01252284342389
 11
10.51483130925442
 21
14.1375228327915
 72
     1
 10
10.51483130925442
 20
14.1375228327915
 11
10.17085697404789
 21
14.13766470639003
 72
     1
 10
10.17085697404789
 20
14.13766470639003
 11
10.17097367998085
 21
14.42061971788659
 72
     2
 10
9.983464654220966
 20
14.39877531642419
 40
0.1887771506741734
 50
6.644883199816937
 51
173.3078530532888
 73
     1
 72
     1
 10
9.795973711878019
 20
14.42077438813224
 11
9.795845022877784
 21
14.10876627832901
 72
     2
 10
9.884647145625507
 20
14.11485579482358
 40
0.0890106691113012
 50
-176.077140640901
 51
-3.970123105996244
 73
     1
 72
     1
 10
9.973444214869232
 20
14.10869302682771
 11
9.909357302386382
 21
14.31913008695012
 72
     2
 10
9.986398735360921
 20
14.34259243512075
 40
0.0805348631119007
 50
523.0623079543601
 51
720.0236318734479
 73
     0
 97
        0
 75
     1
 76
     1
 52
0.0
 41
0.2
 77
     0
 78
     3
 53
0.0
 43
-97.98004217756707
 44
-36.98382102491449
 45
0.0375
 46
0.021650635094611
 79
     2
 49
0.025
 49
-0.05
 53
120.0
 43
-97.98004217756707
 44
-36.98382102491449
 45
-0.0375
 46
0.021650635094611
 79
     2
 49
0.025
 49
-0.0499999999999999
 53
60.0
 43
-97.98004217756707
 44
-36.98382102491449
 45
0.0
 46
0.043301270189222
 79
     2
 49
-0.05
 49
0.025
 98
        1
 10
115.8217561256628
 20
65.2588666904975
1001
GradientColor1ACI
1070
     5
1001
GradientColor2ACI
1070
     2
1001
ACAD
1010
0.0
1020
0.0
1030
0.0
  0
LWPOLYLINE
  5
196
330
2
100
AcDbEntity
  8
0
100
AcDbPolyline
 90
       11
 70
     1
 43
0.0
 10
10.06693359162261
 20
14.34255921819526
 10
10.06682110567996
 20
14.06983562660103
 42
0.4142135623731042
 10
10.12392555411432
 20
14.0126840528106
 10
10.51477975250586
 20
14.01252284342389
 10
10.51483130925442
 20
14.1375228327915
 10
10.17085697404789
 20
14.13766470639003
 10
10.17097367998085
 20
14.42061971788659
 42
0.8898955318630001
 10
9.795973711878019
 20
14.42077438813224
 10
9.795845022877784
 20
14.10876627832901
 42
0.9333884728362816
 10
9.973444214869232
 20
14.10869302682771
 10
9.909357302386382
 20
14.31913008695012
 42
-1.16016115395227
  0
LWPOLYLINE
  5
197
330
2
100
AcDbEntity
  8
0
  6
Continuous
100
AcDbPolyline
 90
        9
 70
     1
 43
0.0
 10
10.51399937756892
 20
14.04298023074186
 10
10.51399937756892
 20
14.0133035403624
 10
10.13660199118155
 20
14.01345919943286
 10
10.13673412023539
 20
14.33380776272644
 10
10.17023567324492
 20
14.33379394487612
 10
10.17011512507733
 20
14.04152338685556
 10
10.483541657919
 20
14.04139411282104
 10
10.38863501810479
 20
14.13637907419014
 10
10.42067754781354
 20
14.13637907419014
  0
LWPOLYLINE
  5
198
102
{ACAD_REACTORS
330
2FF
102
}
330
2
100
AcDbEntity
  8
0
  6
Continuous
100
AcDbPolyline
 90
        7
 70
     1
 43
0.0
 10
12.60835697404798
 20
28.24360750760589
 10
13.42085697404798
 20
28.24360750760589
 10
13.4642690184647
 20
27.99740556935284
 10
14.60835697404798
 20
28.19560750760589
 10
14.60835697404795
 20
27.60223250760591
 42
-0.4142135623730951
 10
14.59273197404795
 20
27.5866075076059
 10
12.60835697404798
 20
27.5866075076059
  0
INSERT
  5
199
330
2
100
AcDbEntity
  8
0
100
AcDbBlockReference
  2
8 X 1.5 FH
 10
13.44256299625633
 20
28.12050653847935
 30
0.0
 50
280.000000000005
  0
LWPOLYLINE
  5
207
330
2
100
AcDbEntity
  8
0
  6
Continuous
100
AcDbPolyline
 90
        7
 70
     1
 43
0.0
 10
3.788106302337581
 20
7.741841386930715
 10
3.788106302337581
 20
8.554341386930715
 10
4.034308240590661
 20
8.597753431347442
 10
3.836106302337583
 20
9.741841386930715
 10
4.429481302337563
 20
9.741841386930687
 42
-0.4142135623730951
 10
4.445106302337563
 20
9.726216386930687
 10
4.445106302337563
 20
7.741841386930715
  0
INSERT
  5
208
330
2
100
AcDbEntity
  8
0
100
AcDbBlockReference
  2
8 X 1.5 FH
 10
3.911207271464121
 20
8.576047409139064
 30
0.0
 50
10.00000000000501
  0
LWPOLYLINE
  5
209
330
2
100
AcDbEntity
  8
0
  6
Continuous
100
AcDbPolyline
 90
        7
 70
     1
 43
0.0
 10
16.87398948917965
 20
7.741841386930715
 10
16.87398948917965
 20
8.554341386930715
 10
16.62778755092657
 20
8.597753431347442
 10
16.82598948917965
 20
9.741841386930715
 10
16.23261448917967
 20
9.741841386930687
 42
0.4142135623730951
 10
16.21698948917966
 20
9.726216386930687
 10
16.21698948917966
 20
7.741841386930715
  0
INSERT
  5
20A
330
2
100
AcDbEntity
  8
0
100
AcDbBlockReference
  2
8 X 1.5 FH
 10
16.75088852005311
 20
8.576047409139064
 30
0.0
 41
-1.0
 50
349.9999999999949
  0
DIMENSION
  5
20B
330
2
100
AcDbEntity
  8
0
100
AcDbDimension
  2
*D7
 10
16.92398948917966
 20
10.3832625777118
 30
0.0
 11
10.33104789575861
 21
10.3832625777118
 31
0.0
  1
BOX
 71
     5
 42
13.18588318684209
  3
Knife
100
AcDbAlignedDimension
 13
3.73810630233757
 23
9.364833640612157
 33
0.0
 14
16.92398948917966
 24
9.364833640612157
 34
0.0
100
AcDbRotatedDimension
1001
ACAD
1000
DSTYLE
1002
{
1070
    40
1040
1.0
1002
}
  0
DIMENSION
  5
21A
330
2
100
AcDbEntity
  8
0
100
AcDbDimension
  2
*D4
 10
3.23810630233757
 20
10.3832625777118
 30
0.0
 11
2.641874019221776
 21
10.3832625777118
 31
0.0
 71
     5
 42
0.5
  3
Knife
100
AcDbAlignedDimension
 13
3.73810630233757
 23
9.364833640612157
 33
0.0
 14
3.23810630233757
 24
9.364833640612157
 34
0.0
100
AcDbRotatedDimension
1001
ACAD
1000
DSTYLE
1002
{
1070
    40
1040
1.0
1002
}
  0
DIMENSION
  5
229
330
2
100
AcDbEntity
  8
0
100
AcDbDimension
  2
*D5
 10
3.23810630233757
 20
11.26994982621193
 30
0.0
 11
10.33104789575861
 21
11.26994982621193
 31
0.0
  1
ROUGH\POPENING
 71
     5
 42
14.18588318684209
  3
Knife
100
AcDbAlignedDimension
 13
17.42398948917966
 23
9.364833640612157
 33
0.0
 14
3.23810630233757
 24
9.364833640612157
 34
0.0
100
AcDbRotatedDimension
1001
ACAD
1000
DSTYLE
1002
{
1070
    40
1040
1.0
1002
}
  0
DIMENSION
  5
237
330
2
100
AcDbEntity
  8
0
100
AcDbDimension
  2
*D8
 10
6.72172179629392
 20
3.179341386930573
 30
0.0
 11
6.721721796293919
 21
4.054341386930582
 31
0.0
 71
     5
 42
1.750000000000014
  3
Knife
100
AcDbAlignedDimension
 13
6.72172179629392
 23
4.929341386930587
 33
0.0
 14
6.72172179629392
 24
3.179341386930573
 34
0.0
 50
90.0
100
AcDbRotatedDimension
1001
ACAD
1000
DSTYLE
1002
{
1070
    40
1040
1.0
1002
}
  0
DIMENSION
  5
246
330
2
100
AcDbEntity
  8
0
100
AcDbDimension
  2
*D6
 10
9.143444527614263
 20
2.21986414984822
 30
0.0
 11
6.847278181228602
 21
2.21986414984822
 31
0.0
 71
     5
 42
4.592332692771321
  3
Knife
100
AcDbAlignedDimension
 13
4.551111834842942
 23
3.241341386930585
 33
0.0
 14
9.143444527614263
 24
3.567586461163998
 34
0.0
100
AcDbRotatedDimension
1001
ACAD
1000
DSTYLE
1002
{
1070
    40
1040
1.0
1002
}
  0
DIMENSION
  5
255
330
2
100
AcDbEntity
  8
0
100
AcDbDimension
  2
*D9
 10
2.497260547769151
 20
3.241341386930699
 30
0.0
 11
2.497260547769151
 21
6.491591386930707
 31
0.0
 71
     5
 42
6.500500000000016
  3
Knife
100
AcDbAlignedDimension
 13
3.836106302337583
 23
9.741841386930715
 33
0.0
 14
2.926088038401879
 24
3.241341386930699
 34
0.0
 50
90.0
100
AcDbRotatedDimension
1001
ACAD
1000
DSTYLE
1002
{
1070
    40
1040
1.0
1002
}
  0
DIMENSION
  5
264
330
2
100
AcDbEntity
  8
0
100
AcDbDimension
  2
*D10
 10
17.42398948917966
 20
10.3832625777118
 30
0.0
 11
18.02022177229545
 21
10.3832625777118
 31
0.0
 71
     5
 42
0.5
  3
Knife
100
AcDbAlignedDimension
 13
16.92398948917966
 23
9.364833640612157
 33
0.0
 14
17.42398948917966
 24
9.364833640612157
 34
0.0
 50
180.0
100
AcDbRotatedDimension
1001
ACAD
1000
DSTYLE
1002
{
1070
    40
1040
1.0
1002
}
  0
DIMENSION
  5
273
330
2
100
AcDbEntity
  8
0
100
AcDbDimension
  2
*D11
 10
11.51865126390297
 20
2.21986414984822
 30
0.0
 11
13.81481761028863
 21
2.21986414984822
 31
0.0
 71
     5
 42
4.592332692771321
  3
Knife
100
AcDbAlignedDimension
 13
16.11098395667429
 23
3.241341386930585
 33
0.0
 14
11.51865126390297
 24
3.567586461163998
 34
0.0
 50
180.0
100
AcDbRotatedDimension
1001
ACAD
1000
DSTYLE
1002
{
1070
    40
1040
1.0
1002
}
  0
DIMENSION
  5
282
102
{ACAD_XDICTIONARY
360
283
102
}
102
{ACAD_REACTORS
330
284
102
}
330
2
100
AcDbEntity
  8
0
100
AcDbDimension
  2
*D12
 10
11.51865126390297
 20
2.21986414984822
 30
0.0
 11
10.33104789575861
 21
2.21986414984822
 31
0.0
  1
DAYLIGHT\POPENING
 71
     5
 42
2.375206736288703
  3
Knife
100
AcDbAlignedDimension
 13
9.143444527614263
 23
3.567586461163998
 33
0.0
 14
11.51865126390297
 24
3.567586461164029
 34
0.0
100
AcDbRotatedDimension
1001
ACAD
1000
DSTYLE
1002
{
1070
    40
1040
1.0
1002
}
  0
DIMENSION
  5
292
102
{ACAD_XDICTIONARY
360
293
102
}
102
{ACAD_REACTORS
330
294
102
}
330
2
100
AcDbEntity
  8
0
100
AcDbDimension
  2
*D13
 10
16.92398948917966
 20
4.410572233825035
 30
0.0
 11
17.52292774719762
 21
4.410572233825035
 31
0.0
 71
     5
 42
0.6880055325053434
  3
Knife
100
AcDbAlignedDimension
 13
16.23598395667432
 23
4.272841386930636
 33
0.0
 14
16.92398948917966
 24
4.272841386930636
 34
0.0
100
AcDbRotatedDimension
1001
ACAD
1000
DSTYLE
1002
{
1070
    40
1040
1.0
1002
}
  0
DIMENSION
  5
2A3
102
{ACAD_XDICTIONARY
360
2A4
102
}
102
{ACAD_REACTORS
330
2A5
102
}
330
2
100
AcDbEntity
  8
0
100
AcDbDimension
  2
*D14
 10
16.92398948917966
 20
6.416539289285978
 30
0.0
 11
17.61051494232796
 21
6.416539289285978
 31
0.0
 70
   128
 71
     5
 42
1.188008030909543
  3
Knife
100
AcDbAlignedDimension
 13
15.73598145827012
 23
6.522841466758663
 33
0.0
 14
16.92398948917966
 24
6.522841466758663
 34
0.0
100
AcDbRotatedDimension
1001
ACAD
1000
DSTYLE
1002
{
1070
    40
1040
1.0
1002
}
  0
DIMENSION
  5
2B3
330
2
100
AcDbEntity
  8
0
100
AcDbDimension
  2
*D16
 10
6.002993131255692
 20
21.51306254604051
 30
0.0
 11
6.002993131255689
 21
17.82539619965483
 31
0.0
 71
     5
 42
7.375332692771339
  3
Knife
100
AcDbAlignedDimension
 13
8.107856974047905
 23
14.13772985326916
 33
0.0
 14
8.434102048281289
 24
21.5130625460405
 34
0.0
 50
90.0
100
AcDbRotatedDimension
1001
ACAD
1000
DSTYLE
1002
{
1070
    40
1040
1.0
1002
}
  0
DIMENSION
  5
2C2
330
2
100
AcDbEntity
  8
0
100
AcDbDimension
  2
*D17
 10
6.002993131255692
 20
12.82522985326916
 30
0.0
 11
6.00299313125569
 21
13.48147985326916
 31
0.0
 71
     5
 42
1.3125
  3
Knife
100
AcDbAlignedDimension
 13
8.107856974047891
 23
14.13772985326916
 33
0.0
 14
7.077737908266243
 24
12.82522985326916
 34
0.0
 50
90.0
100
AcDbRotatedDimension
1001
ACAD
1000
DSTYLE
1002
{
1070
    40
1040
1.0
1002
}
  0
DIMENSION
  5
2D1
330
2
100
AcDbEntity
  8
0
100
AcDbDimension
  2
*D18
 10
6.002993131255692
 20
27.48060197510056
 30
0.0
 11
6.002993131255688
 21
25.18443562871488
 31
0.0
 71
     5
 42
4.59233269277135
  3
Knife
100
AcDbAlignedDimension
 13
8.434102048281317
 23
22.8882692823292
 33
0.0
 14
8.107856974047905
 24
27.48060197510056
 34
0.0
 50
90.0
100
AcDbRotatedDimension
1001
ACAD
1000
DSTYLE
1002
{
1070
    40
1040
1.0
1002
}
  0
DIMENSION
  5
2E0
330
2
100
AcDbEntity
  8
0
100
AcDbDimension
  2
*D19
 10
6.002993131255692
 20
21.51306254604051
 30
0.0
 11
6.002993131255689
 21
22.20066591418486
 31
0.0
  1
DAYLIGHT OPENING
 71
     5
 42
1.375206736288703
  3
Knife
100
AcDbAlignedDimension
 13
8.434102048281317
 23
22.8882692823292
 33
0.0
 14
8.434102048281289
 24
21.5130625460405
 34
0.0
 50
90.0
100
AcDbRotatedDimension
1001
ACAD
1000
DSTYLE
1002
{
1070
    40
1040
1.0
1002
}
  0
DIMENSION
  5
2EE
330
2
100
AcDbEntity
  8
0
100
AcDbDimension
  2
*D15
 10
9.795856974047893
 20
17.69983981472012
 30
0.0
 11
8.920856974047893
 21
17.69983981472012
 31
0.0
 71
     5
 42
1.75
  3
Knife
100
AcDbAlignedDimension
 13
8.045856974047893
 23
17.54422985326914
 33
0.0
 14
9.795856974047893
 24
17.69983981472012
 34
0.0
100
AcDbRotatedDimension
1001
ACAD
1000
DSTYLE
1002
{
1070
    40
1040
1.0
1002
}
  0
DIMENSION
  5
2FD
102
{ACAD_XDICTIONARY
360
2FE
102
}
102
{ACAD_REACTORS
330
2FF
102
}
330
2
100
AcDbEntity
  8
0
100
AcDbDimension
  2
*D20
 10
14.60835697404798
 20
29.62229488706098
 30
0.0
 11
11.35810697404797
 21
29.62229488706098
 31
0.0
 71
     5
 42
6.500500000000016
  3
Knife
100
AcDbAlignedDimension
 13
8.107856974047962
 23
29.1056075076059
 33
0.0
 14
14.60835697404798
 24
28.19560750760589
 34
0.0
100
AcDbRotatedDimension
1001
ACAD
1000
DSTYLE
1002
{
1070
    40
1040
1.0
1002
}
  0
DIMENSION
  5
30E
102
{ACAD_XDICTIONARY
360
30F
102
}
102
{ACAD_REACTORS
330
310
102
}
330
2
100
AcDbEntity
  8
0
100
AcDbDimension
  2
*D21
 10
9.00863578929659
 20
28.2936075076059
 30
0.0
 11
9.695161242444882
 21
28.80890660954908
 31
0.0
 70
   128
 71
     5
 42
0.6880055325053434
  3
Knife
100
AcDbAlignedDimension
 13
9.139356974047913
 23
27.60560197510056
 33
0.0
 14
8.795915482935953
 24
28.2936075076059
 34
0.0
 50
90.0
100
AcDbRotatedDimension
1001
ACAD
1000
DSTYLE
1002
{
1070
    40
1040
1.0
1002
}
  0
DIMENSION
  5
31F
102
{ACAD_XDICTIONARY
360
320
102
}
102
{ACAD_REACTORS
330
321
102
}
330
2
100
AcDbEntity
  8
0
100
AcDbDimension
  2
*D22
 10
11.26790505948096
 20
27.1055985649889
 30
0.0
 11
11.26790505948096
 21
27.69960303629741
 31
0.0
 71
     5
 42
1.188008942616995
  3
Knife
100
AcDbAlignedDimension
 13
11.04184088867569
 23
28.2936075076059
 33
0.0
 14
11.04184400544098
 24
27.1055985649889
 34
0.0
 50
90.0
100
AcDbRotatedDimension
1001
ACAD
1000
DSTYLE
1002
{
1070
    40
1040
1.0
1002
}
  0
DIMENSION
  5
330
330
2
100
AcDbEntity
  8
0
100
AcDbDimension
  2
*D25
 10
15.17029077854689
 20
12.82522984335138
 30
0.0
 11
15.17029077854688
 21
20.94149097630583
 31
0.0
 70
   128
  1
BOX
 71
     5
 42
15.46837766425452
  3
Knife
100
AcDbAlignedDimension
 13
11.92135697404796
 23
28.2936075076059
 33
0.0
 14
12.85801312031697
 24
12.82522984335138
 34
0.0
 50
90.0
100
AcDbRotatedDimension
1001
ACAD
1000
DSTYLE
1002
{
1070
    40
1040
1.0
1002
}
  0
DIMENSION
  5
33E
330
2
100
AcDbEntity
  8
0
100
AcDbDimension
  2
*D23
 10
16.38137082337786
 20
29.0436075076059
 30
0.0
 11
16.38137082337786
 21
20.93441867547864
 31
0.0
  1
ROUGH\POPENING
 71
     5
 42
16.21837766425452
  3
Knife
100
AcDbAlignedDimension
 13
12.85801312031697
 23
12.82522984335138
 33
0.0
 14
13.58082387629743
 24
29.0436075076059
 34
0.0
 50
90.0
100
AcDbRotatedDimension
1001
ACAD
1000
DSTYLE
1002
{
1070
    40
1040
1.0
1002
}
  0
DIMENSION
  5
34C
330
2
100
AcDbEntity
  8
0
100
AcDbDimension
  2
*D24
 10
15.17029077854689
 20
29.0436075076059
 30
0.0
 11
15.85681623169518
 21
29.59321829161219
 31
0.0
 70
   128
 71
     5
 42
0.75
  3
Knife
100
AcDbAlignedDimension
 13
11.92135697404796
 23
28.2936075076059
 33
0.0
 14
13.58082387629743
 24
29.0436075076059
 34
0.0
 50
90.0
100
AcDbRotatedDimension
1001
ACAD
1000
DSTYLE
1002
{
1070
    40
1040
1.0
1002
}
  0
LINE
  5
35B
330
2
100
AcDbEntity
  8
0
100
AcDbLine
 10
17.70580775311535
 20
3.241341386930732
 30
0.0
 11
17.70580775311536
 21
3.179341386930745
 31
0.0
  0
DIMENSION
  5
35C
102
{ACAD_XDICTIONARY
360
35D
102
}
102
{ACAD_REACTORS
330
35E
102
}
330
2
100
AcDbEntity
  8
0
100
AcDbDimension
  2
*D26
 10
4.325418220419066
 20
28.2936075076059
 30
0.0
 11
4.325418220419062
 21
25.59093839496755
 31
0.0
 71
     5
 42
5.40533822527669
  3
Knife
100
AcDbAlignedDimension
 13
8.434102048281321
 23
22.8882692823292
 33
0.0
 14
7.106856974047929
 24
28.2936075076059
 34
0.0
 50
90.0
100
AcDbRotatedDimension
1001
ACAD
1000
DSTYLE
1002
{
1070
    40
1040
1.0
1002
}
  0
DIMENSION
  5
36D
102
{ACAD_XDICTIONARY
360
36E
102
}
102
{ACAD_REACTORS
330
36F
102
}
330
2
100
AcDbEntity
  8
0
100
AcDbDimension
  2
*D27
 10
4.325418220419063
 20
12.82522985326916
 30
0.0
 11
4.325418220419061
 21
17.16914619965483
 31
0.0
 71
     5
 42
8.687832692771339
  3
Knife
100
AcDbAlignedDimension
 13
8.434102048281292
 23
21.5130625460405
 33
0.0
 14
7.037737908266243
 24
12.82522985326916
 34
0.0
 50
90.0
100
AcDbRotatedDimension
1001
ACAD
1000
DSTYLE
1002
{
1070
    40
1040
1.0
1002
}
  0
DIMENSION
  5
37E
330
2
100
AcDbEntity
  8
0
100
AcDbDimension
  2
*D28
 10
9.143444527614263
 20
1.168243513903746
 30
0.0
 11
6.440775414975917
 21
1.168243513903746
 31
0.0
 71
     5
 42
5.405338225276693
  3
Knife
100
AcDbAlignedDimension
 13
3.73810630233757
 23
2.240341386930666
 33
0.0
 14
9.143444527614263
 24
3.567586461163998
 34
0.0
100
AcDbRotatedDimension
1001
ACAD
1000
DSTYLE
1002
{
1070
    40
1040
1.0
1002
}
  0
DIMENSION
  5
38D
102
{ACAD_XDICTIONARY
360
38E
102
}
102
{ACAD_REACTORS
330
38F
102
}
330
2
100
AcDbEntity
  8
0
100
AcDbDimension
  2
*D29
 10
16.92398948917966
 20
1.168243513903746
 30
0.0
 11
14.22132037654131
 21
1.168243513903746
 31
0.0
 71
     5
 42
5.405338225276695
  3
Knife
100
AcDbAlignedDimension
 13
11.51865126390296
 23
3.567586461164027
 33
0.0
 14
16.92398948917966
 24
2.24034138693067
 34
0.0
100
AcDbRotatedDimension
1001
ACAD
1000
DSTYLE
1002
{
1070
    40
1040
1.0
1002
}
  0
ENDSEC
  0
SECTION
  2
OBJECTS
  0
DICTIONARY
  5
B
330
0
100
AcDbDictionary
281
     1
  3
ACAD_COLOR
350
50
  3
ACAD_GROUP
350
3D
  3
ACAD_LAYOUT
350
18
  3
ACAD_MATERIAL
350
D
  3
ACAD_MLEADERSTYLE
350
53
  3
ACAD_MLINESTYLE
350
3E
  3
ACAD_PLOTSETTINGS
350
3F
  3
ACAD_PLOTSTYLENAME
350
A
  3
ACAD_SCALELIST
350
51
  3
ACAD_TABLESTYLE
350
52
  3
ACAD_VISUALSTYLE
350
31
  3
ACDB_RECOMPOSE_DATA
350
3AA
  3
AcDbVariableDictionary
350
3A0
  0
DICTIONARY
  5
33
330
2E
100
AcDbDictionary
280
     1
281
     1
  0
DICTIONARY
  5
23
330
22
100
AcDbDictionary
280
     1
281
     1
  3
ACAD_LAYERSTATES
360
24
  0
DICTIONARY
  5
7
330
6
100
AcDbDictionary
280
     1
281
     1
  3
ADSK_XREC_LAYER_RECONCILED
360
8
  0
DICTIONARY
  5
7F
330
7E
100
AcDbDictionary
280
     1
281
     1
  0
DICTIONARY
  5
3
330
2
100
AcDbDictionary
280
     1
281
     1
  3
ACAD_SORTENTS
360
39E
  0
DICTIONARY
  5
283
330
282
100
AcDbDictionary
280
     1
281
     1
  3
ACAD_DIMASSOC
360
284
  0
DICTIONARY
  5
293
330
292
100
AcDbDictionary
280
     1
281
     1
  3
ACAD_DIMASSOC
360
294
  0
DICTIONARY
  5
2A4
330
2A3
100
AcDbDictionary
280
     1
281
     1
  3
ACAD_DIMASSOC
360
2A5
  0
DICTIONARY
  5
2FE
330
2FD
100
AcDbDictionary
280
     1
281
     1
  3
ACAD_DIMASSOC
360
2FF
  0
DICTIONARY
  5
30F
330
30E
100
AcDbDictionary
280
     1
281
     1
  3
ACAD_DIMASSOC
360
310
  0
DICTIONARY
  5
320
330
31F
100
AcDbDictionary
280
     1
281
     1
  3
ACAD_DIMASSOC
360
321
  0
DICTIONARY
  5
35D
330
35C
100
AcDbDictionary
280
     1
281
     1
  3
ACAD_DIMASSOC
360
35E
  0
DICTIONARY
  5
36E
330
36D
100
AcDbDictionary
280
     1
281
     1
  3
ACAD_DIMASSOC
360
36F
  0
DICTIONARY
  5
38E
330
38D
100
AcDbDictionary
280
     1
281
     1
  3
ACAD_DIMASSOC
360
38F
  0
DICTIONARY
  5
50
102
{ACAD_REACTORS
330
B
102
}
330
B
100
AcDbDictionary
281
     1
  0
DICTIONARY
  5
3D
102
{ACAD_REACTORS
330
B
102
}
330
B
100
AcDbDictionary
281
     1
  0
DICTIONARY
  5
18
102
{ACAD_REACTORS
330
B
102
}
330
B
100
AcDbDictionary
281
     1
  3
Layout1
350
1F
  3
Model
350
17
  0
DICTIONARY
  5
D
102
{ACAD_REACTORS
330
B
102
}
330
B
100
AcDbDictionary
281
     1
  3
ByBlock
350
48
  3
ByLayer
350
40
  3
Global
350
C
  0
DICTIONARY
  5
53
102
{ACAD_REACTORS
330
B
102
}
330
B
100
AcDbDictionary
281
     1
  0
DICTIONARY
  5
3E
102
{ACAD_REACTORS
330
B
102
}
330
B
100
AcDbDictionary
281
     1
  3
Standard
350
54
  0
DICTIONARY
  5
3F
102
{ACAD_REACTORS
330
B
102
}
330
B
100
AcDbDictionary
281
     1
  0
ACDBDICTIONARYWDFLT
  5
A
102
{ACAD_REACTORS
330
B
102
}
330
B
100
AcDbDictionary
281
     1
  3
Normal
350
9
100
AcDbDictionaryWithDefault
340
9
  0
DICTIONARY
  5
51
102
{ACAD_REACTORS
330
B
102
}
330
B
100
AcDbDictionary
281
     1
  3
A0
350
59
  3
A1
350
5A
  3
A2
350
5B
  3
A3
350
5C
  3
A4
350
5D
  3
A5
350
5E
  3
A6
350
5F
  3
A7
350
60
  3
A8
350
61
  3
A9
350
62
  3
B0
350
63
  3
B1
350
64
  3
B2
350
65
  3
B3
350
66
  3
B4
350
67
  3
B5
350
68
  3
B6
350
69
  0
DICTIONARY
  5
52
102
{ACAD_REACTORS
330
B
102
}
330
B
100
AcDbDictionary
281
     1
  3
Standard
350
55
  0
DICTIONARY
  5
31
102
{ACAD_REACTORS
330
B
102
}
330
B
100
AcDbDictionary
281
     1
  3
2dWireframe
350
30
  3
Realistic
350
57
  3
Wireframe
350
58
  0
XRECORD
  5
3AA
102
{ACAD_REACTORS
330
B
102
}
330
B
100
AcDbXrecord
280
     1
 90
        1
330
55
  0
DICTIONARY
  5
3A0
102
{ACAD_REACTORS
330
B
102
}
330
B
100
AcDbDictionary
281
     1
  3
CANNOSCALE
350
3A3
  3
CMLEADERSTYLE
350
3A2
  3
CTABLESTYLE
350
3A1
  3
DIMASSOC
350
3A8
  3
HIDETEXT
350
3A6
  3
INDEXCTL
350
3A5
  3
SORTENTS
350
3A4
  3
XCLIPFRAME
350
3A7
  0
DICTIONARY
  5
24
102
{ACAD_REACTORS
330
23
102
}
330
23
100
AcDbDictionary
281
     1
  0
XRECORD
  5
8
102
{ACAD_REACTORS
330
7
102
}
330
7
100
AcDbXrecord
280
     1
290
     1
  0
SORTENTSTABLE
  5
39E
102
{ACAD_REACTORS
330
3
102
}
330
3
100
AcDbSortentsTable
330
2
  0
DIMASSOC
  5
284
102
{ACAD_REACTORS
330
283
102
}
330
283
100
AcDbDimAssoc
330
282
 90
        2
 70
     0
 71
     0
  1
AcDbOsnapPointRef
 72
     5
331
175
 73
     2
 91
        8
 40
3.141592653589793
 10
0.0
 20
0.0
 30
0.0
 75
     0
  0
DIMASSOC
  5
294
102
{ACAD_REACTORS
330
293
102
}
330
293
100
AcDbDimAssoc
330
292
 90
        3
 70
     0
 71
     0
  1
AcDbOsnapPointRef
 72
     2
331
169
 73
     2
 91
        1
 40
0.5
 10
0.0
 20
0.0
 30
0.0
 75
     0
  1
AcDbOsnapPointRef
 72
     8
331
169
 73
     2
 91
       21
 40
0.7704153630961878
 10
0.0
 20
0.0
 30
0.0
 75
     1
  1
AcDbOsnapPointRef
 72
     2
331
169
 73
     2
 91
        1
 40
0.5
 10
0.0
 20
0.0
 30
0.0
 75
     0
  0
DIMASSOC
  5
2A5
102
{ACAD_REACTORS
330
2A4
102
}
330
2A4
100
AcDbDimAssoc
330
2A3
 90
        3
 70
     0
 71
     0
  1
AcDbOsnapPointRef
 72
     2
331
169
 73
     2
 91
        8
 40
0.5000000000000001
 10
0.0
 20
0.0
 30
0.0
 75
     0
  1
AcDbOsnapPointRef
 72
     8
331
169
 73
     2
 91
       17
 40
0.1546127760899274
 10
0.0
 20
0.0
 30
0.0
 75
     1
  1
AcDbOsnapPointRef
 72
     2
331
169
 73
     2
 91
        8
 40
0.5000000000000001
 10
0.0
 20
0.0
 30
0.0
 75
     0
  0
DIMASSOC
  5
2FF
102
{ACAD_REACTORS
330
2FE
102
}
330
2FE
100
AcDbDimAssoc
330
2FD
 90
        3
 70
     0
 71
     0
  1
AcDbOsnapPointRef
 72
     1
331
73
 73
     2
 91
        4
 40
1.0
 10
0.0
 20
0.0
 30
2.000000000000000E+50
 75
     0
  1
AcDbOsnapPointRef
 72
     1
331
198
 73
     2
 91
        3
 40
1.0
 10
0.0
 20
0.0
 30
2.000000000000000E+50
 75
     0
  0
DIMASSOC
  5
310
102
{ACAD_REACTORS
330
30F
102
}
330
30F
100
AcDbDimAssoc
330
30E
 90
        3
 70
     0
 71
     0
  1
AcDbOsnapPointRef
 72
     2
331
18D
 73
     2
 91
        1
 40
0.5
 10
0.0
 20
0.0
 30
0.0
 75
     0
  1
AcDbOsnapPointRef
 72
     1
331
18D
 73
     2
 91
       21
 40
1.0
 10
0.0
 20
0.0
 30
2.000000000000000E+50
 75
     0
  0
DIMASSOC
  5
321
102
{ACAD_REACTORS
330
320
102
}
330
320
100
AcDbDimAssoc
330
31F
 90
        3
 70
     0
 71
     0
  1
AcDbOsnapPointRef
 72
     1
331
18D
 73
     2
 91
       17
 40
1.0
 10
0.0
 20
0.0
 30
2.000000000000000E+50
 75
     0
  1
AcDbOsnapPointRef
 72
     8
331
18D
 73
     2
 91
        8
 40
0.3497565825993565
 10
0.0
 20
0.0
 30
0.0
 75
     1
  1
AcDbOsnapPointRef
 72
     1
331
18D
 73
     2
 91
       17
 40
1.0
 10
0.0
 20
0.0
 30
2.000000000000000E+50
 75
     0
  0
DIMASSOC
  5
35E
102
{ACAD_REACTORS
330
35D
102
}
330
35D
100
AcDbDimAssoc
330
35C
 90
        1
 70
     0
 71
     0
  1
AcDbOsnapPointRef
 72
     5
331
122
 73
     2
 91
        8
 40
4.712388980384689
 10
0.0
 20
0.0
 30
0.0
 75
     0
  0
DIMASSOC
  5
36F
102
{ACAD_REACTORS
330
36E
102
}
330
36E
100
AcDbDimAssoc
330
36D
 90
        1
 70
     0
 71
     0
  1
AcDbOsnapPointRef
 72
     5
331
133
 73
     2
 91
        8
 40
1.570796326794896
 10
0.0
 20
0.0
 30
0.0
 75
     0
  0
DIMASSOC
  5
38F
102
{ACAD_REACTORS
330
38E
102
}
330
38E
100
AcDbDimAssoc
330
38D
 90
        1
 70
     0
 71
     0
  1
AcDbOsnapPointRef
 72
     6
331
175
 73
     2
 91
        9
 40
0.0
 10
0.0
 20
0.0
 30
0.0
332
175
 74
     2
 92
        8
 75
     0
  0
LAYOUT
  5
1F
102
{ACAD_XDICTIONARY
360
20
102
}
102
{ACAD_REACTORS
330
18
102
}
330
18
100
AcDbPlotSettings
  1

  2
Default Windows System Printer.pc3
  4
Letter
  6

 40
4.857749938964843
 41
4.857737064361572
 42
4.85772705078125
 43
4.011077880859375
 44
279.3999938964844
 45
215.8999938964844
 46
-0.730858697408237
 47
-3.856245104248928
 48
0.0
 49
0.0
140
0.0
141
0.0
142
1.0
143
1.0
 70
   692
 72
     0
 73
     1
 74
     1
  7
monochrome.ctb
 75
    16
147
1.0
148
0.0083604749971762
149
0.0163435974585369
100
AcDbLayout
  1
Layout1
 70
     1
 71
     1
 10
-0.0064249311656545
 20
-0.1631194818509899
 11
8.493574828538456
 21
10.83688027785312
 12
0.0
 22
0.0
 32
0.0
 14
0.0000000075458644
 24
0.0000000082145277
 34
0.0
 15
8.454000007545857
 25
10.67400000821453
 35
0.0
146
0.0
 13
0.0
 23
0.0
 33
0.0
 16
1.0
 26
0.0
 36
0.0
 17
0.0
 27
1.0
 37
0.0
 76
     0
330
1C
1001
ACAD_PSEXT
1000
Default Windows System Printer.pc3
1000
HP LaserJet Professional M1212nf MFP
1000
USB001
1000

1070
     0
  0
LAYOUT
  5
17
102
{ACAD_XDICTIONARY
360
19
102
}
102
{ACAD_REACTORS
330
18
102
}
330
18
100
AcDbPlotSettings
  1

  2
hp LaserJet 1000
  4
Letter
  6

 40
5.111750125885009
 41
5.11176061630249
 42
5.111740112304687
 43
5.11175537109375
 44
215.8999938964844
 45
279.3999938964844
 46
-1737.727141600119
 47
-1443.590822120185
 48
0.0
 49
0.0
140
0.0
141
0.0
142
1.0
143
1.0
 70
 11956
 72
     0
 73
     1
 74
     1
  7
monochrome.ctb
 75
    16
147
1.0
148
-1178909.293504616
149
-716480.0773740626
100
AcDbLayout
  1
Model
 70
     1
 71
     0
 10
0.0
 20
0.0
 11
12.0
 21
9.0
 12
0.0
 22
0.0
 32
0.0
 14
0.0
 24
0.0
 34
0.0
 15
0.0
 25
0.0
 35
0.0
146
0.0
 13
0.0
 23
0.0
 33
0.0
 16
1.0
 26
0.0
 36
0.0
 17
0.0
 27
1.0
 37
0.0
 76
     0
330
2
331
2F
1001
ACAD_PSEXT
1000
hp LaserJet 1000
1000
hp LaserJet 1000
1000
USB001
1000

1070
     0
  0
MATERIAL
  5
48
102
{ACAD_XDICTIONARY
360
49
102
}
102
{ACAD_REACTORS
330
D
102
}
330
D
100
AcDbMaterial
  1
ByBlock
 72
     0
 43
0.0208333333333333
 43
0.0
 43
0.0
 43
0.0
 43
0.0
 43
0.0208333333333333
 43
0.0
 43
0.0
 43
0.0
 43
0.0
 43
1.0
 43
0.0
 43
0.0
 43
0.0
 43
0.0
 43
1.0
 77
     0
 47
0.0208333333333333
 47
0.0
 47
0.0
 47
0.0
 47
0.0
 47
0.0208333333333333
 47
0.0
 47
0.0
 47
0.0
 47
0.0
 47
1.0
 47
0.0
 47
0.0
 47
0.0
 47
0.0
 47
1.0
171
     0
 49
0.0208333333333333
 49
0.0
 49
0.0
 49
0.0
 49
0.0
 49
0.0208333333333333
 49
0.0
 49
0.0
 49
0.0
 49
0.0
 49
1.0
 49
0.0
 49
0.0
 49
0.0
 49
0.0
 49
1.0
175
     0
142
0.0208333333333333
142
0.0
142
0.0
142
0.0
142
0.0
142
0.0208333333333333
142
0.0
142
0.0
142
0.0
142
0.0
142
1.0
142
0.0
142
0.0
142
0.0
142
0.0
142
1.0
179
     0
144
0.0208333333333333
144
0.0
144
0.0
144
0.0
144
0.0
144
0.0208333333333333
144
0.0
144
0.0
144
0.0
144
0.0
144
1.0
144
0.0
144
0.0
144
0.0
144
0.0
144
1.0
147
0.0208333333333333
147
0.0
147
0.0
147
0.0
147
0.0
147
0.0208333333333333
147
0.0
147
0.0
147
0.0
147
0.0
147
1.0
147
0.0
147
0.0
147
0.0
147
0.0
147
1.0
  0
MATERIAL
  5
40
102
{ACAD_XDICTIONARY
360
41
102
}
102
{ACAD_REACTORS
330
D
102
}
330
D
100
AcDbMaterial
  1
ByLayer
 72
     0
 43
0.0208333333333333
 43
0.0
 43
0.0
 43
0.0
 43
0.0
 43
0.0208333333333333
 43
0.0
 43
0.0
 43
0.0
 43
0.0
 43
1.0
 43
0.0
 43
0.0
 43
0.0
 43
0.0
 43
1.0
 77
     0
 47
0.0208333333333333
 47
0.0
 47
0.0
 47
0.0
 47
0.0
 47
0.0208333333333333
 47
0.0
 47
0.0
 47
0.0
 47
0.0
 47
1.0
 47
0.0
 47
0.0
 47
0.0
 47
0.0
 47
1.0
171
     0
 49
0.0208333333333333
 49
0.0
 49
0.0
 49
0.0
 49
0.0
 49
0.0208333333333333
 49
0.0
 49
0.0
 49
0.0
 49
0.0
 49
1.0
 49
0.0
 49
0.0
 49
0.0
 49
0.0
 49
1.0
175
     0
142
0.0208333333333333
142
0.0
142
0.0
142
0.0
142
0.0
142
0.0208333333333333
142
0.0
142
0.0
142
0.0
142
0.0
142
1.0
142
0.0
142
0.0
142
0.0
142
0.0
142
1.0
179
     0
144
0.0208333333333333
144
0.0
144
0.0
144
0.0
144
0.0
144
0.0208333333333333
144
0.0
144
0.0
144
0.0
144
0.0
144
1.0
144
0.0
144
0.0
144
0.0
144
0.0
144
1.0
147
0.0208333333333333
147
0.0
147
0.0
147
0.0
147
0.0
147
0.0208333333333333
147
0.0
147
0.0
147
0.0
147
0.0
147
1.0
147
0.0
147
0.0
147
0.0
147
0.0
147
1.0
  0
MATERIAL
  5
C
102
{ACAD_XDICTIONARY
360
E
102
}
102
{ACAD_REACTORS
330
D
102
}
330
D
100
AcDbMaterial
  1
Global
 72
     0
 43
0.0208333333333333
 43
0.0
 43
0.0
 43
0.0
 43
0.0
 43
0.0208333333333333
 43
0.0
 43
0.0
 43
0.0
 43
0.0
 43
1.0
 43
0.0
 43
0.0
 43
0.0
 43
0.0
 43
1.0
 77
     0
 47
0.0208333333333333
 47
0.0
 47
0.0
 47
0.0
 47
0.0
 47
0.0208333333333333
 47
0.0
 47
0.0
 47
0.0
 47
0.0
 47
1.0
 47
0.0
 47
0.0
 47
0.0
 47
0.0
 47
1.0
171
     0
 49
0.0208333333333333
 49
0.0
 49
0.0
 49
0.0
 49
0.0
 49
0.0208333333333333
 49
0.0
 49
0.0
 49
0.0
 49
0.0
 49
1.0
 49
0.0
 49
0.0
 49
0.0
 49
0.0
 49
1.0
175
     0
142
0.0208333333333333
142
0.0
142
0.0
142
0.0
142
0.0
142
0.0208333333333333
142
0.0
142
0.0
142
0.0
142
0.0
142
1.0
142
0.0
142
0.0
142
0.0
142
0.0
142
1.0
179
     0
144
0.0208333333333333
144
0.0
144
0.0
144
0.0
144
0.0
144
0.0208333333333333
144
0.0
144
0.0
144
0.0
144
0.0
144
1.0
144
0.0
144
0.0
144
0.0
144
0.0
144
1.0
147
0.0208333333333333
147
0.0
147
0.0
147
0.0
147
0.0
147
0.0208333333333333
147
0.0
147
0.0
147
0.0
147
0.0
147
1.0
147
0.0
147
0.0
147
0.0
147
0.0
147
1.0
  0
MLINESTYLE
  5
54
102
{ACAD_REACTORS
330
3E
102
}
330
3E
100
AcDbMlineStyle
  2
STANDARD
 70
     0
  3

 62
   256
 51
90.0
 52
90.0
 71
     2
 49
0.5
 62
   256
  6
BYLAYER
 49
-0.5
 62
   256
  6
BYLAYER
  0
ACDBPLACEHOLDER
  5
9
102
{ACAD_REACTORS
330
A
102
}
330
A
  0
SCALE
  5
59
102
{ACAD_REACTORS
330
51
102
}
330
51
100
AcDbScale
 70
     0
300
1:1
140
1.0
141
1.0
290
     1
  0
SCALE
  5
5A
102
{ACAD_REACTORS
330
51
102
}
330
51
100
AcDbScale
 70
     0
300
1/128" = 1'-0"
140
0.0078125
141
12.0
290
     0
  0
SCALE
  5
5B
102
{ACAD_REACTORS
330
51
102
}
330
51
100
AcDbScale
 70
     0
300
1/64" = 1'-0"
140
0.015625
141
12.0
290
     0
  0
SCALE
  5
5C
102
{ACAD_REACTORS
330
51
102
}
330
51
100
AcDbScale
 70
     0
300
1/32" = 1'-0"
140
0.03125
141
12.0
290
     0
  0
SCALE
  5
5D
102
{ACAD_REACTORS
330
51
102
}
330
51
100
AcDbScale
 70
     0
300
1/16" = 1'-0"
140
0.0625
141
12.0
290
     0
  0
SCALE
  5
5E
102
{ACAD_REACTORS
330
51
102
}
330
51
100
AcDbScale
 70
     0
300
3/32" = 1'-0"
140
0.09375
141
12.0
290
     0
  0
SCALE
  5
5F
102
{ACAD_REACTORS
330
51
102
}
330
51
100
AcDbScale
 70
     0
300
1/8" = 1'-0"
140
0.125
141
12.0
290
     0
  0
SCALE
  5
60
102
{ACAD_REACTORS
330
51
102
}
330
51
100
AcDbScale
 70
     0
300
3/16" = 1'-0"
140
0.1875
141
12.0
290
     0
  0
SCALE
  5
61
102
{ACAD_REACTORS
330
51
102
}
330
51
100
AcDbScale
 70
     0
300
1/4" = 1'-0"
140
0.25
141
12.0
290
     0
  0
SCALE
  5
62
102
{ACAD_REACTORS
330
51
102
}
330
51
100
AcDbScale
 70
     0
300
3/8" = 1'-0"
140
0.375
141
12.0
290
     0
  0
SCALE
  5
63
102
{ACAD_REACTORS
330
51
102
}
330
51
100
AcDbScale
 70
     0
300
1/2" = 1'-0"
140
0.5
141
12.0
290
     0
  0
SCALE
  5
64
102
{ACAD_REACTORS
330
51
102
}
330
51
100
AcDbScale
 70
     0
300
3/4" = 1'-0"
140
0.75
141
12.0
290
     0
  0
SCALE
  5
65
102
{ACAD_REACTORS
330
51
102
}
330
51
100
AcDbScale
 70
     0
300
1" = 1'-0"
140
1.0
141
12.0
290
     0
  0
SCALE
  5
66
102
{ACAD_REACTORS
330
51
102
}
330
51
100
AcDbScale
 70
     0
300
1-1/2" = 1'-0"
140
1.5
141
12.0
290
     0
  0
SCALE
  5
67
102
{ACAD_REACTORS
330
51
102
}
330
51
100
AcDbScale
 70
     0
300
3" = 1'-0"
140
3.0
141
12.0
290
     0
  0
SCALE
  5
68
102
{ACAD_REACTORS
330
51
102
}
330
51
100
AcDbScale
 70
     0
300
6" = 1'-0"
140
6.0
141
12.0
290
     0
  0
SCALE
  5
69
102
{ACAD_REACTORS
330
51
102
}
330
51
100
AcDbScale
 70
     0
300
1'-0" = 1'-0"
140
12.0
141
12.0
290
     0
  0
TABLESTYLE
  5
55
102
{ACAD_XDICTIONARY
360
56
102
}
102
{ACAD_REACTORS
330
52
102
}
330
52
100
AcDbTableStyle
  3
Standard
 70
     0
 71
     0
 40
0.06
 41
0.06
280
     0
281
     0
  7
Standard
140
0.18
170
     2
 62
     0
 63
     7
283
     0
274
    -2
284
     1
 64
     0
275
    -2
285
     1
 65
     0
276
    -2
286
     1
 66
     0
277
    -2
287
     1
 67
     0
278
    -2
288
     1
 68
     0
279
    -2
289
     1
 69
     0
  7
Standard
140
0.25
170
     5
 62
     0
 63
     7
283
     0
274
    -2
284
     1
 64
     0
275
    -2
285
     1
 65
     0
276
    -2
286
     1
 66
     0
277
    -2
287
     1
 67
     0
278
    -2
288
     1
 68
     0
279
    -2
289
     1
 69
     0
  7
Standard
140
0.18
170
     5
 62
     0
 63
     7
283
     0
274
    -2
284
     1
 64
     0
275
    -2
285
     1
 65
     0
276
    -2
286
     1
 66
     0
277
    -2
287
     1
 67
     0
278
    -2
288
     1
 68
     0
279
    -2
289
     1
 69
     0
  0
VISUALSTYLE
  5
30
102
{ACAD_XDICTIONARY
360
3AE
102
}
102
{ACAD_REACTORS
330
31
102
}
330
31
100
AcDbVisualStyle
  2
2dWireframe
 70
     4
 71
     0
 72
     2
 73
     0
 90
        0
 40
-0.6
 41
-30.0
 62
     5
 63
     7
 74
     1
 91
        4
 64
     7
 65
   257
 75
     1
175
     1
 42
1.0
 92
        0
 66
   257
 43
1.0
 76
     1
 77
     6
 78
     2
 67
     7
 79
     5
170
     0
171
     0
290
     0
174
     0
 93
        1
 44
0.0
173
     0
291
     0
 45
0.0
1001
ACAD
1000
AcDbSavedByObjectVersion
1070
     0
  0
VISUALSTYLE
  5
57
102
{ACAD_XDICTIONARY
360
3B3
102
}
102
{ACAD_REACTORS
330
31
102
}
330
31
100
AcDbVisualStyle
  2
Realistic
 70
     8
 71
     2
 72
     2
 73
     0
 90
        2
 40
-0.6
 41
30.0
 62
     5
 63
     7
 74
     0
 91
        0
 64
     7
 65
   257
 75
     1
175
     1
 42
1.0
 92
        8
 66
   257
 43
1.0
 76
     1
 77
     6
 78
     2
 67
     7
 79
     3
170
     0
171
     0
290
     0
174
     0
 93
       13
 44
0.0
173
     0
291
     0
 45
0.0
1001
ACAD
1000
AcDbSavedByObjectVersion
1070
     0
  0
VISUALSTYLE
  5
58
102
{ACAD_XDICTIONARY
360
3B5
102
}
102
{ACAD_REACTORS
330
31
102
}
330
31
100
AcDbVisualStyle
  2
Wireframe
 70
     5
 71
     0
 72
     2
 73
     0
 90
        0
 40
-0.6
 41
-30.0
 62
     5
 63
     7
 74
     1
 91
        4
 64
     7
 65
   257
 75
     1
175
     1
 42
1.0
 92
        0
 66
   257
 43
1.0
 76
     1
 77
     6
 78
     2
 67
     7
 79
     3
170
     0
171
     0
290
     0
174
     0
 93
        1
 44
0.0
173
     0
291
     0
 45
0.0
1001
ACAD
1000
AcDbSavedByObjectVersion
1070
     0
  0
DICTIONARYVAR
  5
3A3
102
{ACAD_REACTORS
330
3A0
102
}
330
3A0
100
DictionaryVariables
280
     0
  1
1:1
  0
DICTIONARYVAR
  5
3A2
102
{ACAD_REACTORS
330
3A0
102
}
330
3A0
100
DictionaryVariables
280
     0
  1
STANDARD
  0
DICTIONARYVAR
  5
3A1
102
{ACAD_REACTORS
330
3A0
102
}
330
3A0
100
DictionaryVariables
280
     0
  1
STANDARD
  0
DICTIONARYVAR
  5
3A8
102
{ACAD_REACTORS
330
3A0
102
}
330
3A0
100
DictionaryVariables
280
     0
  1
2
  0
DICTIONARYVAR
  5
3A6
102
{ACAD_REACTORS
330
3A0
102
}
330
3A0
100
DictionaryVariables
280
     0
  1
1
  0
DICTIONARYVAR
  5
3A5
102
{ACAD_REACTORS
330
3A0
102
}
330
3A0
100
DictionaryVariables
280
     0
  1
0
  0
DICTIONARYVAR
  5
3A4
102
{ACAD_REACTORS
330
3A0
102
}
330
3A0
100
DictionaryVariables
280
     0
  1
127
  0
DICTIONARYVAR
  5
3A7
102
{ACAD_REACTORS
330
3A0
102
}
330
3A0
100
DictionaryVariables
280
     0
  1
0
  0
DICTIONARY
  5
20
330
1F
100
AcDbDictionary
280
     1
281
     1
  3
ACAD_XREC_ROUNDTRIP
360
3AD
  3
ADSK_XREC_LAYOUTTHUMBNAIL
360
21
  0
DICTIONARY
  5
19
330
17
100
AcDbDictionary
280
     1
281
     1
  3
ACAD_XREC_ROUNDTRIP
360
3AC
  3
ADSK_XREC_LAYOUTTHUMBNAIL
360
1A
  0
DICTIONARY
  5
49
330
48
100
AcDbDictionary
280
     1
281
     1
  3
ACAD_XREC_ROUNDTRIP
360
3B1
  3
BUMPTILE
360
4A
  3
DIFFUSETILE
360
4B
  3
OPACITYTILE
360
4C
  3
REFLECTIONTILE
360
4D
  3
REFRACTIONTILE
360
4E
  3
SPECULARTILE
360
4F
  0
DICTIONARY
  5
41
330
40
100
AcDbDictionary
280
     1
281
     1
  3
ACAD_XREC_ROUNDTRIP
360
3B0
  3
BUMPTILE
360
42
  3
DIFFUSETILE
360
43
  3
OPACITYTILE
360
44
  3
REFLECTIONTILE
360
45
  3
REFRACTIONTILE
360
46
  3
SPECULARTILE
360
47
  0
DICTIONARY
  5
E
330
C
100
AcDbDictionary
280
     1
281
     1
  3
ACAD_XREC_ROUNDTRIP
360
3AB
  3
BUMPTILE
360
F
  3
DIFFUSETILE
360
10
  3
OPACITYTILE
360
11
  3
REFLECTIONTILE
360
12
  3
REFRACTIONTILE
360
13
  3
SPECULARTILE
360
14
  0
DICTIONARY
  5
56
330
55
100
AcDbDictionary
280
     1
281
     1
  3
ACAD_ROUNDTRIP_2008_TABLESTYLE_CELLSTYLEMAP
360
3A9
  3
ACAD_XREC_ROUNDTRIP
360
3B2
  0
DICTIONARY
  5
3AE
330
30
100
AcDbDictionary
280
     1
281
     1
  3
ACAD_XREC_ROUNDTRIP
360
3AF
  0
DICTIONARY
  5
3B3
330
57
100
AcDbDictionary
280
     1
281
     1
  3
ACAD_XREC_ROUNDTRIP
360
3B4
  0
DICTIONARY
  5
3B5
330
58
100
AcDbDictionary
280
     1
281
     1
  3
ACAD_XREC_ROUNDTRIP
360
3B6
  0
XRECORD
  5
3AD
102
{ACAD_REACTORS
330
20
102
}
330
20
100
AcDbXrecord
280
     1
102
SHADEPLOT
 70
     1
102
SHADEPLOTRESLEVEL
 70
     4
102
SHADEPLOTCUSTOMDPI
 70
   300
  0
XRECORD
  5
21
102
{ACAD_REACTORS
330
20
102
}
330
20
100
AcDbXrecord
280
     1
310
280000006B0000008C0000000100080000000000103B000000000000000000000001000000000000FFFFFF0000000000C8C8C8000000000000000000000000000000000000000000000000000000000000000000330000006600000099000000CC000000FF00000000330000333300006633000099330000CC330000FF3300
310
0000660000336600006666000099660000CC660000FF66000000990000339900006699000099990000CC990000FF99000000CC000033CC000066CC000099CC0000CCCC0000FFCC000000FF000033FF000066FF000099FF0000CCFF0000FFFF000000003300330033006600330099003300CC003300FF003300003333003333
310
33006633330099333300CC333300FF33330000663300336633006666330099663300CC663300FF66330000993300339933006699330099993300CC993300FF99330000CC330033CC330066CC330099CC3300CCCC3300FFCC330000FF330033FF330066FF330099FF3300CCFF3300FFFF330000006600330066006600660099
310
006600CC006600FF00660000336600333366006633660099336600CC336600FF33660000666600336666006666660099666600CC666600FF66660000996600339966006699660099996600CC996600FF99660000CC660033CC660066CC660099CC6600CCCC6600FFCC660000FF660033FF660066FF660099FF6600CCFF6600
310
FFFF660000009900330099006600990099009900CC009900FF00990000339900333399006633990099339900CC339900FF33990000669900336699006666990099669900CC669900FF66990000999900339999006699990099999900CC999900FF99990000CC990033CC990066CC990099CC9900CCCC9900FFCC990000FF99
310
0033FF990066FF990099FF9900CCFF9900FFFF99000000CC003300CC006600CC009900CC00CC00CC00FF00CC000033CC003333CC006633CC009933CC00CC33CC00FF33CC000066CC003366CC006666CC009966CC00CC66CC00FF66CC000099CC003399CC006699CC009999CC00CC99CC00FF99CC0000CCCC0033CCCC0066CC
310
CC0099CCCC00CCCCCC00FFCCCC0000FFCC0033FFCC0066FFCC0099FFCC00CCFFCC00FFFFCC000000FF003300FF006600FF009900FF00CC00FF00FF00FF000033FF003333FF006633FF009933FF00CC33FF00FF33FF000066FF003366FF006666FF009966FF00CC66FF00FF66FF000099FF003399FF006699FF009999FF00CC
310
99FF00FF99FF0000CCFF0033CCFF0066CCFF0099CCFF00CCCCFF00FFCCFF0000FFFF0033FFFF0066FFFF0099FFFF00CCFFFF00FFFFFF00000000000D0D0D001A1A1A00282828003535350043434300505050005D5D5D006B6B6B00787878008686860093939300A1A1A100AEAEAE00BBBBBB00C9C9C900D6D6D600E4E4E400
310
F1F1F100FFFFFF0000000000000000000000000000000000000000000000000000000000000000000000000000000000E2E2E2E2E2E2E2E2E2E2E2E2E2E2E2E2E2E2E2E2E2E2E2E2E2E2E2E2E2E2E2E2E2E2E2E2E2E2E2E2E2E2E2E2E2E2E2E2E2E2E2E2E2E2E2E2E2E2E2E2E2E2E2E2E2E2E2E2E2E2E2E2E2E2E2E2E2E2E2
310
E2E2E2E2E2E2E2E2E2E2E2E2E2E2E2E2E2E2E2E2E2E2E2E2E2E2E2E240E200000000000000000000000000000000000000000000000000000000000000000000000000000000000000000000000000000000000000000000000000000000000000000000000000000000000000000000000000000000000000000000000000
310
000000000000000000B8E20000000000000000000000000000000000000000000000000000000000000000000000000000000000000000000000000000000000000000000000000000000000000000000000000000000000000000000000000000000000000000000000000000000000000000000030E2E2E2E2E2E2E2E2E2
310
E2E2000000000000000000E2E2E2E2E2E2E2E2E2E2E2E2E2E2E2E200000000000000000000E2E2E2E2E2E2E2E2E2E2E2E2E2E2E2E200000000000000000000E2E2E2E2E2E2E2E2E2E2E2E2E2E2E2E2000000000000000000E2E2E2E2E2E2E2E2E2007EE200E200000000000000000000000000000000000000000000000000
310
0000000000000000000000000000000000000000000000000000000000000000000000000000000000000000000000000000000000000000000000000000000000000000000000000000000000E20000E200E20000000000000000000000000000000000000000000000000000000000000000000000000000000000000000
310
0000000000E2E2E20000000000000000000000000000000000000000000000000000000000000000000000000000000000000000000000000000E20001E200E200000000000000000000000000000000000000000000000000000000000000000000000000000000000000000000000000E2E2E20000000000000000000000
310
000000000000000000000000000000000000000000000000000000000000000000000000000000E20019E200E200000000000000000000000000000000000000000000000000000000000000000000000000000000000000000000000000000000000000000000000000000000000000000000000000000000000000000000
310
0000000000000000000000000000000000000000E20001E200E2000000000000000000000000000000000000000000000000000000000000000000000000000000000000000000000000E2E2E2E2E2000000000000000000000000000000000000000000000000000000000000000000000000000000000000000000000000
310
00E20000E200E2000000000000000000000000000000000000000000000000000000000000000000000000000000000000000000000000E2E2E2E2E200000000000000000000000000000000000000000000000000000000000000000000000000000000000000000000000000E20000E200E2000000000000000000000000
310
00000000000000000000000000000000000000000000E2E2E2E20000000000000000000000000000000000000000000000E2E2E2E200000000000000000000000000000000000000000000000000000000000000000000000000E20001E200E200000000000000000000000000000000000000000000000000000000000000
310
000000E2E2E2E2000000000000000000000000000000000000000000000000E2E2E200000000000000000000000000000000000000000000000000000000000000000000000000E20000E200000000000000000000000000000000000000000000000000000000E2E2E2E2E2E2E2E2E2E2E2E2E2E2E2E2E2E2E2E2E2000000
310
000000E2E2E2E2E2E2E2E2E2E2E2E2E2E2E2E2E2E2E2E2E200000000000000000000000000000000000000000000000000000000000000E200000000000000000000000000000000000000000000000000000000E200000000000000E2E2E2E200000000000000E20000000000000000E2000000000000E2E2E2E200000000
310
00000000E200000000000000000000000000000000000000000000000000000000000000E200000000000000000000000000000000000000000000000000000000E2000000000000000000E2E2E2000000000000E20000E2E2E2000000E20000000000E2E2E200000000000000000000E20000000000000000000000000000
310
0000000000000000000000000000000000E20000000000000000000000000000000000000000000000E2E2E2E200E20000E20000000000E2E2E2E2000000000000E20000E2E2E20000E2E20000000000E2E2E2E2000000000000E20000E200E2E2E2E20000000000000000000000000000000000000000000000000000E200
310
00000000000000000000000000000000000000000000E20000E2E2E2E2E2E2E2E2E2E2E2E2E2E2E2E2E2E2E2E2E2E2E2E2E2E2E200E2E2E2E2E2E2E2E2E2E2E2E2E2E2E2E2E2E2E2E2E2E2E2E20000E20000000000000000000000000000000000000000000000000000E20000000000000000000000000000000000000000
310
000000E2000000E20000E2E2E20000000000000000000000000000E20000E2E2E2E20000E2000000000000000000000000000000E2E20000E2000000E20000000000000000000000000000000000000000000000000002E20000000000000000000000000000000000000000000000E2000000E20000E2E2E2000000000000
310
0000000000000000E20000000000000000E2000000000000000000000000000000E2E20000E2000000E20000000000000000000000000000000000000000000000000002E20000000000000000000000000000000000000000000000E2E2E2E2E2E2E2E2E2E2E2E2E2E2E2E2E2E2E2E2E2E2E2E2E20000000000000000E2E2
310
E2E2E2E2E2E2E2E2E2E2E2E2E2E2E2E2E2E2E2E2E2E2E200000000000000000000000000000000000000000000000000FFE2000000000000000000000000000000000000000000000000E2000000E2E2E2E2E200000000E2E2E20000000000E200E20000000000000000E2E2E200000000000000000000000000E2E2E2E200
310
000000000000000000000000000000000000000000000000000000000000E2000000000000000000000000000000000000000000000000E2000000E2E2E2E2E20000000000E2E20000000000E2E2E2E2E2E2000000E2E2E2E2E20000000000000000000000E2E2E2E2E2E20000000000000000000000000000000000000000
310
0000000000000000000099E200E200000000000000000000000000000000000000000000E2000000E2E200E2E200000000E2E2E20000000000E2E2E20000E2000000E200E2E2E20000000000000000000000E2E2E200E2E2E2E20000000000000000000000000000000000000000000000000000E20066E200E20000000000
310
0000000000000000000000000000000000E2000000E20000E2E20000000000E2E2E200000000E2E2E2E2E2E2000000E2E2E2E2E20000000000000000000000E2E2E2E2E2E2E2E20000000000000000000000000000000000000000000000000000E20066E200E200000000000000000000000000000000000000000000E200
310
0000E20000E2E2000000000000E20000000000E2E2E2E2E2E2000000E2E2E2E2E200000000000000000000000000E2E200E2E2E20000000000000000000000000000000000000000000000000000E20066E200E200000000000000000000000000000000000000000000E2000000E20000E2E2E2E2E2E2E2E2E2E2E2E2E2E2
310
E2E2E20000000000000000E2E2E2E2E2E2E2E2E2E2E2E2E2E2E2E2E20000E200000000000000000000000000000000000000000000000000000000E20000E200E200000000000000000000000000000000000000000000E2000000E20000E2E2E2000000000000000000000000000000000000000000000000000000000000
310
000000000000E2E2E20000E200000000000000000000000000000000000000000000000000000000E20099E200E200000000000000000000000000000000000000000000E2000000E2E200E2E2E200000000000000000000000000000000000000000000000000000000000000000000000000E2E200E2E200000000000000
310
000000000000000000000000000000000000000000E20000E200E200000000000000000000000000000000000000000000E2000000E2E200E2E2E200000000000000000000000000000000000000000000000000000000000000000000000000E2E200E2E20000000000000000000000000000000000000000000000000000
310
0000E200FFE200E20000000000000000000000000000000000000000E2E2E2E20000E2E2000000E200000000000000000000000000000000000000000000000000000000000000000000000000E20000E2E2E2E2E200000000000000000000000000000000000000000000000000E20000E200E20000000000000000000000
310
000000000000000000E2E2E2E20000E2E2000000E2000000000000000000000000000000000000000000000000000000000000000000000000E2E2E2E2E2E2E2E2E200000000000000000000000000000000000000000000000000E20000E200E2000000000000000000000000000000000000000000E2E2E20000E2E20000
310
00E200000000000000000000000000000000000000000000000000000000000000000000000000E20000E2E2E2E2E200000000000000000000000000000000000000000000000000E20000E200E200000000000000000000000000000000000000000000E2000000E2E2000000E20000000000000000000000000000000000
310
0000000000000000000000000000000000000000E20000E2E200000000000000000000000000000000000000000000000000000000E20000E200E200000000000000000000000000000000000000000000E2000000E2E2E20000E2000000000000000000000000000000000000000000000000000000000000000000000000
310
00E200E2E2E200000000000000000000000000000000000000000000000000000000E2000FE200E200000000000000000000000000000000000000000000E200000000E2E20000E200000000000000000000000000000000000000000000000000000000000000000000000000E200E2E2E200000000000000000000000000
310
000000000000000000000000000000E20000E200E200000000000000000000000000000000000000000000E200000000E2E2E2E2E200000000000000000000000000000000000000000000000000000000000000000000000000E2E2E2E2E200000000000000000000000000000000000000000000000000000000E20000E2
310
00E200000000000000000000000000000000000000000000E200000000E2E2E200000000000000000000000000000000000000000000000000000000000000000000000000000000E2E2E2E200000000000000000000000000000000000000000000000000000000E20000E200E20000000000000000000000000000000000
310
0000000000E200000000E2E2E200000000000000000000000000000000000000000000000000000000000000000000000000000000E200E2E200000000000000000000000000000000000000000000000000000000E20000E200E200000000000000000000000000000000000000000000E200000000E2E2E2000000000000
310
00000000000000000000000000000000000000000000000000000000000000000000E200E2E200000000000000000000000000000000000000000000000000000000E2000FE2000000000000000000000000000000000000000000000000E200000000E200E200000000000000000000000000000000000000000000000000
310
000000000000000000000000000000E200E20000000000000000000000000000000000000000000000000000000000000000E2000000000000000000000000000000000000000000000000E200000000E200E200000000000000000000000000000000000000000000000000000000000000000000000000000000E200E200
310
000000000000000000000000000000000000000000000000000000000000F5E2000000000000000000000000000000000000000000000000E20000E2E2E200E200000000000000000000000000000000000000000000000000000000000000000000000000000000E200E2E2E2000000000000000000000000000000000000
310
000000000000000000000000E2000000000000000000000000000000000000000000000000E2E2E2E2E2E2E2E200000000000000000000000000000000000000000000000000000000000000000000000000000000E2E2E2E2E2000000000000000000000000000000000000000000000000000000000000E2000000000000
310
0000000000000000000000000000000000E2E2E200E2E200000000000000000000000000000000000000000000000000000000000000000000000000000000000000000000E2E2E2E2E2000000000000000000000000000000000000000000000000000000E20000000000000000000000000000000000000000000000E2E2
310
E2E2E2E2E2E2E2E2E2E2E2E2E2E2E2E2E2E2E2E2E2E2E2E2E2E2E2E2E2E2E2E2E2E2E2E2E2E2E2E2E2E2E2E2E2E2E2E2E2E2E2E2E2E2E2000000000000000000000000000000000000000000000000000000E2000000000000000000000000000000000000000000000000E2E200E2E2E20000000000000000000000000000
310
00000000000000000000000000000000000000000000000000000000000000E2E2E2E2E200000000000000000000000000000000000000000000000000000FE2000000000000000000000000000000000000000000000000000000E200000000000000000000000000000000000000000000E2E2E200000000000000000000
310
00000000000000000000000000E2000000000000000000000000000000000000000000000000000000000000E20000000000000000000000000000000000000000000000000000E2E200000000000000000000000000000000000000000000E2E2E20000000000000000000000000000000000000000000000E20000000000
310
00000000000000000000000000000000000000000000000000E200E200000000000000000000000000000000000000000000000000E2E2E2E2E2E2E2E2E2E2E2E2E2E2E2E2E2E2E2E2E2E2E2E2E2E2E2E2E2E2E2E2E2E2E2E2E2E2E2E2E2E2E2E2E2E2E2E2E2E2E20000000000000000000000000000000000000000000000
310
000000E20000E200E2000000000000000000000000000000000000000000000000000000000000000000000000000000000000000000000000000000000000000000000000000000000000000000000000000000000000000000000000000000000000000000000000000000000000E20000E200E200000000000000000000
310
0000000000000000000000000000000000000000000000000000000000000000000000000000000000000000000000000000000000000000000000000000000000000000000000000000000000000000000000000000000000000000E200F5E200E20000000000000000000000000000000000000000000000000000000000
310
00000000000000000000000000000000000000000000000000000000000000000000000000000000000000000000000000000000000000000000000000000000000000000000000000E20000E200E2000000000000000000000000000000000000000000000000000000000000000000000000000000000000000000000000
310
000000000000000000000000000000000000000000000000000000000000000000000000000000000000000000000000000000000000E20000E200E200000000000000000000000000000000000000000000000000000000E2E2E2E2E2E2E2E2E2E2E2E2E2E2E2E2E2E2E2E2E2E2E2E2E2E2E2E2E2E2E2E2E2E2E2E2E2E2E2
310
E2E2E2E2E2000000000000000000000000000000000000000000000000000000000000E20000E200E20000000000000000000000000000000000000000000000000000000000E2000000E2E2E20000E200E2E200000000000000000000000000000000E20000000000000000E2000000E20000000000000000000000000000
310
00000000000000000000000000000000E20000E200E20000000000000000000000000000000000000000000000000000000000E2000000E2E2E20000E2E2E2E2E2E20000000000E20000000000000000E20000000000000000E2000000E2000000000000000000000000000000000000000000000000000000000000E200F5
310
E200E20000000000000000000000000000000000000000000000000000000000E2000000E2E2E20000E2E2E2E2E2E2E2E2E2E2E2E2E2E20000000000E2E20000000000000000E2000000E2000000000000000000000000000000000000000000000000000000000000E20000E200E200000000000000000000000000000000
310
00000000000000000000000000E200000000E2E2000000000000E2E2E2E2E2E2E2E2E2E2E2E2E2E2E2E2E20000000000000000E2000000E2000000000000000000000000000000000000000000000000000000000000E200F5E200E20000000000000000000000000000000000000000000000000000000000E200000000E2
310
E2E2E2E2E2E2E2E2E2E2E2E2E2E2E2E2E2000000000000E20000000000000000E2000000E2000000000000000000000000000000000000000000000000000000000000E20000E200E20000000000000000000000000000000000000000000000000000000000E200000000E200000000000000E20000000000E2E2E2E2E2E2
310
E2E2E2E2E20000000000000000E2000000E2000000000000000000000000000000000000000000000000000000000000E20000E200E20000000000000000000000000000000000000000000000000000000000E200000000E200000000000000E20000000000E2000000000000000000000000000000000000E2000000E200
310
0000000000000000000000000000000000000000000000000000000000E20000E200E20000000000000000000000000000000000000000000000000000000000E200000000E200000000000000E20000000000E2000000000000000000000000000000000000E2000000E20000000000000000000000000000000000000000
310
00000000000000000000E20000E200E20000000000000000000000000000000000000000000000000000000000E200000000E200000000000000E20000000000E2000000000000000000000000000000000000E2000000E2000000000000000000000000000000000000000000000000000000000000E200F5E200E2000000
310
0000000000000000000000000000000000000000000000000000E200000000E200000000000000E20000000000E2000000000000000000000000000000000000E2000000E2000000000000000000000000000000000000000000000000000000000000E20000E200E200000000000000000000000000000000000000000000
310
00000000000000E200000000E200000000000000E20000000000E2000000000000000000000000000000000000E2000000E2000000000000000000000000000000000000000000000000000000000000E20000E200000000000000000000000000000000000000000000000000000000000000E200000000E2000000000000
310
00E20000000000E2000000000000000000000000000000000000E2000000E2000000000000000000000000000000000000000000000000000000000000000000E200000000000000000000000000000000000000000000000000000000000000E200000000E200000000000000E20000000000E20000000000000000000000
310
00000000000000E2000000E2000000000000000000000000000000000000000000000000000000000000000000E20000000000000000000000000000000000000000000000000000000000E2E2E200000000E200000000000000E20000000000E2000000000000000000000000000000000000E2000000E200000000000000
310
00000000000000000000000000000000000000000000000000F5E200000000000000000000000000000000000000000000000000000000E2E2E2E200000000E200000000000000E20000000000E2000000000000000000000000000000000000E2000000E20000000000000000000000000000000000000000000000000000
310
00000000000000E20000000000000000000000000000000000000000000000000000000000E2E2E2E20000E2E2E2000000000000E2E2E2E20000E2000000000000000000000000000000000000E2000000E2000000000000000000000000000000000000000000000000000000000000000000E20000000000000000000000
310
0000000000000000000000000000000000000000E2000000E2E2E20000000000E2E2E2E2E2E2E2E2000000000000000000000000000000000000E2000000E2000000000000000000000000000000000000000000000000000000000000000000E2000000000000000000000000000000000000000000000000000000000000
310
00E2000000E2E2E2000000000000E2E2E2E20000E2000000000000000000000000000000000000E2000000E2000000000000000000000000000000000000000000000000000000000000000000E200000000000000000000000000000000000000000000000000000000000000E200000000E200000000000000E200000000
310
00E2000000000000000000000000000000000000E2000000E20000000000000000000000000000000000000000000000000000000000000000F5E200000000000000000000000000000000000000000000000000000000000000E200000000E200000000000000E20000000000E20000000000000000000000000000000000
310
00E2000000E2000000000000000000000000000000000000000000000000000000000000000000E200000000000000000000000000000000000000000000000000000000000000E200000000E200000000000000E20000000000E2000000000000000000000000000000000000E2000000E200000000000000000000000000
310
00000000000000000000000000000000000000F5E200E20000000000000000000000000000000000000000000000000000000000E200000000E200000000000000E20000000000E2000000000000000000000000000000000000E2000000E2000000000000000000000000000000000000000000000000000000000000E200
310
00E200E20000000000000000000000000000000000000000000000000000000000E200000000E200000000000000E20000000000E2000000000000000000000000000000000000E2000000E2000000000000000000000000000000000000000000000000000000000000E20000E200E2000000000000000000000000000000
310
0000000000000000000000000000E200000000E200000000000000E20000000000E2000000000000000000000000000000000000E2000000E2000000000000000000000000000000000000000000000000000000000000E2007FE200E20000000000000000000000000000000000000000000000000000000000E200000000
310
E200000000000000E20000000000E2000000000000000000000000000000000000E2000000E2000000000000000000000000000000000000000000000000000000000000E20000E200E20000000000000000000000000000000000000000000000000000000000E200000000E200000000000000E20000000000E200000000
310
0000000000000000000000000000E2000000E2000000000000000000000000000000000000000000000000000000000000E200F5E200E20000000000000000000000000000000000000000000000000000000000E200000000E200000000000000E20000000000E2000000000000000000000000000000000000E200E2E2E2
310
000000000000000000000000000000000000000000000000000000000000E20000E200E20000000000000000000000000000000000000000000000000000000000E200000000E200000000000000E20000E2E200E20000000000000000000000000000000000E2E200E2E2E2E2000000000000000000000000000000000000
310
0000000000000000000000E20000E200E20000000000000000000000000000000000000000000000000000000000E200000000E200000000000000E2E2E2E2E200E20000000000000000000000000000000000E2E200E2E2E2000000000000000000000000000000000000000000000000000000000000E20000E200E20000
310
000000000000000000000000000000000000000000000000000000E200000000E2E2000000000000E2E2E2E2E2E2E2000000000000000000000000000000000000E20000E2E2000000000000000000000000000000000000000000000000000000000000E20036E200E2000000000000000000000000000000000000000000
310
00000000000000E2E2E2E2E2E2E2E2E2E2E2E2E2E2E2E2E2E2E2E200000000000000000000000000000000000000E2000000E2000000000000000000000000000000000000000000000000000000000000E200F5E200E2000000000000000000000000000000000000000000000000000000000000E2E2E2E2E2E2E2E20000
310
000000E2E200E20000000000000000000000000000000000000000E2000000E2000000000000000000000000000000000000000000000000000000000000E20000E200E2000000000000000000000000000000000000000000000000000000000000E2E2E2E2E2E2E2E20000000000E2E2E2E2000000000000000000000000
310
0000000000000000E2000000E2000000000000000000000000000000000000000000000000000000000000E200F5E200E200000000000000000000000000000000000000000000000000000000000000000000E20000000000000000E2E200E20000000000000000000000000000000000000000E2000000E2000000000000
310
000000000000000000000000000000000000000000000000E20000E200E20000000000000000000000000000000000000000000000000000000000E200000000E2E200000000000000E2E200E20000000000000000000000000000000000000000E2000000E200000000000000000000000000000000000000000000000000
310
0000000000E20000E200E200000000000000000000000000000000000000000000000000000000E2E2E2E2E2E2E2E2E2E2E2E2E2E2E2E2E2E2E2E200000000000000000000000000000000000000E2000000E2000000000000000000000000000000000000000000000000000000000000E200F5E200E20000000000000000
310
000000000000000000000000000000000000000000E200000000E200000000000000E2E2E2E2E2E2E2000000000000000000000000000000000000E2000000E2000000000000000000000000000000000000000000000000000000000000E20000E200E2000000000000000000000000000000000000000000000000000000
310
0000E200000000E200000000000000E2E2E2E2E200E2000000000000000000000000000000000000E2000000E2000000000000000000000000000000000000000000000000000000000000E200F5E200000000000000000000000000000000000000000000000000000000000000E200000000E200000000000000E2000000
310
0000E2000000000000000000000000000000000000E2000000E2000000000000000000000000000000000000000000000000000000000000000000E200000000000000000000000000000000000000000000000000000000000000E200000000E200000000000000E20000000000E200000000000000000000000000000000
310
0000E2000000E2000000000000000000000000000000000000000000000000000000000000000000E200000000000000000000000000000000000000000000000000000000000000E200000000E200000000000000E20000000000E2000000000000000000000000000000000000E2000000E2000000000000000000000000
310
000000000000000000000000000000000000000000E200000000000000000000000000000000000000000000000000000000000000E2000000E2E2E2000000000000E20000000000E2000000000000000000000000000000000000E2000000E200000000000000000000000000000000000000000000000000000000000000
310
0000E200000000000000000000000000000000000000000000000000000000000000E2000000E2E2E2000000000000E20000000000E2000000000000000000000000000000000000E2000000E2000000000000000000000000000000000000000000000000000000000000000000E200000000000000000000000000000000
310
00000000000000000000000000E2E2E20000E2E2E2E2000000000000E20000000000E2000000000000000000000000000000000000E2000000E2000000000000000000000000000000000000000000000000000000000000000000E200000000000000000000000000000000000000000000000000000000E2E2E2E2000000
310
00E200000000000000E20000000000E2000000000000000000000000000000000000E2000000E2000000000000000000000000000000000000000000000000000000000000000000E20000000000000000000000000000000000000000000000000000000000E2E2E2E2000000E200000000000000E20000000000E2000000
310
000000000000000000000000000000E2000000E2000000000000000000000000000000000000000000000000000000000000000000E200000000000000000000000000000000000000000000000000000000000000E200000000E200000000000000E20000000000E2000000000000000000000000000000000000E2000000
310
E2000000000000000000000000000000000000000000000000000000000000000000E200E20000000000000000000000000000000000000000000000000000000000E200000000E200000000000000E20000000000E2000000000000000000000000000000000000E2000000E2000000000000000000000000000000000000
310
000000000000000000000000E200F5E200E20000000000000000000000000000000000000000000000000000000000E200000000E200000000000000E20000000000E2000000000000000000000000000000000000E2000000E2000000000000000000000000000000000000000000000000000000000000E20000E200E200
310
00000000000000000000000000000000000000000000000000000000E200000000E200000000000000E20000000000E2E2E2E2E2E2E2E2E2E2000000000000000000E2000000E2000000000000000000000000000000000000000000000000000000000000E200F5E200E20000000000000000000000000000000000000000
310
000000000000000000E200000000E2E2000000000000E20000000000E2E200E2E2E2000000E2E20000000000000000E2000000E2000000000000000000000000000000000000000000000000000000000000E20000E200E20000000000000000000000000000000000000000000000000000000000E200000000E2E2E2E2E2
310
E2E2E2E2E2E2E2E2E2E2E2E2E2E2E2E2000000E2E2E2E2E2E2E2E200E2000000E2000000000000000000000000000000000000000000000000000000000000E20000E200E20000000000000000000000000000000000000000000000000000000000E20000000000000000E2E2E2E2E2E200E20000000000E2E2E2E2E2E2E2
310
E20000E2000000E200E2000000E2000000000000000000000000000000000000000000000000000000000000E200F5E200E20000000000000000000000000000000000000000000000000000000000E20000000000000000E2000000E2E2E2E2000000E2E2E2E2E2E2E2E2E2E2E2E2E2E2E2E2E200E2000000E20000000000
310
00000000000000000000000000000000000000000000000000E20000E200E200000000000000000000000000000000000000000000000000000000E2E2E2E2E2E2E2E2E2E2E2000000E2E2E2E2E2E2E2E2E2E2E2E2E2E2E2E2E2E2E2E2E2E2E2E2E2E2000000E2000000000000000000000000000000000000000000000000
310
000000000000E20000E200E20000000000000000000000000000000000000000000000000000000000000000000000000000E2E2E2E2E20000E2E2E2E200000000000000000000000000000000E200E2000000E2000000000000000000000000000000000000000000000000000000000000E20000E200E200000000000000
310
00000000000000000000000000000000000000000000000000000000000000E2000000E2000000E2E2E2000000000000000000000000E2E2E2E2E2E2E2E2E2E2E2000000000000000000000000000000000000000000000000000000000000E20000E200E20000000000000000000000000000000000000000000000000000
310
000000000000000000000000E2000000E20000000000000000E2E2E2E200000000000000000000E2E2E2E2E2E2E2000000000000000000000000000000000000000000000000000000000000E20000E200E20000000000000000000000000000000000000000000000000000000000000000000000000000E20000E2E2E2E2
310
E2E2E2E2E2E2E2E2E2E2E2E2E2E2E2E2E2E2E2E2E200E2E2E20000000000000000000000000000000000000000000000000000000000000000E20000E200E20000000000000000000000000000000000000000000000000000000000000000000000000000E2E2E2E2E2000000000000000000E2E2E2000000000000000000
310
00E20000E2E20000000000000000000000000000000000000000000000000000000000000000E20000E200E20000000000000000000000000000000000000000000000000000000000000000000000000000000000000000000000000000000000000000000000000000000000000000000000000000000000000000000000
310
00000000000000000000000000000000000000E20000E200E2000000000000000000000000000000000000000000000000000000000000000000000000000000000000000000000000000000000000000000000000000000000000000000000000000000000000000000000000000000000000000000000000000000000000
310
E20000E200E2000000000000000000000000000000000000000000000000000000000000000000000000000000000000000000000000000000000000000000000000000000000000000000000000000000000000000000000000000000000000000000000000000000000000E20000E200E200000000E2E2E2E2E2E2E2E2E2
310
E2E2E2E2E2E2E2E2E2E2E2E2E2E2E2E2E2E2E2E2E2E2E2E2E2E2E2E200000000000000000000000000000000000000000000000000000000000000000000000000000000000000000000000000000000000000000000000000E20000E2000000000000E2E2E2E2E2E2E2E2E2E2E2E2E2E2E2E2E2E2E2E2E2E2E2E2E2E2E2E2
310
E2E2E2E2E2E2E2E2E200000000000000000000000000000000000000000000000000000000000000000000000000000000000000000000000000000000000000000000000000000000E2000000000000E2E2E2E2E2E2E2E2E2E2E2E2E2E2E2E2E2E2E2E2E2E2E2E2E2E2E2E2E2E2E2E2E2E2E2E2E200000000000000000000
310
000000000000000000000000000000000000000000000000000000000000000000000000000000000000000000000000000000000000E2000000000000E2E2E2E2E2E2E2E2E2E2E2E2E2E2E2E2E2E2E2E2E2E2E2E2E2E2E2E2E2E2E2E2E2E2E2E2E20000000000000000000000000000000000000000000000000000000000
310
00000000000000000000000000000000000000000000000000000000000000000000F5E20000000000E2E2E2E2E2E2E2E2E2E2E2E2E2E2E2E2E2E2E2E2E2E2E2E2E2E2E2E2E2E2E2E2E2E2E2E2E2E2E2E2E2E2E2E2E2E2E2E2E2E2E2E2E2E2E2E2E2E2E2E2E2E2E2E2E2E2E2E2E2E2E2E2E2E2E2E2E2E2E2E2E2E2E2E2E2E2
310
E2E2E2E2E2E2E2E2E2E2E2E2E2000000E2000000000000E2E2E2E2E2E2E2E2E2E2E2E2E2E2E2E2E2E2E2E2E2E2E2E2E2E2E2E2E2E2E2E2E2E2E2000000000000000000000000000000000000000000000000000000000000000000000000000000000000000000000000000000000000000000000000000000000000E20000
310
00000000E2E2E2E2E2E2E2E2E2E2E2E2E2E2E2E2E2E2E2E2E2E2E2E2E2E2E2E2E2E2E2E2E2E2E20000000000000000000000000000000000000000000000000000000000000000000000000000000000000000000000000000000000000000000000000000000000F5E2000000000000E2E2E2E2E2E2E2E2E2E2E2E2E2E2E2
310
E2E2E2E2E2E2E2E2E2E2E2E2E2E2E2E2E2E2E2E2000000000000000000000000000000000000000000000000000000000000000000E2E2E2E2E2E2E2E2E2E2E2E2E2E2E2E2E2E2E2E2E2E2E2E2E2E2E2E2E200000000E2000000000000E2E2E2E2E2E2E2E2E2E2E2E2E2E2E2E2E2E2E2E2E2E2E2E2E2E2E2E2E2E2E2E2E2E2
310
E2000000000000000000000000000000000000000000000000000000000000000000E2000000000000000000000000000000000000000000000000000000E2000000F5E20000000000000000000000000000000000000000000000000000000000000000000000000000000000000000000000000000000000000000000000
310
000000000000000000000000000000E20000E5E5E5E5E500E5E5E5E5E5E5E5E5E5E000E50025E525E5E500E200000000E20000000000000000000000000000000000000000000000000000000000000000000000000000000000000000000000000000000000000000000000000000000000000000000000000000E200E500
310
0000000000000000000000000000000000000000000000E5E200000000E200E2000000000000000000000000000000000000000000000000000000000000000000000000000000000000000000000000000000000000000000000000000000000000000000000000E2E5E50000000000E50000000000000000000000000000
310
0000E50000E200E20000E200E2000000000000000000000000000000000000000000000000000000000000000000000000000000000000000000000000000000000000000000000000000000000000000000000000E2E5E50000000000E500000000000000000000000000000000E50000E200E20000E200E2000000000000
310
000000000000000000000000000000000000000000000000000000000000000000000000000000000000000000000000000000000000000000000000000000000000E2E5E50000E500000000000000000000E50000000000000000E00000E200E200F5E200E200000000000000000000000000000000000000000000000000
310
0000000000000000000000000000000000000000000000000000000000000000000000000000000000000000000000E2000000000000E0000000040000E500000004002000E500000000E4E200E20000E200E20000000000000000000000000000000000000000000000000000000000000000000000000000000000000000
310
00000000000000000000000000000000000000000000000000000000E20000000000000000C0C00000000000000000C0C000000000000000E200E20000E200E2000000000000000000000000000000000000000000000000000000000000000000000000000000000000000000000000000000000000000000000000000000
310
000000000000000000E2000000000000000000000000000000000000000000000000000000E200E20000E200E2000000000000000000000000000000000000000000000000000000000000000000000000000000000000000000000000000000000000000000000000000000000000000000000000E2000000000000000000
310
000000000000000000000000000000000000E200E20000E200E2000000000000000000000000000000000000000000000000000000000000000000000000000000000000000000000000000000000000000000000000000000000000000000000000E2E2E2E2E2E2E2E2E2E2E2E2E2E2E2E2E2E2E2E2E2E2E2E2E2E2E2E2E2
310
00E200F5E200E2E2E2E2E2E2E2E2E2000000000000000000E2E2E2E2E2E2E2E2E2E2E2E2E2E2E2E200000000000000000000E2E2E2E2E2E2E2E2E2E2E2E2E2E2E2E200000000000000000000E2E2E2E2E2E2E2E2E2E2E2E2E2E2E2E2000000000000000000E2E2E2E2E2E2E2E2E2E200E20000000000000000000000000000
310
00000000000000000000000000000000000000000000000000000000000000000000000000000000000000000000000000000000000000000000000000000000000000000000000000000000000000000000000000000000000000E2F5E2000000000000000000000000000000000000000000000000000000000000000000
310
0000000000000000000000000000000000000000000000000000000000000000000000000000000000000000000000000000000000000000000000000000000000000000000000000000E2E2E2E2E2E2E2E2E2E2E2E2E2E2E2E2E2E2E2E2E2E2E2E2E2E2E2E2E2E2E2E2E2E2E2E2E2E2E2E2E2E2E2E2E2E2E2E2E2E2E2E2E2
310
E2E2E2E2E2E2E2E2E2E2E2E2E2E2E2E2E2E2E2E2E2E2E2E2E2E2E2E2E2E2E2E2E2E2E2E2E2E2E2E2E2E2E2E2E2E2E2E2E2E2E2E2E2E200
  0
XRECORD
  5
3AC
102
{ACAD_REACTORS
330
19
102
}
330
19
100
AcDbXrecord
280
     1
102
SHADEPLOT
 70
     0
102
SHADEPLOTRESLEVEL
 70
     2
102
SHADEPLOTCUSTOMDPI
 70
   300
  0
XRECORD
  5
1A
102
{ACAD_REACTORS
330
19
102
}
330
19
100
AcDbXrecord
280
     1
310
280000000001000075000000010008000000000000750000000000000000000000010000000000000000000000000000C8C8C8000000000000000000000000000000000000000000000000000000000000000000330000006600000099000000CC000000FF00000000330000333300006633000099330000CC330000FF3300
310
0000660000336600006666000099660000CC660000FF66000000990000339900006699000099990000CC990000FF99000000CC000033CC000066CC000099CC0000CCCC0000FFCC000000FF000033FF000066FF000099FF0000CCFF0000FFFF000000003300330033006600330099003300CC003300FF003300003333003333
310
33006633330099333300CC333300FF33330000663300336633006666330099663300CC663300FF66330000993300339933006699330099993300CC993300FF99330000CC330033CC330066CC330099CC3300CCCC3300FFCC330000FF330033FF330066FF330099FF3300CCFF3300FFFF330000006600330066006600660099
310
006600CC006600FF00660000336600333366006633660099336600CC336600FF33660000666600336666006666660099666600CC666600FF66660000996600339966006699660099996600CC996600FF99660000CC660033CC660066CC660099CC6600CCCC6600FFCC660000FF660033FF660066FF660099FF6600CCFF6600
310
FFFF660000009900330099006600990099009900CC009900FF00990000339900333399006633990099339900CC339900FF33990000669900336699006666990099669900CC669900FF66990000999900339999006699990099999900CC999900FF99990000CC990033CC990066CC990099CC9900CCCC9900FFCC990000FF99
310
0033FF990066FF990099FF9900CCFF9900FFFF99000000CC003300CC006600CC009900CC00CC00CC00FF00CC000033CC003333CC006633CC009933CC00CC33CC00FF33CC000066CC003366CC006666CC009966CC00CC66CC00FF66CC000099CC003399CC006699CC009999CC00CC99CC00FF99CC0000CCCC0033CCCC0066CC
310
CC0099CCCC00CCCCCC00FFCCCC0000FFCC0033FFCC0066FFCC0099FFCC00CCFFCC00FFFFCC000000FF003300FF006600FF009900FF00CC00FF00FF00FF000033FF003333FF006633FF009933FF00CC33FF00FF33FF000066FF003366FF006666FF009966FF00CC66FF00FF66FF000099FF003399FF006699FF009999FF00CC
310
99FF00FF99FF0000CCFF0033CCFF0066CCFF0099CCFF00CCCCFF00FFCCFF0000FFFF0033FFFF0066FFFF0099FFFF00CCFFFF00FFFFFF00000000000D0D0D001A1A1A00282828003535350043434300505050005D5D5D006B6B6B00787878008686860093939300A1A1A100AEAEAE00BBBBBB00C9C9C900D6D6D600E4E4E400
310
F1F1F100FFFFFF000000000000000000000000000000000000000000000000000000000000000000000000000000000000000000000000000000000000000000000000000000000000000000000000000000000000000000000000000000000000000000000000000000000000000000000000000000000000000000000000
310
00000000000000000000000000000000000000000000000000000000000000000000000000000000000000000000000000000000000000000000000000000000000000000000000000000000000000000000000000000000000000000000000000000000000000000000000000000000000000000000000000000000000000
310
00000000000000000000000000000000000000000000000000000000000000000000000000000000000000000000000000000000000000000000000000000000000000000000000000000000000000000000000000000000000000000000000000000000000000000000000000000000000000000000000000000000000000
310
00000000000000000000000000000000000000000000000000000000000000000000000000000000000000000000000000000000000000000000000000000000000000000000000000000000000000000000000000000000000000000000000000000000000000000000000000000000000000000000000000000000000000
310
00000000000000000000000000000000000000000000000000000000000000000000000000000000000000000000000000000000000000000000000000000000000000000000000000000000000000000000000000000000000000000000000000000000000000000000000000000000000000000000000000000000000000
310
00000000000000000000000000000000000000000000000000000000000000000000000000000000000000000000000000000000000000000000000000000000000000000000000000000000000000000000000000000000000000000000000000000000000000000000000000000000000000000000000000000000000000
310
00000000000000000000000000000000000000000000000000000000000000000000000000000000000000000000000000000000000000000000000000000000000000000000000000000000000000000000000000000000000000000000000000000000000000000000000000000000000000000000000000000000000000
310
00000000000000000000000000000000000000000000000000000000000000000000000000000000000000000000000000000000000000000000000000000000000000000000000000000000000000000000000000000000000000000000000000000000000000000000000000000000000000000000000000000000000000
310
00000000000000000000000000000000000000000000000000000000000000000000000000000000000000000000000000000000000000000000000000000000000000000000000000000000000000000000000000000000000000000000000000000000000000000000000000000000000000000000000000000000000000
310
00000000000000000000000000000000000000000000000000000000000000000000000000000000000000000000000000000000000000000000000000000000000000000000000000000000000000000000000000000000000000000000000000000000000000000000000000000000000000000000000000000000000000
310
00000000000000000000000000000000000000000000000000000000000000000000000000000000000000000000000000000000000000000000000000000000000000000000000000000000000000000000000000000000000000000000000000000000000000000000000000000000000000000000000000000000000000
310
00000000000000000000000000000000000000000000000000000000000000000000000000000000000000000000000000000000000000000000000000000000000000000000000000000000000000000000000000000000000000000000000000000000000000000000000000000000000000000000000000000000000000
310
00000000000000000000000000000000000000000000000000000000000000000000000000000000000000000000000000000000000000000000000000000000000000000000000000000000000000000000000000000000000000000000000000000000000000000000000000000000000000000000000000000000000000
310
00000000000000000000000000000000000000000000000000000000000000000000000000000000000000000000000000000000000000000000000000000000000000000000000000000000000000000000000000000000000000000000000000000000000000000000000000000000000000000000000000000000000000
310
00000000000000000000000000000000000000000000000000000000000000000000000000000000000000000000000000000000000000000000000000000000000000000000000000000000000000000000000000000000000000000000000000000000000000000000000000000000000000000000000000000000000000
310
00000000000000000000000000000000000000000000000000000000000000000000000000000000000000000000000000000000000000000000000000000000000000000000000000000000000000000000000000000000000000000000000000000000000000000000000000000000000000000000000000000000000000
310
00000000000000000000000000000000000000000000000000000000000000000000000000000000000000000000000000000000000000000000000000000000000000000000000000000000000000000000000000000000000000000000000000000000000000000000000000000000000000000000000000000000000000
310
00000000000000000000000000000000000000000000000000000000000000000000000000000000000000000000000000000000000000000000000000000000000000000000000000000000000000000000000000000000000000000000000000000000000000000000000000000000000000000000000000000000000000
310
00000000000000000000000000000000000000000000000000000000000000000000000000000000000000000000000000000000000000000000000000000000000000000000000000000000000000000000000000000000000000000000000000000000000000000000000000000000000000000000000000000000000000
310
00000000000000000000000000000000000000000000000000000000000000000000000000000000000000000000000000000000000000000000000000000000000000000000000000000000000000000000000000000000000000000000000000000000000000000000000000000000000000000000000000000000000000
310
00000000000000000000000000000000000000000000000000000000000000000000000000000000000000000000000000000000000000000000000000000000000000000000000000000000000000000000000000000000000000000000000000000000000000000000000000000000000000000000000000000000000000
310
00000000000000000000000000000000000000000000000000000000000000000000000000000000000000000000000000000000000000000000000000000000000000000000000000000000000000000000000000000000000000000000000000000000000000000000000000000000000000000000000000000000000000
310
00000000000000000000000000000000000000000000000000000000000000000000000000000000000000000000000000000000000000000000000000000000000000000000000000000000000000000000000000000000000000000000000000000000000000000000000000000000000000000000000000000000000000
310
00000000000000000000000000000000000000000000000000000000000000000000000000000000000000000000000000000000000000000000000000000000000000000000000000000000000000000000000000000000000000000000000000000000000000000000000000000000000000000000000000000000000000
310
00000000000000000000000000000000000000000000000000000000000000000000000000000000000000000000000000000000000000000000000000000000000000000000000000000000000000000000000000000000000000000000000000000000000000000000000000000000000000000000000000000000000000
310
000000000000000000000000000000000000000000000000000000000000000000000000000000000000000000000000000000F5F5F5F5F5F5000000000000000000000000000000000000000000000000000000000000000000000000000000000000000000F5F5F5F5F5F500000000000000000000000000000000000000
310
00000000000000000000000000000000000000000000000000000000000000000000000000000000000000000000000000000000000000000000000000000000000000000000000000000000000000000000000000000000000000000000000000000000000000000000000000000000000000000000000000000000000000
310
0000000000000000000000000000000000000000000000000000000000000000000000000000000000000000000000000000000000F5F5F5F5F5F5000000000000000000000000000000000000000000000000000000000000000000000000000000000000000000F5F5F5F5F5F50000000000000000000000000000000000
310
00000000000000000000000000000000000000000000000000000000000000000000000000000000000000000000000000000000000000000000000000000000000000000000000000000000000000000000000000000000000000000000000000000000000000000000000000000000000000000000000000000000000000
310
00000000000000000000000000000000000000000000000000000000000000000000000000000000000000000000000000000000000000F5F5F5F5F5F5F50000000000000000000000000000000000000000000000000000000000000000000000000000000000000000F5F5F5F5F5F5F50000000000000000000000000000
310
00000000000000000000000000000000000000000000000000000000000000000000000000000000000000000000000000000000000000000000000000000000000000000000000000000000000000000000000000000000000000000000000000000000000000000000000000000000000000000000000000000000000000
310
000000000000000000000000000000000000000000000000000000000000000000000000000000000000F5F5F5F5F5F5F5F5F5F5F5F5F5F5F5F5F5F5F5F5F5F5F5F5F5F5F5F5F5F5F5F5F5F5F5F5F50000000000000000000000000000F5F5F5F5F5F5F5F5F5F5F5F5F5F5F5F5F5F5F5F5F5F5F5F5F5F5F5F5F5F5F5F5F5F5
310
F5F5F500000000000000000000000000000000000000000000000000000000000000000000000000000000000000000000000000000000000000000000000000000000000000000000000000000000000000000000000000000000000000000000000000000000000000000000000000000000000000000000000000000000
310
000000000000000000000000000000000000000000000000000000000000000000000000000000000000000000F500000000000000000000000000F5F5F5F5F5F5F50000000000000000000000000000F5F50000000000000000000000000000F5000000000000000000000000F5F5F5F5F5F5F5F500000000000000000000
310
00000000F5F500000000000000000000000000000000000000000000000000000000000000000000000000000000000000000000000000000000000000000000000000000000000000000000000000000000000000000000000000000000000000000000000000000000000000000000000000000000000000000000000000
310
0000000000000000000000000000000000000000000000000000000000000000000000000000000000000000000000F500000000000000000000000000F5F5F5F5F5F5F50000000000000000000000000000F5000000000000000000000000000000F500000000000000000000000000F5F5F5F5F5F5F50000000000000000
310
000000000000F5000000000000000000000000000000000000000000000000000000000000000000000000000000000000000000000000000000000000000000000000000000000000000000000000000000000000000000000000000000000000000000000000000000000000000000000000000000000000000000000000
310
00000000000000000000000000000000000000000000000000000000000000000000000000000000000000000000000000F500000000000000000000000000000000000000000000000000000000000000000000F5000000000000000000000000000000F50000000000000000000000000000000000000000000000000000
310
0000000000000000F500000000000000000000000000000000000000000000000000000000000000000000000000000000000000000000000000000000000000000000000000000000000000000000000000000000000000000000000000000000000000000000000000000000000000000000000000000000000000000000
310
000000000000000000000000000000000000000000000000000000000000000000000000000000000000000000000000000000F500000000000000000000000000000000F5F5F5F5F5F5000000000000000000000000F5000000F5F5F5F5F5F5F50000000000F500000000000000000000F5F5F5F5F5F5F500000000000000
310
00000000000000000000F50000000000000000000000000000000000000000000000000000000000000000000000000000000000000000000000000000000000000000000000000000000000000000000000000000000000000000000000000000000000000000000000000000000000000000000000000000000000000000
310
0000000000000000000000000000000000000000000000000000000000000000000000000000000000000000000000000000000000F500000000000000000000000000000000F5F5F5F5F5F5000000000000000000000000F5000000F5F5F5F5F5F5F50000000000F500000000000000000000F5F5F5F5F5F5F50000000000
310
000000000000000000000000F5000000000000000000000000000000000000000000000000000000000000000000000000000000000000000000000000000000000000000000000000000000000000000000000000000000000000000000000000000000000000000000000000000000000000000000000000000000000000
310
000000000000000000000000000000000000000000000000000000000000000000000000000000000000000000F5F5F5F5F50000000000F500000000F50000000000000000000000F5F5F5F5F5F5000000000000000000000000F500000000F5F5F5F5F5F500000000F5F50000000000000000000000F5F5F5F5F5F5000000
310
0000000000000000F50000000000F500000000F5F5F5F5F500000000000000000000000000000000000000000000000000000000000000000000000000000000000000000000000000000000000000000000000000000000000000000000000000000000000000000000000000000000000000000000000000000000000000
310
0000000000000000000000000000000000000000000000000000000000000000000000000000000000000000000000F5000000F5F5F5F5F5F5F5F5F5F5F5F5F5F5F5F5F5F5F5F5F5F5F5F5F5F5F5F5F5F5F5F5F5F5F5F5F5F5F5F5F5F5F5F5F5F5F5F5F5F5F5F500F5F5F5F5F5F5F5F5F5F5F5F5F5F5F5F5F5F5F5F5F5F500
310
F5F5F5F5F5F5F5F5F5F5F5F500F5F5F5F5F5F5F5F5F5000000F50000000000000000000000000000000000000000000000000000000000000000000000000000000000000000000000000000000000000000000000000000000000000000000000000000000000000000000000000000000000000000000000000000000000
310
00000000000000000000000000000000000000000000000000000000000000000000000000000000000000000000000000F5000000000000F50000000000F5F5F500000000000000000000F5F5F5F5F5F5F5F50000000000000000000000F5F50000F5F5F5F5F5F5F50000000000F500000000000000000000F5F5F5F5F5F5
310
F5000000000000000000000000F500F50000000000F50000000000F5000000000000000000000000000000000000000000000000000000000000000000000000000000000000000000000000000000000000000000000000000000000000000000000000000000000000000000000000000000000000000000000000000000
310
000000000000000000000000000000000000000000000000000000000000000000000000000000000000000000000000000000F5000000000000F50000000000F5F5F5F500000000000000000000F5F5F5F5F5F5F50000000000000000000000F5000000F5F5F5F5F5F5F5F500000000F500000000000000000000F5F5F5F5
310
F5F5F5F50000000000000000000000F500F500000000F5F50000000000F500000000000000000000000000000000000000000000000000000000000000000000000000000000000000000000000000000000000000000000000000000000000000000000000000000000000000000000000000000000000000000000000000
310
0000000000000000000000000000000000000000000000000000000000000000000000000000000000000000000000000000000000F50000000000F5F50000000000F500F5F500000000000000000000000000000000000000000000000000000000F5000000F5F5F5F5F5F5F5F500000000F5000000000000000000000000
310
0000000000000000000000000000000000F500F500000000F5F50000000000F50000000000000000000000000000000000000000000000000000000000000000000000000000000000000000000000000000000000000000000000000000000000000000000000000000000000000000000000000000000000000000000000
310
00000000000000000000000000000000000000000000000000000000000000000000000000000000000000000000000000000000000000F50000000000F5F50000000000F5F5F5F500000000000000000000000000000000000000000000000000000000F5000000000000000000000000000000F500000000000000000000
310
00000000000000000000000000000000000000F500F500000000F5F50000000000F5000000000000000000000000000000000000000000000000000000000000000000000000000000000000000000000000000000000000000000000000000000000000000000000000000000000000000000000000000000000000000000
310
000000000000000000000000000000000000000000000000000000000000000000000000000000000000000000000000000000000000000000F50000000000F5F50000000000F5F5F5F500000000000000000000000000000000000000000000000000000000F5000000000000000000000000000000F50000000000000000
310
000000000000000000000000000000000000000000F500F500000000F5F50000000000F500000000000000000000000000000000000000000000000000000000000000000000000000000000000000000000000000000000000000000000000000000000000000000000000000000000000000000000000000000000000000
310
0000000000000000000000000000000000000000000000000000000000000000000000000000000000000000000000000000000000000000000000F500F500F5F5F5F5F5F5F5F5F5F5F5F5F5F5F5F5F5F5F5F5F5F5F5F5F5F5F5F5F5F5F5F5F5F5F5F5F5F5000000F5000000000000000000000000000000F5000000F5F5F5
310
F5F5F5F5F5F5F5F5F5F5F5F5F5F5F5F5F5F5F5F5F5F5F5F5F5F5F5F5F5F5F5F5F5F5000000F50000000000000000000000000000000000000000000000000000000000000000000000000000000000000000000000000000000000000000000000000000000000000000000000000000000000000000000000000000000000
310
00000000000000000000000000000000000000000000000000000000000000000000000000000000000000000000000000000000000000000000000000F5F5F5F5F5F5F5F5F5F5F5000000F5F5F5000000000000000000000000F50000000000000000000000F5F5F500F5000000000000000000000000000000F5F5F5F500
310
00000000000000000000000000000000000000000000000000F5F5000000F5F5F5F5F5F5F5F5F5F5000000000000000000000000000000000000000000000000000000000000000000000000000000000000000000000000000000000000000000000000000000000000000000000000000000000000000000000000000000
310
0000000000000000000000000000000000000000000000000000000000000000000000000000000000000000000000000000000000000000000000000000000000F5000000000000F5F5F5F5F5F5F5F5000000000000000000000000F50000000000000000000000F50000F5F5000000000000000000000000000000F5F500
310
F50000000000000000000000000000000000000000000000000000F500F5F5F5F5F5000000000000000000000000000000000000000000000000000000000000000000000000000000000000000000000000000000000000000000000000000000000000000000000000000000000000000000000000000000000000000000
310
00000000000000000000000000000000000000000000000000000000000000000000000000000000000000000000000000000000000000000000000000000000000000F50000000000F5F5F5F5F5F5F5F5F5000000000000000000F5F5F5F5F5F5000000000000000000F5F5F5F5F5F5F5F5F500000000000000F5F5F5F5F5
310
F5F5F50000000000000000000000000000000000000000000000000000F5F5F5F5F5F5F500000000000000000000000000000000000000000000000000000000000000000000000000000000000000000000000000000000000000000000000000000000000000000000000000000000000000000000000000000000000000
310
000000000000000000000000000000000000000000000000000000000000000000000000000000000000000000000000000000000000000000000000000000000000000000F5000000000000F5F5F50000F5F5F5000000000000000000F5F5F5F5F5F5000000000000000000F5F5F5F5F5F5F5F5F500000000000000F5F5F5
310
F5F5F5F5F500000000000000000000000000000000000000000000F5F5F5F5F5000000F5F5F50000000000000000000000000000000000000000000000000000000000000000000000000000000000000000000000000000000000000000000000000000000000000000000000000000000000000000000000000000000000
310
0000000000000000000000000000000000000000000000000000000000000000000000000000000000000000000000000000000000000000000000000000000000000000000000F5000000000000F5F5000000F5F5F500000000000000000000F5F5F5F5F5000000000000000000F5F5F5F5F5000000F500000000000000F5
310
000000F5F5F5F500000000000000000000000000000000000000000000F5F5F5F5F5000000F5F5F5F5F5F5F5F500000000000000000000000000000000000000000000000000000000000000000000000000000000000000000000000000000000000000000000000000000000000000000000000000000000000000000000
310
00000000000000000000000000000000000000000000000000000000000000000000000000000000000000000000000000000000000000000000000000000000000000000000000000F500000000000000F5000000F5F5F5000000000000000000F5F5F5F5F5F5000000000000000000F5F5F500F5000000F5000000000000
310
00F5000000F5F5F5F500000000000000000000000000000000000000000000F500F5F5F500000000F5F5F5F5F5F5F50000000000000000000000000000000000000000000000000000000000000000000000000000000000000000000000000000000000000000000000000000000000000000000000000000000000000000
310
000000000000000000000000000000000000000000000000000000000000000000000000000000000000000000000000000000000000000000000000000000000000000000000000000000F500000000000000F5000000F5F5F5000000000000000000F5F5F5F5F5F50000000000000000F5F5F5F5F5F5000000F500000000
310
000000F5000000F5F5F5F5F5F50000000000000000000000000000000000000000F5F5F5F5F500000000F5F5F5F5F5F5F5000000000000000000000000000000000000000000000000000000000000000000000000000000000000000000000000000000000000000000000000000000000000000000000000000000000000
310
0000000000000000000000000000000000000000000000000000000000000000000000000000000000000000000000000000000000000000000000000000000000000000000000000000000000F500000000000000F5000000F5F5F500000000000000000000F5F5F5F5F50000000000000000F5F5F5F5F5F5F5F5F5F50000
310
0000000000F5F5F5F5F5F5F5F5F5F50000000000000000000000000000000000000000F5F5F5F5F5F5F5F5F5F5F5F5F5F5F5F500000000000000000000000000000000000000000000000000000000000000000000000000000000000000000000000000000000000000000000000000000000000000000000000000000000
310
00000000000000000000000000000000000000000000000000000000000000000000000000000000000000000000000000000000000000000000000000000000000000000000000000000000000000F500000000000000F5000000F5F5F5000000000000000000000000F50000000000000000000000F5F5F5F5F5F5F5F5F5
310
00000000000000F5F5F5F5F5F5F5F500000000000000000000000000000000000000000000000000F5F5F5000000F5F5F5F5F5F5F50000000000000000000000000000000000000000000000000000000000000000000000000000000000000000000000000000000000000000000000000000000000000000000000000000
310
000000000000000000000000000000000000000000000000000000000000000000000000000000000000000000000000000000000000000000000000000000000000000000000000000000000000000000F500000000000000F5000000F5F5F5000000000000000000000000F500000000000000000000000000F5F5F50000
310
00000000000000000000000000F5F5000000000000000000000000000000000000000000000000000000F5F500000000F5F5F5F5F5F5F5000000000000000000000000000000000000000000000000000000000000000000000000000000000000000000000000000000000000000000000000000000000000000000000000
310
0000000000000000000000000000000000000000000000000000000000000000000000000000000000000000000000000000000000000000000000000000000000000000000000000000000000000000000000F500000000000000F5000000F5F500000000000000000000000000F5F5000000000000000000000000F5F500
310
000000000000000000000000000000F5F5000000000000000000000000000000000000000000000000000000F5F500000000F500000000000000000000000000000000000000000000000000000000000000000000000000000000000000000000000000000000000000000000000000000000000000000000000000000000
310
00000000000000000000000000000000000000000000000000000000000000000000000000000000000000000000000000000000000000000000000000000000000000000000000000000000000000000000000000F500000000000000F5000000F5F5F5F5F5F5F5F5F5F5F5F5F5F5F5F5F5F5F5F5F5F5F5F5F5F5F5F5F5F5
310
00000000000000000000000000000000000000F5F5F5F5F5F5F5F5F5F5F5F5F5F5F5F5F5F5F5F5F5F5F5F5F5F5F5F5F500000000F50000000000000000000000000000000000000000000000000000000000000000000000000000000000000000000000000000000000000000000000000000000000000000000000000000
310
000000000000000000000000000000000000000000000000000000000000000000000000000000000000000000000000000000000000000000000000000000000000000000000000000000000000000000000000000000F500000000000000F5000000F5F5F5F5F50000000000000000000000000000000000000000000000
310
000000000000000000000000000000000000000000000000000000000000000000000000000000000000000000F5F5F5F5F500000000F5000000000000000000000000000000000000000000000000000000000000000000000000000000000000000000000000000000000000000000000000000000000000000000000000
310
0000000000000000000000000000000000000000000000000000000000000000000000000000000000000000000000000000000000000000000000000000000000000000000000000000000000000000000000000000000000F500000000000000F5000000F5F5F5F5F5000000000000000000000000000000000000000000
310
000000000000000000000000000000000000000000000000000000000000000000000000000000000000000000000000F5F5F5F500000000F500000000000000000000000000000000000000000000000000000000000000000000000000000000000000000000000000000000000000000000000000000000000000000000
310
00000000000000000000000000000000000000000000000000000000000000000000000000000000000000000000000000000000000000000000000000000000000000000000000000000000000000000000000000000000000000F500000000000000F500000000F500F50000000000000000000000000000000000000000
310
0000000000000000000000000000000000000000000000000000000000000000000000000000000000000000000000000000F500F5F5000000F5F50000000000000000000000000000000000000000000000000000000000000000000000000000000000000000000000000000000000000000000000000000000000000000
310
000000000000000000000000000000000000000000000000000000000000000000000000000000000000000000000000000000000000000000000000000000000000000000000000000000000000000000000000000000000000000000F500000000000000F5F5000000F500F5000000000000000000000000000000000000
310
00000000000000000000000000000000000000000000000000000000000000000000000000000000000000000000000000000000F500F5F5000000F5F5000000000000000000000000000000000000000000000000000000000000000000000000000000000000000000000000000000000000000000000000000000000000
310
0000000000000000000000000000000000000000000000000000000000000000000000000000000000000000000000000000000000000000000000000000000000000000000000000000000000000000000000000000000000000000000000F500000000000000F500000000F500F500000000000000000000000000000000
310
000000000000000000000000000000000000000000000000000000000000000000000000000000000000000000000000000000000000F500F5F500000000F500000000000000000000000000000000000000000000000000000000000000000000000000000000000000000000000000000000000000000000000000000000
310
00000000000000000000000000000000000000000000000000000000000000000000000000000000000000000000000000000000000000000000000000000000000000000000000000000000000000000000000000000000000000000000000000F500000000000000F5000000000000F50000000000000000000000000000
310
0000000000000000000000000000000000000000000000000000000000000000000000000000000000000000000000000000000000000000F5000000000000F5F5F5F5F5F5F5F5F500000000000000000000000000000000000000000000000000000000000000000000000000000000000000000000000000000000000000
310
0000000000000000000000000000000000000000000000000000000000000000000000000000000000000000000000000000000000000000000000000000000000000000000000000000000000000000000000000000000000000000000000F5F5F5F5F5F5F50000000000F5F50000000000F5000000000000000000000000
310
00000000000000000000000000000000000000000000000000000000000000000000000000000000000000000000000000000000000000000000F5000000000000F500F5F5F5F5F5F5F50000000000000000000000000000000000000000000000000000000000000000000000000000000000000000000000000000000000
310
00000000000000000000000000000000000000000000000000000000000000000000000000000000000000000000000000000000000000000000000000000000000000000000000000000000000000000000000000000000000000000000000000F5F5F5F5F5F5F50000000000F5000000000000F500000000000000000000
310
000000000000000000000000000000000000000000000000000000000000000000000000000000000000000000000000000000000000000000000000F5000000000000F5F500F5F5F5F5F5F5000000000000000000000000000000000000000000000000000000000000000000000000000000000000000000000000000000
310
000000000000000000000000000000000000000000000000000000000000000000000000000000000000000000000000000000000000000000000000000000000000000000000000000000000000000000000000000000000000000000000000000000F5F5F5F5F5F5F50000000000F5000000000000F50000000000000000
310
0000000000000000000000000000000000000000000000000000000000000000000000000000000000000000000000000000000000000000000000000000F5F5F5F5F5F5F5F5F5F5F5F5F5F5F5F500000000000000000000000000000000000000000000000000000000000000000000000000000000000000000000000000
310
000000000000000000000000000000000000000000000000000000000000000000000000000000000000000000000000000000000000000000000000000000000000000000000000000000000000000000000000000000000000000000000000000000000000F5F5F5F5F5000000000000F5000000000000F5000000000000
310
00000000000000000000000000000000000000000000000000000000000000000000000000000000000000000000000000000000000000000000000000000000F5F5000000000000F5F5F5F5F5F5F5F50000000000000000000000000000000000000000000000000000000000000000000000000000000000000000000000
310
0000000000000000000000000000000000000000000000000000000000000000000000000000000000000000000000000000000000000000000000000000000000000000000000000000000000000000000000000000000000000000000000000000000000000000F5F5F5F5F5F50000000000F5F50000000000F500000000
310
000000000000000000000000000000000000000000000000000000000000000000000000000000000000000000000000000000000000000000000000000000000000F5000000000000F5F5F5F5F5F5F5F5F5000000000000000000000000000000000000000000000000000000000000000000000000000000000000000000
310
00000000000000000000000000000000000000000000000000000000000000000000000000000000000000000000000000000000000000000000000000000000000000000000000000000000000000000000000000000000000000000000000000000000000000000000F5F5F5F5F5F50000000000F5000000000000F50000
310
0000000000000000000000000000000000000000000000000000000000000000000000000000000000000000000000000000000000000000000000000000000000000000F5000000000000F5F5F5F5F5F5F5F5F500000000000000000000000000000000000000000000000000000000000000000000000000000000000000
310
000000000000000000000000000000000000000000000000000000000000000000000000000000000000000000000000000000000000000000000000000000000000000000000000000000000000000000000000000000000000000000000000000000000000000000000000000000F500000000000000F50000F5000000F5
310
00000000000000000000000000000000000000000000000000000000000000000000000000000000000000000000000000000000000000000000000000000000000000000000F500000000F50000F5000000000000000000000000000000000000000000000000000000000000000000000000000000000000000000000000
310
0000000000000000000000000000000000000000000000000000000000000000000000000000000000000000000000000000000000000000000000000000000000000000000000000000000000000000000000000000000000000000000000000000000000000000000000000000000000F500000000000000F500F5F50000
310
00F500000000000000000000000000000000000000000000000000000000000000000000000000000000000000000000000000000000000000000000000000000000000000000000F500000000F5F500F500000000000000000000000000000000000000000000000000000000000000000000000000000000000000000000
310
00000000000000000000000000000000000000000000000000000000000000000000000000000000000000000000000000000000000000000000000000000000000000000000000000000000000000000000000000000000000000000000000000000000000000000000000000000000000000F500000000000000F500F5F5
310
000000F500000000000000000000000000000000000000000000000000000000000000000000000000000000000000000000000000000000000000000000000000000000000000000000F500000000F5F500F50000000000000000000000000000000000000000000000000000000000000000000000000000000000000000
310
000000000000000000000000000000000000000000000000000000000000000000000000000000000000000000000000000000000000000000000000000000000000000000000000000000000000000000000000000000000000000000000000000000000000000000000000000000000000000000F500000000000000F500
310
F5F5000000F500000000000000000000000000000000000000000000000000000000000000000000000000000000000000000000000000000000000000000000000000000000000000000000F500000000F5F500F5000000000000000000000000000000000000000000000000000000000000000000000000000000000000
310
0000000000000000000000000000000000000000000000000000000000000000000000000000000000000000000000000000000000000000000000000000000000000000000000000000000000000000000000000000000000000000000000000000000000000000000000000000000000000000000000F500000000000000
310
F5F5F5F5000000F500000000000000000000000000000000000000000000000000000000000000000000000000000000000000000000000000000000000000000000000000000000000000000000F500000000F5F5F5F500000000000000000000000000000000000000000000000000000000000000000000000000000000
310
00000000000000000000000000000000000000000000000000000000000000000000000000000000000000000000000000000000000000000000000000000000000000000000000000000000000000000000000000000000000000000000000000000000000000000000000000000000000000000000000000F50000000000
310
0000F5F5F5F5F5F5F5F500000000000000000000000000000000000000000000000000000000000000000000000000000000000000000000000000000000000000000000000000000000000000000000F5F5F5F5F5F5F5F5F50000000000000000000000000000000000000000000000000000000000000000000000000000
310
000000000000000000000000000000000000000000000000000000000000000000000000000000000000000000000000000000000000000000000000000000000000000000000000000000000000000000000000000000000000000000000000000000000000000000000000000000000000000000000000000000F5000000
310
00000000F5F5F500F500000000000000000000000000000000000000000000000000000000000000000000000000000000000000000000000000000000000000000000000000000000000000000000000000000000F500F5F5F5F5000000000000000000000000000000000000000000000000000000000000000000000000
310
0000000000000000000000000000000000000000000000000000000000000000000000000000000000000000000000000000000000000000000000000000000000000000000000000000000000000000000000000000000000000000000000000000000000000000000000000000000000000000000000000000000000F500
310
000000000000F5F5F500F500000000000000000000000000000000000000000000000000000000000000000000000000000000000000000000000000000000000000000000000000000000000000000000000000000000F50000F5F5F500000000000000000000000000000000000000000000000000000000000000000000
310
00000000000000000000000000000000000000000000000000000000000000000000000000000000000000000000000000000000000000000000000000000000000000000000000000000000000000000000000000000000000000000000000000000000000000000000000000000000000000000000000000000000000000
310
F500000000000000F5F5F500F500000000000000000000000000000000000000000000000000000000000000000000000000000000000000000000000000000000000000000000000000000000000000000000000000000000F50000F5F5F50000000000000000000000000000000000000000000000000000000000000000
310
00000000000000000000000000000000000000000000000000000000000000000000000000000000000000000000000000000000000000000000000000000000000000000000000000000000000000000000000000000000000000000000000000000000000000000000000000000000000000000000000000000000000000
310
0000F500000000000000F5F50000F500000000000000000000000000000000000000000000000000000000000000000000000000000000000000000000000000000000000000000000000000000000000000000000000000000000F50000F5F5F5000000000000000000000000000000000000000000000000000000000000
310
00000000000000000000000000000000000000000000000000000000000000000000000000000000000000000000000000000000000000000000000000000000000000000000000000000000000000000000000000000000000000000000000000000000000000000000000000000000000000000000000000000000000000
310
00000000F500000000000000F5F5F500F500000000000000000000000000000000000000000000000000000000000000000000000000000000000000000000000000000000000000000000000000000000000000000000000000000000F50000F5F5F500000000000000000000000000000000000000000000000000000000
310
00000000000000000000000000000000000000000000000000000000000000000000000000000000000000000000000000000000000000000000000000000000000000000000000000000000000000000000000000000000000000000000000000000000000000000000000000000000000000000000000000000000000000
310
000000000000F50000000000000000F5F500F500000000000000000000000000000000000000000000000000000000000000000000000000000000000000000000000000000000000000000000000000000000000000000000000000000000F50000F5F5000000000000000000000000000000000000000000000000000000
310
00000000000000000000000000000000000000000000000000000000000000000000000000000000000000000000000000000000000000000000000000000000000000000000000000000000000000000000000000000000000000000000000000000000000000000000000000000000000000000000000000000000000000
310
0000000000000000F5000000000000000000F500F500000000000000000000000000000000000000000000000000000000000000000000000000000000000000000000000000000000000000000000000000000000000000000000000000000000F50000F50000000000000000000000000000000000000000000000000000
310
00000000000000000000000000000000000000000000000000000000000000000000000000000000000000000000000000000000000000000000000000000000000000000000000000000000000000000000000000000000000000000000000000000000000000000000000000000000000000000000000000000000000000
310
00000000000000000000F50000000000000000F50000F500000000000000000000000000000000000000000000000000000000000000000000000000000000000000000000000000000000000000000000000000000000000000000000000000000000F50000F5000000000000000000000000000000000000000000000000
310
00000000000000000000000000000000000000000000000000000000000000000000000000000000000000000000000000000000000000000000000000000000000000000000000000000000000000000000000000000000000000000000000000000000000000000000000000000000000000000000000000000000000000
310
000000000000000000000000F50000000000000000F50000F500000000000000000000000000000000000000000000000000000000000000000000000000000000000000000000000000000000000000000000000000000000000000000000000000000000F5000000F5000000000000000000000000000000000000000000
310
00000000000000000000000000000000000000000000000000000000000000000000000000000000000000000000000000000000000000000000000000000000000000000000000000000000000000000000000000000000000000000000000000000000000000000000000000000000000000000000000000000000000000
310
0000000000000000000000000000F5000000F5000000F5F50000F500000000000000000000000000000000000000000000000000000000000000000000000000000000000000000000000000000000000000000000000000000000000000000000000000000000F5000000F5F50000F5000000000000000000000000000000
310
00000000000000000000000000000000000000000000000000000000000000000000000000000000000000000000000000000000000000000000000000000000000000000000000000000000000000000000000000000000000000000000000000000000000000000000000000000000000000000000000000000000000000
310
00000000000000000000000000000000F5000000F5000000F5F50000F500000000000000000000000000000000000000000000000000000000000000000000000000000000000000000000000000000000000000000000000000000000000000000000000000000000F5000000F5F50000F500000000000000000000000000
310
00000000000000000000000000000000000000000000000000000000000000000000000000000000000000000000000000000000000000000000000000000000000000000000000000000000000000000000000000000000000000000000000000000000000000000000000000000000000000000000000000000000000000
310
000000000000000000000000000000000000F5000000F5000000F5000000F500000000000000000000000000000000000000000000000000000000000000000000000000000000000000000000000000000000000000000000000000000000000000000000000000000000F5000000F5F50000F50000000000000000000000
310
00000000000000000000000000000000000000000000000000000000000000000000000000000000000000000000000000000000000000000000000000000000000000000000000000000000000000000000000000000000000000000000000000000000000000000000000000000000000000000000000000000000000000
310
00000000000000000000000000000000000000F5F5F5F5F5F5F5F5F5F5F5F5F5F500000000000000000000000000000000000000000000000000000000000000000000000000000000000000000000000000000000000000000000000000000000000000000000000000000000F5F5F5F5F5F50000F5000000000000000000
310
00000000000000000000000000000000000000000000000000000000000000000000000000000000000000000000000000000000000000000000000000000000000000000000000000000000000000000000000000000000000000000000000000000000000000000000000000000000000000000000000000000000000000
310
0000000000000000000000000000000000000000F5F5F5F5F500F5000000F500000000000000000000000000000000000000000000000000000000000000000000000000000000000000000000000000000000000000000000000000000000000000000000000000000000000000000000000000F50000F5F5F5F5F5F5F500
310
00000000000000000000000000000000000000000000000000000000000000000000000000000000000000000000000000000000000000000000000000000000000000000000000000000000000000000000000000000000000000000000000000000000000000000000000000000000000000000000000000000000000000
310
00000000000000000000000000000000000000000000F5F5F5F5F500F5000000F500000000000000000000000000000000000000000000000000000000000000000000000000000000F5F5F5000000000000000000000000000000000000000000000000000000000000000000000000000000000000F50000F5F5F5F5F5F5
310
F5000000000000000000000000000000000000000000000000000000000000000000000000000000000000000000000000000000000000000000000000000000000000000000000000000000000000000000000000000000000000000000000000000000000000000000000000000000000000000000000000000000000000
310
000000000000000000000000000000000000000000000000F5F5F5F5F500F5000000F500000000000000000000000000000000000000000000000000000000000000000000000000000000F5F5F5000000000000000000000000000000000000000000000000000000000000000000000000000000000000F50000F500F5F5
310
F5F5F500000000000000000000000000000000000000000000000000000000000000000000000000000000000000000000000000000000000000000000000000000000000000000000000000000000000000000000000000000000000000000000000000000000000000000000000000000000000000000000000000000000
310
0000000000000000000000000000000000000000000000000000F5F5F5F5F5F5F5F5F5F5F5F5F5F5F5F5F5F5F5F5F5F5F5F5F5F5F5F5F5F5F5F5F5F5F5F5F5F5F5F5F5F5F5F5F5F5F5F5F5F5F5F5F5F5F5F5F5F5F5F5F5F5F5F5F5F5F5F5F5F5F5F5F5F5F5F5F5F5F5F5F5F5F5F5F5F5F5F5F5F5F5F5F5F5F5F5F5F5F5F5F5
310
F5F5F5F5F50000000000000000000000000000000000000000000000000000000000000000000000000000000000000000000000000000000000000000000000000000000000000000000000000000000000000000000000000000000000000000000000000000000000000000000000000000000000000000000000000000
310
0000000000000000000000000000000000000000000000000000000000F5F5F50000F5F50000F50000000000000000000000000000000000000000000000000000000000000000000000000000000000F5F5000000000000000000000000000000000000000000000000000000000000000000000000000000000000F5F500
310
F5F5F5F5F5F500000000000000000000000000000000000000000000000000000000000000000000000000000000000000000000000000000000000000000000000000000000000000000000000000000000000000000000000000000000000000000000000000000000000000000000000000000000000000000000000000
310
00000000000000000000000000000000000000000000000000000000000000F5F5F5F500F5000000000000000000000000000000000000000000000000000000000000000000000000000000000000F5F5F5F5F5F5F50000000000000000000000000000000000000000000000000000000000000000000000000000000000
310
0000F500F5F5F5F50000000000000000000000000000000000000000000000000000000000000000000000000000000000000000000000000000000000000000000000000000000000000000000000000000000000000000000000000000000000000000000000000000000000000000000000000000000000000000000000
310
0000000000000000000000000000000000000000000000000000000000000000000000000000F5000000000000000000000000000000000000000000000000000000000000000000000000000000000000F5F5F5F5F5F5F5000000000000000000000000000000000000000000000000000000000000000000000000000000
310
00000000F50000000000000000000000000000000000000000000000000000000000000000000000000000000000000000000000000000000000000000000000000000000000000000000000000000000000000000000000000000000000000000000000000000000000000000000000000000000000000000000000000000
310
00000000000000000000000000000000000000000000000000000000000000000000000000000000F500000000000000000000000000000000000000000000000000000000000000000000000000000000000000F5F5F5F5F5F500000000000000000000000000000000000000000000000000000000000000000000000000
310
000000000000F5000000000000000000000000000000000000000000000000000000000000000000000000000000000000000000000000000000000000000000000000000000000000000000000000000000000000000000000000000000000000000000000000000000000000000000000000000000000000000000000000
310
000000000000000000000000000000000000000000000000000000000000000000000000000000000000F500000000000000000000000000000000000000000000000000000000000000000000000000000000000000F5F5F5F5F5F50000000000000000000000000000000000000000000000000000000000000000000000
310
0000000000000000F500000000000000000000000000000000000000000000000000000000000000000000000000000000000000000000000000000000000000000000000000000000000000000000000000000000000000000000000000000000000000000000000000000000000000000000000000000000000000000000
310
0000000000000000000000000000000000000000000000000000000000000000000000000000000000000000F5F5F5F5F5F5F5F5F5F5F5F5F5F5F5F5F5F5F5F5F5F5F5F5F5F5F5F5F5F5F5F5F5F5F5F5F5F5F5F5F5F5F5F5F5F5F5F5F500F5F5F5F5F5F5F5F5F5F5F5F5F5F5F5F5F5F5F5F5F5F5F5F5F5F5F5F5F5F5F5F5F5
310
F5F5F5F5F5F5F5F5F5F5F5F500000000000000000000000000000000000000000000000000000000000000000000000000000000000000000000000000000000000000000000000000000000000000000000000000000000000000000000000000000000000000000000000000000000000000000000000000000000000000
310
000000000000000000000000000000000000000000000000000000000000000000000000000000000000000000000000000000000000000000000000000000000000000000000000000000000000000000000000000000000000F5F5F5F5F50000000000000000000000000000000000000000000000000000000000000000
310
00000000000000000000000000000000000000000000000000000000000000000000000000000000000000000000000000000000000000000000000000000000000000000000000000000000000000000000000000000000000000000000000000000000000000000000000000000000000000000000000000000000000000
310
000000000000000000000000000000000000000000000000000000000000000000000000000000000000000000000000000000000000000000000000000000000000000000000000000000000000000000000000000000000000000000F5F5F5F5000000000000000000000000000000000000000000000000000000000000
310
00000000000000000000000000000000000000000000000000000000000000000000000000000000000000000000000000000000000000000000000000000000000000000000000000000000000000000000000000000000000000000000000000000000000000000000000000000000000000000000000000000000000000
310
00000000000000000000000000000000000000000000000000000000000000000000000000000000000000000000000000000000000000000000000000000000000000000000000000000000000000000000000000000000000000000000000000000000000000000000000000000000000000000000000000000000000000
310
00000000000000000000000000000000000000000000000000000000000000000000000000000000000000000000000000000000000000000000000000000000000000000000000000000000000000000000000000000000000000000000000000000000000000000000000000000000000000000000000000000000000000
310
00000000000000000000000000000000000000000000000000000000000000000000000000000000000000000000000000000000000000000000000000000000000000000000000000000000000000000000000000000000000000000000000000000000000000000000000000000000000000000000000000000000000000
310
00000000000000000000000000000000000000000000000000000000000000000000000000000000000000000000000000000000000000000000000000000000000000000000000000000000000000000000000000000000000000000000000000000000000000000000000000000000000000000000000000000000000000
310
00000000000000000000000000000000000000000000000000000000000000000000000000000000000000000000000000000000000000000000000000000000000000000000000000000000000000000000000000000000000000000000000000000000000000000000000000000000000000000000000000000000000000
310
00000000000000000000000000000000000000000000000000000000000000000000000000000000000000000000000000000000000000000000000000000000000000000000000000000000000000000000000000000000000000000000000000000000000000000000000000000000000000000000000000000000000000
310
00000000000000000000000000000000000000000000000000000000000000000000000000000000000000000000000000000000000000000000000000000000000000000000000000000000000000000000000000000000000000000000000000000000000000000000000000000000000000000000000000000000000000
310
00000000000000000000000000000000000000000000000000000000000000000000000000000000000000000000000000000000000000000000000000000000000000000000000000000000000000000000000000000000000000000000000000000000000000000000000000000000000000000000000000000000000000
310
00000000000000000000000000000000000000000000000000000000000000000000000000000000000000000000000000000000000000000000000000000000000000000000000000000000000000000000000000000000000000000000000000000000000000000000000000000000000000000000000000000000000000
310
00000000000000000000000000000000000000000000000000000000000000000000000000000000000000000000000000000000000000000000000000000000000000000000000000000000000000000000000000000000000000000000000000000000000000000000000000000000000000000000000000000000000000
310
00000000000000000000000000000000000000000000000000000000000000000000000000000000000000000000000000000000000000000000000000000000000000000000000000000000000000000000000000000000000000000000000000000000000000000000000000000000000000000000000000000000000000
310
00000000000000000000000000000000000000000000000000000000000000000000000000000000000000000000000000000000000000000000000000000000000000000000000000000000000000000000000000000000000000000000000000000000000000000000000000000000000000000000000000000000000000
310
00000000000000000000000000000000000000000000000000000000000000000000000000000000000000000000000000000000000000000000000000000000000000000000F500000000000000000000F5000000000000000000000000000000000000000000000000000000000000000000000000000000000000000000
310
0000000000000000000000000000F500000000000000F50000000000000000000000000000000000000000000000000000000000000000000000000000000000000000000000000000000000000000000000000000000000000000000000000000000000000000000000000000000000000000000000000000000000000000
310
0000000000000000000000000000000000000000000000000000000000000000000000000000000000000000000000000000000000000000000000000000000000000000000000F5F5F5F5F5F5F5F5F5F5F5F5F5F5F5F5F5F5F5F5F5F500F5F5F5F5F5F5F5F5F5F5F5F5F5F5F5F5F5F5F5F5F5F5F5F5F5F5F5F5F5F5F5F5F5
310
F5F5F5F5F5F5F5F5F5F5F5F5F5F5F5F5F5F5F5F5F5F5F5F5F5000000000000000000000000000000000000000000000000000000000000000000000000000000000000000000000000000000000000000000000000000000000000000000000000000000000000000000000000000000000000000000000000000000000000
310
00000000000000000000000000000000000000000000000000000000000000000000000000000000000000000000000000000000000000000000000000000000000000000000000000F5F500000000000000F5F5F5F5F50000000000F5F5F500F5000000000000000000000000000000000000000000000000000000000000
310
00F5F50000000000000000000000000000F500000000000000F50000000000000000000000000000000000000000000000000000000000000000000000000000000000000000000000000000000000000000000000000000000000000000000000000000000000000000000000000000000000000000000000000000000000
310
00000000000000000000000000000000000000000000000000000000000000000000000000000000000000000000000000000000000000000000000000000000000000000000000000000000F500000000000000F5F5F5F5F50000000000F500F5F5F500000000000000000000000000000000000000000000000000000000
310
000000F5F50000000000000000000000000000F500000000000000F5000000000000000000000000000000000000000000000000000000000000000000000000000000000000000000000000000000000000000000000000000000000000000000000000000000000000000000000000000000000000000000000000000000
310
000000000000000000000000000000000000000000000000000000000000000000000000000000000000000000000000000000000000000000000000000000000000000000000000000000000000F500000000000000F5F5F5F5F50000000000F5000000000000000000000000000000000000000000000000000000000000
310
0000000000F5F50000000000000000000000000000F500000000000000F500000000000000000000000000000000000000000000000000000000000000000000000000000000000000000000000000000000000000000000000000000000000000000000000000000000000000000000000000000000000000000000000000
310
0000000000000000000000000000000000000000000000000000000000000000000000000000000000000000000000000000000000000000000000000000000000000000000000000000000000000000F5000000000000F5F5F5F5F5F5F500000000F5F5F5F5F5000000000000000000000000000000F50000000000000000
310
00000000000000F5F50000000000000000000000000000F500000000000000F50000000000000000000000000000000000000000000000000000000000000000000000000000000000000000000000000000000000000000000000000000000000000000000000000000000000000000000000000000000000000000000000
310
00000000000000000000000000000000000000000000000000000000000000000000000000000000000000000000000000000000000000000000000000000000000000000000000000000000000000000000F5000000000000F5F5F5F5F5F5F500000000F5F5F5F5F5F5F5F5F5F5F5F5F5F5F50000000000F5000000000000
310
00000000000000F5F5F5F50000000000000000000000000000F500000000000000F5000000000000000000000000000000000000000000000000000000000000000000000000000000000000000000000000000000000000000000000000000000000000000000000000000000000000000000000000000000000000000000
310
000000000000000000000000000000000000000000000000000000000000000000000000000000000000000000000000000000000000000000000000000000000000000000000000000000000000000000000000F5000000000000F5F5F5F5F5F5F50000000000000000000000000000F5F5F5F5F5F5F5F5F5F5F5F5F5F5F5
310
F5F5F5F5F5F5F5F5F5F5F5F5F50000000000000000000000000000F500000000000000F500000000000000000000000000000000000000000000000000000000000000000000000000000000000000000000000000000000000000000000000000000000000000000000000000000000000000000000000000000000000000
310
0000000000000000000000000000000000000000000000000000000000000000000000000000000000000000000000000000000000000000000000000000000000000000000000000000000000000000000000000000F500000000000000000000F50000000000000000000000000000000000000000000000000000F50000
310
00000000000000000000000000F5F50000000000000000000000000000F500000000000000F50000000000000000000000000000000000000000000000000000000000000000000000000000000000000000000000000000000000000000000000000000000000000000000000000000000000000000000000000000000000
310
00000000000000000000000000000000000000000000000000000000000000000000000000000000000000000000000000000000000000000000000000000000000000000000000000000000000000000000000000000000F5000000000000000000F5F5F5F5F5F5F5F5F5F5F5F5F5F5F5F5F5F5F5F5F5F5F5F5F5F5F5F5F5
310
F5F5F5000000000000000000000000F5F50000000000000000000000000000F500000000000000F5000000000000000000000000000000000000000000000000000000000000000000000000000000000000000000000000000000000000000000000000000000000000000000000000000000000000000000000000000000
310
000000000000000000000000000000000000000000000000000000000000000000000000000000000000000000000000000000000000000000000000000000000000000000000000000000000000000000000000000000000000F5000000000000000000F5F5000000000000000000000000F500000000000000000000F5F5
310
F5F5000000000000000000000000000000F5000000000000000000000000000000F500000000000000F500000000000000000000000000000000000000000000000000000000000000000000000000000000000000000000000000000000000000000000000000000000000000000000000000000000000000000000000000
310
0000000000000000000000000000000000000000000000000000000000000000000000000000000000000000000000000000000000000000000000000000000000000000000000000000000000000000000000000000000000000000F500000000000000000000F5000000000000000000000000F500000000000000000000
310
F5F5F5F5000000000000000000000000000000F5000000000000000000000000000000F500000000000000F50000000000000000000000000000000000000000000000000000000000000000000000000000000000000000000000000000000000000000000000000000000000000000000000000000000000000000000000
310
00000000000000000000000000000000000000000000000000000000000000000000000000000000000000000000000000000000000000000000000000000000000000000000000000000000000000000000000000000000000000000000F500000000000000000000F5000000000000000000000000F50000000000000000
310
0000F5F5F5F5F5F5F5F5F5F5F5F5F5F5F5F5F5F5F5F5000000000000000000000000000000F500000000000000F5000000000000000000000000000000000000000000000000000000000000000000000000000000000000000000000000000000000000000000000000000000000000000000000000000000000000000000
310
000000000000000000000000000000000000000000000000000000000000000000000000000000000000000000000000000000000000000000000000000000000000000000000000000000000000000000000000000000000000000000000000F500000000000000000000F5000000000000000000000000F5000000000000
310
00000000F500000000000000000000000000000000000000000000000000000000000000000000F500000000000000F500000000000000000000000000000000000000000000000000000000000000000000000000000000000000000000000000000000000000000000000000000000000000000000000000000000000000
310
0000000000000000000000000000000000000000000000000000000000000000000000000000000000000000000000000000000000000000000000000000000000000000000000000000000000000000000000000000000000000000000000000000F500000000000000000000F5000000000000000000000000F500000000
310
000000000000F500000000000000000000000000000000000000000000000000000000000000000000F500000000000000F50000000000000000000000000000000000000000000000000000000000000000000000000000000000000000000000000000000000000000000000000000000000000000000000000000000000
310
00000000000000000000000000000000000000000000000000000000000000000000000000000000000000000000000000000000000000000000000000000000000000000000000000000000000000000000000000000000000000000000000000000000F500000000000000000000F5000000000000000000000000F50000
310
0000000000000000F500000000000000000000000000000000000000000000000000000000000000000000F500000000000000F5000000000000000000000000000000000000000000000000000000000000000000000000000000000000000000000000000000000000000000000000000000000000000000000000000000
310
000000000000000000000000000000000000000000000000000000000000000000000000000000000000000000000000000000000000000000000000000000000000000000000000000000000000000000000000000000000000000000000000000000000000F500000000000000000000F5000000000000000000000000F5
310
00000000000000000000F500000000000000000000000000000000000000000000000000000000000000000000F500000000000000F500000000000000000000000000000000000000000000000000000000000000000000000000000000000000000000000000000000000000000000000000000000000000000000000000
310
0000000000000000000000000000000000000000000000000000000000000000000000000000000000000000000000000000000000000000000000000000000000000000000000000000000000000000000000000000000000000000000000000000000000000000F500000000000000000000F50000000000000000000000
310
00F500000000000000000000F500000000000000000000000000000000000000000000000000000000000000000000F500000000000000F50000000000000000000000000000000000000000000000000000000000000000000000000000000000000000000000000000000000000000000000000000000000000000000000
310
00000000000000000000000000000000000000000000000000000000000000000000000000000000000000000000000000000000000000000000000000000000000000000000000000000000000000000000000000000000000000000000000000000000000000000000F500000000000000000000F5000000000000000000
310
000000F500000000000000000000F500000000000000000000000000000000000000000000000000000000000000000000F500000000000000F5000000000000000000000000000000000000000000000000000000000000000000000000000000000000000000000000000000000000000000000000000000000000000000
310
000000000000000000000000000000000000000000000000000000000000000000000000000000000000000000000000000000000000000000000000000000000000000000000000000000000000000000000000000000000000000000000000000000000000000000000000F500000000000000000000F500000000000000
310
0000000000F500000000000000000000F500000000000000000000000000000000000000000000000000000000000000000000F500000000000000F500000000000000000000000000000000000000000000000000000000000000000000000000000000000000000000000000000000000000000000000000000000000000
310
0000000000000000000000000000000000000000000000000000000000000000000000000000000000000000000000000000000000000000000000000000000000000000000000000000000000000000000000000000000000000000000000000000000000000000000000000000F500000000000000000000F50000000000
310
00000000000000F500000000000000000000F500000000000000000000000000000000000000000000000000000000000000000000F500000000000000F50000000000000000000000000000000000000000000000000000000000000000000000000000000000000000000000000000000000000000000000000000000000
310
00000000000000000000000000000000000000000000000000000000000000000000000000000000000000000000000000000000000000000000000000000000000000000000000000000000000000000000000000000000000000000000000000000000000000000000000000000000F500000000000000000000F5000000
310
000000000000000000F500000000000000000000F500000000000000000000000000000000000000000000000000000000000000000000F500000000000000F5000000000000000000000000000000000000000000000000000000000000000000000000000000000000000000000000000000000000000000000000000000
310
000000000000000000000000000000000000000000000000000000000000000000000000000000000000000000000000000000000000000000000000000000000000000000000000000000000000000000000000000000000000000000000000000000000000000000000000000000000000F500000000000000000000F500
310
0000000000000000000000F500000000000000000000F500000000000000000000000000000000000000000000000000000000000000000000F500000000000000F500000000000000000000000000000000000000000000000000000000000000000000000000000000000000000000000000000000000000000000000000
310
0000000000000000000000000000000000000000000000000000000000000000000000000000000000000000000000000000000000000000000000000000000000000000000000000000000000000000000000000000000000000000000000000000000000000000000000000000000000000000F500000000000000000000
310
F5000000000000000000000000F500000000000000000000F500000000000000000000000000000000000000000000000000000000000000000000F500000000000000F50000000000000000000000000000000000000000000000000000000000000000000000000000000000000000000000000000000000000000000000
310
00000000000000000000000000000000000000000000000000000000000000000000000000000000000000000000000000000000000000000000000000000000000000000000000000000000000000000000000000000000000000000000000000000000000000000000000000000000000000000000F50000000000000000
310
0000F5000000000000000000000000F500000000000000000000F500000000000000000000000000000000000000000000000000000000000000000000F500000000000000F5000000000000000000000000000000000000000000000000000000000000000000000000000000000000000000000000000000000000000000
310
000000000000000000000000000000000000000000000000000000000000000000000000000000000000000000000000000000000000000000000000000000000000000000000000000000000000000000000000000000000000000000000000000000000000000000000000000000000000000000000000F5000000000000
310
00000000F5000000000000000000000000F500000000000000000000F500000000000000000000000000000000000000000000000000000000000000000000F500000000000000F500000000000000000000000000000000000000000000000000000000000000000000000000000000000000000000000000000000000000
310
00000000000000000000000000000000000000000000000000000000000000000000000000000000000000000000000000000000000000000000000000000000000000000000000000000000000000000000000000000000000000000000000000000000000000000000000000000000000000000000F5F5F5F5F5F5F50000
310
000000000000F5000000000000000000000000F500000000000000000000F500000000000000000000000000000000000000000000000000000000000000000000F500000000000000F50000000000000000000000000000000000000000000000000000000000000000000000000000000000000000000000000000000000
310
00000000000000000000000000000000000000000000000000000000
  0
XRECORD
  5
3B1
102
{ACAD_REACTORS
330
49
102
}
330
49
100
AcDbXrecord
280
     1
102
MATERIAL
148
0.0
149
0.0
149
0.0
 93
        0
 94
      127
282
     0
 72
     0
 77
     0
171
     0
175
     0
179
     0
273
     0
  0
XRECORD
  5
4A
102
{ACAD_REACTORS
330
49
102
}
330
49
100
AcDbXrecord
280
     1
270
     1
271
     1
  0
XRECORD
  5
4B
102
{ACAD_REACTORS
330
49
102
}
330
49
100
AcDbXrecord
280
     1
270
     1
271
     1
  0
XRECORD
  5
4C
102
{ACAD_REACTORS
330
49
102
}
330
49
100
AcDbXrecord
280
     1
270
     1
271
     1
  0
XRECORD
  5
4D
102
{ACAD_REACTORS
330
49
102
}
330
49
100
AcDbXrecord
280
     1
270
     1
271
     1
  0
XRECORD
  5
4E
102
{ACAD_REACTORS
330
49
102
}
330
49
100
AcDbXrecord
280
     1
270
     1
271
     1
  0
XRECORD
  5
4F
102
{ACAD_REACTORS
330
49
102
}
330
49
100
AcDbXrecord
280
     1
270
     1
271
     1
  0
XRECORD
  5
3B0
102
{ACAD_REACTORS
330
41
102
}
330
41
100
AcDbXrecord
280
     1
102
MATERIAL
148
0.0
149
0.0
149
0.0
 93
        0
 94
      127
282
     0
 72
     0
 77
     0
171
     0
175
     0
179
     0
273
     0
  0
XRECORD
  5
42
102
{ACAD_REACTORS
330
41
102
}
330
41
100
AcDbXrecord
280
     1
270
     1
271
     1
  0
XRECORD
  5
43
102
{ACAD_REACTORS
330
41
102
}
330
41
100
AcDbXrecord
280
     1
270
     1
271
     1
  0
XRECORD
  5
44
102
{ACAD_REACTORS
330
41
102
}
330
41
100
AcDbXrecord
280
     1
270
     1
271
     1
  0
XRECORD
  5
45
102
{ACAD_REACTORS
330
41
102
}
330
41
100
AcDbXrecord
280
     1
270
     1
271
     1
  0
XRECORD
  5
46
102
{ACAD_REACTORS
330
41
102
}
330
41
100
AcDbXrecord
280
     1
270
     1
271
     1
  0
XRECORD
  5
47
102
{ACAD_REACTORS
330
41
102
}
330
41
100
AcDbXrecord
280
     1
270
     1
271
     1
  0
XRECORD
  5
3AB
102
{ACAD_REACTORS
330
E
102
}
330
E
100
AcDbXrecord
280
     1
102
MATERIAL
148
0.0
149
0.0
149
0.0
 93
        0
 94
      127
282
     0
 72
     0
 77
     0
171
     0
175
     0
179
     0
273
     0
  0
XRECORD
  5
F
102
{ACAD_REACTORS
330
E
102
}
330
E
100
AcDbXrecord
280
     1
270
     1
271
     1
  0
XRECORD
  5
10
102
{ACAD_REACTORS
330
E
102
}
330
E
100
AcDbXrecord
280
     1
270
     1
271
     1
  0
XRECORD
  5
11
102
{ACAD_REACTORS
330
E
102
}
330
E
100
AcDbXrecord
280
     1
270
     1
271
     1
  0
XRECORD
  5
12
102
{ACAD_REACTORS
330
E
102
}
330
E
100
AcDbXrecord
280
     1
270
     1
271
     1
  0
XRECORD
  5
13
102
{ACAD_REACTORS
330
E
102
}
330
E
100
AcDbXrecord
280
     1
270
     1
271
     1
  0
XRECORD
  5
14
102
{ACAD_REACTORS
330
E
102
}
330
E
100
AcDbXrecord
280
     1
270
     1
271
     1
  0
CELLSTYLEMAP
  5
3A9
102
{ACAD_REACTORS
330
56
102
}
330
56
100
AcDbCellStyleMap
 90
        3
300
CELLSTYLE
  1
TABLEFORMAT_BEGIN
 90
        5
170
     1
 91
        0
 92
    32768
 62
   257
 93
        1
300
CONTENTFORMAT
  1
CONTENTFORMAT_BEGIN
 90
        0
 91
        0
 92
        4
 93
        0
300

 40
0.0
140
1.0
 94
        5
 62
     0
340
26
144
0.25
309
CONTENTFORMAT_END
171
     0
 94
        6
 95
        1
302
GRIDFORMAT
  1
GRIDFORMAT_BEGIN
 90
        0
 91
        1
 62
     0
 92
       -2
340
0
 93
        0
 40
0.045
309
GRIDFORMAT_END
 95
        2
302
GRIDFORMAT
  1
GRIDFORMAT_BEGIN
 90
        0
 91
        1
 62
     0
 92
       -2
340
0
 93
        0
 40
0.045
309
GRIDFORMAT_END
 95
        4
302
GRIDFORMAT
  1
GRIDFORMAT_BEGIN
 90
        0
 91
        1
 62
     0
 92
       -2
340
0
 93
        0
 40
0.045
309
GRIDFORMAT_END
 95
        8
302
GRIDFORMAT
  1
GRIDFORMAT_BEGIN
 90
        0
 91
        1
 62
     0
 92
       -2
340
0
 93
        0
 40
0.045
309
GRIDFORMAT_END
 95
       16
302
GRIDFORMAT
  1
GRIDFORMAT_BEGIN
 90
        0
 91
        1
 62
     0
 92
       -2
340
0
 93
        0
 40
0.045
309
GRIDFORMAT_END
 95
       32
302
GRIDFORMAT
  1
GRIDFORMAT_BEGIN
 90
        0
 91
        1
 62
     0
 92
       -2
340
0
 93
        0
 40
0.045
309
GRIDFORMAT_END
309
TABLEFORMAT_END
  1
CELLSTYLE_BEGIN
 90
        1
 91
        1
300
_TITLE
309
CELLSTYLE_END
300
CELLSTYLE
  1
TABLEFORMAT_BEGIN
 90
        5
170
     1
 91
        0
 92
        0
 62
   257
 93
        1
300
CONTENTFORMAT
  1
CONTENTFORMAT_BEGIN
 90
        0
 91
        0
 92
        4
 93
        0
300

 40
0.0
140
1.0
 94
        5
 62
     0
340
26
144
0.18
309
CONTENTFORMAT_END
171
     0
 94
        6
 95
        1
302
GRIDFORMAT
  1
GRIDFORMAT_BEGIN
 90
        0
 91
        1
 62
     0
 92
       -2
340
0
 93
        0
 40
0.045
309
GRIDFORMAT_END
 95
        2
302
GRIDFORMAT
  1
GRIDFORMAT_BEGIN
 90
        0
 91
        1
 62
     0
 92
       -2
340
0
 93
        0
 40
0.045
309
GRIDFORMAT_END
 95
        4
302
GRIDFORMAT
  1
GRIDFORMAT_BEGIN
 90
        0
 91
        1
 62
     0
 92
       -2
340
0
 93
        0
 40
0.045
309
GRIDFORMAT_END
 95
        8
302
GRIDFORMAT
  1
GRIDFORMAT_BEGIN
 90
        0
 91
        1
 62
     0
 92
       -2
340
0
 93
        0
 40
0.045
309
GRIDFORMAT_END
 95
       16
302
GRIDFORMAT
  1
GRIDFORMAT_BEGIN
 90
        0
 91
        1
 62
     0
 92
       -2
340
0
 93
        0
 40
0.045
309
GRIDFORMAT_END
 95
       32
302
GRIDFORMAT
  1
GRIDFORMAT_BEGIN
 90
        0
 91
        1
 62
     0
 92
       -2
340
0
 93
        0
 40
0.045
309
GRIDFORMAT_END
309
TABLEFORMAT_END
  1
CELLSTYLE_BEGIN
 90
        2
 91
        1
300
_HEADER
309
CELLSTYLE_END
300
CELLSTYLE
  1
TABLEFORMAT_BEGIN
 90
        5
170
     1
 91
        0
 92
        0
 62
   257
 93
        1
300
CONTENTFORMAT
  1
CONTENTFORMAT_BEGIN
 90
        0
 91
        0
 92
        4
 93
        0
300

 40
0.0
140
1.0
 94
        2
 62
     0
340
26
144
0.18
309
CONTENTFORMAT_END
171
     0
 94
        6
 95
        1
302
GRIDFORMAT
  1
GRIDFORMAT_BEGIN
 90
        0
 91
        1
 62
     0
 92
       -2
340
0
 93
        0
 40
0.045
309
GRIDFORMAT_END
 95
        2
302
GRIDFORMAT
  1
GRIDFORMAT_BEGIN
 90
        0
 91
        1
 62
     0
 92
       -2
340
0
 93
        0
 40
0.045
309
GRIDFORMAT_END
 95
        4
302
GRIDFORMAT
  1
GRIDFORMAT_BEGIN
 90
        0
 91
        1
 62
     0
 92
       -2
340
0
 93
        0
 40
0.045
309
GRIDFORMAT_END
 95
        8
302
GRIDFORMAT
  1
GRIDFORMAT_BEGIN
 90
        0
 91
        1
 62
     0
 92
       -2
340
0
 93
        0
 40
0.045
309
GRIDFORMAT_END
 95
       16
302
GRIDFORMAT
  1
GRIDFORMAT_BEGIN
 90
        0
 91
        1
 62
     0
 92
       -2
340
0
 93
        0
 40
0.045
309
GRIDFORMAT_END
 95
       32
302
GRIDFORMAT
  1
GRIDFORMAT_BEGIN
 90
        0
 91
        1
 62
     0
 92
       -2
340
0
 93
        0
 40
0.045
309
GRIDFORMAT_END
309
TABLEFORMAT_END
  1
CELLSTYLE_BEGIN
 90
        3
 91
        2
300
_DATA
309
CELLSTYLE_END
  0
XRECORD
  5
3B2
102
{ACAD_REACTORS
330
56
102
}
330
56
100
AcDbXrecord
280
     1
102
ACAD_ROUNDTRIP_PRE2007_TABLESTYLE
 90
        4
 91
        0
  1

 92
        4
 93
        0
  2

 94
        4
 95
        0
  3

  0
XRECORD
  5
3AF
102
{ACAD_REACTORS
330
3AE
102
}
330
3AE
100
AcDbXrecord
280
     1
102
RTVSPropertyOp0
 70
     1
102
RTVSPropertyOp1
 70
     1
102
RTVSPropertyOp2
 70
     1
102
RTVSPropertyOp3
 70
     1
102
RTVSPropertyOp4
 70
     1
102
RTVSPropertyOp5
 70
     1
102
RTVSPropertyOp6
 70
     1
102
RTVSPropertyOp7
 70
     1
102
RTVSPropertyOp8
 70
     1
102
RTVSPropertyOp9
 70
     1
102
RTVSPropertyOp10
 70
     1
102
RTVSPropertyOp11
 70
     1
102
RTVSPropertyOp12
 70
     1
102
RTVSPropertyOp13
 70
     1
102
RTVSPropertyOp14
 70
     1
102
RTVSPropertyOp15
 70
     1
102
RTVSPropertyOp16
 70
     1
102
RTVSPropertyOp17
 70
     1
102
RTVSPropertyOp18
 70
     1
102
RTVSPropertyOp19
 70
     1
102
RTVSPropertyOp20
 70
     1
102
RTVSPropertyOp21
 70
     1
102
RTVSPropertyOp22
 70
     1
102
RTVSPropertyOp23
 70
     1
102
RTVSPropertyOp24
 70
     1
102
RTVSPropertyOp25
 70
     1
102
RTVSPropertyOp26
 70
     1
102
RTVSPropertyOp27
 70
     1
102
RTVSPropertyOp28
 70
     1
102
RTVSPropertyOp29
 70
     1
102
RTVSPropertyOp30
 70
     1
102
RTVSPropertyOp31
 70
     1
102
RTVSPropertyOp32
 70
     1
  0
XRECORD
  5
3B4
102
{ACAD_REACTORS
330
3B3
102
}
330
3B3
100
AcDbXrecord
280
     1
102
RTVSPropertyOp0
 70
     1
102
RTVSPropertyOp1
 70
     1
102
RTVSPropertyOp2
 70
     1
102
RTVSPropertyOp3
 70
     1
102
RTVSPropertyOp4
 70
     1
102
RTVSPropertyOp5
 70
     1
102
RTVSPropertyOp6
 70
     1
102
RTVSPropertyOp7
 70
     1
102
RTVSPropertyOp8
 70
     1
102
RTVSPropertyOp9
 70
     1
102
RTVSPropertyOp10
 70
     1
102
RTVSPropertyOp11
 70
     1
102
RTVSPropertyOp12
 70
     1
102
RTVSPropertyOp13
 70
     1
102
RTVSPropertyOp14
 70
     1
102
RTVSPropertyOp15
 70
     1
102
RTVSPropertyOp16
 70
     1
102
RTVSPropertyOp17
 70
     1
102
RTVSPropertyOp18
 70
     1
102
RTVSPropertyOp19
 70
     1
102
RTVSPropertyOp20
 70
     1
102
RTVSPropertyOp21
 70
     1
102
RTVSPropertyOp22
 70
     1
102
RTVSPropertyOp23
 70
     1
102
RTVSPropertyOp24
 70
     1
102
RTVSPropertyOp25
 70
     1
102
RTVSPropertyOp26
 70
     1
102
RTVSPropertyOp27
 70
     1
102
RTVSPropertyOp28
 70
     1
102
RTVSPropertyOp29
 70
     1
102
RTVSPropertyOp30
 70
     1
102
RTVSPropertyOp31
 70
     1
102
RTVSPropertyOp32
 70
     1
  0
XRECORD
  5
3B6
102
{ACAD_REACTORS
330
3B5
102
}
330
3B5
100
AcDbXrecord
280
     1
102
RTVSPropertyOp0
 70
     1
102
RTVSPropertyOp1
 70
     1
102
RTVSPropertyOp2
 70
     1
102
RTVSPropertyOp3
 70
     1
102
RTVSPropertyOp4
 70
     1
102
RTVSPropertyOp5
 70
     1
102
RTVSPropertyOp6
 70
     1
102
RTVSPropertyOp7
 70
     1
102
RTVSPropertyOp8
 70
     1
102
RTVSPropertyOp9
 70
     1
102
RTVSPropertyOp10
 70
     1
102
RTVSPropertyOp11
 70
     1
102
RTVSPropertyOp12
 70
     1
102
RTVSPropertyOp13
 70
     1
102
RTVSPropertyOp14
 70
     1
102
RTVSPropertyOp15
 70
     1
102
RTVSPropertyOp16
 70
     1
102
RTVSPropertyOp17
 70
     1
102
RTVSPropertyOp18
 70
     1
102
RTVSPropertyOp19
 70
     1
102
RTVSPropertyOp20
 70
     1
102
RTVSPropertyOp21
 70
     1
102
RTVSPropertyOp22
 70
     1
102
RTVSPropertyOp23
 70
     1
102
RTVSPropertyOp24
 70
     1
102
RTVSPropertyOp25
 70
     1
102
RTVSPropertyOp26
 70
     1
102
RTVSPropertyOp27
 70
     1
102
RTVSPropertyOp28
 70
     1
102
RTVSPropertyOp29
 70
     1
102
RTVSPropertyOp30
 70
     1
102
RTVSPropertyOp31
 70
     1
102
RTVSPropertyOp32
 70
     1
  0
ENDSEC
  0
EOF
