  0
SECTION
  2
HEADER
  9
$ACADVER
  1
AC1015
  9
$ACADMAINTVER
 70
    18
  9
$DWGCODEPAGE
  3
ANSI_1252
  9
$INSBASE
 10
19.65391960169963
 20
46.41932841039961
 30
0.0
  9
$EXTMIN
 10
12.66481821968409
 20
34.79006238606598
 30
-0.0015258207003583
  9
$EXTMAX
 10
30.21241402045416
 20
56.91529491091569
 30
0.0000000349246037
  9
$LIMMIN
 10
0.0
 20
0.0
  9
$LIMMAX
 10
10000.0
 20
10000.0
  9
$ORTHOMODE
 70
     1
  9
$REGENMODE
 70
     1
  9
$FILLMODE
 70
     1
  9
$QTEXTMODE
 70
     0
  9
$MIRRTEXT
 70
     0
  9
$LTSCALE
 40
0.5
  9
$ATTMODE
 70
     1
  9
$TEXTSIZE
 40
0.25
  9
$TRACEWID
 40
0.05
  9
$TEXTSTYLE
  7
Standard
  9
$CLAYER
  8
0
  9
$CELTYPE
  6
ByLayer
  9
$CECOLOR
 62
   256
  9
$CELTSCALE
 40
1.0
  9
$DISPSILH
 70
     0
  9
$DIMSCALE
 40
0.0
  9
$DIMASZ
 40
0.156
  9
$DIMEXO
 40
0.04
  9
$DIMDLI
 40
0.38
  9
$DIMRND
 40
0.0
  9
$DIMDLE
 40
0.0
  9
$DIMEXE
 40
0.03
  9
$DIMTP
 40
0.0
  9
$DIMTM
 40
0.0
  9
$DIMTXT
 40
0.3125
  9
$DIMCEN
 40
0.0
  9
$DIMTSZ
 40
0.0
  9
$DIMTOL
 70
     0
  9
$DIMLIM
 70
     0
  9
$DIMTIH
 70
     1
  9
$DIMTOH
 70
     1
  9
$DIMSE1
 70
     0
  9
$DIMSE2
 70
     0
  9
$DIMTAD
 70
     0
  9
$DIMZIN
 70
     0
  9
$DIMBLK
  1
ArchTick
  9
$DIMASO
 70
     1
  9
$DIMSHO
 70
     1
  9
$DIMPOST
  1
\X
  9
$DIMAPOST
  1
mm
  9
$DIMALT
 70
     1
  9
$DIMALTD
 70
     0
  9
$DIMALTF
 40
25.4
  9
$DIMLFAC
 40
1.0
  9
$DIMTOFL
 70
     0
  9
$DIMTVP
 40
0.0
  9
$DIMTIX
 70
     0
  9
$DIMSOXD
 70
     0
  9
$DIMSAH
 70
     0
  9
$DIMBLK1
  1

  9
$DIMBLK2
  1

  9
$DIMSTYLE
  2
Knife
  9
$DIMCLRD
 70
     0
  9
$DIMCLRE
 70
     0
  9
$DIMCLRT
 70
     0
  9
$DIMTFAC
 40
1.0
  9
$DIMGAP
 40
0.04
  9
$DIMJUST
 70
     0
  9
$DIMSD1
 70
     0
  9
$DIMSD2
 70
     0
  9
$DIMTOLJ
 70
     1
  9
$DIMTZIN
 70
     0
  9
$DIMALTZ
 70
     0
  9
$DIMALTTZ
 70
     0
  9
$DIMUPT
 70
     0
  9
$DIMDEC
 70
     5
  9
$DIMTDEC
 70
     5
  9
$DIMALTU
 70
     2
  9
$DIMALTTD
 70
     0
  9
$DIMTXSTY
  7
Standard
  9
$DIMAUNIT
 70
     0
  9
$DIMADEC
 70
     1
  9
$DIMALTRND
 40
0.0
  9
$DIMAZIN
 70
     0
  9
$DIMDSEP
 70
    46
  9
$DIMATFIT
 70
     3
  9
$DIMFRAC
 70
     2
  9
$DIMLDRBLK
  1

  9
$DIMLUNIT
 70
     4
  9
$DIMLWD
 70
    -2
  9
$DIMLWE
 70
    -2
  9
$DIMTMOVE
 70
     0
  9
$LUNITS
 70
     2
  9
$LUPREC
 70
     4
  9
$SKETCHINC
 40
0.1
  9
$FILLETRAD
 40
0.0
  9
$AUNITS
 70
     0
  9
$AUPREC
 70
     0
  9
$MENU
  1
.
  9
$ELEVATION
 40
0.0
  9
$PELEVATION
 40
0.0
  9
$THICKNESS
 40
0.0
  9
$LIMCHECK
 70
     0
  9
$CHAMFERA
 40
0.0
  9
$CHAMFERB
 40
0.0
  9
$CHAMFERC
 40
0.0
  9
$CHAMFERD
 40
0.0
  9
$SKPOLY
 70
     0
  9
$TDCREATE
 40
2454538.540644179
  9
$TDUCREATE
 40
2454538.665644178
  9
$TDUPDATE
 40
2456112.644182940
  9
$TDUUPDATE
 40
2456112.769182940
  9
$TDINDWG
 40
0.4918756597
  9
$TDUSRTIMER
 40
0.4918756597
  9
$USRTIMER
 70
     1
  9
$ANGBASE
 50
0.0
  9
$ANGDIR
 70
     0
  9
$PDMODE
 70
     3
  9
$PDSIZE
 40
0.0
  9
$PLINEWID
 40
0.0
  9
$SPLFRAME
 70
     0
  9
$SPLINETYPE
 70
     6
  9
$SPLINESEGS
 70
    12
  9
$HANDSEED
  5
36B
  9
$SURFTAB1
 70
     6
  9
$SURFTAB2
 70
     6
  9
$SURFTYPE
 70
     6
  9
$SURFU
 70
     6
  9
$SURFV
 70
     6
  9
$UCSBASE
  2

  9
$UCSNAME
  2

  9
$UCSORG
 10
0.0
 20
0.0
 30
0.0
  9
$UCSXDIR
 10
1.0
 20
0.0
 30
0.0
  9
$UCSYDIR
 10
0.0
 20
1.0
 30
0.0
  9
$UCSORTHOREF
  2

  9
$UCSORTHOVIEW
 70
     0
  9
$UCSORGTOP
 10
0.0
 20
0.0
 30
0.0
  9
$UCSORGBOTTOM
 10
0.0
 20
0.0
 30
0.0
  9
$UCSORGLEFT
 10
0.0
 20
0.0
 30
0.0
  9
$UCSORGRIGHT
 10
0.0
 20
0.0
 30
0.0
  9
$UCSORGFRONT
 10
0.0
 20
0.0
 30
0.0
  9
$UCSORGBACK
 10
0.0
 20
0.0
 30
0.0
  9
$PUCSBASE
  2

  9
$PUCSNAME
  2

  9
$PUCSORG
 10
0.0
 20
0.0
 30
0.0
  9
$PUCSXDIR
 10
1.0
 20
0.0
 30
0.0
  9
$PUCSYDIR
 10
0.0
 20
1.0
 30
0.0
  9
$PUCSORTHOREF
  2

  9
$PUCSORTHOVIEW
 70
     0
  9
$PUCSORGTOP
 10
0.0
 20
0.0
 30
0.0
  9
$PUCSORGBOTTOM
 10
0.0
 20
0.0
 30
0.0
  9
$PUCSORGLEFT
 10
0.0
 20
0.0
 30
0.0
  9
$PUCSORGRIGHT
 10
0.0
 20
0.0
 30
0.0
  9
$PUCSORGFRONT
 10
0.0
 20
0.0
 30
0.0
  9
$PUCSORGBACK
 10
0.0
 20
0.0
 30
0.0
  9
$USERI1
 70
     0
  9
$USERI2
 70
     0
  9
$USERI3
 70
     0
  9
$USERI4
 70
     0
  9
$USERI5
 70
     0
  9
$USERR1
 40
0.0
  9
$USERR2
 40
0.0
  9
$USERR3
 40
0.0
  9
$USERR4
 40
0.0
  9
$USERR5
 40
0.0
  9
$WORLDVIEW
 70
     1
  9
$SHADEDGE
 70
     3
  9
$SHADEDIF
 70
    70
  9
$TILEMODE
 70
     1
  9
$MAXACTVP
 70
    64
  9
$PINSBASE
 10
0.0
 20
0.0
 30
0.0
  9
$PLIMCHECK
 70
     0
  9
$PEXTMIN
 10
0.0000000075458644
 20
0.0000000082145277
 30
0.0
  9
$PEXTMAX
 10
8.454000007545857
 20
10.67400000821453
 30
0.0
  9
$PLIMMIN
 10
-0.0064249311656545
 20
-0.1631194818509899
  9
$PLIMMAX
 10
8.493574828538456
 20
10.83688027785312
  9
$UNITMODE
 70
     0
  9
$VISRETAIN
 70
     1
  9
$PLINEGEN
 70
     0
  9
$PSLTSCALE
 70
     1
  9
$TREEDEPTH
 70
  3020
  9
$CMLSTYLE
  2
Standard
  9
$CMLJUST
 70
     0
  9
$CMLSCALE
 40
1.0
  9
$PROXYGRAPHICS
 70
     1
  9
$MEASUREMENT
 70
     0
  9
$CELWEIGHT
370
    -1
  9
$ENDCAPS
280
     0
  9
$JOINSTYLE
280
     0
  9
$LWDISPLAY
290
     0
  9
$INSUNITS
 70
     1
  9
$HYPERLINKBASE
  1

  9
$STYLESHEET
  1

  9
$XEDIT
290
     1
  9
$CEPSNTYPE
380
     0
  9
$PSTYLEMODE
290
     1
  9
$FINGERPRINTGUID
  2
{EB91539A-5D42-4808-BEB0-56F0E8F8C319}
  9
$VERSIONGUID
  2
{3C1DA191-E4C5-48E8-9CE0-CD6E5BC379BB}
  9
$EXTNAMES
290
     1
  9
$PSVPSCALE
 40
0.0
  9
$OLESTARTUP
290
     0
  0
ENDSEC
  0
SECTION
  2
CLASSES
  0
CLASS
  1
ACDBDICTIONARYWDFLT
  2
AcDbDictionaryWithDefault
  3
ObjectDBX Classes
 90
        0
280
     0
281
     0
  0
CLASS
  1
ACDBPLACEHOLDER
  2
AcDbPlaceHolder
  3
ObjectDBX Classes
 90
        0
280
     0
281
     0
  0
CLASS
  1
LAYOUT
  2
AcDbLayout
  3
ObjectDBX Classes
 90
        0
280
     0
281
     0
  0
CLASS
  1
DICTIONARYVAR
  2
AcDbDictionaryVar
  3
ObjectDBX Classes
 90
        0
280
     0
281
     0
  0
CLASS
  1
TABLESTYLE
  2
AcDbTableStyle
  3
ObjectDBX Classes
 90
     4095
280
     0
281
     0
  0
CLASS
  1
SORTENTSTABLE
  2
AcDbSortentsTable
  3
ObjectDBX Classes
 90
        0
280
     0
281
     0
  0
CLASS
  1
DIMASSOC
  2
AcDbDimAssoc
  3
"AcDbDimAssoc|Product Desc:     AcDim ARX App For Dimension|Company:          Autodesk, Inc.|WEB Address:      www.autodesk.com"
 90
        0
280
     0
281
     0
  0
CLASS
  1
MATERIAL
  2
AcDbMaterial
  3
ObjectDBX Classes
 90
     1153
280
     0
281
     0
  0
CLASS
  1
VISUALSTYLE
  2
AcDbVisualStyle
  3
ObjectDBX Classes
 90
     4095
280
     0
281
     0
  0
CLASS
  1
SCALE
  2
AcDbScale
  3
ObjectDBX Classes
 90
     1153
280
     0
281
     0
  0
CLASS
  1
MLEADERSTYLE
  2
AcDbMLeaderStyle
  3
ACDB_MLEADERSTYLE_CLASS
 90
    36863
280
     0
281
     0
  0
CLASS
  1
CELLSTYLEMAP
  2
AcDbCellStyleMap
  3
ObjectDBX Classes
 90
     1152
280
     0
281
     0
  0
ENDSEC
  0
SECTION
  2
TABLES
  0
TABLE
  2
VPORT
  5
2E
102
{ACAD_XDICTIONARY
360
33
102
}
330
0
100
AcDbSymbolTable
 70
     1
  0
VPORT
  5
2F
330
2E
100
AcDbSymbolTableRecord
100
AcDbViewportTableRecord
  2
*Active
 70
     0
 10
0.0
 20
0.0
 11
1.0
 21
1.0
 12
21.43861605626721
 22
45.85267861636538
 13
0.0
 23
0.0
 14
0.5
 24
0.5
 15
0.5
 25
0.5
 16
0.0
 26
0.0
 36
1.0
 17
0.0
 27
0.0
 37
0.0
 40
22.76598959878409
 41
2.183284457478005
 42
50.0
 43
0.0
 44
0.0
 50
0.0
 51
0.0
 71
     0
 72
  5000
 73
     1
 74
     3
 75
     0
 76
     0
 77
     0
 78
     0
281
     0
 65
     1
110
0.0
120
0.0
130
0.0
111
1.0
121
0.0
131
0.0
112
0.0
122
1.0
132
0.0
 79
     0
146
0.0
1001
ACAD_NAV_VCDISPLAY
1070
     3
  0
ENDTAB
  0
TABLE
  2
LTYPE
  5
29
330
0
100
AcDbSymbolTable
 70
     4
  0
LTYPE
  5
2A
330
29
100
AcDbSymbolTableRecord
100
AcDbLinetypeTableRecord
  2
ByBlock
 70
     0
  3

 72
    65
 73
     0
 40
0.0
  0
LTYPE
  5
2B
330
29
100
AcDbSymbolTableRecord
100
AcDbLinetypeTableRecord
  2
ByLayer
 70
     0
  3

 72
    65
 73
     0
 40
0.0
  0
LTYPE
  5
15
330
29
100
AcDbSymbolTableRecord
100
AcDbLinetypeTableRecord
  2
Continuous
 70
     0
  3
Solid line
 72
    65
 73
     0
 40
0.0
  0
LTYPE
  5
C6
330
29
100
AcDbSymbolTableRecord
100
AcDbLinetypeTableRecord
  2
CENTER
 70
     0
  3
____ _ ____ _ ____ _ ____ _ ____ _ ____ 
 72
    65
 73
     4
 40
2.0
 49
1.25
 74
     0
 49
-0.25
 74
     0
 49
0.25
 74
     0
 49
-0.25
 74
     0
  0
LTYPE
  5
154
330
29
100
AcDbSymbolTableRecord
100
AcDbLinetypeTableRecord
  2
HIDDEN2
 70
     0
  3
Hidden (.5x) _ _ _ _ _ _ _ _ _ _ _ _ _ _ _ _ _
 72
    65
 73
     2
 40
0.1875
 49
0.125
 74
     0
 49
-0.0625
 74
     0
  0
LTYPE
  5
1EC
330
29
100
AcDbSymbolTableRecord
100
AcDbLinetypeTableRecord
  2
HIDDEN
 70
     0
  3
Hidden __ __ __ __ __ __ __ __ __ __ __ __ __ __
 72
    65
 73
     2
 40
0.375
 49
0.25
 74
     0
 49
-0.125
 74
     0
  0
ENDTAB
  0
TABLE
  2
LAYER
  5
22
102
{ACAD_XDICTIONARY
360
23
102
}
330
0
100
AcDbSymbolTable
 70
     3
  0
LAYER
  5
6
102
{ACAD_XDICTIONARY
360
7
102
}
330
22
100
AcDbSymbolTableRecord
100
AcDbLayerTableRecord
  2
0
 70
     0
 62
     7
  6
Continuous
370
    18
390
9
  0
LAYER
  5
211
330
22
100
AcDbSymbolTableRecord
100
AcDbLayerTableRecord
  2
Defpoints
 70
     0
 62
     7
  6
Continuous
290
     0
370
    18
390
9
  0
LAYER
  5
7E
102
{ACAD_XDICTIONARY
360
7F
102
}
330
22
100
AcDbSymbolTableRecord
100
AcDbLayerTableRecord
  2
Screw
 70
     0
 62
     7
  6
Continuous
370
    18
390
9
  0
ENDTAB
  0
TABLE
  2
STYLE
  5
25
330
0
100
AcDbSymbolTable
 70
     1
  0
STYLE
  5
26
330
25
100
AcDbSymbolTableRecord
100
AcDbTextStyleTableRecord
  2
Standard
 70
     0
 40
0.0
 41
0.55
 50
5.0
 71
     0
 42
0.25
  3
lc______.ttf
  4

1001
ACAD
1000
Letter Gothic
1071
       50
  0
ENDTAB
  0
TABLE
  2
VIEW
  5
2C
330
0
100
AcDbSymbolTable
 70
     0
  0
ENDTAB
  0
TABLE
  2
UCS
  5
2D
330
0
100
AcDbSymbolTable
 70
     0
  0
ENDTAB
  0
TABLE
  2
APPID
  5
34
330
0
100
AcDbSymbolTable
 70
     5
  0
APPID
  5
27
330
34
100
AcDbSymbolTableRecord
100
AcDbRegAppTableRecord
  2
ACAD
 70
     0
  0
APPID
  5
1B
330
34
100
AcDbSymbolTableRecord
100
AcDbRegAppTableRecord
  2
ACAD_PSEXT
 70
     0
  0
APPID
  5
32
330
34
100
AcDbSymbolTableRecord
100
AcDbRegAppTableRecord
  2
ACAD_NAV_VCDISPLAY
 70
     0
  0
APPID
  5
11F
330
34
100
AcDbSymbolTableRecord
100
AcDbRegAppTableRecord
  2
GradientColor1ACI
 70
     0
  0
APPID
  5
120
330
34
100
AcDbSymbolTableRecord
100
AcDbRegAppTableRecord
  2
GradientColor2ACI
 70
     0
  0
ENDTAB
  0
TABLE
  2
DIMSTYLE
  5
35
330
0
100
AcDbSymbolTable
 70
     2
100
AcDbDimStyleTable
 71
     2
340
36
340
3B
  0
DIMSTYLE
105
3B
330
35
100
AcDbSymbolTableRecord
100
AcDbDimStyleTableRecord
  2
Standard
 70
     0
  3
"
 40
0.0
 41
0.095
 42
0.04
 44
0.04
140
0.125
141
0.0
147
0.04
179
     1
271
     6
272
     6
276
     2
277
     5
340
26
  0
DIMSTYLE
105
36
102
{ACAD_REACTORS
330
205
330
215
330
224
330
233
330
241
330
250
330
25F
330
26E
330
27F
330
290
330
2A1
330
2B4
330
2C5
330
2D6
330
2E4
330
2F3
330
301
330
312
102
}
330
35
100
AcDbSymbolTableRecord
100
AcDbDimStyleTableRecord
  2
Knife
 70
     0
  3
\X
  4
mm
 40
0.0
 41
0.156
 42
0.04
 44
0.03
140
0.3125
141
0.0
147
0.04
170
     1
171
     0
179
     1
271
     5
272
     5
274
     0
276
     2
277
     4
340
26
342
37
  0
ENDTAB
  0
TABLE
  2
BLOCK_RECORD
  5
1
330
0
100
AcDbSymbolTable
 70
    22
  0
BLOCK_RECORD
  5
2
102
{ACAD_XDICTIONARY
360
3
102
}
330
1
100
AcDbSymbolTableRecord
100
AcDbBlockTableRecord
  2
*Model_Space
340
17
  0
BLOCK_RECORD
  5
1C
330
1
100
AcDbSymbolTableRecord
100
AcDbBlockTableRecord
  2
*Paper_Space
340
1F
  0
BLOCK_RECORD
  5
37
330
1
100
AcDbSymbolTableRecord
100
AcDbBlockTableRecord
  2
_ArchTick
340
0
102
{BLKREFS
331
258
331
259
331
266
331
267
331
277
331
278
331
288
331
289
331
299
331
29A
331
2AA
331
2AB
331
2BD
331
2BE
331
2CE
331
2CF
331
2DD
331
2DE
331
2EC
331
2ED
331
2FA
331
2FB
331
30A
331
30B
331
31B
331
31C
331
20C
331
20D
331
21C
331
21D
331
22B
331
22C
331
23A
331
23B
331
248
331
249
102
}
  0
BLOCK_RECORD
  5
7B
330
1
100
AcDbSymbolTableRecord
100
AcDbBlockTableRecord
  2
8 x .75 FH
340
0
310
2800000020000000200000000100080000000000000400000000000000000000000000000000000000000000000080000080000000808000800000008000800080800000C0C0C000C0DCC000F0CAA6000020400000206000002080000020A0000020C0000020E00000400000004020000040400000406000004080000040A0
310
000040C0000040E00000600000006020000060400000606000006080000060A0000060C0000060E00000800000008020000080400000806000008080000080A0000080C0000080E00000A0000000A0200000A0400000A0600000A0800000A0A00000A0C00000A0E00000C0000000C0200000C0400000C0600000C0800000C0
310
A00000C0C00000C0E00000E0000000E0200000E0400000E0600000E0800000E0A00000E0C00000E0E00040000000400020004000400040006000400080004000A0004000C0004000E00040200000402020004020400040206000402080004020A0004020C0004020E000404000004040200040404000404060004040800040
310
40A0004040C0004040E00040600000406020004060400040606000406080004060A0004060C0004060E00040800000408020004080400040806000408080004080A0004080C0004080E00040A0000040A0200040A0400040A0600040A0800040A0A00040A0C00040A0E00040C0000040C0200040C0400040C0600040C08000
310
40C0A00040C0C00040C0E00040E0000040E0200040E0400040E0600040E0800040E0A00040E0C00040E0E00080000000800020008000400080006000800080008000A0008000C0008000E00080200000802020008020400080206000802080008020A0008020C0008020E00080400000804020008040400080406000804080
310
008040A0008040C0008040E00080600000806020008060400080606000806080008060A0008060C0008060E00080800000808020008080400080806000808080008080A0008080C0008080E00080A0000080A0200080A0400080A0600080A0800080A0A00080A0C00080A0E00080C0000080C0200080C0400080C0600080C0
310
800080C0A00080C0C00080C0E00080E0000080E0200080E0400080E0600080E0800080E0A00080E0C00080E0E000C0000000C0002000C0004000C0006000C0008000C000A000C000C000C000E000C0200000C0202000C0204000C0206000C0208000C020A000C020C000C020E000C0400000C0402000C0404000C0406000C0
310
408000C040A000C040C000C040E000C0600000C0602000C0604000C0606000C0608000C060A000C060C000C060E000C0800000C0802000C0804000C0806000C0808000C080A000C080C000C080E000C0A00000C0A02000C0A04000C0A06000C0A08000C0A0A000C0A0C000C0A0E000C0C00000C0C02000C0C04000C0C06000
310
C0C08000C0C0A000F0FBFF00A4A0A000808080000000FF0000FF000000FFFF00FF000000FF00FF00FFFF0000FFFFFF0007070707070707070707070707070707070707070707070707070707070707070707070707070707070707070707070700070707070707070707070707070707070707070707070707070707070707
310
07000707070707070707070707070707070707070707070707070707070707070700070707070707070707070707070707070707070707070707070707070707070007070707070707070707070707070707070707070707070707070707070000000707070707070707070707070707070707070707070707070707070707
310
07000000070707070707070707070707070707070707070707070707070707000007000007070707070707070707070707070707070707070707070707070707000000000007070707070707070707070707070707070707070707070707070700070000000707070707070707070707070707070707070707070707070707
310
00000000000707070707070707070707070707070707070707070707070707070700070000000707070707070707070707070707070707070707070707070707000000000007070707070707070707070707070707070707070707070707070707000700000007070707070707070707070707070707070707070707070707
310
07000000000007070707070707070707070707070707070707070707070707070707000700000007070707070707070707070707070707070707070707070707070000000000070707070707070707070707070707070707070707070707070707070007000000070707070707070707070707070707070707070707070707
310
07070000000000070707070707070707070707070707070707070707070707070707070007000000070707070707070707070707070707070707070707070707070707000700000707070707070707070707070707070707070707070707070707070000000000070707070707070707070707070707070707070707070707
310
07070707000700000007070707070707070707070707070707070707070707070707070700000000070707070707070707070707070707070707070707070707070707000707000700070707070707070707070707070707070707070707070707070007070700070700070707070707070707070707070707070707070707
310
07070007070707000707070007070707070707070707070707070707070707070700000000000000000000000007070707070707070707070707070707070707070000000000000000000000000707070707070707070707070707070707070707070707070707000707070707070707070707070707070707070707070707
310
0707070707070707000707070707070707070707070707070707070707070707070707070707070707070707070707070707070707070707
102
{BLKREFS
331
7A
102
}
  0
BLOCK_RECORD
  5
C9
330
1
100
AcDbSymbolTableRecord
100
AcDbBlockTableRecord
  2
8 X .625 PH
340
0
310
2800000020000000200000000100080000000000000400000000000000000000000000000000000000000000000080000080000000808000800000008000800080800000C0C0C000C0DCC000F0CAA6000020400000206000002080000020A0000020C0000020E00000400000004020000040400000406000004080000040A0
310
000040C0000040E00000600000006020000060400000606000006080000060A0000060C0000060E00000800000008020000080400000806000008080000080A0000080C0000080E00000A0000000A0200000A0400000A0600000A0800000A0A00000A0C00000A0E00000C0000000C0200000C0400000C0600000C0800000C0
310
A00000C0C00000C0E00000E0000000E0200000E0400000E0600000E0800000E0A00000E0C00000E0E00040000000400020004000400040006000400080004000A0004000C0004000E00040200000402020004020400040206000402080004020A0004020C0004020E000404000004040200040404000404060004040800040
310
40A0004040C0004040E00040600000406020004060400040606000406080004060A0004060C0004060E00040800000408020004080400040806000408080004080A0004080C0004080E00040A0000040A0200040A0400040A0600040A0800040A0A00040A0C00040A0E00040C0000040C0200040C0400040C0600040C08000
310
40C0A00040C0C00040C0E00040E0000040E0200040E0400040E0600040E0800040E0A00040E0C00040E0E00080000000800020008000400080006000800080008000A0008000C0008000E00080200000802020008020400080206000802080008020A0008020C0008020E00080400000804020008040400080406000804080
310
008040A0008040C0008040E00080600000806020008060400080606000806080008060A0008060C0008060E00080800000808020008080400080806000808080008080A0008080C0008080E00080A0000080A0200080A0400080A0600080A0800080A0A00080A0C00080A0E00080C0000080C0200080C0400080C0600080C0
310
800080C0A00080C0C00080C0E00080E0000080E0200080E0400080E0600080E0800080E0A00080E0C00080E0E000C0000000C0002000C0004000C0006000C0008000C000A000C000C000C000E000C0200000C0202000C0204000C0206000C0208000C020A000C020C000C020E000C0400000C0402000C0404000C0406000C0
310
408000C040A000C040C000C040E000C0600000C0602000C0604000C0606000C0608000C060A000C060C000C060E000C0800000C0802000C0804000C0806000C0808000C080A000C080C000C080E000C0A00000C0A02000C0A04000C0A06000C0A08000C0A0A000C0A0C000C0A0E000C0C00000C0C02000C0C04000C0C06000
310
C0C08000C0C0A000F0FBFF00A4A0A000808080000000FF0000FF000000FFFF00FF000000FF00FF00FFFF0000FFFFFF0007070707070707070707070707070707070707070707070707070707070707070707070707070707070707070707070700070707070707070707070707070707070707070707070707070707070707
310
07000707070707070707070707070707070707070707070707070707070707070700070707070707070707070707070707070707070707070707070707070707070007070707070707070707070707070707070707070707070707070707070000000707070707070707070707070707070707070707070707070707070707
310
00000000070707070707070707070707070707070707070707070707070707070007000007070707070707070707070707070707070707070707070707070700000000000007070707070707070707070707070707070707070707070707070007070000000707070707070707070707070707070707070707070707070707
310
00000000070007070707070707070707070707070707070707070707070707070007070000000707070707070707070707070707070707070707070707070707000000000700070707070707070707070707070707070707070707070707070700070700000007070707070707070707070707070707070707070707070707
310
07000000000700070707070707070707070707070707070707070707070707070700070700000007070707070707070707070707070707070707070707070707070007070007000707070707070707070707070707070707070707070707070707000000000700070707070707070707070707070707070707070707070707
310
07070007070000000707070707070707070707070707070707070707070707070707000000000700070707070707070707070707070707070707070707070707070700070700000007070707070707070707070707070707070707070707070707070000000007000707070707070707070707070707070707070707070707
310
07070700070700000007070707070707070707070707070707070707070707070707070000000007000707070707070707070707070707070707070707070707070000000000000000000007070707070707070707070707070707070707070700070707070700070707070007070707070707070707070707070707070707
310
07000000000000000000000000070707070707070707070707070707070707070707000007070700070700000707070707070707070707070707070707070707070707070000000000000707070707070707070707070707070707070707070707070707070707000707070707070707070707070707070707070707070707
310
0707070707070707000707070707070707070707070707070707070707070707070707070707070707070707070707070707070707070707
102
{BLKREFS
331
C8
102
}
  0
BLOCK_RECORD
  5
17C
330
1
100
AcDbSymbolTableRecord
100
AcDbBlockTableRecord
  2
8 X 1.5 FH
340
0
310
2800000020000000200000000100080000000000000400000000000000000000000000000000000000000000000080000080000000808000800000008000800080800000C0C0C000C0DCC000F0CAA6000020400000206000002080000020A0000020C0000020E00000400000004020000040400000406000004080000040A0
310
000040C0000040E00000600000006020000060400000606000006080000060A0000060C0000060E00000800000008020000080400000806000008080000080A0000080C0000080E00000A0000000A0200000A0400000A0600000A0800000A0A00000A0C00000A0E00000C0000000C0200000C0400000C0600000C0800000C0
310
A00000C0C00000C0E00000E0000000E0200000E0400000E0600000E0800000E0A00000E0C00000E0E00040000000400020004000400040006000400080004000A0004000C0004000E00040200000402020004020400040206000402080004020A0004020C0004020E000404000004040200040404000404060004040800040
310
40A0004040C0004040E00040600000406020004060400040606000406080004060A0004060C0004060E00040800000408020004080400040806000408080004080A0004080C0004080E00040A0000040A0200040A0400040A0600040A0800040A0A00040A0C00040A0E00040C0000040C0200040C0400040C0600040C08000
310
40C0A00040C0C00040C0E00040E0000040E0200040E0400040E0600040E0800040E0A00040E0C00040E0E00080000000800020008000400080006000800080008000A0008000C0008000E00080200000802020008020400080206000802080008020A0008020C0008020E00080400000804020008040400080406000804080
310
008040A0008040C0008040E00080600000806020008060400080606000806080008060A0008060C0008060E00080800000808020008080400080806000808080008080A0008080C0008080E00080A0000080A0200080A0400080A0600080A0800080A0A00080A0C00080A0E00080C0000080C0200080C0400080C0600080C0
310
800080C0A00080C0C00080C0E00080E0000080E0200080E0400080E0600080E0800080E0A00080E0C00080E0E000C0000000C0002000C0004000C0006000C0008000C000A000C000C000C000E000C0200000C0202000C0204000C0206000C0208000C020A000C020C000C020E000C0400000C0402000C0404000C0406000C0
310
408000C040A000C040C000C040E000C0600000C0602000C0604000C0606000C0608000C060A000C060C000C060E000C0800000C0802000C0804000C0806000C0808000C080A000C080C000C080E000C0A00000C0A02000C0A04000C0A06000C0A08000C0A0A000C0A0C000C0A0E000C0C00000C0C02000C0C04000C0C06000
310
C0C08000C0C0A000F0FBFF00A4A0A000808080000000FF0000FF000000FFFF00FF000000FF00FF00FFFF0000FFFFFF0007070707070707070707070707070707070707070707070707070707070707070707070707070707070707070707070700070707070707070707070707070707070707070707070707070707070707
310
07000707070707070707070707070707070707070707070707070707070707070000070707070707070707070707070707070707070707070707070707070707000007070707070707070707070707070707070707070707070707070707070000000007070707070707070707070707070707070707070707070707070707
310
00000000070707070707070707070707070707070707070707070707070707070000000007070707070707070707070707070707070707070707070707070707000000000707070707070707070707070707070707070707070707070707070700000000070707070707070707070707070707070707070707070707070707
310
07000000000707070707070707070707070707070707070707070707070707070700070000070707070707070707070707070707070707070707070707070707070000000007070707070707070707070707070707070707070707070707070707000000000707070707070707070707070707070707070707070707070707
310
07070000000007070707070707070707070707070707070707070707070707070707000000000707070707070707070707070707070707070707070707070707070700000000070707070707070707070707070707070707070707070707070707070000000007070707070707070707070707070707070707070707070707
310
07070700070000070707070707070707070707070707070707070707070707070707070007000007070707070707070707070707070707070707070707070707070707000700000707070707070707070707070707070707070707070707070707070700070000070707070707070707070707070707070707070707070707
310
07070707000700000707070707070707070707070707070707070707070707070707070700070000070707070707070707070707070707070707070707070707070707070007000007070707070707070707070707070707070707070707070707070707000700000707070707070707070707070707070707070707070707
310
07070707070000000007070707070707070707070707070707070707070707070707070707000700070007070707070707070707070707070707070707070707070707070000000000000707070707070707070707070707070707070707070707070707000000000000070707070707070707070707070707070707070707
310
0707070707070707000707070707070707070707070707070707070707070707070707070707070707070707070707070707070707070707
102
{BLKREFS
331
17B
331
204
102
}
  0
BLOCK_RECORD
  5
206
330
1
100
AcDbSymbolTableRecord
100
AcDbBlockTableRecord
  2
*D4
340
0
  0
BLOCK_RECORD
  5
216
330
1
100
AcDbSymbolTableRecord
100
AcDbBlockTableRecord
  2
*D5
340
0
  0
BLOCK_RECORD
  5
225
330
1
100
AcDbSymbolTableRecord
100
AcDbBlockTableRecord
  2
*D6
340
0
  0
BLOCK_RECORD
  5
234
330
1
100
AcDbSymbolTableRecord
100
AcDbBlockTableRecord
  2
*D7
340
0
  0
BLOCK_RECORD
  5
242
330
1
100
AcDbSymbolTableRecord
100
AcDbBlockTableRecord
  2
*D8
340
0
  0
BLOCK_RECORD
  5
251
330
1
100
AcDbSymbolTableRecord
100
AcDbBlockTableRecord
  2
*D9
340
0
  0
BLOCK_RECORD
  5
260
330
1
100
AcDbSymbolTableRecord
100
AcDbBlockTableRecord
  2
*D10
340
0
  0
BLOCK_RECORD
  5
2D7
330
1
100
AcDbSymbolTableRecord
100
AcDbBlockTableRecord
  2
*D11
340
0
  0
BLOCK_RECORD
  5
2E5
330
1
100
AcDbSymbolTableRecord
100
AcDbBlockTableRecord
  2
*D12
340
0
  0
BLOCK_RECORD
  5
2F4
330
1
100
AcDbSymbolTableRecord
100
AcDbBlockTableRecord
  2
*D13
340
0
  0
BLOCK_RECORD
  5
271
330
1
100
AcDbSymbolTableRecord
100
AcDbBlockTableRecord
  2
*D14
340
0
  0
BLOCK_RECORD
  5
282
330
1
100
AcDbSymbolTableRecord
100
AcDbBlockTableRecord
  2
*D15
340
0
  0
BLOCK_RECORD
  5
293
330
1
100
AcDbSymbolTableRecord
100
AcDbBlockTableRecord
  2
*D16
340
0
  0
BLOCK_RECORD
  5
2A4
330
1
100
AcDbSymbolTableRecord
100
AcDbBlockTableRecord
  2
*D17
340
0
  0
BLOCK_RECORD
  5
2B7
330
1
100
AcDbSymbolTableRecord
100
AcDbBlockTableRecord
  2
*D18
340
0
  0
BLOCK_RECORD
  5
2C8
330
1
100
AcDbSymbolTableRecord
100
AcDbBlockTableRecord
  2
*D19
340
0
  0
BLOCK_RECORD
  5
304
330
1
100
AcDbSymbolTableRecord
100
AcDbBlockTableRecord
  2
*D20
340
0
  0
BLOCK_RECORD
  5
315
330
1
100
AcDbSymbolTableRecord
100
AcDbBlockTableRecord
  2
*D21
340
0
  0
ENDTAB
  0
ENDSEC
  0
SECTION
  2
BLOCKS
  0
BLOCK
  5
5
330
2
100
AcDbEntity
  8
0
100
AcDbBlockBegin
  2
*Model_Space
 70
     0
 10
0.0
 20
0.0
 30
0.0
  3
*Model_Space
  1

  0
ENDBLK
  5
16
330
2
100
AcDbEntity
  8
0
100
AcDbBlockEnd
  0
BLOCK
  5
1D
330
1C
100
AcDbEntity
 67
     1
  8
0
100
AcDbBlockBegin
  2
*Paper_Space
 70
     0
 10
0.0
 20
0.0
 30
0.0
  3
*Paper_Space
  1

  0
ENDBLK
  5
1E
330
1C
100
AcDbEntity
 67
     1
  8
0
100
AcDbBlockEnd
  0
BLOCK
  5
38
330
37
100
AcDbEntity
  8
0
100
AcDbBlockBegin
  2
_ArchTick
 70
     0
 10
0.0
 20
0.0
 30
0.0
  3
_ArchTick
  1

  0
LWPOLYLINE
  5
39
330
37
100
AcDbEntity
  8
0
  6
ByBlock
 62
     0
100
AcDbPolyline
 90
        2
 70
     0
 43
0.15
 10
-0.5
 20
-0.5
 10
0.5
 20
0.5
  0
ENDBLK
  5
3A
330
37
100
AcDbEntity
  8
0
100
AcDbBlockEnd
  0
BLOCK
  5
7C
330
7B
100
AcDbEntity
  8
0
 62
     7
370
     9
100
AcDbBlockBegin
  2
8 x .75 FH
 70
     0
 10
0.0
 20
0.0
 30
0.0
  3
8 x .75 FH
  1

  0
LINE
  5
7D
330
7B
100
AcDbEntity
  8
Screw
 62
     7
370
     9
100
AcDbLine
 10
0.0550146141445112
 20
-0.6503624430697528
 30
0.0
 11
-0.040994238129656
 21
-0.6842106249981726
 31
0.0
  0
LINE
  5
80
330
7B
100
AcDbEntity
  8
Screw
 62
     7
370
     9
100
AcDbLine
 10
0.082499999998845
 20
-0.5862344890166469
 30
0.0
 11
-0.0718750000007731
 21
-0.6184212499980504
 31
0.0
  0
LINE
  5
81
330
7B
100
AcDbEntity
  8
Screw
 62
     7
370
     9
100
AcDbLine
 10
0.0439236020391718
 20
-0.6439590442452073
 30
0.0
 11
0.0490410471671794
 21
-0.6316044388123601
 31
0.0
  0
LINE
  5
82
330
7B
100
AcDbEntity
  8
Screw
 62
     7
370
     9
100
AcDbLine
 10
0.029903226022725
 20
-0.6778072261735133
 30
0.0
 11
0.0229311243443817
 21
-0.6946393686034753
 31
0.0
  0
LINE
  5
83
330
7B
100
AcDbEntity
  8
Screw
 62
     7
370
     9
100
AcDbLine
 10
0.0578546239828484
 20
-0.6103265821309379
 30
0.0
 11
0.0490410471671794
 21
-0.6316044388123601
 31
0.0
  0
LINE
  5
84
330
7B
100
AcDbEntity
  8
Screw
 62
     7
370
     9
100
AcDbLine
 10
-0.0000000000006821
 20
-0.749999999998181
 30
0.0
 11
-0.0229311243459733
 21
-0.6946393686034753
 31
0.0
  0
LINE
  5
85
330
7B
100
AcDbEntity
  8
Screw
 62
     7
370
     9
100
AcDbLine
 10
-0.0718750000007731
 20
-0.6184212499980504
 30
0.0
 11
-0.0600000000014234
 21
-0.6115652155518774
 31
0.0
  0
LINE
  5
86
330
7B
100
AcDbEntity
  8
Screw
 62
     7
370
     9
100
AcDbLine
 10
-0.0718750000007731
 20
-0.6184212499981641
 30
0.0
 11
-0.0490410471686573
 21
-0.6316044388123601
 31
0.0
  0
LINE
  5
87
330
7B
100
AcDbEntity
  8
Screw
 62
     7
370
     9
100
AcDbLine
 10
-0.040994238129656
 20
-0.6842106249981726
 30
0.0
 11
-0.0299032260242029
 21
-0.6778072261735133
 31
0.0
  0
LINE
  5
88
330
7B
100
AcDbEntity
  8
Screw
 62
     7
370
     9
100
AcDbLine
 10
-0.040994238129656
 20
-0.6842106249981726
 30
0.0
 11
-0.0229311243459733
 21
-0.6946393686034753
 31
0.0
  0
LINE
  5
89
330
7B
100
AcDbEntity
  8
Screw
 62
     7
370
     9
100
AcDbLine
 10
-0.0299032260242029
 20
-0.6778072261735133
 30
0.0
 11
-0.0490410471686573
 21
-0.6316044388123601
 31
0.0
  0
LINE
  5
8A
330
7B
100
AcDbEntity
  8
Screw
 62
     7
370
     9
100
AcDbLine
 10
0.029903226022725
 20
-0.6778072261735133
 30
0.0
 11
0.0369515003608285
 21
-0.6607911866751693
 31
0.0
  0
LINE
  5
8B
330
7B
100
AcDbEntity
  8
Screw
 62
     7
370
     9
100
AcDbLine
 10
0.0578546239828484
 20
-0.6103265821309379
 30
0.0
 11
0.0632241464040817
 21
-0.5973634082783974
 31
0.0
  0
LINE
  5
8C
330
7B
100
AcDbEntity
  8
Screw
 62
     7
370
     9
100
AcDbLine
 10
0.0550146141445112
 20
-0.6503624430697528
 30
0.0
 11
0.0369515003608285
 21
-0.6607911866751693
 31
0.0
  0
LINE
  5
8D
330
7B
100
AcDbEntity
  8
Screw
 62
     7
370
     9
100
AcDbLine
 10
0.0550146141445112
 20
-0.6503624430697528
 30
0.0
 11
0.0439236020391718
 21
-0.6439590442452073
 31
0.0
  0
LINE
  5
8E
330
7B
100
AcDbEntity
  8
Screw
 62
     7
370
     9
100
AcDbLine
 10
0.0824999999986176
 20
-0.5862344890166469
 30
0.0
 11
0.063224146403968
 21
-0.5973634082782838
 31
0.0
  0
LINE
  5
8F
330
7B
100
AcDbEntity
  8
Screw
 62
     7
370
     9
100
AcDbLine
 10
0.0824999999986176
 20
-0.5862344890166469
 30
0.0
 11
0.0684796239821708
 21
-0.5781398211494207
 31
0.0
  0
LINE
  5
90
330
7B
100
AcDbEntity
  8
Screw
 62
     7
370
     9
100
AcDbLine
 10
-0.0000000000006821
 20
-0.749999999998181
 30
0.0
 11
0.0229311243443817
 21
-0.6946393686034753
 31
0.0
  0
LINE
  5
91
330
7B
100
AcDbEntity
  8
Screw
 62
     7
370
     9
100
AcDbLine
 10
0.0599999999988086
 20
-0.4018567450733599
 30
0.0
 11
0.0599999999988086
 21
-0.4416653579600052
 31
0.0
  0
LINE
  5
92
330
7B
100
AcDbEntity
  8
Screw
 62
     7
370
     9
100
AcDbLine
 10
0.0824999999987313
 20
-0.3888663640167351
 30
0.0
 11
0.0599999999988086
 21
-0.4018567450733599
 31
0.0
  0
LINE
  5
93
330
7B
100
AcDbEntity
  8
Screw
 62
     7
370
     9
100
AcDbLine
 10
0.0599999999988086
 20
-0.4676461200734821
 30
0.0
 11
0.0599999999988086
 21
-0.5074547329599
 31
0.0
  0
LINE
  5
94
330
7B
100
AcDbEntity
  8
Screw
 62
     7
370
     9
100
AcDbLine
 10
0.0824999999987313
 20
-0.5204451140167521
 30
0.0
 11
0.0599999999988086
 21
-0.5334354950734906
 31
0.0
  0
LINE
  5
95
330
7B
100
AcDbEntity
  8
Screw
 62
     7
370
     9
100
AcDbLine
 10
0.0824999999987313
 20
-0.5204451140167521
 30
0.0
 11
0.0599999999986949
 21
-0.5074547329599
 31
0.0
  0
LINE
  5
96
330
7B
100
AcDbEntity
  8
Screw
 62
     7
370
     9
100
AcDbLine
 10
0.0824999999987313
 20
-0.45465573901663
 30
0.0
 11
0.0599999999988086
 21
-0.4676461200734821
 31
0.0
  0
LINE
  5
97
330
7B
100
AcDbEntity
  8
Screw
 62
     7
370
     9
100
AcDbLine
 10
0.0824999999987313
 20
-0.45465573901663
 30
0.0
 11
0.0599999999988086
 21
-0.4416653579600052
 31
0.0
  0
LINE
  5
98
330
7B
100
AcDbEntity
  8
Screw
 62
     7
370
     9
100
AcDbLine
 10
0.0824999999987313
 20
-0.3888663640167351
 30
0.0
 11
-0.0825000000013461
 21
-0.4176219848775418
 31
0.0
  0
LINE
  5
99
330
7B
100
AcDbEntity
  8
Screw
 62
     7
370
     9
100
AcDbLine
 10
0.0824999999987313
 20
-0.5204451140167521
 30
0.0
 11
-0.0825000000013461
 21
-0.5492007348775588
 31
0.0
  0
LINE
  5
9A
330
7B
100
AcDbEntity
  8
Screw
 62
     7
370
     9
100
AcDbLine
 10
0.0824999999987313
 20
-0.45465573901663
 30
0.0
 11
-0.0825000000013461
 21
-0.4834113598775503
 31
0.0
  0
LINE
  5
9B
330
7B
100
AcDbEntity
  8
Screw
 62
     7
370
     9
100
AcDbLine
 10
0.0824999999987313
 20
-0.3888663640167351
 30
0.0
 11
0.0599999999988086
 21
-0.3758759829599967
 31
0.0
  0
LINE
  5
9C
330
7B
100
AcDbEntity
  8
Screw
 62
     7
370
     9
100
AcDbLine
 10
0.0824999999987313
 20
-0.5862344890167606
 30
0.0
 11
0.0599999999986949
 21
-0.5732441079599085
 31
0.0
  0
LINE
  5
9D
330
7B
100
AcDbEntity
  8
Screw
 62
     7
370
     9
100
AcDbLine
 10
0.0599999999988086
 20
-0.5334354950734906
 30
0.0
 11
0.0599999999988086
 21
-0.5732441079599085
 31
0.0
  0
LINE
  5
9E
330
7B
100
AcDbEntity
  8
Screw
 62
     7
370
     9
100
AcDbLine
 10
-0.0825000000012324
 20
-0.4834113598774366
 30
0.0
 11
-0.0600000000013097
 21
-0.4704209788208118
 31
0.0
  0
LINE
  5
9F
330
7B
100
AcDbEntity
  8
Screw
 62
     7
370
     9
100
AcDbLine
 10
-0.0825000000012324
 20
-0.483411359877664
 30
0.0
 11
-0.0600000000013097
 21
-0.4964017409342887
 31
0.0
  0
LINE
  5
A0
330
7B
100
AcDbEntity
  8
Screw
 62
     7
370
     9
100
AcDbLine
 10
-0.0825000000012324
 20
-0.5492007348775588
 30
0.0
 11
-0.0600000000013097
 21
-0.5362103538207066
 31
0.0
  0
LINE
  5
A1
330
7B
100
AcDbEntity
  8
Screw
 62
     7
370
     9
100
AcDbLine
 10
-0.0825000000012324
 20
-0.5492007348775588
 30
0.0
 11
-0.0600000000013097
 21
-0.5621911159342972
 31
0.0
  0
LINE
  5
A2
330
7B
100
AcDbEntity
  8
Screw
 62
     7
370
     9
100
AcDbLine
 10
-0.0825000000012324
 20
-0.4176219848775418
 30
0.0
 11
-0.0600000000013097
 21
-0.4306123659343939
 31
0.0
  0
LINE
  5
A3
330
7B
100
AcDbEntity
  8
Screw
 62
     7
370
     9
100
AcDbLine
 10
-0.0825000000012324
 20
-0.4176219848775418
 30
0.0
 11
-0.0600000000013097
 21
-0.4046316038208034
 31
0.0
  0
LINE
  5
A4
330
7B
100
AcDbEntity
  8
Screw
 62
     7
370
     9
100
AcDbLine
 10
-0.0600000000013097
 20
-0.5621911159342972
 30
0.0
 11
-0.0600000000013097
 21
-0.6115652155519911
 31
0.0
  0
LINE
  5
A5
330
7B
100
AcDbEntity
  8
Screw
 62
     7
370
     9
100
AcDbLine
 10
-0.0600000000013097
 20
-0.496401740934175
 30
0.0
 11
-0.0600000000013097
 21
-0.5362103538205929
 31
0.0
  0
LINE
  5
A6
330
7B
100
AcDbEntity
  8
Screw
 62
     7
370
     9
100
AcDbLine
 10
-0.0600000000013097
 20
-0.4306123659340529
 30
0.0
 11
-0.0600000000013097
 21
-0.4704209788206981
 31
0.0
  0
LINE
  5
A7
330
7B
100
AcDbEntity
  8
Screw
 62
     7
370
     9
100
AcDbLine
 10
0.0824999999987313
 20
-0.2572876140167182
 30
0.0
 11
0.0599999999988086
 21
-0.2442972329599797
 31
0.0
  0
LINE
  5
A8
330
7B
100
AcDbEntity
  8
Screw
 62
     7
370
     9
100
AcDbLine
 10
0.0824999999987313
 20
-0.323076989016613
 30
0.0
 11
-0.0825000000013461
 21
-0.3518326098775333
 31
0.0
  0
LINE
  5
A9
330
7B
100
AcDbEntity
  8
Screw
 62
     7
370
     9
100
AcDbLine
 10
0.0824999999987313
 20
-0.2572876140167182
 30
0.0
 11
-0.0825000000013461
 21
-0.2860432348775248
 31
0.0
  0
LINE
  5
AA
330
7B
100
AcDbEntity
  8
Screw
 62
     7
370
     9
100
AcDbLine
 10
0.0824999999987313
 20
-0.323076989016613
 30
0.0
 11
0.0599999999988086
 21
-0.3100866079599882
 31
0.0
  0
LINE
  5
AB
330
7B
100
AcDbEntity
  8
Screw
 62
     7
370
     9
100
AcDbLine
 10
0.0824999999987313
 20
-0.323076989016613
 30
0.0
 11
0.0599999999988086
 21
-0.3360673700734651
 31
0.0
  0
LINE
  5
AC
330
7B
100
AcDbEntity
  8
Screw
 62
     7
370
     9
100
AcDbLine
 10
0.0599999999988086
 20
-0.3360673700734651
 30
0.0
 11
0.0599999999988086
 21
-0.375875982959883
 31
0.0
  0
LINE
  5
AD
330
7B
100
AcDbEntity
  8
Screw
 62
     7
370
     9
100
AcDbLine
 10
0.0824999999987313
 20
-0.2572876140167182
 30
0.0
 11
0.0599999999988086
 21
-0.2702779950733429
 31
0.0
  0
LINE
  5
AE
330
7B
100
AcDbEntity
  8
Screw
 62
     7
370
     9
100
AcDbLine
 10
0.0599999999988086
 20
-0.2702779950733429
 30
0.0
 11
0.0599999999988086
 21
-0.3100866079599882
 31
0.0
  0
LINE
  5
AF
330
7B
100
AcDbEntity
  8
Screw
 62
     7
370
     9
100
AcDbLine
 10
-0.0600000000013097
 20
-0.2990336159340359
 30
0.0
 11
-0.0600000000013097
 21
-0.3388422288206812
 31
0.0
  0
LINE
  5
B0
330
7B
100
AcDbEntity
  8
Screw
 62
     7
370
     9
100
AcDbLine
 10
-0.0600000000013097
 20
-0.364822990934158
 30
0.0
 11
-0.0600000000013097
 21
-0.404631603820576
 31
0.0
  0
LINE
  5
B1
330
7B
100
AcDbEntity
  8
Screw
 62
     7
370
     9
100
AcDbLine
 10
-0.0825000000012324
 20
-0.2860432348775248
 30
0.0
 11
-0.0600000000013097
 21
-0.2730528538207864
 31
0.0
  0
LINE
  5
B2
330
7B
100
AcDbEntity
  8
Screw
 62
     7
370
     9
100
AcDbLine
 10
-0.0825000000012324
 20
-0.2860432348775248
 30
0.0
 11
-0.0600000000013097
 21
-0.2990336159343769
 31
0.0
  0
LINE
  5
B3
330
7B
100
AcDbEntity
  8
Screw
 62
     7
370
     9
100
AcDbLine
 10
-0.0825000000012324
 20
-0.351832609877647
 30
0.0
 11
-0.0600000000013097
 21
-0.3648229909342717
 31
0.0
  0
LINE
  5
B4
330
7B
100
AcDbEntity
  8
Screw
 62
     7
370
     9
100
AcDbLine
 10
-0.0825000000012324
 20
-0.3518326098774196
 30
0.0
 11
-0.0600000000013097
 21
-0.3388422288207948
 31
0.0
  0
LINE
  5
B5
330
7B
100
AcDbEntity
  8
Screw
 62
     7
370
     9
100
AcDbLine
 10
0.0599999999988086
 20
-0.2044886200734481
 30
0.0
 11
0.0599999999988086
 21
-0.244297232959866
 31
0.0
  0
LINE
  5
B6
330
7B
100
AcDbEntity
  8
Screw
 62
     7
370
     9
100
AcDbLine
 10
-0.0600000000013097
 20
-0.2332442409341411
 30
0.0
 11
-0.0600000000013097
 21
-0.273052853820559
 31
0.0
  0
LINE
  5
B7
330
7B
100
AcDbEntity
  8
Screw
 62
     7
370
     9
100
AcDbLine
 10
-0.0600000000013097
 20
-0.1430000000002565
 30
0.0
 11
-0.0600000000013097
 21
-0.2072634788206642
 31
0.0
  0
LINE
  5
B8
330
7B
100
AcDbEntity
  8
Screw
 62
     7
370
     9
100
AcDbLine
 10
-0.0825000000012324
 20
-0.22025385987763
 30
0.0
 11
-0.0600000000013097
 21
-0.2332442409342548
 31
0.0
  0
LINE
  5
B9
330
7B
100
AcDbEntity
  8
Screw
 62
     7
370
     9
100
AcDbLine
 10
-0.0825000000012324
 20
-0.2202538598774026
 30
0.0
 11
-0.0600000000013097
 21
-0.2072634788207779
 31
0.0
  0
LINE
  5
BA
330
7B
100
AcDbEntity
  8
Screw
 62
     7
370
     9
100
AcDbLine
 10
0.0824999999987313
 20
-0.191498239016596
 30
0.0
 11
-0.0825000000013461
 21
-0.2202538598775163
 31
0.0
  0
LINE
  5
BB
330
7B
100
AcDbEntity
  8
Screw
 62
     7
370
     9
100
AcDbLine
 10
0.0824999999987313
 20
-0.191498239016596
 30
0.0
 11
0.0599999999988086
 21
-0.1785078579599713
 31
0.0
  0
LINE
  5
BC
330
7B
100
AcDbEntity
  8
Screw
 62
     7
370
     9
100
AcDbLine
 10
0.0824999999987313
 20
-0.191498239016596
 30
0.0
 11
0.0599999999988086
 21
-0.2044886200734481
 31
0.0
  0
LINE
  5
BD
330
7B
100
AcDbEntity
  8
Screw
 62
     7
370
     9
100
AcDbLine
 10
0.0599999999989223
 20
-0.1430000000002565
 30
0.0
 11
0.0599999999988086
 21
-0.1785078579599713
 31
0.0
  0
LINE
  5
BE
330
7B
100
AcDbEntity
  8
Screw
 62
     7
370
     9
100
AcDbLine
 10
-0.1550000000002001
 20
0.0000000000001137
 30
0.0
 11
-0.1550000000020191
 21
-0.015999999999849
 31
0.0
  0
LINE
  5
BF
330
7B
100
AcDbEntity
  8
Screw
 62
     7
370
     9
100
AcDbLine
 10
0.1549999999986085
 20
0.0
 30
0.0
 11
0.1549999999986085
 21
-0.0159999999999627
 31
0.0
  0
LINE
  5
C0
330
7B
100
AcDbEntity
  8
Screw
 62
     7
370
     9
100
AcDbLine
 10
0.1549999999987222
 20
-0.0160000000006448
 30
0.0
 11
-0.155000000001337
 21
-0.0159999999999627
 31
0.0
  0
LINE
  5
C1
330
7B
100
AcDbEntity
  8
Screw
 62
     7
370
     9
100
AcDbLine
 10
0.1549999999987222
 20
0.0
 30
0.0
 11
-0.155000000001337
 21
0.0
 31
0.0
  0
LINE
  5
C2
330
7B
100
AcDbEntity
  8
Screw
 62
     7
370
     9
100
AcDbLine
 10
0.0599999999989223
 20
-0.1430000000000291
 30
0.0
 11
-0.0600000000013097
 21
-0.1430000000000291
 31
0.0
  0
LINE
  5
C3
330
7B
100
AcDbEntity
  8
Screw
 62
     7
370
     9
100
AcDbLine
 10
0.1549999999986085
 20
-0.0160000000006448
 30
0.0
 11
0.0599999999988086
 21
-0.1430000000001428
 31
0.0
  0
LINE
  5
C4
330
7B
100
AcDbEntity
  8
Screw
 62
     7
370
     9
100
AcDbLine
 10
-0.1550000000020191
 20
-0.0159999999999627
 30
0.0
 11
-0.0600000000013097
 21
-0.1430000000001428
 31
0.0
  0
LINE
  5
C5
330
7B
100
AcDbEntity
  8
Screw
  6
CENTER
 62
     7
370
     9
100
AcDbLine
 10
0.0
 20
0.0516137131638743
 30
0.0
 11
0.0
 21
-0.8012116686045374
 31
0.0
  0
ENDBLK
  5
C7
330
7B
100
AcDbEntity
  8
0
 62
     7
370
     9
100
AcDbBlockEnd
  0
BLOCK
  5
CA
330
C9
100
AcDbEntity
  8
0
 62
     5
100
AcDbBlockBegin
  2
8 X .625 PH
 70
     0
 10
0.0
 20
0.0
 30
0.0
  3
8 X .625 PH
  1

  0
LINE
  5
CB
330
C9
100
AcDbEntity
  8
Screw
  6
CENTER
 62
     7
370
     9
100
AcDbLine
 10
0.0
 20
0.1516137131640107
 30
0.0
 11
-0.0000000000001137
 21
-0.6762116686043101
 31
0.0
  0
LINE
  5
CC
330
C9
100
AcDbEntity
  8
Screw
 62
     7
370
     9
100
AcDbLine
 10
0.1549999999987222
 20
0.0400000000003047
 30
0.0
 11
0.1549999999986085
 21
0.0100000000001046
 31
0.0
  0
LINE
  5
CD
330
C9
100
AcDbEntity
  8
Screw
 62
     7
370
     9
100
AcDbLine
 10
-0.1550000000386262
 20
0.0400000000013279
 30
0.0
 11
-0.1550000000420368
 21
0.0100000000010141
 31
0.0
  0
LINE
  5
CE
330
C9
100
AcDbEntity
  8
Screw
 62
     7
370
     9
100
AcDbLine
 10
0.0599999999986949
 20
-0.0136992450730986
 30
0.0
 11
0.0599999999986949
 21
-0.0535078579597439
 31
0.0
  0
LINE
  5
CF
330
C9
100
AcDbEntity
  8
Screw
 62
     7
370
     9
100
AcDbLine
 10
0.0824999999986176
 20
-0.0007088640164739
 30
0.0
 11
0.0599999999986949
 21
-0.0136992450730986
 31
0.0
  0
LINE
  5
D0
330
C9
100
AcDbEntity
  8
Screw
 62
     7
370
     9
100
AcDbLine
 10
0.0824999999986176
 20
-0.0664982390163687
 30
0.0
 11
0.0599999999986949
 21
-0.0794886200732208
 31
0.0
  0
LINE
  5
D1
330
C9
100
AcDbEntity
  8
Screw
 62
     7
370
     9
100
AcDbLine
 10
0.0824999999986176
 20
-0.0664982390163687
 30
0.0
 11
0.0599999999986949
 21
-0.0535078579597439
 31
0.0
  0
LINE
  5
D2
330
C9
100
AcDbEntity
  8
Screw
 62
     7
370
     9
100
AcDbLine
 10
0.0824999999986176
 20
-0.0007088640164739
 30
0.0
 11
-0.0825000000014598
 21
-0.0294644848772805
 31
0.0
  0
LINE
  5
D3
330
C9
100
AcDbEntity
  8
Screw
 62
     7
370
     9
100
AcDbLine
 10
0.0824999999986176
 20
-0.0664982390163687
 30
0.0
 11
-0.0825000000014598
 21
-0.095253859877289
 31
0.0
  0
LINE
  5
D4
330
C9
100
AcDbEntity
  8
Screw
 62
     7
370
     9
100
AcDbLine
 10
0.0824999999986176
 20
-0.0007088640164739
 30
0.0
 11
0.0812722115064162
 21
0.0000000000001137
 31
0.0
  0
LINE
  5
D5
330
C9
100
AcDbEntity
  8
Screw
 62
     7
370
     9
100
AcDbLine
 10
-0.0825000000013461
 20
-0.0952538598771753
 30
0.0
 11
-0.0600000000014234
 21
-0.0822634788205505
 31
0.0
  0
LINE
  5
D6
330
C9
100
AcDbEntity
  8
Screw
 62
     7
370
     9
100
AcDbLine
 10
-0.0825000000013461
 20
-0.0952538598774027
 30
0.0
 11
-0.0600000000014234
 21
-0.1082442409340274
 31
0.0
  0
LINE
  5
D7
330
C9
100
AcDbEntity
  8
Screw
 62
     7
370
     9
100
AcDbLine
 10
-0.0825000000013461
 20
-0.0294644848772805
 30
0.0
 11
-0.0600000000014234
 21
-0.0424548659341326
 31
0.0
  0
LINE
  5
D8
330
C9
100
AcDbEntity
  8
Screw
 62
     7
370
     9
100
AcDbLine
 10
-0.0825000000013461
 20
-0.0294644848772805
 30
0.0
 11
-0.0600000000014234
 21
-0.0164741038205421
 31
0.0
  0
LINE
  5
D9
330
C9
100
AcDbEntity
  8
Screw
 62
     7
370
     9
100
AcDbLine
 10
-0.0600000000014234
 20
-0.0424548659337916
 30
0.0
 11
-0.0600000000014234
 21
-0.0822634788204369
 31
0.0
  0
LINE
  5
DA
330
C9
100
AcDbEntity
  8
Screw
 62
     7
370
     9
100
AcDbLine
 10
-0.0600000000015371
 20
0.0
 30
0.0
 11
-0.0600000000014234
 21
-0.0164741038203147
 31
0.0
  0
LINE
  5
DB
330
C9
100
AcDbEntity
  8
Screw
 62
     7
370
     9
100
AcDbLine
 10
-0.0600000000014234
 20
-0.1082442409339137
 30
0.0
 11
-0.0600000000014234
 21
-0.1480528538203316
 31
0.0
  0
LINE
  5
DC
330
C9
100
AcDbEntity
  8
Screw
 62
     7
370
     9
100
AcDbLine
 10
0.0599999999986949
 20
-0.0794886200732208
 30
0.0
 11
0.0599999999986949
 21
-0.1192972329596387
 31
0.0
  0
LINE
  5
DD
330
C9
100
AcDbEntity
  8
Screw
 62
     7
370
     9
100
AcDbLine
 10
-0.0825000000013461
 20
-0.2268326098771922
 30
0.0
 11
-0.0600000000014234
 21
-0.2138422288205675
 31
0.0
  0
LINE
  5
DE
330
C9
100
AcDbEntity
  8
Screw
 62
     7
370
     9
100
AcDbLine
 10
-0.0825000000013461
 20
-0.2268326098774196
 30
0.0
 11
-0.0600000000014234
 21
-0.2398229909340443
 31
0.0
  0
LINE
  5
DF
330
C9
100
AcDbEntity
  8
Screw
 62
     7
370
     9
100
AcDbLine
 10
-0.0825000000013461
 20
-0.1610432348772974
 30
0.0
 11
-0.0600000000014234
 21
-0.1740336159341496
 31
0.0
  0
LINE
  5
E0
330
C9
100
AcDbEntity
  8
Screw
 62
     7
370
     9
100
AcDbLine
 10
-0.0825000000013461
 20
-0.1610432348772974
 30
0.0
 11
-0.0600000000014234
 21
-0.148052853820559
 31
0.0
  0
LINE
  5
E1
330
C9
100
AcDbEntity
  8
Screw
 62
     7
370
     9
100
AcDbLine
 10
-0.0600000000014234
 20
-0.2398229909339307
 30
0.0
 11
-0.0600000000014234
 21
-0.2796316038203486
 31
0.0
  0
LINE
  5
E2
330
C9
100
AcDbEntity
  8
Screw
 62
     7
370
     9
100
AcDbLine
 10
-0.0600000000014234
 20
-0.1740336159338085
 30
0.0
 11
-0.0600000000014234
 21
-0.2138422288204538
 31
0.0
  0
LINE
  5
E3
330
C9
100
AcDbEntity
  8
Screw
 62
     7
370
     9
100
AcDbLine
 10
0.0599999999986949
 20
-0.1452779950731156
 30
0.0
 11
0.0599999999986949
 21
-0.1850866079597608
 31
0.0
  0
LINE
  5
E4
330
C9
100
AcDbEntity
  8
Screw
 62
     7
370
     9
100
AcDbLine
 10
0.0824999999986176
 20
-0.1322876140164908
 30
0.0
 11
0.0599999999986949
 21
-0.1452779950731156
 31
0.0
  0
LINE
  5
E5
330
C9
100
AcDbEntity
  8
Screw
 62
     7
370
     9
100
AcDbLine
 10
0.0599999999986949
 20
-0.2110673700732377
 30
0.0
 11
0.0599999999986949
 21
-0.2508759829596556
 31
0.0
  0
LINE
  5
E6
330
C9
100
AcDbEntity
  8
Screw
 62
     7
370
     9
100
AcDbLine
 10
0.0824999999986176
 20
-0.1980769890163856
 30
0.0
 11
0.0599999999986949
 21
-0.2110673700732377
 31
0.0
  0
LINE
  5
E7
330
C9
100
AcDbEntity
  8
Screw
 62
     7
370
     9
100
AcDbLine
 10
0.0824999999986176
 20
-0.1980769890163856
 30
0.0
 11
0.0599999999986949
 21
-0.1850866079597608
 31
0.0
  0
LINE
  5
E8
330
C9
100
AcDbEntity
  8
Screw
 62
     7
370
     9
100
AcDbLine
 10
0.0824999999986176
 20
-0.1322876140164908
 30
0.0
 11
-0.0825000000014598
 21
-0.1610432348772974
 31
0.0
  0
LINE
  5
E9
330
C9
100
AcDbEntity
  8
Screw
 62
     7
370
     9
100
AcDbLine
 10
0.0824999999986176
 20
-0.1980769890163856
 30
0.0
 11
-0.0825000000014598
 21
-0.2268326098773059
 31
0.0
  0
LINE
  5
EA
330
C9
100
AcDbEntity
  8
Screw
 62
     7
370
     9
100
AcDbLine
 10
0.0824999999986176
 20
-0.1322876140164908
 30
0.0
 11
0.0599999999986949
 21
-0.1192972329597524
 31
0.0
  0
LINE
  5
EB
330
C9
100
AcDbEntity
  8
Screw
 62
     7
370
     9
100
AcDbLine
 10
-0.0600000000014234
 20
-0.3056123659338255
 30
0.0
 11
-0.0600000000014234
 21
-0.3454209788204707
 31
0.0
  0
LINE
  5
EC
330
C9
100
AcDbEntity
  8
Screw
 62
     7
370
     9
100
AcDbLine
 10
-0.0600000000014234
 20
-0.3714017409339476
 30
0.0
 11
-0.0600000000014234
 21
-0.4112103538203656
 31
0.0
  0
LINE
  5
ED
330
C9
100
AcDbEntity
  8
Screw
 62
     7
370
     9
100
AcDbLine
 10
-0.0600000000014234
 20
-0.4371911159340698
 30
0.0
 11
-0.0600000000014234
 21
-0.4865652155517637
 31
0.0
  0
LINE
  5
EE
330
C9
100
AcDbEntity
  8
Screw
 62
     7
370
     9
100
AcDbLine
 10
-0.0825000000013461
 20
-0.2926219848773144
 30
0.0
 11
-0.0600000000014234
 21
-0.2796316038205759
 31
0.0
  0
LINE
  5
EF
330
C9
100
AcDbEntity
  8
Screw
 62
     7
370
     9
100
AcDbLine
 10
-0.0825000000013461
 20
-0.2926219848773144
 30
0.0
 11
-0.0600000000014234
 21
-0.3056123659341665
 31
0.0
  0
LINE
  5
F0
330
C9
100
AcDbEntity
  8
Screw
 62
     7
370
     9
100
AcDbLine
 10
-0.0825000000013461
 20
-0.4242007348773314
 30
0.0
 11
-0.0600000000014234
 21
-0.4371911159340698
 31
0.0
  0
LINE
  5
F1
330
C9
100
AcDbEntity
  8
Screw
 62
     7
370
     9
100
AcDbLine
 10
-0.0825000000013461
 20
-0.4242007348773314
 30
0.0
 11
-0.0600000000014234
 21
-0.4112103538204793
 31
0.0
  0
LINE
  5
F2
330
C9
100
AcDbEntity
  8
Screw
 62
     7
370
     9
100
AcDbLine
 10
-0.0825000000013461
 20
-0.3584113598774365
 30
0.0
 11
-0.0600000000014234
 21
-0.3714017409340613
 31
0.0
  0
LINE
  5
F3
330
C9
100
AcDbEntity
  8
Screw
 62
     7
370
     9
100
AcDbLine
 10
-0.0825000000013461
 20
-0.3584113598772092
 30
0.0
 11
-0.0600000000014234
 21
-0.3454209788205844
 31
0.0
  0
LINE
  5
F4
330
C9
100
AcDbEntity
  8
Screw
 62
     7
370
     9
100
AcDbLine
 10
0.0599999999986949
 20
-0.4084354950732632
 30
0.0
 11
0.0599999999986949
 21
-0.4482441079596811
 31
0.0
  0
LINE
  5
F5
330
C9
100
AcDbEntity
  8
Screw
 62
     7
370
     9
100
AcDbLine
 10
0.0824999999986176
 20
-0.4612344890165332
 30
0.0
 11
0.0599999999985812
 21
-0.4482441079596811
 31
0.0
  0
LINE
  5
F6
330
C9
100
AcDbEntity
  8
Screw
 62
     7
370
     9
100
AcDbLine
 10
0.0824999999986176
 20
-0.2638663640165078
 30
0.0
 11
0.0599999999986949
 21
-0.2508759829597693
 31
0.0
  0
LINE
  5
F7
330
C9
100
AcDbEntity
  8
Screw
 62
     7
370
     9
100
AcDbLine
 10
0.0824999999986176
 20
-0.3296557390164025
 30
0.0
 11
-0.0825000000014598
 21
-0.3584113598773229
 31
0.0
  0
LINE
  5
F8
330
C9
100
AcDbEntity
  8
Screw
 62
     7
370
     9
100
AcDbLine
 10
0.0824999999986176
 20
-0.3954451140165247
 30
0.0
 11
-0.0825000000014598
 21
-0.4242007348773314
 31
0.0
  0
LINE
  5
F9
330
C9
100
AcDbEntity
  8
Screw
 62
     7
370
     9
100
AcDbLine
 10
0.0824999999986176
 20
-0.2638663640165078
 30
0.0
 11
-0.0825000000014598
 21
-0.2926219848773144
 31
0.0
  0
LINE
  5
FA
330
C9
100
AcDbEntity
  8
Screw
 62
     7
370
     9
100
AcDbLine
 10
0.0824999999986176
 20
-0.3296557390164025
 30
0.0
 11
0.0599999999986949
 21
-0.3166653579597778
 31
0.0
  0
LINE
  5
FB
330
C9
100
AcDbEntity
  8
Screw
 62
     7
370
     9
100
AcDbLine
 10
0.0824999999986176
 20
-0.3296557390164025
 30
0.0
 11
0.0599999999986949
 21
-0.3426461200732547
 31
0.0
  0
LINE
  5
FC
330
C9
100
AcDbEntity
  8
Screw
 62
     7
370
     9
100
AcDbLine
 10
0.0824999999986176
 20
-0.3954451140165247
 30
0.0
 11
0.0599999999985812
 21
-0.3824547329596726
 31
0.0
  0
LINE
  5
FD
330
C9
100
AcDbEntity
  8
Screw
 62
     7
370
     9
100
AcDbLine
 10
0.0824999999986176
 20
-0.3954451140165247
 30
0.0
 11
0.0599999999986949
 21
-0.4084354950732632
 31
0.0
  0
LINE
  5
FE
330
C9
100
AcDbEntity
  8
Screw
 62
     7
370
     9
100
AcDbLine
 10
0.0599999999986949
 20
-0.3426461200732547
 30
0.0
 11
0.0599999999986949
 21
-0.3824547329596726
 31
0.0
  0
LINE
  5
FF
330
C9
100
AcDbEntity
  8
Screw
 62
     7
370
     9
100
AcDbLine
 10
0.0824999999986176
 20
-0.2638663640165078
 30
0.0
 11
0.0599999999986949
 21
-0.2768567450731325
 31
0.0
  0
LINE
  5
100
330
C9
100
AcDbEntity
  8
Screw
 62
     7
370
     9
100
AcDbLine
 10
0.0599999999986949
 20
-0.2768567450731325
 30
0.0
 11
0.0599999999986949
 21
-0.3166653579597778
 31
0.0
  0
LINE
  5
101
330
C9
100
AcDbEntity
  8
Screw
 62
     7
370
     9
100
AcDbLine
 10
-0.0000000000007958
 20
-0.6249999999979537
 30
0.0
 11
0.022931124344268
 21
-0.569639368603248
 31
0.0
  0
LINE
  5
102
330
C9
100
AcDbEntity
  8
Screw
 62
     7
370
     9
100
AcDbLine
 10
0.0824999999985039
 20
-0.4612344890164195
 30
0.0
 11
0.0684796239820571
 21
-0.4531398211491933
 31
0.0
  0
LINE
  5
103
330
C9
100
AcDbEntity
  8
Screw
 62
     7
370
     9
100
AcDbLine
 10
0.0824999999985039
 20
-0.4612344890164195
 30
0.0
 11
0.0632241464038543
 21
-0.4723634082780564
 31
0.0
  0
LINE
  5
104
330
C9
100
AcDbEntity
  8
Screw
 62
     7
370
     9
100
AcDbLine
 10
0.0550146141443975
 20
-0.5253624430695254
 30
0.0
 11
0.0439236020390581
 21
-0.5189590442449799
 31
0.0
  0
LINE
  5
105
330
C9
100
AcDbEntity
  8
Screw
 62
     7
370
     9
100
AcDbLine
 10
0.0550146141443975
 20
-0.5253624430695254
 30
0.0
 11
0.0369515003607148
 21
-0.5357911866749419
 31
0.0
  0
LINE
  5
106
330
C9
100
AcDbEntity
  8
Screw
 62
     7
370
     9
100
AcDbLine
 10
0.0578546239827347
 20
-0.4853265821307105
 30
0.0
 11
0.063224146403968
 21
-0.4723634082781701
 31
0.0
  0
LINE
  5
107
330
C9
100
AcDbEntity
  8
Screw
 62
     7
370
     9
100
AcDbLine
 10
0.0299032260226113
 20
-0.552807226173286
 30
0.0
 11
0.0369515003607148
 21
-0.5357911866749419
 31
0.0
  0
LINE
  5
108
330
C9
100
AcDbEntity
  8
Screw
 62
     7
370
     9
100
AcDbLine
 10
-0.0299032260243166
 20
-0.552807226173286
 30
0.0
 11
-0.049041047168771
 21
-0.5066044388121327
 31
0.0
  0
LINE
  5
109
330
C9
100
AcDbEntity
  8
Screw
 62
     7
370
     9
100
AcDbLine
 10
-0.0409942381297697
 20
-0.5592106249979452
 30
0.0
 11
-0.022931124346087
 21
-0.569639368603248
 31
0.0
  0
LINE
  5
10A
330
C9
100
AcDbEntity
  8
Screw
 62
     7
370
     9
100
AcDbLine
 10
-0.0409942381297697
 20
-0.5592106249979452
 30
0.0
 11
-0.0299032260243166
 21
-0.552807226173286
 31
0.0
  0
LINE
  5
10B
330
C9
100
AcDbEntity
  8
Screw
 62
     7
370
     9
100
AcDbLine
 10
-0.0718750000008868
 20
-0.4934212499979367
 30
0.0
 11
-0.049041047168771
 21
-0.5066044388121327
 31
0.0
  0
LINE
  5
10C
330
C9
100
AcDbEntity
  8
Screw
 62
     7
370
     9
100
AcDbLine
 10
-0.0718750000008868
 20
-0.493421249997823
 30
0.0
 11
-0.0600000000015371
 21
-0.48656521555165
 31
0.0
  0
LINE
  5
10D
330
C9
100
AcDbEntity
  8
Screw
 62
     7
370
     9
100
AcDbLine
 10
-0.0000000000007958
 20
-0.6249999999979537
 30
0.0
 11
-0.022931124346087
 21
-0.569639368603248
 31
0.0
  0
LINE
  5
10E
330
C9
100
AcDbEntity
  8
Screw
 62
     7
370
     9
100
AcDbLine
 10
0.0578546239827347
 20
-0.4853265821307105
 30
0.0
 11
0.0490410471670657
 21
-0.5066044388121327
 31
0.0
  0
LINE
  5
10F
330
C9
100
AcDbEntity
  8
Screw
 62
     7
370
     9
100
AcDbLine
 10
0.0299032260226113
 20
-0.552807226173286
 30
0.0
 11
0.022931124344268
 21
-0.569639368603248
 31
0.0
  0
LINE
  5
110
330
C9
100
AcDbEntity
  8
Screw
 62
     7
370
     9
100
AcDbLine
 10
0.0439236020390581
 20
-0.5189590442449799
 30
0.0
 11
0.0490410471670657
 21
-0.5066044388121327
 31
0.0
  0
LINE
  5
111
330
C9
100
AcDbEntity
  8
Screw
 62
     7
370
     9
100
AcDbLine
 10
0.0824999999987313
 20
-0.4612344890164195
 30
0.0
 11
-0.0718750000008868
 21
-0.493421249997823
 31
0.0
  0
LINE
  5
112
330
C9
100
AcDbEntity
  8
Screw
 62
     7
370
     9
100
AcDbLine
 10
0.0550146141443975
 20
-0.5253624430695254
 30
0.0
 11
-0.0409942381297697
 21
-0.5592106249979452
 31
0.0
  0
LINE
  5
113
330
C9
100
AcDbEntity
  8
Screw
 62
     7
370
     9
100
AcDbLine
 10
-0.1450000000420459
 20
-0.0000000000001137
 30
0.0
 11
0.1449999999986176
 21
0.0000000000001137
 31
0.0
  0
LINE
  5
114
330
C9
100
AcDbEntity
  8
Screw
 62
     7
370
     9
100
AcDbLine
 10
-0.1450000000385216
 20
0.0500000000004093
 30
0.0
 11
0.1449999999986176
 21
0.050000000000523
 31
0.0
  0
ARC
  5
115
330
C9
100
AcDbEntity
  8
Screw
 62
     7
370
     9
100
AcDbCircle
 10
0.1449999999986176
 20
0.0100000000001046
 30
0.0
 40
0.01
100
AcDbArc
 50
270.0
 51
0.0
  0
ARC
  5
116
330
C9
100
AcDbEntity
  8
Screw
 62
     7
370
     9
100
AcDbCircle
 10
-0.1450000000420459
 20
0.0099999999998772
 30
0.0
 40
0.01
100
AcDbArc
 50
179.9999999934667
 51
270.0
  0
LINE
  5
117
330
C9
100
AcDbEntity
  8
Screw
 62
     7
370
     9
100
AcDbLine
 10
-0.0570000000392383
 20
0.1000000000004775
 30
0.0
 11
0.0569999999995616
 21
0.1000000000003638
 31
0.0
  0
ARC
  5
118
330
C9
100
AcDbEntity
  8
Screw
 62
     7
370
     9
100
AcDbCircle
 10
0.1449999999986176
 20
0.0400000000003047
 30
0.0
 40
0.01
100
AcDbArc
 50
0.0
 51
90.0
  0
ARC
  5
119
330
C9
100
AcDbEntity
  8
Screw
 62
     7
370
     9
100
AcDbCircle
 10
-0.1450000000385216
 20
0.040000000000191
 30
0.0
 40
0.01
100
AcDbArc
 50
90.0
 51
179.9999999934862
  0
ARC
  5
11A
330
C9
100
AcDbEntity
  8
Screw
 62
     7
370
     9
100
AcDbCircle
 10
-0.0000000000198952
 20
-0.1142505253642412
 30
0.0
 40
0.2217031520327291
100
AcDbArc
 50
46.77058113432305
 51
75.10191228261263
  0
ARC
  5
11B
330
C9
100
AcDbEntity
  8
Screw
 62
     7
370
     9
100
AcDbCircle
 10
-0.0000000000198952
 20
-0.1142505253642412
 30
0.0
 40
0.2217031520327291
100
AcDbArc
 50
104.8980877173874
 51
133.2294188657414
  0
ENDBLK
  5
11C
330
C9
100
AcDbEntity
  8
0
 62
     5
100
AcDbBlockEnd
  0
BLOCK
  5
17D
330
17C
100
AcDbEntity
  8
0
 62
     5
100
AcDbBlockBegin
  2
8 X 1.5 FH
 70
     0
 10
0.0
 20
0.0
 30
0.0
  3
8 X 1.5 FH
  1

  0
LINE
  5
17E
330
17C
100
AcDbEntity
  8
Screw
 62
     7
370
     9
100
AcDbLine
 10
-0.0600000000013097
 20
-0.1430000000001428
 30
0.0
 11
-0.0600000000013097
 21
-0.6283166038209629
 31
0.0
  0
LINE
  5
17F
330
17C
100
AcDbEntity
  8
Screw
 62
     7
370
     9
100
AcDbLine
 10
-0.0825000000012324
 20
-0.6413069848773603
 30
0.0
 11
-0.0600000000013097
 21
-0.6283166038207355
 31
0.0
  0
LINE
  5
180
330
17C
100
AcDbEntity
  8
Screw
 62
     7
370
     9
100
AcDbLine
 10
-0.0825000000012324
 20
-0.6413069848775877
 30
0.0
 11
-0.0600000000013097
 21
-0.6542973659342124
 31
0.0
  0
LINE
  5
181
330
17C
100
AcDbEntity
  8
Screw
 62
     7
370
     9
100
AcDbLine
 10
-0.0600000000013097
 20
-0.6542973659340987
 30
0.0
 11
-0.0600000000013097
 21
-0.6941059788205167
 31
0.0
  0
LINE
  5
182
330
17C
100
AcDbEntity
  8
Screw
 62
     7
370
     9
100
AcDbLine
 10
0.0599999999989223
 20
-0.1430000000001428
 30
0.0
 11
0.0599999999985812
 21
-0.5995609829597015
 31
0.0
  0
LINE
  5
183
330
17C
100
AcDbEntity
  8
Screw
 62
     7
370
     9
100
AcDbLine
 10
0.0599999999988086
 20
-0.6255417450734058
 30
0.0
 11
0.0599999999988086
 21
-0.6653503579598237
 31
0.0
  0
LINE
  5
184
330
17C
100
AcDbEntity
  8
Screw
 62
     7
370
     9
100
AcDbLine
 10
0.0824999999987313
 20
-0.6125513640165537
 30
0.0
 11
0.0599999999988086
 21
-0.6255417450734058
 31
0.0
  0
LINE
  5
185
330
17C
100
AcDbEntity
  8
Screw
 62
     7
370
     9
100
AcDbLine
 10
0.0824999999987313
 20
-0.6125513640165537
 30
0.0
 11
0.0599999999988086
 21
-0.5995609829599289
 31
0.0
  0
LINE
  5
186
330
17C
100
AcDbEntity
  8
Screw
 62
     7
370
     9
100
AcDbLine
 10
0.0824999999987313
 20
-0.6125513640165537
 30
0.0
 11
-0.0825000000013461
 21
-0.641306984877474
 31
0.0
  0
LINE
  5
187
330
17C
100
AcDbEntity
  8
Screw
 62
     7
370
     9
100
AcDbLine
 10
0.0550146141445112
 20
-1.400362443069752
 30
0.0
 11
-0.040994238129656
 21
-1.434210624998172
 31
0.0
  0
LINE
  5
188
330
17C
100
AcDbEntity
  8
Screw
 62
     7
370
     9
100
AcDbLine
 10
0.082499999998845
 20
-1.336234489016646
 30
0.0
 11
-0.0718750000007731
 21
-1.36842124999805
 31
0.0
  0
LINE
  5
189
330
17C
100
AcDbEntity
  8
Screw
 62
     7
370
     9
100
AcDbLine
 10
0.0439236020391718
 20
-1.393959044245207
 30
0.0
 11
0.0490410471671794
 21
-1.38160443881236
 31
0.0
  0
LINE
  5
18A
330
17C
100
AcDbEntity
  8
Screw
 62
     7
370
     9
100
AcDbLine
 10
0.029903226022725
 20
-1.427807226173513
 30
0.0
 11
0.0229311243443817
 21
-1.444639368603475
 31
0.0
  0
LINE
  5
18B
330
17C
100
AcDbEntity
  8
Screw
 62
     7
370
     9
100
AcDbLine
 10
0.0578546239828484
 20
-1.360326582130937
 30
0.0
 11
0.0490410471671794
 21
-1.38160443881236
 31
0.0
  0
LINE
  5
18C
330
17C
100
AcDbEntity
  8
Screw
 62
     7
370
     9
100
AcDbLine
 10
-0.0000000000006821
 20
-1.499999999998181
 30
0.0
 11
-0.0229311243459733
 21
-1.444639368603475
 31
0.0
  0
LINE
  5
18D
330
17C
100
AcDbEntity
  8
Screw
 62
     7
370
     9
100
AcDbLine
 10
-0.0718750000007731
 20
-1.36842124999805
 30
0.0
 11
-0.0600000000014234
 21
-1.361565215551877
 31
0.0
  0
LINE
  5
18E
330
17C
100
AcDbEntity
  8
Screw
 62
     7
370
     9
100
AcDbLine
 10
-0.0718750000007731
 20
-1.368421249998164
 30
0.0
 11
-0.0490410471686573
 21
-1.38160443881236
 31
0.0
  0
LINE
  5
18F
330
17C
100
AcDbEntity
  8
Screw
 62
     7
370
     9
100
AcDbLine
 10
-0.040994238129656
 20
-1.434210624998172
 30
0.0
 11
-0.0299032260242029
 21
-1.427807226173513
 31
0.0
  0
LINE
  5
190
330
17C
100
AcDbEntity
  8
Screw
 62
     7
370
     9
100
AcDbLine
 10
-0.040994238129656
 20
-1.434210624998172
 30
0.0
 11
-0.0229311243459733
 21
-1.444639368603475
 31
0.0
  0
LINE
  5
191
330
17C
100
AcDbEntity
  8
Screw
 62
     7
370
     9
100
AcDbLine
 10
-0.0299032260242029
 20
-1.427807226173513
 30
0.0
 11
-0.0490410471686573
 21
-1.38160443881236
 31
0.0
  0
LINE
  5
192
330
17C
100
AcDbEntity
  8
Screw
 62
     7
370
     9
100
AcDbLine
 10
0.029903226022725
 20
-1.427807226173513
 30
0.0
 11
0.0369515003608285
 21
-1.410791186675169
 31
0.0
  0
LINE
  5
193
330
17C
100
AcDbEntity
  8
Screw
 62
     7
370
     9
100
AcDbLine
 10
0.0578546239828484
 20
-1.360326582130937
 30
0.0
 11
0.0632241464040817
 21
-1.347363408278397
 31
0.0
  0
LINE
  5
194
330
17C
100
AcDbEntity
  8
Screw
 62
     7
370
     9
100
AcDbLine
 10
0.0550146141445112
 20
-1.400362443069752
 30
0.0
 11
0.0369515003608285
 21
-1.410791186675169
 31
0.0
  0
LINE
  5
195
330
17C
100
AcDbEntity
  8
Screw
 62
     7
370
     9
100
AcDbLine
 10
0.0550146141445112
 20
-1.400362443069752
 30
0.0
 11
0.0439236020391718
 21
-1.393959044245207
 31
0.0
  0
LINE
  5
196
330
17C
100
AcDbEntity
  8
Screw
 62
     7
370
     9
100
AcDbLine
 10
0.0824999999986176
 20
-1.336234489016646
 30
0.0
 11
0.063224146403968
 21
-1.347363408278283
 31
0.0
  0
LINE
  5
197
330
17C
100
AcDbEntity
  8
Screw
 62
     7
370
     9
100
AcDbLine
 10
0.0824999999986176
 20
-1.336234489016646
 30
0.0
 11
0.0684796239821708
 21
-1.32813982114942
 31
0.0
  0
LINE
  5
198
330
17C
100
AcDbEntity
  8
Screw
 62
     7
370
     9
100
AcDbLine
 10
-0.0000000000006821
 20
-1.499999999998181
 30
0.0
 11
0.0229311243443817
 21
-1.444639368603475
 31
0.0
  0
LINE
  5
199
330
17C
100
AcDbEntity
  8
Screw
 62
     7
370
     9
100
AcDbLine
 10
0.0599999999988086
 20
-1.151856745073359
 30
0.0
 11
0.0599999999988086
 21
-1.191665357960005
 31
0.0
  0
LINE
  5
19A
330
17C
100
AcDbEntity
  8
Screw
 62
     7
370
     9
100
AcDbLine
 10
0.0824999999987313
 20
-1.138866364016735
 30
0.0
 11
0.0599999999988086
 21
-1.151856745073359
 31
0.0
  0
LINE
  5
19B
330
17C
100
AcDbEntity
  8
Screw
 62
     7
370
     9
100
AcDbLine
 10
0.0599999999988086
 20
-1.217646120073482
 30
0.0
 11
0.0599999999988086
 21
-1.257454732959899
 31
0.0
  0
LINE
  5
19C
330
17C
100
AcDbEntity
  8
Screw
 62
     7
370
     9
100
AcDbLine
 10
0.0824999999987313
 20
-1.270445114016752
 30
0.0
 11
0.0599999999988086
 21
-1.28343549507349
 31
0.0
  0
LINE
  5
19D
330
17C
100
AcDbEntity
  8
Screw
 62
     7
370
     9
100
AcDbLine
 10
0.0824999999987313
 20
-1.270445114016752
 30
0.0
 11
0.0599999999986949
 21
-1.257454732959899
 31
0.0
  0
LINE
  5
19E
330
17C
100
AcDbEntity
  8
Screw
 62
     7
370
     9
100
AcDbLine
 10
0.0824999999987313
 20
-1.204655739016629
 30
0.0
 11
0.0599999999988086
 21
-1.217646120073482
 31
0.0
  0
LINE
  5
19F
330
17C
100
AcDbEntity
  8
Screw
 62
     7
370
     9
100
AcDbLine
 10
0.0824999999987313
 20
-1.204655739016629
 30
0.0
 11
0.0599999999988086
 21
-1.191665357960005
 31
0.0
  0
LINE
  5
1A0
330
17C
100
AcDbEntity
  8
Screw
 62
     7
370
     9
100
AcDbLine
 10
0.0824999999987313
 20
-1.138866364016735
 30
0.0
 11
-0.0825000000013461
 21
-1.167621984877541
 31
0.0
  0
LINE
  5
1A1
330
17C
100
AcDbEntity
  8
Screw
 62
     7
370
     9
100
AcDbLine
 10
0.0824999999987313
 20
-1.270445114016752
 30
0.0
 11
-0.0825000000013461
 21
-1.299200734877558
 31
0.0
  0
LINE
  5
1A2
330
17C
100
AcDbEntity
  8
Screw
 62
     7
370
     9
100
AcDbLine
 10
0.0824999999987313
 20
-1.204655739016629
 30
0.0
 11
-0.0825000000013461
 21
-1.23341135987755
 31
0.0
  0
LINE
  5
1A3
330
17C
100
AcDbEntity
  8
Screw
 62
     7
370
     9
100
AcDbLine
 10
0.0824999999987313
 20
-1.138866364016735
 30
0.0
 11
0.0599999999988086
 21
-1.125875982959996
 31
0.0
  0
LINE
  5
1A4
330
17C
100
AcDbEntity
  8
Screw
 62
     7
370
     9
100
AcDbLine
 10
0.0824999999987313
 20
-1.33623448901676
 30
0.0
 11
0.0599999999986949
 21
-1.323244107959908
 31
0.0
  0
LINE
  5
1A5
330
17C
100
AcDbEntity
  8
Screw
 62
     7
370
     9
100
AcDbLine
 10
0.0599999999988086
 20
-1.28343549507349
 30
0.0
 11
0.0599999999988086
 21
-1.323244107959908
 31
0.0
  0
LINE
  5
1A6
330
17C
100
AcDbEntity
  8
Screw
 62
     7
370
     9
100
AcDbLine
 10
-0.0825000000012324
 20
-1.233411359877436
 30
0.0
 11
-0.0600000000013097
 21
-1.220420978820811
 31
0.0
  0
LINE
  5
1A7
330
17C
100
AcDbEntity
  8
Screw
 62
     7
370
     9
100
AcDbLine
 10
-0.0825000000012324
 20
-1.233411359877663
 30
0.0
 11
-0.0600000000013097
 21
-1.246401740934288
 31
0.0
  0
LINE
  5
1A8
330
17C
100
AcDbEntity
  8
Screw
 62
     7
370
     9
100
AcDbLine
 10
-0.0825000000012324
 20
-1.299200734877558
 30
0.0
 11
-0.0600000000013097
 21
-1.286210353820706
 31
0.0
  0
LINE
  5
1A9
330
17C
100
AcDbEntity
  8
Screw
 62
     7
370
     9
100
AcDbLine
 10
-0.0825000000012324
 20
-1.299200734877558
 30
0.0
 11
-0.0600000000013097
 21
-1.312191115934297
 31
0.0
  0
LINE
  5
1AA
330
17C
100
AcDbEntity
  8
Screw
 62
     7
370
     9
100
AcDbLine
 10
-0.0825000000012324
 20
-1.167621984877541
 30
0.0
 11
-0.0600000000013097
 21
-1.180612365934393
 31
0.0
  0
LINE
  5
1AB
330
17C
100
AcDbEntity
  8
Screw
 62
     7
370
     9
100
AcDbLine
 10
-0.0825000000012324
 20
-1.167621984877541
 30
0.0
 11
-0.0600000000013097
 21
-1.154631603820803
 31
0.0
  0
LINE
  5
1AC
330
17C
100
AcDbEntity
  8
Screw
 62
     7
370
     9
100
AcDbLine
 10
-0.0600000000013097
 20
-1.312191115934297
 30
0.0
 11
-0.0600000000013097
 21
-1.361565215551991
 31
0.0
  0
LINE
  5
1AD
330
17C
100
AcDbEntity
  8
Screw
 62
     7
370
     9
100
AcDbLine
 10
-0.0600000000013097
 20
-1.246401740934174
 30
0.0
 11
-0.0600000000013097
 21
-1.286210353820592
 31
0.0
  0
LINE
  5
1AE
330
17C
100
AcDbEntity
  8
Screw
 62
     7
370
     9
100
AcDbLine
 10
-0.0600000000013097
 20
-1.180612365934052
 30
0.0
 11
-0.0600000000013097
 21
-1.220420978820698
 31
0.0
  0
LINE
  5
1AF
330
17C
100
AcDbEntity
  8
Screw
 62
     7
370
     9
100
AcDbLine
 10
0.0824999999987313
 20
-1.007287614016718
 30
0.0
 11
0.0599999999988086
 21
-0.9942972329599797
 31
0.0
  0
LINE
  5
1B0
330
17C
100
AcDbEntity
  8
Screw
 62
     7
370
     9
100
AcDbLine
 10
0.0824999999987313
 20
-1.073076989016612
 30
0.0
 11
-0.0825000000013461
 21
-1.101832609877533
 31
0.0
  0
LINE
  5
1B1
330
17C
100
AcDbEntity
  8
Screw
 62
     7
370
     9
100
AcDbLine
 10
0.0824999999987313
 20
-1.007287614016718
 30
0.0
 11
-0.0825000000013461
 21
-1.036043234877524
 31
0.0
  0
LINE
  5
1B2
330
17C
100
AcDbEntity
  8
Screw
 62
     7
370
     9
100
AcDbLine
 10
0.0824999999987313
 20
-1.073076989016612
 30
0.0
 11
0.0599999999988086
 21
-1.060086607959988
 31
0.0
  0
LINE
  5
1B3
330
17C
100
AcDbEntity
  8
Screw
 62
     7
370
     9
100
AcDbLine
 10
0.0824999999987313
 20
-1.073076989016612
 30
0.0
 11
0.0599999999988086
 21
-1.086067370073465
 31
0.0
  0
LINE
  5
1B4
330
17C
100
AcDbEntity
  8
Screw
 62
     7
370
     9
100
AcDbLine
 10
0.0599999999988086
 20
-1.086067370073465
 30
0.0
 11
0.0599999999988086
 21
-1.125875982959883
 31
0.0
  0
LINE
  5
1B5
330
17C
100
AcDbEntity
  8
Screw
 62
     7
370
     9
100
AcDbLine
 10
0.0824999999987313
 20
-1.007287614016718
 30
0.0
 11
0.0599999999988086
 21
-1.020277995073342
 31
0.0
  0
LINE
  5
1B6
330
17C
100
AcDbEntity
  8
Screw
 62
     7
370
     9
100
AcDbLine
 10
0.0599999999988086
 20
-1.020277995073342
 30
0.0
 11
0.0599999999988086
 21
-1.060086607959988
 31
0.0
  0
LINE
  5
1B7
330
17C
100
AcDbEntity
  8
Screw
 62
     7
370
     9
100
AcDbLine
 10
-0.0600000000013097
 20
-1.049033615934035
 30
0.0
 11
-0.0600000000013097
 21
-1.088842228820681
 31
0.0
  0
LINE
  5
1B8
330
17C
100
AcDbEntity
  8
Screw
 62
     7
370
     9
100
AcDbLine
 10
-0.0600000000013097
 20
-1.114822990934158
 30
0.0
 11
-0.0600000000013097
 21
-1.154631603820575
 31
0.0
  0
LINE
  5
1B9
330
17C
100
AcDbEntity
  8
Screw
 62
     7
370
     9
100
AcDbLine
 10
-0.0825000000012324
 20
-1.036043234877524
 30
0.0
 11
-0.0600000000013097
 21
-1.023052853820786
 31
0.0
  0
LINE
  5
1BA
330
17C
100
AcDbEntity
  8
Screw
 62
     7
370
     9
100
AcDbLine
 10
-0.0825000000012324
 20
-1.036043234877524
 30
0.0
 11
-0.0600000000013097
 21
-1.049033615934376
 31
0.0
  0
LINE
  5
1BB
330
17C
100
AcDbEntity
  8
Screw
 62
     7
370
     9
100
AcDbLine
 10
-0.0825000000012324
 20
-1.101832609877646
 30
0.0
 11
-0.0600000000013097
 21
-1.114822990934271
 31
0.0
  0
LINE
  5
1BC
330
17C
100
AcDbEntity
  8
Screw
 62
     7
370
     9
100
AcDbLine
 10
-0.0825000000012324
 20
-1.101832609877419
 30
0.0
 11
-0.0600000000013097
 21
-1.088842228820794
 31
0.0
  0
LINE
  5
1BD
330
17C
100
AcDbEntity
  8
Screw
 62
     7
370
     9
100
AcDbLine
 10
0.0599999999988086
 20
-0.9544886200734481
 30
0.0
 11
0.0599999999988086
 21
-0.994297232959866
 31
0.0
  0
LINE
  5
1BE
330
17C
100
AcDbEntity
  8
Screw
 62
     7
370
     9
100
AcDbLine
 10
-0.0600000000013097
 20
-0.983244240934141
 30
0.0
 11
-0.0600000000013097
 21
-1.023052853820558
 31
0.0
  0
LINE
  5
1BF
330
17C
100
AcDbEntity
  8
Screw
 62
     7
370
     9
100
AcDbLine
 10
-0.0825000000012324
 20
-0.8386751098773856
 30
0.0
 11
-0.0600000000013097
 21
-0.8256847288207609
 31
0.0
  0
LINE
  5
1C0
330
17C
100
AcDbEntity
  8
Screw
 62
     7
370
     9
100
AcDbLine
 10
-0.0825000000012324
 20
-0.838675109877613
 30
0.0
 11
-0.0600000000013097
 21
-0.8516654909342378
 31
0.0
  0
LINE
  5
1C1
330
17C
100
AcDbEntity
  8
Screw
 62
     7
370
     9
100
AcDbLine
 10
-0.0825000000012324
 20
-0.7728857348774909
 30
0.0
 11
-0.0600000000013097
 21
-0.7858761159343431
 31
0.0
  0
LINE
  5
1C2
330
17C
100
AcDbEntity
  8
Screw
 62
     7
370
     9
100
AcDbLine
 10
-0.0825000000012324
 20
-0.7728857348774909
 30
0.0
 11
-0.0600000000013097
 21
-0.7598953538207525
 31
0.0
  0
LINE
  5
1C3
330
17C
100
AcDbEntity
  8
Screw
 62
     7
370
     9
100
AcDbLine
 10
-0.0600000000013097
 20
-0.8516654909341241
 30
0.0
 11
-0.0600000000013097
 21
-0.891474103820542
 31
0.0
  0
LINE
  5
1C4
330
17C
100
AcDbEntity
  8
Screw
 62
     7
370
     9
100
AcDbLine
 10
-0.0600000000013097
 20
-0.785876115934002
 30
0.0
 11
-0.0600000000013097
 21
-0.8256847288206472
 31
0.0
  0
LINE
  5
1C5
330
17C
100
AcDbEntity
  8
Screw
 62
     7
370
     9
100
AcDbLine
 10
0.0599999999988086
 20
-0.7571204950733091
 30
0.0
 11
0.0599999999988086
 21
-0.7969291079599543
 31
0.0
  0
LINE
  5
1C6
330
17C
100
AcDbEntity
  8
Screw
 62
     7
370
     9
100
AcDbLine
 10
0.0824999999987313
 20
-0.7441301140166843
 30
0.0
 11
0.0599999999988086
 21
-0.7571204950733091
 31
0.0
  0
LINE
  5
1C7
330
17C
100
AcDbEntity
  8
Screw
 62
     7
370
     9
100
AcDbLine
 10
0.0599999999988086
 20
-0.8229098700734311
 30
0.0
 11
0.0599999999988086
 21
-0.862718482959849
 31
0.0
  0
LINE
  5
1C8
330
17C
100
AcDbEntity
  8
Screw
 62
     7
370
     9
100
AcDbLine
 10
0.0824999999987313
 20
-0.809919489016579
 30
0.0
 11
0.0599999999988086
 21
-0.8229098700734311
 31
0.0
  0
LINE
  5
1C9
330
17C
100
AcDbEntity
  8
Screw
 62
     7
370
     9
100
AcDbLine
 10
0.0824999999987313
 20
-0.809919489016579
 30
0.0
 11
0.0599999999988086
 21
-0.7969291079599543
 31
0.0
  0
LINE
  5
1CA
330
17C
100
AcDbEntity
  8
Screw
 62
     7
370
     9
100
AcDbLine
 10
0.0824999999987313
 20
-0.7441301140166843
 30
0.0
 11
-0.0825000000013461
 21
-0.7728857348774909
 31
0.0
  0
LINE
  5
1CB
330
17C
100
AcDbEntity
  8
Screw
 62
     7
370
     9
100
AcDbLine
 10
0.0824999999987313
 20
-0.809919489016579
 30
0.0
 11
-0.0825000000013461
 21
-0.8386751098774993
 31
0.0
  0
LINE
  5
1CC
330
17C
100
AcDbEntity
  8
Screw
 62
     7
370
     9
100
AcDbLine
 10
0.0824999999987313
 20
-0.7441301140166843
 30
0.0
 11
0.0599999999988086
 21
-0.7311397329599459
 31
0.0
  0
LINE
  5
1CD
330
17C
100
AcDbEntity
  8
Screw
 62
     7
370
     9
100
AcDbLine
 10
-0.0600000000013097
 20
-0.9174548659340189
 30
0.0
 11
-0.0600000000013097
 21
-0.9572634788206642
 31
0.0
  0
LINE
  5
1CE
330
17C
100
AcDbEntity
  8
Screw
 62
     7
370
     9
100
AcDbLine
 10
-0.0825000000012324
 20
-0.9044644848775078
 30
0.0
 11
-0.0600000000013097
 21
-0.8914741038207694
 31
0.0
  0
LINE
  5
1CF
330
17C
100
AcDbEntity
  8
Screw
 62
     7
370
     9
100
AcDbLine
 10
-0.0825000000012324
 20
-0.9044644848775078
 30
0.0
 11
-0.0600000000013097
 21
-0.9174548659343599
 31
0.0
  0
LINE
  5
1D0
330
17C
100
AcDbEntity
  8
Screw
 62
     7
370
     9
100
AcDbLine
 10
-0.0825000000012324
 20
-0.97025385987763
 30
0.0
 11
-0.0600000000013097
 21
-0.9832442409342547
 31
0.0
  0
LINE
  5
1D1
330
17C
100
AcDbEntity
  8
Screw
 62
     7
370
     9
100
AcDbLine
 10
-0.0825000000012324
 20
-0.9702538598774026
 30
0.0
 11
-0.0600000000013097
 21
-0.9572634788207778
 31
0.0
  0
LINE
  5
1D2
330
17C
100
AcDbEntity
  8
Screw
 62
     7
370
     9
100
AcDbLine
 10
0.0824999999987313
 20
-0.8757088640167012
 30
0.0
 11
0.0599999999988086
 21
-0.8627184829599627
 31
0.0
  0
LINE
  5
1D3
330
17C
100
AcDbEntity
  8
Screw
 62
     7
370
     9
100
AcDbLine
 10
0.0824999999987313
 20
-0.941498239016596
 30
0.0
 11
-0.0825000000013461
 21
-0.9702538598775163
 31
0.0
  0
LINE
  5
1D4
330
17C
100
AcDbEntity
  8
Screw
 62
     7
370
     9
100
AcDbLine
 10
0.0824999999987313
 20
-0.8757088640167012
 30
0.0
 11
-0.0825000000013461
 21
-0.9044644848775078
 31
0.0
  0
LINE
  5
1D5
330
17C
100
AcDbEntity
  8
Screw
 62
     7
370
     9
100
AcDbLine
 10
0.0824999999987313
 20
-0.941498239016596
 30
0.0
 11
0.0599999999988086
 21
-0.9285078579599712
 31
0.0
  0
LINE
  5
1D6
330
17C
100
AcDbEntity
  8
Screw
 62
     7
370
     9
100
AcDbLine
 10
0.0824999999987313
 20
-0.941498239016596
 30
0.0
 11
0.0599999999988086
 21
-0.9544886200734481
 31
0.0
  0
LINE
  5
1D7
330
17C
100
AcDbEntity
  8
Screw
 62
     7
370
     9
100
AcDbLine
 10
0.0824999999987313
 20
-0.8757088640167012
 30
0.0
 11
0.0599999999988086
 21
-0.8886992450733259
 31
0.0
  0
LINE
  5
1D8
330
17C
100
AcDbEntity
  8
Screw
 62
     7
370
     9
100
AcDbLine
 10
0.0599999999988086
 20
-0.8886992450733259
 30
0.0
 11
0.0599999999988086
 21
-0.9285078579599712
 31
0.0
  0
LINE
  5
1D9
330
17C
100
AcDbEntity
  8
Screw
 62
     7
370
     9
100
AcDbLine
 10
-0.1550000000002001
 20
0.0000000000001137
 30
0.0
 11
-0.1550000000020191
 21
-0.015999999999849
 31
0.0
  0
LINE
  5
1DA
330
17C
100
AcDbEntity
  8
Screw
 62
     7
370
     9
100
AcDbLine
 10
0.1549999999986085
 20
0.0
 30
0.0
 11
0.1549999999986085
 21
-0.0159999999999627
 31
0.0
  0
LINE
  5
1DB
330
17C
100
AcDbEntity
  8
Screw
 62
     7
370
     9
100
AcDbLine
 10
0.1549999999987222
 20
-0.0160000000006448
 30
0.0
 11
-0.155000000001337
 21
-0.0159999999999627
 31
0.0
  0
LINE
  5
1DC
330
17C
100
AcDbEntity
  8
Screw
 62
     7
370
     9
100
AcDbLine
 10
0.1549999999987222
 20
0.0
 30
0.0
 11
-0.155000000001337
 21
0.0
 31
0.0
  0
LINE
  5
1DD
330
17C
100
AcDbEntity
  8
Screw
 62
     7
370
     9
100
AcDbLine
 10
0.0599999999989223
 20
-0.1430000000000291
 30
0.0
 11
-0.0600000000013097
 21
-0.1430000000000291
 31
0.0
  0
LINE
  5
1DE
330
17C
100
AcDbEntity
  8
Screw
 62
     7
370
     9
100
AcDbLine
 10
0.1549999999986085
 20
-0.0160000000006448
 30
0.0
 11
0.0599999999988086
 21
-0.1430000000001428
 31
0.0
  0
LINE
  5
1DF
330
17C
100
AcDbEntity
  8
Screw
 62
     7
370
     9
100
AcDbLine
 10
-0.1550000000020191
 20
-0.0159999999999627
 30
0.0
 11
-0.0600000000013097
 21
-0.1430000000001428
 31
0.0
  0
LINE
  5
1E0
330
17C
100
AcDbEntity
  8
Screw
 62
     7
370
     9
100
AcDbLine
 10
0.0824999999987313
 20
-0.6783407390166758
 30
0.0
 11
0.0599999999988086
 21
-0.6653503579599374
 31
0.0
  0
LINE
  5
1E1
330
17C
100
AcDbEntity
  8
Screw
 62
     7
370
     9
100
AcDbLine
 10
0.0824999999987313
 20
-0.6783407390166758
 30
0.0
 11
-0.0825000000013461
 21
-0.7070963598774825
 31
0.0
  0
LINE
  5
1E2
330
17C
100
AcDbEntity
  8
Screw
 62
     7
370
     9
100
AcDbLine
 10
0.0824999999987313
 20
-0.6783407390166758
 30
0.0
 11
0.0599999999988086
 21
-0.6913311200733006
 31
0.0
  0
LINE
  5
1E3
330
17C
100
AcDbEntity
  8
Screw
 62
     7
370
     9
100
AcDbLine
 10
0.0599999999988086
 20
-0.6913311200733006
 30
0.0
 11
0.0599999999988086
 21
-0.7311397329599459
 31
0.0
  0
LINE
  5
1E4
330
17C
100
AcDbEntity
  8
Screw
 62
     7
370
     9
100
AcDbLine
 10
-0.0600000000013097
 20
-0.7200867409339935
 30
0.0
 11
-0.0600000000013097
 21
-0.7598953538206388
 31
0.0
  0
LINE
  5
1E5
330
17C
100
AcDbEntity
  8
Screw
 62
     7
370
     9
100
AcDbLine
 10
-0.0825000000012324
 20
-0.7070963598774825
 30
0.0
 11
-0.0600000000013097
 21
-0.694105978820744
 31
0.0
  0
LINE
  5
1E6
330
17C
100
AcDbEntity
  8
Screw
 62
     7
370
     9
100
AcDbLine
 10
-0.0825000000012324
 20
-0.7070963598774825
 30
0.0
 11
-0.0600000000013097
 21
-0.7200867409343346
 31
0.0
  0
LINE
  5
1E7
330
17C
100
AcDbEntity
  8
Screw
  6
CENTER
 62
     7
370
     9
100
AcDbLine
 10
0.0
 20
0.0516137131638743
 30
0.0
 11
0.0
 21
-1.551211668604537
 31
0.0
  0
ENDBLK
  5
1E8
330
17C
100
AcDbEntity
  8
0
 62
     5
100
AcDbBlockEnd
  0
BLOCK
  5
207
330
206
100
AcDbEntity
  8
0
100
AcDbBlockBegin
  2
*D4
 70
     1
 10
0.0
 20
0.0
 30
0.0
  3
*D4
  1

  0
LINE
  5
208
330
206
100
AcDbEntity
  8
0
 62
     0
370
    -2
100
AcDbLine
 10
16.97464378704398
 20
49.0721912388254
 30
0.0
 11
14.74490605617029
 21
49.07219123882541
 31
0.0
  0
LINE
  5
209
330
206
100
AcDbEntity
  8
0
 62
     0
370
    -2
100
AcDbLine
 10
16.64839871281054
 20
53.66452393159675
 30
0.0
 11
14.74490605617029
 21
53.66452393159676
 31
0.0
  0
LINE
  5
20A
330
206
100
AcDbEntity
  8
0
 62
     0
370
    -2
100
AcDbLine
 10
14.77490605617029
 20
49.07219123882541
 30
0.0
 11
14.77490605617029
 21
50.94612069886273
 31
0.0
  0
LINE
  5
20B
330
206
100
AcDbEntity
  8
0
 62
     0
370
    -2
100
AcDbLine
 10
14.77490605617029
 20
53.66452393159676
 30
0.0
 11
14.77490605617029
 21
51.79059447155943
 31
0.0
  0
INSERT
  5
20C
330
206
100
AcDbEntity
  8
0
 62
     0
370
    -2
100
AcDbBlockReference
  2
_ArchTick
 10
14.77490605617029
 20
49.07219123882541
 30
0.0
 41
0.156
 42
0.156
 43
0.156
 50
270.0
  0
INSERT
  5
20D
330
206
100
AcDbEntity
  8
0
 62
     0
370
    -2
100
AcDbBlockReference
  2
_ArchTick
 10
14.77490605617029
 20
53.66452393159676
 30
0.0
 41
0.156
 42
0.156
 43
0.156
 50
90.0
  0
MTEXT
  5
20E
330
206
100
AcDbEntity
  8
0
 62
     0
100
AcDbMText
 10
14.77490605617028
 20
51.57070207075244
 30
0.0
 40
0.3125
 41
0.0
 71
     5
 72
     1
  1
\A1;4 19/32"
 73
     1
 44
1.0
1001
ACAD
1000
MTEXTBEGIN
1070
    73
1070
     1
1070
    44
1040
1.0
1070
    74
1070
     0
1000
MTEXTEND
  0
MTEXT
  5
20F
330
206
100
AcDbEntity
  8
0
 62
     0
100
AcDbMText
 10
14.77490605617028
 20
51.14846518440408
 30
0.0
 40
0.3125
 41
0.0
 71
     5
 72
     1
  1
\A1;[117mm]
 73
     1
 44
1.0
1001
ACAD
1000
MTEXTBEGIN
1070
    73
1070
     1
1070
    44
1040
1.0
1070
    74
1070
     0
1000
MTEXTEND
  0
POINT
  5
210
330
206
100
AcDbEntity
  8
Defpoints
 62
     0
100
AcDbPoint
 10
17.01464378704398
 20
49.0721912388254
 30
0.0
  0
POINT
  5
212
330
206
100
AcDbEntity
  8
Defpoints
 62
     0
100
AcDbPoint
 10
16.68839871281054
 20
53.66452393159675
 30
0.0
  0
POINT
  5
213
330
206
100
AcDbEntity
  8
Defpoints
 62
     0
100
AcDbPoint
 10
14.77490605617029
 20
53.66452393159676
 30
0.0
  0
ENDBLK
  5
214
330
206
100
AcDbEntity
  8
0
100
AcDbBlockEnd
  0
BLOCK
  5
217
330
216
100
AcDbEntity
  8
0
100
AcDbBlockBegin
  2
*D5
 70
     1
 10
0.0
 20
0.0
 30
0.0
  3
*D5
  1

  0
LINE
  5
218
330
216
100
AcDbEntity
  8
0
 62
     0
370
    -2
100
AcDbLine
 10
15.61827964702888
 20
35.00915180976536
 30
0.0
 11
14.74490605617029
 21
35.00915180976536
 31
0.0
  0
LINE
  5
219
330
216
100
AcDbEntity
  8
0
 62
     0
370
    -2
100
AcDbLine
 10
16.64839871281054
 20
36.32165180976536
 30
0.0
 11
14.74490605617029
 21
36.32165180976536
 31
0.0
  0
LINE
  5
21A
330
216
100
AcDbEntity
  8
0
 62
     0
370
    -2
100
AcDbLine
 10
14.77490605617029
 20
35.00915180976536
 30
0.0
 11
14.77490605617029
 21
35.243164923417
 31
0.0
  0
LINE
  5
21B
330
216
100
AcDbEntity
  8
0
 62
     0
370
    -2
100
AcDbLine
 10
14.77490605617029
 20
36.32165180976536
 30
0.0
 11
14.77490605617029
 21
36.08763869611371
 31
0.0
  0
INSERT
  5
21C
330
216
100
AcDbEntity
  8
0
 62
     0
370
    -2
100
AcDbBlockReference
  2
_ArchTick
 10
14.77490605617029
 20
35.00915180976536
 30
0.0
 41
0.156
 42
0.156
 43
0.156
 50
270.0
  0
INSERT
  5
21D
330
216
100
AcDbEntity
  8
0
 62
     0
370
    -2
100
AcDbBlockReference
  2
_ArchTick
 10
14.77490605617029
 20
36.32165180976536
 30
0.0
 41
0.156
 42
0.156
 43
0.156
 50
90.0
  0
MTEXT
  5
21E
330
216
100
AcDbEntity
  8
0
 62
     0
100
AcDbMText
 10
14.77490605617029
 20
35.86774629530672
 30
0.0
 40
0.3125
 41
0.0
 71
     5
 72
     1
  1
\A1;1 5/16"
 73
     1
 44
1.0
1001
ACAD
1000
MTEXTBEGIN
1070
    73
1070
     1
1070
    44
1040
1.0
1070
    74
1070
     0
1000
MTEXTEND
  0
MTEXT
  5
21F
330
216
100
AcDbEntity
  8
0
 62
     0
100
AcDbMText
 10
14.77490605617029
 20
35.44550940895837
 30
0.0
 40
0.3125
 41
0.0
 71
     5
 72
     1
  1
\A1;[33mm]
 73
     1
 44
1.0
1001
ACAD
1000
MTEXTBEGIN
1070
    73
1070
     1
1070
    44
1040
1.0
1070
    74
1070
     0
1000
MTEXTEND
  0
POINT
  5
220
330
216
100
AcDbEntity
  8
Defpoints
 62
     0
100
AcDbPoint
 10
15.65827964702888
 20
35.00915180976536
 30
0.0
  0
POINT
  5
221
330
216
100
AcDbEntity
  8
Defpoints
 62
     0
100
AcDbPoint
 10
16.68839871281054
 20
36.32165180976536
 30
0.0
  0
POINT
  5
222
330
216
100
AcDbEntity
  8
Defpoints
 62
     0
100
AcDbPoint
 10
14.77490605617029
 20
36.32165180976536
 30
0.0
  0
ENDBLK
  5
223
330
216
100
AcDbEntity
  8
0
100
AcDbBlockEnd
  0
BLOCK
  5
226
330
225
100
AcDbEntity
  8
0
100
AcDbBlockBegin
  2
*D6
 70
     1
 10
0.0
 20
0.0
 30
0.0
  3
*D6
  1

  0
LINE
  5
227
330
225
100
AcDbEntity
  8
0
 62
     0
370
    -2
100
AcDbLine
 10
16.64839871281054
 20
36.32165180976536
 30
0.0
 11
14.74490605617029
 21
36.32165180976536
 31
0.0
  0
LINE
  5
228
330
225
100
AcDbEntity
  8
0
 62
     0
370
    -2
100
AcDbLine
 10
16.97464378704392
 20
43.69698450253669
 30
0.0
 11
14.74490605617029
 21
43.6969845025367
 31
0.0
  0
LINE
  5
229
330
225
100
AcDbEntity
  8
0
 62
     0
370
    -2
100
AcDbLine
 10
14.77490605617029
 20
36.32165180976536
 30
0.0
 11
14.77490605617029
 21
39.58708126980268
 31
0.0
  0
LINE
  5
22A
330
225
100
AcDbEntity
  8
0
 62
     0
370
    -2
100
AcDbLine
 10
14.77490605617029
 20
43.6969845025367
 30
0.0
 11
14.77490605617029
 21
40.43155504249938
 31
0.0
  0
INSERT
  5
22B
330
225
100
AcDbEntity
  8
0
 62
     0
370
    -2
100
AcDbBlockReference
  2
_ArchTick
 10
14.77490605617029
 20
36.32165180976536
 30
0.0
 41
0.156
 42
0.156
 43
0.156
 50
270.0
  0
INSERT
  5
22C
330
225
100
AcDbEntity
  8
0
 62
     0
370
    -2
100
AcDbBlockReference
  2
_ArchTick
 10
14.77490605617029
 20
43.6969845025367
 30
0.0
 41
0.156
 42
0.156
 43
0.156
 50
90.0
  0
MTEXT
  5
22D
330
225
100
AcDbEntity
  8
0
 62
     0
100
AcDbMText
 10
14.77490605617029
 20
40.21166264169239
 30
0.0
 40
0.3125
 41
0.0
 71
     5
 72
     1
  1
\A1;7 3/8"
 73
     1
 44
1.0
1001
ACAD
1000
MTEXTBEGIN
1070
    73
1070
     1
1070
    44
1040
1.0
1070
    74
1070
     0
1000
MTEXTEND
  0
MTEXT
  5
22E
330
225
100
AcDbEntity
  8
0
 62
     0
100
AcDbMText
 10
14.77490605617029
 20
39.78942575534404
 30
0.0
 40
0.3125
 41
0.0
 71
     5
 72
     1
  1
\A1;[187mm]
 73
     1
 44
1.0
1001
ACAD
1000
MTEXTBEGIN
1070
    73
1070
     1
1070
    44
1040
1.0
1070
    74
1070
     0
1000
MTEXTEND
  0
POINT
  5
22F
330
225
100
AcDbEntity
  8
Defpoints
 62
     0
100
AcDbPoint
 10
16.68839871281054
 20
36.32165180976536
 30
0.0
  0
POINT
  5
230
330
225
100
AcDbEntity
  8
Defpoints
 62
     0
100
AcDbPoint
 10
17.01464378704392
 20
43.69698450253669
 30
0.0
  0
POINT
  5
231
330
225
100
AcDbEntity
  8
Defpoints
 62
     0
100
AcDbPoint
 10
14.77490605617029
 20
43.6969845025367
 30
0.0
  0
ENDBLK
  5
232
330
225
100
AcDbEntity
  8
0
100
AcDbBlockEnd
  0
BLOCK
  5
235
330
234
100
AcDbEntity
  8
0
100
AcDbBlockBegin
  2
*D7
 70
     1
 10
0.0
 20
0.0
 30
0.0
  3
*D7
  1

  0
LINE
  5
236
330
234
100
AcDbEntity
  8
0
 62
     0
370
    -2
100
AcDbLine
 10
16.97464378704392
 20
43.69698450253669
 30
0.0
 11
14.74490605617029
 21
43.6969845025367
 31
0.0
  0
LINE
  5
237
330
234
100
AcDbEntity
  8
0
 62
     0
370
    -2
100
AcDbLine
 10
16.97464378704398
 20
49.0721912388254
 30
0.0
 11
14.74490605617029
 21
49.07219123882541
 31
0.0
  0
LINE
  5
238
330
234
100
AcDbEntity
  8
0
 62
     0
370
    -2
100
AcDbLine
 10
14.77490605617029
 20
43.6969845025367
 30
0.0
 11
14.77490605617029
 21
46.18224338513969
 31
0.0
  0
LINE
  5
239
330
234
100
AcDbEntity
  8
0
 62
     0
370
    -2
100
AcDbLine
 10
14.77490605617029
 20
49.07219123882541
 30
0.0
 11
14.77490605617029
 21
46.58693235622241
 31
0.0
  0
INSERT
  5
23A
330
234
100
AcDbEntity
  8
0
 62
     0
370
    -2
100
AcDbBlockReference
  2
_ArchTick
 10
14.77490605617029
 20
43.6969845025367
 30
0.0
 41
0.156
 42
0.156
 43
0.156
 50
270.0
  0
INSERT
  5
23B
330
234
100
AcDbEntity
  8
0
 62
     0
370
    -2
100
AcDbBlockReference
  2
_ArchTick
 10
14.77490605617029
 20
49.07219123882541
 30
0.0
 41
0.156
 42
0.156
 43
0.156
 50
90.0
  0
MTEXT
  5
23C
330
234
100
AcDbEntity
  8
0
 62
     0
100
AcDbMText
 10
14.77490605617029
 20
46.38458787068105
 30
0.0
 40
0.3125
 41
0.0
 71
     5
 72
     1
  1
\A1;DAYLIGHT OPENING
 73
     1
 44
1.0
1001
ACAD
1000
MTEXTBEGIN
1070
    73
1070
     1
1070
    44
1040
1.0
1070
    74
1070
     0
1000
MTEXTEND
  0
POINT
  5
23D
330
234
100
AcDbEntity
  8
Defpoints
 62
     0
100
AcDbPoint
 10
17.01464378704392
 20
43.69698450253669
 30
0.0
  0
POINT
  5
23E
330
234
100
AcDbEntity
  8
Defpoints
 62
     0
100
AcDbPoint
 10
17.01464378704398
 20
49.0721912388254
 30
0.0
  0
POINT
  5
23F
330
234
100
AcDbEntity
  8
Defpoints
 62
     0
100
AcDbPoint
 10
14.77490605617029
 20
49.07219123882541
 30
0.0
  0
ENDBLK
  5
240
330
234
100
AcDbEntity
  8
0
100
AcDbBlockEnd
  0
BLOCK
  5
243
330
242
100
AcDbEntity
  8
0
100
AcDbBlockBegin
  2
*D8
 70
     1
 10
0.0
 20
0.0
 30
0.0
  3
*D8
  1

  0
LINE
  5
244
330
242
100
AcDbEntity
  8
0
 62
     0
370
    -2
100
AcDbLine
 10
23.18862856586671
 20
54.46752946410239
 30
0.0
 11
23.18862856586671
 21
55.78827997647265
 31
0.0
  0
LINE
  5
245
330
242
100
AcDbEntity
  8
0
 62
     0
370
    -2
100
AcDbLine
 10
16.68839871281059
 20
55.3295294641021
 30
0.0
 11
16.68839871281059
 21
55.78827997647265
 31
0.0
  0
LINE
  5
246
330
242
100
AcDbEntity
  8
0
 62
     0
370
    -2
100
AcDbLine
 10
23.18862856586671
 20
55.75827997647265
 30
0.0
 11
20.4497729483455
 21
55.75827997647265
 31
0.0
  0
LINE
  5
247
330
242
100
AcDbEntity
  8
0
 62
     0
370
    -2
100
AcDbLine
 10
16.68839871281059
 20
55.75827997647265
 30
0.0
 11
19.4272543303318
 21
55.75827997647265
 31
0.0
  0
INSERT
  5
248
330
242
100
AcDbEntity
  8
0
 62
     0
370
    -2
100
AcDbBlockReference
  2
_ArchTick
 10
23.18862856586671
 20
55.75827997647265
 30
0.0
 41
0.156
 42
0.156
 43
0.156
  0
INSERT
  5
249
330
242
100
AcDbEntity
  8
0
 62
     0
370
    -2
100
AcDbBlockReference
  2
_ArchTick
 10
16.68839871281059
 20
55.75827997647265
 30
0.0
 41
0.156
 42
0.156
 43
0.156
 50
180.0
  0
MTEXT
  5
24A
330
242
100
AcDbEntity
  8
0
 62
     0
100
AcDbMText
 10
19.93851363933865
 20
55.96062446201401
 30
0.0
 40
0.3125
 41
0.0
 71
     5
 72
     1
  1
\A1;6 1/2"
 73
     1
 44
1.0
1001
ACAD
1000
MTEXTBEGIN
1070
    73
1070
     1
1070
    44
1040
1.0
1070
    74
1070
     0
1000
MTEXTEND
  0
MTEXT
  5
24B
330
242
100
AcDbEntity
  8
0
 62
     0
100
AcDbMText
 10
19.93851363933865
 20
55.53838757566566
 30
0.0
 40
0.3125
 41
0.0
 71
     5
 72
     1
  1
\A1;[165mm]
 73
     1
 44
1.0
1001
ACAD
1000
MTEXTBEGIN
1070
    73
1070
     1
1070
    44
1040
1.0
1070
    74
1070
     0
1000
MTEXTEND
  0
POINT
  5
24C
330
242
100
AcDbEntity
  8
Defpoints
 62
     0
100
AcDbPoint
 10
23.18862856586671
 20
54.42752946410239
 30
0.0
  0
POINT
  5
24D
330
242
100
AcDbEntity
  8
Defpoints
 62
     0
100
AcDbPoint
 10
16.68839871281059
 20
55.2895294641021
 30
0.0
  0
POINT
  5
24E
330
242
100
AcDbEntity
  8
Defpoints
 62
     0
100
AcDbPoint
 10
16.68839871281059
 20
55.75827997647265
 30
0.0
  0
ENDBLK
  5
24F
330
242
100
AcDbEntity
  8
0
100
AcDbBlockEnd
  0
BLOCK
  5
252
330
251
100
AcDbEntity
  8
0
100
AcDbBlockBegin
  2
*D9
 70
     1
 10
0.0
 20
0.0
 30
0.0
  3
*D9
  1

  0
LINE
  5
253
330
251
100
AcDbEntity
  8
0
 62
     0
370
    -2
100
AcDbLine
 10
17.67989871281053
 20
53.78952393159675
 30
0.0
 11
17.60527269567276
 21
53.78952393159675
 31
0.0
  0
LINE
  5
254
330
251
100
AcDbEntity
  8
0
 62
     0
370
    -2
100
AcDbLine
 10
17.67989871281053
 20
54.47752946410209
 30
0.0
 11
17.60527269567276
 21
54.47752946410209
 31
0.0
  0
LINE
  5
255
330
251
100
AcDbEntity
  8
0
 62
     0
370
    -2
100
AcDbLine
 10
17.63527269567276
 20
53.78952393159675
 30
0.0
 11
17.63527269567276
 21
54.47752946410209
 31
0.0
  0
LINE
  5
256
330
251
100
AcDbEntity
  8
0
 62
     0
370
    -2
100
AcDbLine
 10
17.63527269567276
 20
54.47752946410209
 30
0.0
 11
17.63527269567276
 21
54.95985376170263
 31
0.0
  0
LINE
  5
257
330
251
100
AcDbEntity
  8
0
 62
     0
370
    -2
100
AcDbLine
 10
17.63527269567276
 20
54.95985376170263
 30
0.0
 11
17.79127269567277
 21
54.95985376170263
 31
0.0
  0
INSERT
  5
258
330
251
100
AcDbEntity
  8
0
 62
     0
370
    -2
100
AcDbBlockReference
  2
_ArchTick
 10
17.63527269567276
 20
53.78952393159675
 30
0.0
 41
0.156
 42
0.156
 43
0.156
 50
270.0
  0
INSERT
  5
259
330
251
100
AcDbEntity
  8
0
 62
     0
370
    -2
100
AcDbBlockReference
  2
_ArchTick
 10
17.63527269567276
 20
54.47752946410209
 30
0.0
 41
0.156
 42
0.156
 43
0.156
 50
90.0
  0
MTEXT
  5
25A
330
251
100
AcDbEntity
  8
0
 62
     0
100
AcDbMText
 10
18.32179814882106
 20
54.95985376170263
 30
0.0
 40
0.3125
 41
0.0
 71
     5
 72
     1
  1
\A1;11/16"\P [17mm]
 73
     1
 44
1.0
1001
ACAD
1000
MTEXTBEGIN
1070
    73
1070
     1
1070
    44
1040
1.0
1070
    74
1070
     0
1000
MTEXTEND
  0
POINT
  5
25B
330
251
100
AcDbEntity
  8
Defpoints
 62
     0
100
AcDbPoint
 10
17.71989871281053
 20
53.78952393159675
 30
0.0
  0
POINT
  5
25C
330
251
100
AcDbEntity
  8
Defpoints
 62
     0
100
AcDbPoint
 10
17.71989871281053
 20
54.47752946410209
 30
0.0
  0
POINT
  5
25D
330
251
100
AcDbEntity
  8
Defpoints
 62
     0
100
AcDbPoint
 10
17.63527269567276
 20
54.47752946410209
 30
0.0
  0
ENDBLK
  5
25E
330
251
100
AcDbEntity
  8
0
100
AcDbBlockEnd
  0
BLOCK
  5
261
330
260
100
AcDbEntity
  8
0
100
AcDbBlockBegin
  2
*D10
 70
     1
 10
0.0
 20
0.0
 30
0.0
  3
*D10
  1

  0
LINE
  5
262
330
260
100
AcDbEntity
  8
0
 62
     0
370
    -2
100
AcDbLine
 10
19.66238262743832
 20
54.47752946410209
 30
0.0
 11
19.85401676486094
 21
54.47752946410209
 31
0.0
  0
LINE
  5
263
330
260
100
AcDbEntity
  8
0
 62
     0
370
    -2
100
AcDbLine
 10
19.66238574420361
 20
53.28952052148509
 30
0.0
 11
19.85401676486094
 21
53.28952052148509
 31
0.0
  0
LINE
  5
264
330
260
100
AcDbEntity
  8
0
 62
     0
370
    -2
100
AcDbLine
 10
19.82401676486094
 20
54.47752946410209
 30
0.0
 11
19.82401676486094
 21
54.30576187914194
 31
0.0
  0
LINE
  5
265
330
260
100
AcDbEntity
  8
0
 62
     0
370
    -2
100
AcDbLine
 10
19.82401676486094
 20
53.28952052148509
 30
0.0
 11
19.82401676486094
 21
53.46128810644524
 31
0.0
  0
INSERT
  5
266
330
260
100
AcDbEntity
  8
0
 62
     0
370
    -2
100
AcDbBlockReference
  2
_ArchTick
 10
19.82401676486094
 20
54.47752946410209
 30
0.0
 41
0.156
 42
0.156
 43
0.156
 50
90.0
  0
INSERT
  5
267
330
260
100
AcDbEntity
  8
0
 62
     0
370
    -2
100
AcDbBlockReference
  2
_ArchTick
 10
19.82401676486094
 20
53.28952052148509
 30
0.0
 41
0.156
 42
0.156
 43
0.156
 50
270.0
  0
MTEXT
  5
268
330
260
100
AcDbEntity
  8
0
 62
     0
100
AcDbMText
 10
19.82401676486093
 20
54.08586947833495
 30
0.0
 40
0.3125
 41
0.0
 71
     5
 72
     1
  1
\A1;1 3/16"
 73
     1
 44
1.0
1001
ACAD
1000
MTEXTBEGIN
1070
    73
1070
     1
1070
    44
1040
1.0
1070
    74
1070
     0
1000
MTEXTEND
  0
MTEXT
  5
269
330
260
100
AcDbEntity
  8
0
 62
     0
100
AcDbMText
 10
19.82401676486093
 20
53.6636325919866
 30
0.0
 40
0.3125
 41
0.0
 71
     5
 72
     1
  1
\A1;[30mm]
 73
     1
 44
1.0
1001
ACAD
1000
MTEXTBEGIN
1070
    73
1070
     1
1070
    44
1040
1.0
1070
    74
1070
     0
1000
MTEXTEND
  0
POINT
  5
26A
330
260
100
AcDbEntity
  8
Defpoints
 62
     0
100
AcDbPoint
 10
19.62238262743833
 20
54.47752946410209
 30
0.0
  0
POINT
  5
26B
330
260
100
AcDbEntity
  8
Defpoints
 62
     0
100
AcDbPoint
 10
19.62238574420361
 20
53.28952052148509
 30
0.0
  0
POINT
  5
26C
330
260
100
AcDbEntity
  8
Defpoints
 62
     0
100
AcDbPoint
 10
19.82401676486094
 20
53.28952052148509
 30
0.0
  0
ENDBLK
  5
26D
330
260
100
AcDbEntity
  8
0
100
AcDbBlockEnd
  0
BLOCK
  5
2D8
330
2D7
100
AcDbEntity
  8
0
100
AcDbBlockBegin
  2
*D11
 70
     1
 10
0.0
 20
0.0
 30
0.0
  3
*D11
  1

  0
LINE
  5
2D9
330
2D7
100
AcDbEntity
  8
0
 62
     0
370
    -2
100
AcDbLine
 10
20.54189871281057
 20
54.47752946410209
 30
0.0
 11
28.44573799778924
 21
54.47752946410209
 31
0.0
  0
LINE
  5
2DA
330
2D7
100
AcDbEntity
  8
0
 62
     0
370
    -2
100
AcDbLine
 10
23.2282847121357
 20
35.00915180976539
 30
0.0
 11
28.44573799778924
 21
35.00915180976539
 31
0.0
  0
LINE
  5
2DB
330
2D7
100
AcDbEntity
  8
0
 62
     0
370
    -2
100
AcDbLine
 10
28.41573799778924
 20
54.47752946410209
 30
0.0
 11
28.41573799778924
 21
46.64840608588171
 31
0.0
  0
LINE
  5
2DC
330
2D7
100
AcDbEntity
  8
0
 62
     0
370
    -2
100
AcDbLine
 10
28.41573799778924
 20
35.00915180976539
 30
0.0
 11
28.41573799778924
 21
46.24371711479899
 31
0.0
  0
INSERT
  5
2DD
330
2D7
100
AcDbEntity
  8
0
 62
     0
370
    -2
100
AcDbBlockReference
  2
_ArchTick
 10
28.41573799778924
 20
54.47752946410209
 30
0.0
 41
0.156
 42
0.156
 43
0.156
 50
90.0
  0
INSERT
  5
2DE
330
2D7
100
AcDbEntity
  8
0
 62
     0
370
    -2
100
AcDbBlockReference
  2
_ArchTick
 10
28.41573799778924
 20
35.00915180976539
 30
0.0
 41
0.156
 42
0.156
 43
0.156
 50
270.0
  0
MTEXT
  5
2DF
330
2D7
100
AcDbEntity
  8
0
 62
     0
100
AcDbMText
 10
28.41573799778924
 20
46.44606160034036
 30
0.0
 40
0.3125
 41
0.0
 71
     5
 72
     1
  1
\A1;BOX
 73
     1
 44
1.0
1001
ACAD
1000
MTEXTBEGIN
1070
    73
1070
     1
1070
    44
1040
1.0
1070
    74
1070
     0
1000
MTEXTEND
  0
POINT
  5
2E0
330
2D7
100
AcDbEntity
  8
Defpoints
 62
     0
100
AcDbPoint
 10
20.50189871281057
 20
54.47752946410209
 30
0.0
  0
POINT
  5
2E1
330
2D7
100
AcDbEntity
  8
Defpoints
 62
     0
100
AcDbPoint
 10
23.1882847121357
 20
35.00915180976539
 30
0.0
  0
POINT
  5
2E2
330
2D7
100
AcDbEntity
  8
Defpoints
 62
     0
100
AcDbPoint
 10
28.41573799778924
 20
35.00915180976539
 30
0.0
  0
ENDBLK
  5
2E3
330
2D7
100
AcDbEntity
  8
0
100
AcDbBlockEnd
  0
BLOCK
  5
2E6
330
2E5
100
AcDbEntity
  8
0
100
AcDbBlockBegin
  2
*D12
 70
     1
 10
0.0
 20
0.0
 30
0.0
  3
*D12
  1

  0
LINE
  5
2E7
330
2E5
100
AcDbEntity
  8
0
 62
     0
370
    -2
100
AcDbLine
 10
24.53381835529991
 20
54.47752946410209
 30
0.0
 11
28.44573799778924
 21
54.47752946410209
 31
0.0
  0
LINE
  5
2E8
330
2E5
100
AcDbEntity
  8
0
 62
     0
370
    -2
100
AcDbLine
 10
24.53381835529991
 20
55.22752946410209
 30
0.0
 11
28.44573799778924
 21
55.22752946410209
 31
0.0
  0
LINE
  5
2E9
330
2E5
100
AcDbEntity
  8
0
 62
     0
370
    -2
100
AcDbLine
 10
28.41573799778924
 20
54.47752946410209
 30
0.0
 11
28.41573799778924
 21
55.22752946410209
 31
0.0
  0
LINE
  5
2EA
330
2E5
100
AcDbEntity
  8
0
 62
     0
370
    -2
100
AcDbLine
 10
28.41573799778924
 20
55.22752946410209
 30
0.0
 11
28.41573799778924
 21
55.92136756890393
 31
0.0
  0
LINE
  5
2EB
330
2E5
100
AcDbEntity
  8
0
 62
     0
370
    -2
100
AcDbLine
 10
28.41573799778924
 20
55.92136756890393
 30
0.0
 11
28.57173799778923
 21
55.92136756890393
 31
0.0
  0
INSERT
  5
2EC
330
2E5
100
AcDbEntity
  8
0
 62
     0
370
    -2
100
AcDbBlockReference
  2
_ArchTick
 10
28.41573799778924
 20
54.47752946410209
 30
0.0
 41
0.156
 42
0.156
 43
0.156
 50
270.0
  0
INSERT
  5
2ED
330
2E5
100
AcDbEntity
  8
0
 62
     0
370
    -2
100
AcDbBlockReference
  2
_ArchTick
 10
28.41573799778924
 20
55.22752946410209
 30
0.0
 41
0.156
 42
0.156
 43
0.156
 50
90.0
  0
MTEXT
  5
2EE
330
2E5
100
AcDbEntity
  8
0
 62
     0
100
AcDbMText
 10
29.10226345093753
 20
55.92136756890393
 30
0.0
 40
0.3125
 41
0.0
 71
     5
 72
     1
  1
\A1;3/4"\P [19mm]
 73
     1
 44
1.0
1001
ACAD
1000
MTEXTBEGIN
1070
    73
1070
     1
1070
    44
1040
1.0
1070
    74
1070
     0
1000
MTEXTEND
  0
POINT
  5
2EF
330
2E5
100
AcDbEntity
  8
Defpoints
 62
     0
100
AcDbPoint
 10
24.49381835529991
 20
54.47752946410209
 30
0.0
  0
POINT
  5
2F0
330
2E5
100
AcDbEntity
  8
Defpoints
 62
     0
100
AcDbPoint
 10
24.49381835529991
 20
55.22752946410209
 30
0.0
  0
POINT
  5
2F1
330
2E5
100
AcDbEntity
  8
Defpoints
 62
     0
100
AcDbPoint
 10
28.41573799778924
 20
55.22752946410209
 30
0.0
  0
ENDBLK
  5
2F2
330
2E5
100
AcDbEntity
  8
0
100
AcDbBlockEnd
  0
BLOCK
  5
2F5
330
2F4
100
AcDbEntity
  8
0
100
AcDbBlockBegin
  2
*D13
 70
     1
 10
0.0
 20
0.0
 30
0.0
  3
*D13
  1

  0
LINE
  5
2F6
330
2F4
100
AcDbEntity
  8
0
 62
     0
370
    -2
100
AcDbLine
 10
24.53381835529991
 20
55.22752946410209
 30
0.0
 11
29.70810574895028
 21
55.22752946410209
 31
0.0
  0
LINE
  5
2F7
330
2F4
100
AcDbEntity
  8
0
 62
     0
370
    -2
100
AcDbLine
 10
23.2282847121357
 20
35.00915180976539
 30
0.0
 11
29.70810574895028
 21
35.00915180976539
 31
0.0
  0
LINE
  5
2F8
330
2F4
100
AcDbEntity
  8
0
 62
     0
370
    -2
100
AcDbLine
 10
29.67810574895028
 20
55.22752946410209
 30
0.0
 11
29.67810574895028
 21
46.89088836497888
 31
0.0
  0
LINE
  5
2F9
330
2F4
100
AcDbEntity
  8
0
 62
     0
370
    -2
100
AcDbLine
 10
29.67810574895027
 20
35.00915180976539
 30
0.0
 11
29.67810574895028
 21
45.95927157502148
 31
0.0
  0
INSERT
  5
2FA
330
2F4
100
AcDbEntity
  8
0
 62
     0
370
    -2
100
AcDbBlockReference
  2
_ArchTick
 10
29.67810574895028
 20
55.22752946410209
 30
0.0
 41
0.156
 42
0.156
 43
0.156
 50
90.0
  0
INSERT
  5
2FB
330
2F4
100
AcDbEntity
  8
0
 62
     0
370
    -2
100
AcDbBlockReference
  2
_ArchTick
 10
29.67810574895027
 20
35.00915180976539
 30
0.0
 41
0.156
 42
0.156
 43
0.156
 50
270.0
  0
MTEXT
  5
2FC
330
2F4
100
AcDbEntity
  8
0
 62
     0
100
AcDbMText
 10
29.67810574895027
 20
46.42507997000019
 30
0.0
 40
0.3125
 41
0.0
 71
     5
 72
     1
  1
\A1;ROUGH\POPENING
 73
     1
 44
1.0
1001
ACAD
1000
MTEXTBEGIN
1070
    73
1070
     1
1070
    44
1040
1.0
1070
    74
1070
     0
1000
MTEXTEND
  0
POINT
  5
2FD
330
2F4
100
AcDbEntity
  8
Defpoints
 62
     0
100
AcDbPoint
 10
24.49381835529991
 20
55.22752946410209
 30
0.0
  0
POINT
  5
2FE
330
2F4
100
AcDbEntity
  8
Defpoints
 62
     0
100
AcDbPoint
 10
23.1882847121357
 20
35.00915180976539
 30
0.0
  0
POINT
  5
2FF
330
2F4
100
AcDbEntity
  8
Defpoints
 62
     0
100
AcDbPoint
 10
29.67810574895027
 20
35.00915180976539
 30
0.0
  0
ENDBLK
  5
300
330
2F4
100
AcDbEntity
  8
0
100
AcDbBlockEnd
  0
BLOCK
  5
272
330
271
100
AcDbEntity
  8
0
100
AcDbBlockBegin
  2
*D14
 70
     1
 10
0.0
 20
0.0
 30
0.0
  3
*D14
  1

  0
LINE
  5
273
330
271
100
AcDbEntity
  8
0
 62
     0
370
    -2
100
AcDbLine
 10
18.37639871281053
 20
39.92376177121631
 30
0.0
 11
18.37639871281053
 21
39.95470361701679
 31
0.0
  0
LINE
  5
274
330
271
100
AcDbEntity
  8
0
 62
     0
370
    -2
100
AcDbLine
 10
16.62639871281053
 20
39.92376177121631
 30
0.0
 11
16.62639871281053
 21
39.95470361701679
 31
0.0
  0
LINE
  5
275
330
271
100
AcDbEntity
  8
0
 62
     0
370
    -2
100
AcDbLine
 10
18.37639871281053
 20
39.92470361701679
 30
0.0
 11
17.94433697082848
 21
39.92470361701679
 31
0.0
  0
LINE
  5
276
330
271
100
AcDbEntity
  8
0
 62
     0
370
    -2
100
AcDbLine
 10
16.62639871281053
 20
39.92470361701679
 30
0.0
 11
17.05846045479257
 21
39.92470361701679
 31
0.0
  0
INSERT
  5
277
330
271
100
AcDbEntity
  8
0
 62
     0
370
    -2
100
AcDbBlockReference
  2
_ArchTick
 10
18.37639871281053
 20
39.92470361701679
 30
0.0
 41
0.156
 42
0.156
 43
0.156
  0
INSERT
  5
278
330
271
100
AcDbEntity
  8
0
 62
     0
370
    -2
100
AcDbBlockReference
  2
_ArchTick
 10
16.62639871281053
 20
39.92470361701679
 30
0.0
 41
0.156
 42
0.156
 43
0.156
 50
180.0
  0
MTEXT
  5
279
330
271
100
AcDbEntity
  8
0
 62
     0
100
AcDbMText
 10
17.50139871281052
 20
40.12704810255814
 30
0.0
 40
0.3125
 41
0.0
 71
     5
 72
     1
  1
\A1;1 3/4"
 73
     1
 44
1.0
1001
ACAD
1000
MTEXTBEGIN
1070
    73
1070
     1
1070
    44
1040
1.0
1070
    74
1070
     0
1000
MTEXTEND
  0
MTEXT
  5
27A
330
271
100
AcDbEntity
  8
0
 62
     0
100
AcDbMText
 10
17.50139871281052
 20
39.7048112162098
 30
0.0
 40
0.3125
 41
0.0
 71
     5
 72
     1
  1
\A1;[44mm]
 73
     1
 44
1.0
1001
ACAD
1000
MTEXTBEGIN
1070
    73
1070
     1
1070
    44
1040
1.0
1070
    74
1070
     0
1000
MTEXTEND
  0
POINT
  5
27B
330
271
100
AcDbEntity
  8
Defpoints
 62
     0
100
AcDbPoint
 10
18.37639871281053
 20
39.88376177121632
 30
0.0
  0
POINT
  5
27C
330
271
100
AcDbEntity
  8
Defpoints
 62
     0
100
AcDbPoint
 10
16.62639871281053
 20
39.88376177121632
 30
0.0
  0
POINT
  5
27D
330
271
100
AcDbEntity
  8
Defpoints
 62
     0
100
AcDbPoint
 10
16.62639871281053
 20
39.92470361701679
 30
0.0
  0
ENDBLK
  5
27E
330
271
100
AcDbEntity
  8
0
100
AcDbBlockEnd
  0
BLOCK
  5
283
330
282
100
AcDbEntity
  8
0
100
AcDbBlockBegin
  2
*D15
 70
     1
 10
0.0
 20
0.0
 30
0.0
  3
*D15
  1

  0
LINE
  5
284
330
282
100
AcDbEntity
  8
0
 62
     0
370
    -2
100
AcDbLine
 10
21.93862856586671
 20
39.96470361701679
 30
0.0
 11
21.93862856586671
 21
39.95470361701679
 31
0.0
  0
LINE
  5
285
330
282
100
AcDbEntity
  8
0
 62
     0
370
    -2
100
AcDbLine
 10
23.18862856586671
 20
39.96470361701679
 30
0.0
 11
23.18862856586671
 21
39.95470361701679
 31
0.0
  0
LINE
  5
286
330
282
100
AcDbEntity
  8
0
 62
     0
370
    -2
100
AcDbLine
 10
21.93862856586671
 20
39.92470361701679
 30
0.0
 11
22.12069030784875
 21
39.92470361701679
 31
0.0
  0
LINE
  5
287
330
282
100
AcDbEntity
  8
0
 62
     0
370
    -2
100
AcDbLine
 10
23.18862856586671
 20
39.92470361701679
 30
0.0
 11
23.00656682388467
 21
39.92470361701679
 31
0.0
  0
INSERT
  5
288
330
282
100
AcDbEntity
  8
0
 62
     0
370
    -2
100
AcDbBlockReference
  2
_ArchTick
 10
21.93862856586671
 20
39.92470361701679
 30
0.0
 41
0.156
 42
0.156
 43
0.156
 50
180.0
  0
INSERT
  5
289
330
282
100
AcDbEntity
  8
0
 62
     0
370
    -2
100
AcDbBlockReference
  2
_ArchTick
 10
23.18862856586671
 20
39.92470361701679
 30
0.0
 41
0.156
 42
0.156
 43
0.156
  0
MTEXT
  5
28A
330
282
100
AcDbEntity
  8
0
 62
     0
100
AcDbMText
 10
22.56362856586671
 20
40.12704810255814
 30
0.0
 40
0.3125
 41
0.0
 71
     5
 72
     1
  1
\A1;1 1/4"
 73
     1
 44
1.0
1001
ACAD
1000
MTEXTBEGIN
1070
    73
1070
     1
1070
    44
1040
1.0
1070
    74
1070
     0
1000
MTEXTEND
  0
MTEXT
  5
28B
330
282
100
AcDbEntity
  8
0
 62
     0
100
AcDbMText
 10
22.56362856586671
 20
39.7048112162098
 30
0.0
 40
0.3125
 41
0.0
 71
     5
 72
     1
  1
\A1;[32mm]
 73
     1
 44
1.0
1001
ACAD
1000
MTEXTBEGIN
1070
    73
1070
     1
1070
    44
1040
1.0
1070
    74
1070
     0
1000
MTEXTEND
  0
POINT
  5
28C
330
282
100
AcDbEntity
  8
Defpoints
 62
     0
100
AcDbPoint
 10
21.93862856586671
 20
39.92470361701679
 30
0.0
  0
POINT
  5
28D
330
282
100
AcDbEntity
  8
Defpoints
 62
     0
100
AcDbPoint
 10
23.18862856586671
 20
39.92470361701679
 30
0.0
  0
POINT
  5
28E
330
282
100
AcDbEntity
  8
Defpoints
 62
     0
100
AcDbPoint
 10
23.18862856586671
 20
39.92470361701679
 30
0.0
  0
ENDBLK
  5
28F
330
282
100
AcDbEntity
  8
0
100
AcDbBlockEnd
  0
BLOCK
  5
294
330
293
100
AcDbEntity
  8
0
100
AcDbBlockBegin
  2
*D16
 70
     1
 10
0.0
 20
0.0
 30
0.0
  3
*D16
  1

  0
LINE
  5
295
330
293
100
AcDbEntity
  8
0
 62
     0
370
    -2
100
AcDbLine
 10
20.54189871281057
 20
54.47752946410209
 30
0.0
 11
25.84394770523045
 21
54.47752946410209
 31
0.0
  0
LINE
  5
296
330
293
100
AcDbEntity
  8
0
 62
     0
370
    -2
100
AcDbLine
 10
24.95079144780716
 20
49.07177946410242
 30
0.0
 11
25.84394770523045
 21
49.07177946410242
 31
0.0
  0
LINE
  5
297
330
293
100
AcDbEntity
  8
0
 62
     0
370
    -2
100
AcDbLine
 10
25.81394770523045
 20
54.47752946410209
 30
0.0
 11
25.81394770523045
 21
52.19689135045061
 31
0.0
  0
LINE
  5
298
330
293
100
AcDbEntity
  8
0
 62
     0
370
    -2
100
AcDbLine
 10
25.81394770523045
 20
49.07177946410242
 30
0.0
 11
25.81394770523045
 21
51.3524175777539
 31
0.0
  0
INSERT
  5
299
330
293
100
AcDbEntity
  8
0
 62
     0
370
    -2
100
AcDbBlockReference
  2
_ArchTick
 10
25.81394770523045
 20
54.47752946410209
 30
0.0
 41
0.156
 42
0.156
 43
0.156
 50
90.0
  0
INSERT
  5
29A
330
293
100
AcDbEntity
  8
0
 62
     0
370
    -2
100
AcDbBlockReference
  2
_ArchTick
 10
25.81394770523045
 20
49.07177946410242
 30
0.0
 41
0.156
 42
0.156
 43
0.156
 50
270.0
  0
MTEXT
  5
29B
330
293
100
AcDbEntity
  8
0
 62
     0
100
AcDbMText
 10
25.81394770523044
 20
51.97699894964362
 30
0.0
 40
0.3125
 41
0.0
 71
     5
 72
     1
  1
\A1;5 13/32"
 73
     1
 44
1.0
1001
ACAD
1000
MTEXTBEGIN
1070
    73
1070
     1
1070
    44
1040
1.0
1070
    74
1070
     0
1000
MTEXTEND
  0
MTEXT
  5
29C
330
293
100
AcDbEntity
  8
0
 62
     0
100
AcDbMText
 10
25.81394770523044
 20
51.55476206329527
 30
0.0
 40
0.3125
 41
0.0
 71
     5
 72
     1
  1
\A1;[137mm]
 73
     1
 44
1.0
1001
ACAD
1000
MTEXTBEGIN
1070
    73
1070
     1
1070
    44
1040
1.0
1070
    74
1070
     0
1000
MTEXTEND
  0
POINT
  5
29D
330
293
100
AcDbEntity
  8
Defpoints
 62
     0
100
AcDbPoint
 10
20.50189871281057
 20
54.47752946410209
 30
0.0
  0
POINT
  5
29E
330
293
100
AcDbEntity
  8
Defpoints
 62
     0
100
AcDbPoint
 10
24.91079144780716
 20
49.07177946410242
 30
0.0
  0
POINT
  5
29F
330
293
100
AcDbEntity
  8
Defpoints
 62
     0
100
AcDbPoint
 10
25.81394770523045
 20
49.07177946410242
 30
0.0
  0
ENDBLK
  5
2A0
330
293
100
AcDbEntity
  8
0
100
AcDbBlockEnd
  0
BLOCK
  5
2A5
330
2A4
100
AcDbEntity
  8
0
100
AcDbBlockBegin
  2
*D17
 70
     1
 10
0.0
 20
0.0
 30
0.0
  3
*D17
  1

  0
LINE
  5
2A6
330
2A4
100
AcDbEntity
  8
0
 62
     0
370
    -2
100
AcDbLine
 10
24.95079144780716
 20
47.44717286744521
 30
0.0
 11
25.84394770523045
 21
47.44717286744521
 31
0.0
  0
LINE
  5
2A7
330
2A4
100
AcDbEntity
  8
0
 62
     0
370
    -2
100
AcDbLine
 10
24.95079144780716
 20
45.32200287391684
 30
0.0
 11
25.84394770523045
 21
45.32200287391684
 31
0.0
  0
LINE
  5
2A8
330
2A4
100
AcDbEntity
  8
0
 62
     0
370
    -2
100
AcDbLine
 10
25.81394770523045
 20
47.44717286744521
 30
0.0
 11
25.81394770523045
 21
46.80682475702938
 31
0.0
  0
LINE
  5
2A9
330
2A4
100
AcDbEntity
  8
0
 62
     0
370
    -2
100
AcDbLine
 10
25.81394770523045
 20
45.32200287391684
 30
0.0
 11
25.81394770523045
 21
45.96235098433267
 31
0.0
  0
INSERT
  5
2AA
330
2A4
100
AcDbEntity
  8
0
 62
     0
370
    -2
100
AcDbBlockReference
  2
_ArchTick
 10
25.81394770523045
 20
47.44717286744521
 30
0.0
 41
0.156
 42
0.156
 43
0.156
 50
90.0
  0
INSERT
  5
2AB
330
2A4
100
AcDbEntity
  8
0
 62
     0
370
    -2
100
AcDbBlockReference
  2
_ArchTick
 10
25.81394770523045
 20
45.32200287391684
 30
0.0
 41
0.156
 42
0.156
 43
0.156
 50
270.0
  0
MTEXT
  5
2AC
330
2A4
100
AcDbEntity
  8
0
 62
     0
100
AcDbMText
 10
25.81394770523044
 20
46.5869323562224
 30
0.0
 40
0.3125
 41
0.0
 71
     5
 72
     1
  1
\A1;2 1/8"
 73
     1
 44
1.0
1001
ACAD
1000
MTEXTBEGIN
1070
    73
1070
     1
1070
    44
1040
1.0
1070
    74
1070
     0
1000
MTEXTEND
  0
MTEXT
  5
2AD
330
2A4
100
AcDbEntity
  8
0
 62
     0
100
AcDbMText
 10
25.81394770523044
 20
46.16469546987405
 30
0.0
 40
0.3125
 41
0.0
 71
     5
 72
     1
  1
\A1;[54mm]
 73
     1
 44
1.0
1001
ACAD
1000
MTEXTBEGIN
1070
    73
1070
     1
1070
    44
1040
1.0
1070
    74
1070
     0
1000
MTEXTEND
  0
POINT
  5
2AE
330
2A4
100
AcDbEntity
  8
Defpoints
 62
     0
100
AcDbPoint
 10
24.91079144780716
 20
47.44717286744521
 30
0.0
  0
POINT
  5
2AF
330
2A4
100
AcDbEntity
  8
Defpoints
 62
     0
100
AcDbPoint
 10
24.91079144780716
 20
45.32200287391684
 30
0.0
  0
POINT
  5
2B0
330
2A4
100
AcDbEntity
  8
Defpoints
 62
     0
100
AcDbPoint
 10
25.81394770523045
 20
45.32200287391684
 30
0.0
  0
ENDBLK
  5
2B1
330
2A4
100
AcDbEntity
  8
0
100
AcDbBlockEnd
  0
BLOCK
  5
2B8
330
2B7
100
AcDbEntity
  8
0
100
AcDbBlockBegin
  2
*D18
 70
     1
 10
0.0
 20
0.0
 30
0.0
  3
*D18
  1

  0
LINE
  5
2B9
330
2B7
100
AcDbEntity
  8
0
 62
     0
370
    -2
100
AcDbLine
 10
23.16612856586671
 20
36.32165180976536
 30
0.0
 11
25.84394770523045
 21
36.32165180976536
 31
0.0
  0
LINE
  5
2BA
330
2B7
100
AcDbEntity
  8
0
 62
     0
370
    -2
100
AcDbLine
 10
24.95079144780716
 20
43.69739627725967
 30
0.0
 11
25.84394770523045
 21
43.69739627725967
 31
0.0
  0
LINE
  5
2BB
330
2B7
100
AcDbEntity
  8
0
 62
     0
370
    -2
100
AcDbLine
 10
25.81394770523044
 20
36.32165180976536
 30
0.0
 11
25.81394770523044
 21
39.58728715716416
 31
0.0
  0
LINE
  5
2BC
330
2B7
100
AcDbEntity
  8
0
 62
     0
370
    -2
100
AcDbLine
 10
25.81394770523045
 20
43.69739627725967
 30
0.0
 11
25.81394770523045
 21
40.43176092986086
 31
0.0
  0
INSERT
  5
2BD
330
2B7
100
AcDbEntity
  8
0
 62
     0
370
    -2
100
AcDbBlockReference
  2
_ArchTick
 10
25.81394770523044
 20
36.32165180976536
 30
0.0
 41
0.156
 42
0.156
 43
0.156
 50
270.0
  0
INSERT
  5
2BE
330
2B7
100
AcDbEntity
  8
0
 62
     0
370
    -2
100
AcDbBlockReference
  2
_ArchTick
 10
25.81394770523045
 20
43.69739627725967
 30
0.0
 41
0.156
 42
0.156
 43
0.156
 50
90.0
  0
MTEXT
  5
2BF
330
2B7
100
AcDbEntity
  8
0
 62
     0
100
AcDbMText
 10
25.81394770523044
 20
40.21186852905388
 30
0.0
 40
0.3125
 41
0.0
 71
     5
 72
     1
  1
\A1;7 3/8"
 73
     1
 44
1.0
1001
ACAD
1000
MTEXTBEGIN
1070
    73
1070
     1
1070
    44
1040
1.0
1070
    74
1070
     0
1000
MTEXTEND
  0
MTEXT
  5
2C0
330
2B7
100
AcDbEntity
  8
0
 62
     0
100
AcDbMText
 10
25.81394770523044
 20
39.78963164270553
 30
0.0
 40
0.3125
 41
0.0
 71
     5
 72
     1
  1
\A1;[187mm]
 73
     1
 44
1.0
1001
ACAD
1000
MTEXTBEGIN
1070
    73
1070
     1
1070
    44
1040
1.0
1070
    74
1070
     0
1000
MTEXTEND
  0
POINT
  5
2C1
330
2B7
100
AcDbEntity
  8
Defpoints
 62
     0
100
AcDbPoint
 10
23.12612856586671
 20
36.32165180976536
 30
0.0
  0
POINT
  5
2C2
330
2B7
100
AcDbEntity
  8
Defpoints
 62
     0
100
AcDbPoint
 10
24.91079144780716
 20
43.69739627725967
 30
0.0
  0
POINT
  5
2C3
330
2B7
100
AcDbEntity
  8
Defpoints
 62
     0
100
AcDbPoint
 10
25.81394770523045
 20
43.69739627725967
 30
0.0
  0
ENDBLK
  5
2C4
330
2B7
100
AcDbEntity
  8
0
100
AcDbBlockEnd
  0
BLOCK
  5
2C9
330
2C8
100
AcDbEntity
  8
0
100
AcDbBlockBegin
  2
*D19
 70
     1
 10
0.0
 20
0.0
 30
0.0
  3
*D19
  1

  0
LINE
  5
2CA
330
2C8
100
AcDbEntity
  8
0
 62
     0
370
    -2
100
AcDbLine
 10
23.16612856586671
 20
36.32165180976536
 30
0.0
 11
25.84394770523045
 21
36.32165180976536
 31
0.0
  0
LINE
  5
2CB
330
2C8
100
AcDbEntity
  8
0
 62
     0
370
    -2
100
AcDbLine
 10
23.2282847121357
 20
35.00915180976539
 30
0.0
 11
25.84394770523045
 21
35.00915180976539
 31
0.0
  0
LINE
  5
2CC
330
2C8
100
AcDbEntity
  8
0
 62
     0
370
    -2
100
AcDbLine
 10
25.81394770523045
 20
36.32165180976536
 30
0.0
 11
25.81394770523045
 21
36.08763869611372
 31
0.0
  0
LINE
  5
2CD
330
2C8
100
AcDbEntity
  8
0
 62
     0
370
    -2
100
AcDbLine
 10
25.81394770523045
 20
35.00915180976539
 30
0.0
 11
25.81394770523045
 21
35.24316492341702
 31
0.0
  0
INSERT
  5
2CE
330
2C8
100
AcDbEntity
  8
0
 62
     0
370
    -2
100
AcDbBlockReference
  2
_ArchTick
 10
25.81394770523045
 20
36.32165180976536
 30
0.0
 41
0.156
 42
0.156
 43
0.156
 50
90.0
  0
INSERT
  5
2CF
330
2C8
100
AcDbEntity
  8
0
 62
     0
370
    -2
100
AcDbBlockReference
  2
_ArchTick
 10
25.81394770523045
 20
35.00915180976539
 30
0.0
 41
0.156
 42
0.156
 43
0.156
 50
270.0
  0
MTEXT
  5
2D0
330
2C8
100
AcDbEntity
  8
0
 62
     0
100
AcDbMText
 10
25.81394770523044
 20
35.86774629530674
 30
0.0
 40
0.3125
 41
0.0
 71
     5
 72
     1
  1
\A1;1 5/16"
 73
     1
 44
1.0
1001
ACAD
1000
MTEXTBEGIN
1070
    73
1070
     1
1070
    44
1040
1.0
1070
    74
1070
     0
1000
MTEXTEND
  0
MTEXT
  5
2D1
330
2C8
100
AcDbEntity
  8
0
 62
     0
100
AcDbMText
 10
25.81394770523044
 20
35.44550940895839
 30
0.0
 40
0.3125
 41
0.0
 71
     5
 72
     1
  1
\A1;[33mm]
 73
     1
 44
1.0
1001
ACAD
1000
MTEXTBEGIN
1070
    73
1070
     1
1070
    44
1040
1.0
1070
    74
1070
     0
1000
MTEXTEND
  0
POINT
  5
2D2
330
2C8
100
AcDbEntity
  8
Defpoints
 62
     0
100
AcDbPoint
 10
23.12612856586671
 20
36.32165180976536
 30
0.0
  0
POINT
  5
2D3
330
2C8
100
AcDbEntity
  8
Defpoints
 62
     0
100
AcDbPoint
 10
23.1882847121357
 20
35.00915180976539
 30
0.0
  0
POINT
  5
2D4
330
2C8
100
AcDbEntity
  8
Defpoints
 62
     0
100
AcDbPoint
 10
25.81394770523045
 20
35.00915180976539
 30
0.0
  0
ENDBLK
  5
2D5
330
2C8
100
AcDbEntity
  8
0
100
AcDbBlockEnd
  0
BLOCK
  5
305
330
304
100
AcDbEntity
  8
0
100
AcDbBlockBegin
  2
*D20
 70
     1
 10
0.0
 20
0.0
 30
0.0
  3
*D20
  1

  0
LINE
  5
306
330
304
100
AcDbEntity
  8
0
 62
     0
370
    -2
100
AcDbLine
 10
15.64739871281056
 20
54.47752946410209
 30
0.0
 11
13.41516086712343
 21
54.47752946410209
 31
0.0
  0
LINE
  5
307
330
304
100
AcDbEntity
  8
0
 62
     0
370
    -2
100
AcDbLine
 10
16.97464378704398
 20
49.0721912388254
 30
0.0
 11
13.41516086712343
 21
49.07219123882541
 31
0.0
  0
LINE
  5
308
330
304
100
AcDbEntity
  8
0
 62
     0
370
    -2
100
AcDbLine
 10
13.44516086712343
 20
54.47752946410209
 30
0.0
 11
13.44516086712343
 21
52.1970972378121
 31
0.0
  0
LINE
  5
309
330
304
100
AcDbEntity
  8
0
 62
     0
370
    -2
100
AcDbLine
 10
13.44516086712343
 20
49.07219123882541
 30
0.0
 11
13.44516086712343
 21
51.35262346511539
 31
0.0
  0
INSERT
  5
30A
330
304
100
AcDbEntity
  8
0
 62
     0
370
    -2
100
AcDbBlockReference
  2
_ArchTick
 10
13.44516086712343
 20
54.47752946410209
 30
0.0
 41
0.156
 42
0.156
 43
0.156
 50
90.0
  0
INSERT
  5
30B
330
304
100
AcDbEntity
  8
0
 62
     0
370
    -2
100
AcDbBlockReference
  2
_ArchTick
 10
13.44516086712343
 20
49.07219123882541
 30
0.0
 41
0.156
 42
0.156
 43
0.156
 50
270.0
  0
MTEXT
  5
30C
330
304
100
AcDbEntity
  8
0
 62
     0
100
AcDbMText
 10
13.44516086712342
 20
51.97720483700511
 30
0.0
 40
0.3125
 41
0.0
 71
     5
 72
     1
  1
\A1;5 13/32"
 73
     1
 44
1.0
1001
ACAD
1000
MTEXTBEGIN
1070
    73
1070
     1
1070
    44
1040
1.0
1070
    74
1070
     0
1000
MTEXTEND
  0
MTEXT
  5
30D
330
304
100
AcDbEntity
  8
0
 62
     0
100
AcDbMText
 10
13.44516086712342
 20
51.55496795065675
 30
0.0
 40
0.3125
 41
0.0
 71
     5
 72
     1
  1
\A1;[137mm]
 73
     1
 44
1.0
1001
ACAD
1000
MTEXTBEGIN
1070
    73
1070
     1
1070
    44
1040
1.0
1070
    74
1070
     0
1000
MTEXTEND
  0
POINT
  5
30E
330
304
100
AcDbEntity
  8
Defpoints
 62
     0
100
AcDbPoint
 10
15.68739871281056
 20
54.47752946410209
 30
0.0
  0
POINT
  5
30F
330
304
100
AcDbEntity
  8
Defpoints
 62
     0
100
AcDbPoint
 10
17.01464378704398
 20
49.0721912388254
 30
0.0
  0
POINT
  5
310
330
304
100
AcDbEntity
  8
Defpoints
 62
     0
100
AcDbPoint
 10
13.44516086712343
 20
49.07219123882541
 30
0.0
  0
ENDBLK
  5
311
330
304
100
AcDbEntity
  8
0
100
AcDbBlockEnd
  0
BLOCK
  5
316
330
315
100
AcDbEntity
  8
0
100
AcDbBlockBegin
  2
*D21
 70
     1
 10
0.0
 20
0.0
 30
0.0
  3
*D21
  1

  0
LINE
  5
317
330
315
100
AcDbEntity
  8
0
 62
     0
370
    -2
100
AcDbLine
 10
16.97464378704393
 20
43.69715180976533
 30
0.0
 11
13.41516086712343
 21
43.69715180976533
 31
0.0
  0
LINE
  5
318
330
315
100
AcDbEntity
  8
0
 62
     0
370
    -2
100
AcDbLine
 10
15.57827964702888
 20
35.00915180976536
 30
0.0
 11
13.41516086712343
 21
35.00915180976536
 31
0.0
  0
LINE
  5
319
330
315
100
AcDbEntity
  8
0
 62
     0
370
    -2
100
AcDbLine
 10
13.44516086712343
 20
43.69715180976533
 30
0.0
 11
13.44516086712343
 21
39.7753886961137
 31
0.0
  0
LINE
  5
31A
330
315
100
AcDbEntity
  8
0
 62
     0
370
    -2
100
AcDbLine
 10
13.44516086712343
 20
35.00915180976536
 30
0.0
 11
13.44516086712343
 21
38.930914923417
 31
0.0
  0
INSERT
  5
31B
330
315
100
AcDbEntity
  8
0
 62
     0
370
    -2
100
AcDbBlockReference
  2
_ArchTick
 10
13.44516086712343
 20
43.69715180976533
 30
0.0
 41
0.156
 42
0.156
 43
0.156
 50
90.0
  0
INSERT
  5
31C
330
315
100
AcDbEntity
  8
0
 62
     0
370
    -2
100
AcDbBlockReference
  2
_ArchTick
 10
13.44516086712343
 20
35.00915180976536
 30
0.0
 41
0.156
 42
0.156
 43
0.156
 50
270.0
  0
MTEXT
  5
31D
330
315
100
AcDbEntity
  8
0
 62
     0
100
AcDbMText
 10
13.44516086712342
 20
39.55549629530671
 30
0.0
 40
0.3125
 41
0.0
 71
     5
 72
     1
  1
\A1;8 11/16"
 73
     1
 44
1.0
1001
ACAD
1000
MTEXTBEGIN
1070
    73
1070
     1
1070
    44
1040
1.0
1070
    74
1070
     0
1000
MTEXTEND
  0
MTEXT
  5
31E
330
315
100
AcDbEntity
  8
0
 62
     0
100
AcDbMText
 10
13.44516086712342
 20
39.13325940895836
 30
0.0
 40
0.3125
 41
0.0
 71
     5
 72
     1
  1
\A1;[221mm]
 73
     1
 44
1.0
1001
ACAD
1000
MTEXTBEGIN
1070
    73
1070
     1
1070
    44
1040
1.0
1070
    74
1070
     0
1000
MTEXTEND
  0
POINT
  5
31F
330
315
100
AcDbEntity
  8
Defpoints
 62
     0
100
AcDbPoint
 10
17.01464378704392
 20
43.69715180976533
 30
0.0
  0
POINT
  5
320
330
315
100
AcDbEntity
  8
Defpoints
 62
     0
100
AcDbPoint
 10
15.61827964702888
 20
35.00915180976536
 30
0.0
  0
POINT
  5
321
330
315
100
AcDbEntity
  8
Defpoints
 62
     0
100
AcDbPoint
 10
13.44516086712343
 20
35.00915180976536
 30
0.0
  0
ENDBLK
  5
322
330
315
100
AcDbEntity
  8
0
100
AcDbBlockEnd
  0
ENDSEC
  0
SECTION
  2
ENTITIES
  0
LWPOLYLINE
  5
6A
330
2
100
AcDbEntity
  8
0
  6
Continuous
100
AcDbPolyline
 90
       19
 70
     1
 43
0.0
 10
18.00139871281058
 20
49.38502393159676
 10
18.00139871281058
 20
49.63469123882539
 10
17.81439871281057
 20
49.63469123882539
 10
17.81439871281057
 20
49.73452393159677
 42
1.045128398166766
 10
17.6278067620623
 20
49.72528244724971
 42
-0.4419056050544676
 10
17.54517017552305
 20
49.63452393159674
 10
16.68839871281054
 20
49.63452393159674
 10
16.62639871281053
 20
49.69652393159676
 10
16.62639871281053
 20
53.60252393159676
 42
-0.4142135623730951
 10
16.68839871281054
 20
53.66452393159675
 10
18.31439871281057
 20
53.66452393159675
 42
-0.4142135623730951
 10
18.37639871281053
 20
53.60252393159676
 10
18.37639871281053
 20
49.3853040086948
 10
18.31439871281057
 20
49.32330400869479
 10
18.28135976569226
 20
49.32330400869479
 42
-0.3899024490717814
 10
18.09635976569225
 20
49.12213115736763
 10
18.09635976569225
 20
49.07252393159673
 10
18.00139871281053
 20
49.07252393159676
 10
18.00139871281053
 20
49.19752393159676
 42
0.7066666666666829
  0
LWPOLYLINE
  5
6B
102
{ACAD_REACTORS
330
270
102
}
330
2
100
AcDbEntity
  8
0
  6
Continuous
100
AcDbPolyline
 90
       19
 70
     1
 43
0.0
 10
18.00139871281053
 20
43.38415180976532
 10
18.00139871281053
 20
43.13448450253669
 10
17.81439871281057
 20
43.13448450253669
 10
17.81439871281057
 20
43.03465180976532
 42
-1.045128398166766
 10
17.62780676206236
 20
43.04389329411238
 42
0.4419056050544676
 10
17.54517017552305
 20
43.13465180976534
 10
16.68839871281054
 20
43.13465180976534
 10
16.62639871281053
 20
43.07265180976533
 10
16.62639871281053
 20
36.38365180976534
 42
0.4142135623730951
 10
16.68839871281054
 20
36.32165180976536
 10
18.31439871281051
 20
36.32165180976536
 42
0.4142135623730951
 10
18.37639871281053
 20
36.38365180976534
 10
18.37639871281053
 20
43.38387173266728
 10
18.31439871281051
 20
43.4458717326673
 10
18.28135976569226
 20
43.4458717326673
 42
0.3899024490717814
 10
18.09635976569225
 20
43.64704458399446
 10
18.09635976569225
 20
43.69665180976535
 10
18.00139871281053
 20
43.69665180976532
 10
18.00139871281053
 20
43.57165180976532
 42
-0.7066666666666826
  0
LINE
  5
6C
330
2
100
AcDbEntity
  8
0
  6
Continuous
100
AcDbLine
 10
18.37643088355494
 20
36.32165180976536
 30
0.0
 11
16.62639871281053
 21
36.32165180976536
 31
0.0
  0
LINE
  5
6D
330
2
100
AcDbEntity
  8
0
  6
Continuous
100
AcDbLine
 10
16.62639871281053
 20
36.32165180976536
 30
0.0
 11
16.62639871281053
 21
36.21265180976535
 31
0.0
  0
LINE
  5
6E
330
2
100
AcDbEntity
  8
0
  6
Continuous
100
AcDbLine
 10
16.62639871281053
 20
36.21265180976535
 30
0.0
 11
18.48539871281056
 21
36.21265180976535
 31
0.0
  0
LINE
  5
6F
330
2
100
AcDbEntity
  8
0
  6
Continuous
100
AcDbLine
 10
18.48539871281056
 20
36.21265180976535
 30
0.0
 11
18.48539871281056
 21
36.50965180976534
 31
0.0
  0
ARC
  5
70
330
2
100
AcDbEntity
  8
0
  6
Continuous
100
AcDbCircle
 10
18.42339871281055
 20
36.50965180976534
 30
0.0
 40
0.0620000000000118
100
AcDbArc
 50
0.0
 51
90.0
  0
LINE
  5
71
330
2
100
AcDbEntity
  8
0
  6
Continuous
100
AcDbLine
 10
18.42339871281055
 20
36.57165180976536
 30
0.0
 11
18.37639871281053
 21
36.57165180976536
 31
0.0
  0
LINE
  5
72
330
2
100
AcDbEntity
  8
0
  6
Continuous
100
AcDbLine
 10
18.37639871281053
 20
36.57165180976536
 30
0.0
 11
18.37639871281053
 21
36.32165180976536
 31
0.0
  0
LWPOLYLINE
  5
73
330
2
100
AcDbEntity
  8
0
100
AcDbPolyline
 90
       15
 70
     0
 43
0.0
 10
15.68739871281056
 20
54.10152946410211
 42
0.4142135623730951
 10
15.74939871281057
 20
54.0395294641021
 10
16.62639871281053
 20
54.0395294641021
 10
16.62639871281064
 20
55.2895294641021
 10
16.68839871281059
 20
55.2895294641021
 10
16.68839871281059
 20
55.9145294641021
 10
15.6253987128106
 20
55.9145294641021
 42
0.4142135623731003
 10
15.56339871281059
 20
55.85252946410209
 10
15.56339871281059
 20
55.3205294641021
 42
0.4142135623730951
 10
15.59439871281054
 20
55.2895294641021
 10
15.6253987128106
 20
55.2895294641021
 10
15.6253987128106
 20
55.07052946410211
 42
0.4142135623730951
 10
15.65639871281056
 20
55.0395294641021
 10
15.68739871281056
 20
55.0395294641021
 10
15.68739871281056
 20
54.10152947357143
  0
HATCH
  5
74
330
2
100
AcDbEntity
  8
0
  6
Continuous
100
AcDbHatch
 10
0.0
 20
0.0
 30
0.0
210
0.0
220
0.0
230
1.0
  2
STEEL
 70
     0
 71
     0
 91
        1
 92
        7
 72
     0
 73
     1
 93
        6
 10
16.68839871281054
 20
54.5395294641021
 10
16.68839871281059
 20
55.25934772803778
 10
16.62639871281058
 20
55.25934772803778
 10
16.62639871281053
 20
54.47752946410209
 10
17.28353010708528
 20
54.47752946410209
 10
17.28353010708528
 20
54.5395294641021
 97
        0
 75
     0
 76
     1
 52
-0.0000000000000127
 41
1.0
 77
     0
 78
     2
 53
44.99999999999999
 43
114.5817835483363
 44
11.27347698309502
 45
-0.0883883476483184
 46
0.0883883476483185
 79
     0
 53
44.99999999999999
 43
114.5817835483363
 44
11.33597698309502
 45
-0.0883883476483184
 46
0.0883883476483185
 79
     0
 47
0.003572857848563
 98
        1
 10
16.79697427795494
 20
54.51191137714586
  0
LINE
  5
75
330
2
100
AcDbEntity
  8
0
100
AcDbLine
 10
16.62639871281058
 20
55.25934772803778
 30
0.0
 11
16.62639871281053
 21
54.47752946410209
 31
0.0
  0
LINE
  5
76
330
2
100
AcDbEntity
  8
0
  6
Continuous
100
AcDbLine
 10
16.62639871281053
 20
54.47752946410209
 30
0.0
 11
17.28353010708528
 21
54.47752946410209
 31
0.0
  0
LINE
  5
77
330
2
100
AcDbEntity
  8
0
  6
Continuous
100
AcDbLine
 10
16.68839871281054
 20
54.5395294641021
 30
0.0
 11
17.28353010708528
 21
54.5395294641021
 31
0.0
  0
LINE
  5
78
330
2
100
AcDbEntity
  8
0
  6
Continuous
100
AcDbLine
 10
17.28353010708528
 20
54.5395294641021
 30
0.0
 11
17.28353010708528
 21
54.47752946410209
 31
0.0
  0
LINE
  5
79
330
2
100
AcDbEntity
  8
0
100
AcDbLine
 10
16.68839871281059
 20
55.25934772803778
 30
0.0
 11
16.68839871281054
 21
54.5395294641021
 31
0.0
  0
INSERT
  5
7A
330
2
100
AcDbEntity
  8
0
100
AcDbBlockReference
  2
8 x .75 FH
 10
16.68839871281059
 20
54.89943859606997
 30
0.0
 50
270.0
  0
INSERT
  5
C8
330
2
100
AcDbEntity
  8
0
100
AcDbBlockReference
  2
8 X .625 PH
 10
16.98596440994791
 20
54.5395294641021
 30
0.0
  0
LINE
  5
11D
330
2
100
AcDbEntity
  8
0
100
AcDbLine
 10
16.68839871281059
 20
55.25934772803778
 30
0.0
 11
16.62639871281064
 21
55.25934772803781
 31
0.0
  0
HATCH
  5
11E
330
2
100
AcDbEntity
  8
0
100
AcDbHatch
 10
0.0
 20
0.0
 30
0.0
210
0.0
220
0.0
230
1.0
  2
SOLID
 70
     1
 71
     0
 91
        1
 92
        7
 72
     1
 73
     1
 93
        2
 10
18.00139871281053
 20
49.1971912388254
 42
0.0
 10
18.00139871281058
 20
49.38469123882537
 42
-0.6666666666666311
 97
        0
 75
     1
 76
     1
 47
0.0010014887122476
 98
        1
 10
18.04745878915744
 20
49.31209643486953
1001
GradientColor1ACI
1070
     5
1001
GradientColor2ACI
1070
     2
1001
ACAD
1010
0.0
1020
0.0
1030
0.0
  0
HATCH
  5
121
330
2
100
AcDbEntity
  8
0
100
AcDbHatch
 10
0.0
 20
0.0
 30
0.0
210
0.0
220
0.0
230
1.0
  2
SOLID
 70
     1
 71
     0
 91
        1
 92
        7
 72
     1
 73
     1
 93
        2
 10
17.09216855533046
 20
49.1971912388254
 42
0.0
 10
17.09216855533046
 20
49.38469123882537
 42
0.6666666666666311
 97
        0
 75
     1
 76
     1
 47
0.0010014887122476
 98
        1
 10
17.04610847898354
 20
49.31209643486953
1001
GradientColor1ACI
1070
     5
1001
GradientColor2ACI
1070
     2
1001
ACAD
1010
0.0
1020
0.0
1030
0.0
  0
LWPOLYLINE
  5
122
102
{ACAD_REACTORS
330
303
102
}
330
2
100
AcDbEntity
  8
0
100
AcDbPolyline
 90
       11
 70
     1
 43
0.0
 10
17.09216855533046
 20
49.38469123882537
 10
17.09216855533046
 20
49.63469123882539
 10
16.71816855533043
 20
49.63469123882537
 10
16.71816855533043
 20
49.35319123882537
 42
0.4142135623731695
 10
16.74916855533038
 20
49.32219123882539
 10
16.79569332361691
 20
49.32219123882539
 42
-0.235730494161761
 10
16.82046951819294
 20
49.30982293714656
 10
16.98986759246796
 20
49.08455954050423
 42
0.235730494161718
 10
17.01464378704398
 20
49.0721912388254
 10
17.09216855533046
 20
49.0721912388254
 10
17.09216855533046
 20
49.1971912388254
 42
-0.6666666666666588
  0
LWPOLYLINE
  5
123
330
2
100
AcDbEntity
  8
0
100
AcDbPolyline
 90
        4
 70
     0
 43
0.0
 10
17.84365863407052
 20
48.44708787068104
 10
17.84365863407052
 20
49.52569123882502
 10
18.00139871281058
 20
49.52569123882502
 10
18.00139871281058
 20
48.44708787068104
  0
LWPOLYLINE
  5
124
330
2
100
AcDbEntity
  8
0
100
AcDbPolyline
 90
        4
 70
     0
 43
0.0
 10
17.24990863407052
 20
48.44708787068104
 10
17.24990863407052
 20
49.52569123882502
 10
17.09216855533046
 20
49.52569123882502
 10
17.09216855533046
 20
48.44708787068104
  0
LWPOLYLINE
  5
125
330
2
100
AcDbEntity
  8
0
100
AcDbPolyline
 90
       14
 70
     1
 43
0.0
 10
17.35928363407052
 20
49.31586649787648
 42
-0.3359746306540741
 10
17.32677972432353
 20
49.29550373882474
 10
17.29090863407069
 20
49.31969123882488
 42
0.4142135623730951
 10
17.27528363407069
 20
49.30406623882489
 10
17.27528363407069
 20
49.12244123882472
 10
17.81828363407035
 20
49.12244123882472
 10
17.81828363407035
 20
49.30406623882489
 42
0.414213562373094
 10
17.80265863407035
 20
49.31969123882488
 10
17.76717084601219
 20
49.29550373882474
 42
-0.3208708054700532
 10
17.73428363407052
 20
49.31622940695714
 10
17.73428363407052
 20
49.3730662388253
 42
0.4142135623730951
 10
17.71865863407052
 20
49.3886912388253
 10
17.37490863407052
 20
49.3886912388253
 42
0.4142135623730951
 10
17.35928363407052
 20
49.3730662388253
  0
LWPOLYLINE
  5
126
330
2
100
AcDbEntity
  8
0
100
AcDbPolyline
 90
       14
 70
     1
 43
0.0
 10
17.36628363407104
 20
49.31464809773213
 42
-0.3593608004949541
 10
17.32428374674706
 20
49.28874408185136
 10
17.28906479963476
 20
49.31249184857013
 42
0.3524310491054993
 10
17.28228363407029
 20
49.30406623882489
 10
17.28228363407029
 20
49.12244123882472
 10
17.81128363407075
 20
49.12244123882472
 10
17.81128363407075
 20
49.30406623882489
 42
0.3518693664465323
 10
17.80451930636914
 20
49.31248814618637
 10
17.76959491520315
 20
49.28868464200703
 42
-0.3446308864324803
 10
17.72728363407
 20
49.31492355600865
 10
17.72728363407
 20
49.3730662388253
 42
0.4142135623730946
 10
17.71865863407052
 20
49.38169123882478
 10
17.37490863407052
 20
49.38169123882478
 42
0.4142135623730946
 10
17.36628363407104
 20
49.3730662388253
  0
LWPOLYLINE
  5
127
330
2
100
AcDbEntity
  8
0
100
AcDbPolyline
 90
       10
 70
     1
 43
0.0
 10
17.39053363407052
 20
49.31112873882473
 42
-0.3584554666094669
 10
17.32562978791716
 20
49.26425373882473
 10
17.30653363407069
 20
49.26425373882473
 10
17.30653363407069
 20
49.15369123882472
 10
17.78703363407035
 20
49.15369123882472
 10
17.78703363407035
 20
49.26425373882473
 10
17.76793748022388
 20
49.26425373882473
 42
-0.3467993108968364
 10
17.70303363407052
 20
49.31112873882473
 10
17.70303363407052
 20
49.3574412388253
 10
17.39053363407052
 20
49.3574412388253
  0
LWPOLYLINE
  5
128
330
2
100
AcDbEntity
  8
0
100
AcDbPolyline
 90
        6
 70
     0
 43
0.0
 10
17.27528363407069
 20
49.15069123882502
 10
17.26553363407052
 20
49.15069123882502
 10
17.26553363407052
 20
49.11269123882455
 10
17.82803363407052
 20
49.11269123882455
 10
17.82803363407052
 20
49.15069123882502
 10
17.81828363407035
 20
49.15069123882502
  0
LINE
  5
129
330
2
100
AcDbEntity
  8
0
100
AcDbLine
 10
17.81828363407035
 20
49.30406623882489
 30
0.0
 11
17.84365863407052
 21
49.30406623882489
 31
0.0
  0
LINE
  5
12A
330
2
100
AcDbEntity
  8
0
100
AcDbLine
 10
17.81828363407035
 20
49.15069123882502
 30
0.0
 11
17.84365863407052
 21
49.15069123882502
 31
0.0
  0
LINE
  5
12B
330
2
100
AcDbEntity
  8
0
100
AcDbLine
 10
17.27528363407069
 20
49.30406623882489
 30
0.0
 11
17.24990863407052
 21
49.30406623882489
 31
0.0
  0
LINE
  5
12C
330
2
100
AcDbEntity
  8
0
100
AcDbLine
 10
17.27528363407069
 20
49.15069123882502
 30
0.0
 11
17.24990863407052
 21
49.15069123882502
 31
0.0
  0
HATCH
  5
12D
330
2
100
AcDbEntity
  8
0
  6
Continuous
100
AcDbHatch
 10
0.0
 20
0.0
 30
0.0
210
0.0
220
0.0
230
1.0
  2
DOTS
 70
     0
 71
     0
 91
        2
 92
        7
 72
     0
 73
     1
 93
        4
 10
17.27528363407069
 20
49.30406623882489
 10
17.24990863407052
 20
49.30406623882489
 10
17.24990863407052
 20
49.15069123882502
 10
17.27528363407069
 20
49.15069123882502
 97
        0
 92
        7
 72
     0
 73
     1
 93
        4
 10
17.84365863407052
 20
49.30406623882489
 10
17.81828363407035
 20
49.30406623882489
 10
17.81828363407035
 20
49.15069123882502
 10
17.84365863407052
 20
49.15069123882502
 97
        0
 75
     0
 76
     1
 52
360.0
 41
0.1
 77
     0
 78
     1
 53
360.0
 43
11.15642888853395
 44
51.59839598241167
 45
0.003125
 46
-0.00625
 79
     2
 49
0.0
 49
-0.00625
 47
0.0006001443632006
 98
        2
 10
17.26356334392326
 20
49.24648129877649
 10
17.83344827331908
 20
49.24288042497763
  0
HATCH
  5
12E
330
2
100
AcDbEntity
  8
0
  6
Continuous
100
AcDbHatch
 10
0.0
 20
0.0
 30
0.0
210
0.0
220
0.0
230
1.0
  2
DASH
 70
     0
 71
     0
 91
        1
 92
        7
 72
     1
 73
     1
 93
       16
 10
17.71865863407052
 20
49.3886912388253
 42
-0.4142135623730951
 10
17.73428363407052
 20
49.3730662388253
 42
0.0
 10
17.73428363407052
 20
49.31622940695714
 42
0.3208708054700533
 10
17.76717084601219
 20
49.29550373882474
 42
0.0
 10
17.80265863407035
 20
49.31969123882488
 42
-0.414213562373094
 10
17.81828363407035
 20
49.30406623882489
 42
0.0
 10
17.84365863407143
 20
49.30406623882489
 42
0.0
 10
17.84365863406961
 20
49.52569123882411
 42
0.0
 10
17.24990863407052
 20
49.52569123882411
 42
0.0
 10
17.24990863407052
 20
49.30406623882489
 42
0.0
 10
17.27528363407069
 20
49.30406623882489
 42
-0.4142135623730951
 10
17.29090863407069
 20
49.31969123882488
 42
0.0
 10
17.32677972432353
 20
49.29550373882474
 42
0.3359746306540741
 10
17.35928363407052
 20
49.31586649787648
 42
0.0
 10
17.35928363407052
 20
49.3730662388253
 42
-0.4142135623730951
 10
17.37490863407052
 20
49.3886912388253
 42
0.0
 97
        0
 75
     0
 76
     1
 52
360.0
 41
0.1
 77
     0
 78
     1
 53
360.0
 43
11.15642888853395
 44
51.59839598241167
 45
0.0125
 46
-0.0125
 79
     2
 49
0.0125
 49
-0.0125
 47
0.0009600803746669
 98
        1
 10
17.5958051141553
 20
49.43953051101932
  0
LINE
  5
12F
330
2
100
AcDbEntity
  8
0
100
AcDbLine
 10
17.09216855533046
 20
49.63469123882539
 30
0.0
 11
18.00139871281058
 21
49.52569123882502
 31
0.0
  0
LWPOLYLINE
  5
130
330
2
100
AcDbEntity
  8
0
100
AcDbPolyline
 90
        8
 70
     0
 43
0.0
 10
17.09216855533046
 20
49.63469123882539
 10
18.00139871281058
 20
49.63469123882539
 10
18.00139871281058
 20
49.52569123882502
 10
17.09216855533046
 20
49.52569123882502
 10
17.09216855533046
 20
49.63469123882539
 10
18.00139871281058
 20
49.52569123882502
 10
17.09216855533046
 20
49.52569123882502
 10
18.00139871281058
 20
49.63469123882539
  0
HATCH
  5
131
330
2
100
AcDbEntity
  8
0
100
AcDbHatch
 10
0.0
 20
0.0
 30
0.0
210
0.0
220
0.0
230
1.0
  2
SOLID
 70
     1
 71
     0
 91
        1
 92
        7
 72
     1
 73
     1
 93
        2
 10
18.00139871281053
 20
43.57215180976533
 42
0.0
 10
18.00139871281053
 20
43.38465180976536
 42
0.6666666666666311
 97
        0
 75
     1
 76
     1
 47
0.0010014887122476
 98
        1
 10
18.04745878915744
 20
43.45724661372119
1001
GradientColor1ACI
1070
     5
1001
GradientColor2ACI
1070
     2
1001
ACAD
1010
0.0
1020
0.0
1030
0.0
  0
HATCH
  5
132
330
2
100
AcDbEntity
  8
0
100
AcDbHatch
 10
0.0
 20
0.0
 30
0.0
210
0.0
220
0.0
230
1.0
  2
SOLID
 70
     1
 71
     0
 91
        1
 92
        7
 72
     1
 73
     1
 93
        2
 10
17.09216855533046
 20
43.57215180976533
 42
0.0
 10
17.0921685553304
 20
43.38465180976536
 42
-0.6666666666666311
 97
        0
 75
     1
 76
     1
 47
0.0010014887122476
 98
        1
 10
17.04610847898354
 20
43.45724661372119
1001
GradientColor1ACI
1070
     5
1001
GradientColor2ACI
1070
     2
1001
ACAD
1010
0.0
1020
0.0
1030
0.0
  0
LWPOLYLINE
  5
133
102
{ACAD_REACTORS
330
314
102
}
330
2
100
AcDbEntity
  8
0
100
AcDbPolyline
 90
       11
 70
     1
 43
0.0
 10
17.0921685553304
 20
43.38465180976536
 10
17.0921685553304
 20
43.13465180976533
 10
16.71816855533043
 20
43.13465180976535
 10
16.71816855533038
 20
43.41615180976535
 42
-0.4142135623731695
 10
16.74916855533038
 20
43.44715180976533
 10
16.79569332361686
 20
43.44715180976533
 42
0.235730494161761
 10
16.82046951819288
 20
43.45952011144416
 10
16.9898675924679
 20
43.6847835080865
 42
-0.235730494161718
 10
17.01464378704392
 20
43.69715180976533
 10
17.09216855533046
 20
43.69715180976533
 10
17.09216855533046
 20
43.57215180976533
 42
0.6666666666666588
  0
LWPOLYLINE
  5
134
330
2
100
AcDbEntity
  8
0
100
AcDbPolyline
 90
        4
 70
     0
 43
0.0
 10
17.84365863407046
 20
44.32225517790968
 10
17.84365863407046
 20
43.2436518097657
 10
18.00139871281053
 20
43.2436518097657
 10
18.00139871281053
 20
44.32225517790968
  0
LWPOLYLINE
  5
135
330
2
100
AcDbEntity
  8
0
100
AcDbPolyline
 90
        4
 70
     0
 43
0.0
 10
17.24990863407046
 20
44.32225517790968
 10
17.24990863407046
 20
43.2436518097657
 10
17.0921685553304
 20
43.2436518097657
 10
17.0921685553304
 20
44.32225517790968
  0
LWPOLYLINE
  5
136
330
2
100
AcDbEntity
  8
0
100
AcDbPolyline
 90
       14
 70
     1
 43
0.0
 10
17.35928363407046
 20
43.45347655071424
 42
0.3359746306540741
 10
17.32677972432347
 20
43.47383930976599
 10
17.29090863407063
 20
43.44965180976584
 42
-0.4142135623730951
 10
17.27528363407063
 20
43.46527680976584
 10
17.27528363407063
 20
43.64690180976601
 10
17.81828363407029
 20
43.64690180976601
 10
17.81828363407029
 20
43.46527680976584
 42
-0.414213562373094
 10
17.8026586340703
 20
43.44965180976584
 10
17.76717084601213
 20
43.47383930976599
 42
0.3208708054700532
 10
17.73428363407046
 20
43.45311364163359
 10
17.73428363407046
 20
43.39627680976542
 42
-0.4142135623730951
 10
17.71865863407046
 20
43.38065180976542
 10
17.37490863407046
 20
43.38065180976542
 42
-0.4142135623730951
 10
17.35928363407046
 20
43.39627680976542
  0
LWPOLYLINE
  5
137
330
2
100
AcDbEntity
  8
0
100
AcDbPolyline
 90
       14
 70
     1
 43
0.0
 10
17.36628363407098
 20
43.45469495085859
 42
0.3593608004949541
 10
17.324283746747
 20
43.48059896673936
 10
17.2890647996347
 20
43.45685120002059
 42
-0.3524310491054993
 10
17.28228363407024
 20
43.46527680976584
 10
17.28228363407024
 20
43.64690180976601
 10
17.81128363407069
 20
43.64690180976601
 10
17.81128363407069
 20
43.46527680976584
 42
-0.3518693664465323
 10
17.80451930636909
 20
43.45685490240436
 10
17.7695949152031
 20
43.4806584065837
 42
0.3446308864324803
 10
17.72728363406995
 20
43.45441949258208
 10
17.72728363406995
 20
43.39627680976542
 42
-0.4142135623730946
 10
17.71865863407046
 20
43.38765180976594
 10
17.37490863407046
 20
43.38765180976594
 42
-0.4142135623730946
 10
17.36628363407098
 20
43.39627680976542
  0
LWPOLYLINE
  5
138
330
2
100
AcDbEntity
  8
0
100
AcDbPolyline
 90
       10
 70
     1
 43
0.0
 10
17.39053363407046
 20
43.45821430976599
 42
0.3584554666094669
 10
17.32562978791711
 20
43.50508930976599
 10
17.30653363407063
 20
43.50508930976599
 10
17.30653363407063
 20
43.615651809766
 10
17.7870336340703
 20
43.615651809766
 10
17.7870336340703
 20
43.50508930976599
 10
17.76793748022382
 20
43.50508930976599
 42
0.3467993108968364
 10
17.70303363407046
 20
43.45821430976599
 10
17.70303363407046
 20
43.41190180976542
 10
17.39053363407046
 20
43.41190180976542
  0
LWPOLYLINE
  5
139
330
2
100
AcDbEntity
  8
0
100
AcDbPolyline
 90
        6
 70
     0
 43
0.0
 10
17.27528363407063
 20
43.61865180976571
 10
17.26553363407046
 20
43.61865180976571
 10
17.26553363407046
 20
43.65665180976617
 10
17.82803363407046
 20
43.65665180976617
 10
17.82803363407046
 20
43.61865180976571
 10
17.81828363407029
 20
43.61865180976571
  0
LINE
  5
13A
330
2
100
AcDbEntity
  8
0
100
AcDbLine
 10
17.81828363407029
 20
43.46527680976584
 30
0.0
 11
17.84365863407046
 21
43.46527680976584
 31
0.0
  0
LINE
  5
13B
330
2
100
AcDbEntity
  8
0
100
AcDbLine
 10
17.81828363407029
 20
43.61865180976571
 30
0.0
 11
17.84365863407046
 21
43.61865180976571
 31
0.0
  0
LINE
  5
13C
330
2
100
AcDbEntity
  8
0
100
AcDbLine
 10
17.27528363407063
 20
43.46527680976584
 30
0.0
 11
17.24990863407046
 21
43.46527680976584
 31
0.0
  0
LINE
  5
13D
330
2
100
AcDbEntity
  8
0
100
AcDbLine
 10
17.27528363407063
 20
43.61865180976571
 30
0.0
 11
17.24990863407046
 21
43.61865180976571
 31
0.0
  0
HATCH
  5
13E
330
2
100
AcDbEntity
  8
0
  6
Continuous
100
AcDbHatch
 10
0.0
 20
0.0
 30
0.0
210
0.0
220
0.0
230
1.0
  2
DOTS
 70
     0
 71
     0
 91
        2
 92
        7
 72
     0
 73
     1
 93
        4
 10
17.27528363407063
 20
43.46527680976584
 10
17.24990863407046
 20
43.46527680976584
 10
17.24990863407046
 20
43.61865180976571
 10
17.27528363407063
 20
43.61865180976571
 97
        0
 92
        7
 72
     0
 73
     1
 93
        4
 10
17.84365863407046
 20
43.46527680976584
 10
17.81828363407029
 20
43.46527680976584
 10
17.81828363407029
 20
43.61865180976571
 10
17.84365863407046
 20
43.61865180976571
 97
        0
 75
     0
 76
     1
 52
360.0
 41
0.1
 77
     0
 78
     1
 53
360.0
 43
11.15642888853389
 44
46.7235632896403
 45
0.003125
 46
-0.00625
 79
     2
 49
0.0
 49
-0.00625
 47
0.0006001443632006
 98
        2
 10
17.26356334392321
 20
43.52286174981424
 10
17.83344827331902
 20
43.5264626236131
  0
HATCH
  5
13F
330
2
100
AcDbEntity
  8
0
  6
Continuous
100
AcDbHatch
 10
0.0
 20
0.0
 30
0.0
210
0.0
220
0.0
230
1.0
  2
DASH
 70
     0
 71
     0
 91
        1
 92
        7
 72
     1
 73
     1
 93
       16
 10
17.71865863407046
 20
43.38065180976542
 42
0.4142135623730951
 10
17.73428363407046
 20
43.39627680976542
 42
0.0
 10
17.73428363407046
 20
43.45311364163359
 42
-0.3208708054700533
 10
17.76717084601213
 20
43.47383930976599
 42
0.0
 10
17.8026586340703
 20
43.44965180976584
 42
0.414213562373094
 10
17.81828363407029
 20
43.46527680976584
 42
0.0
 10
17.84365863407137
 20
43.46527680976584
 42
0.0
 10
17.84365863406955
 20
43.24365180976662
 42
0.0
 10
17.24990863407046
 20
43.24365180976662
 42
0.0
 10
17.24990863407046
 20
43.46527680976584
 42
0.0
 10
17.27528363407063
 20
43.46527680976584
 42
0.4142135623730951
 10
17.29090863407063
 20
43.44965180976584
 42
0.0
 10
17.32677972432347
 20
43.47383930976599
 42
-0.3359746306540741
 10
17.35928363407046
 20
43.45347655071424
 42
0.0
 10
17.35928363407046
 20
43.39627680976542
 42
0.4142135623730951
 10
17.37490863407046
 20
43.38065180976542
 42
0.0
 97
        0
 75
     0
 76
     1
 52
360.0
 41
0.1
 77
     0
 78
     1
 53
360.0
 43
11.15642888853389
 44
46.7235632896403
 45
0.0125
 46
-0.0125
 79
     2
 49
0.0125
 49
-0.0125
 47
0.0009600803746669
 98
        1
 10
17.59580511415524
 20
43.32981253757139
  0
LINE
  5
140
330
2
100
AcDbEntity
  8
0
100
AcDbLine
 10
17.0921685553304
 20
43.13465180976533
 30
0.0
 11
18.00139871281053
 21
43.2436518097657
 31
0.0
  0
LWPOLYLINE
  5
141
330
2
100
AcDbEntity
  8
0
100
AcDbPolyline
 90
        8
 70
     0
 43
0.0
 10
17.0921685553304
 20
43.13465180976533
 10
18.00139871281053
 20
43.13465180976533
 10
18.00139871281053
 20
43.2436518097657
 10
17.0921685553304
 20
43.2436518097657
 10
17.0921685553304
 20
43.13465180976533
 10
18.00139871281053
 20
43.2436518097657
 10
17.0921685553304
 20
43.2436518097657
 10
18.00139871281053
 20
43.13465180976533
  0
LWPOLYLINE
  5
142
102
{ACAD_REACTORS
330
292
102
}
330
2
100
AcDbEntity
  8
0
  6
Continuous
100
AcDbPolyline
 90
       26
 70
     0
 43
0.0
 10
16.68839871281048
 20
53.7895294641021
 10
18.75139871281058
 20
53.78951839909139
 10
18.75139871281058
 20
53.72751839909138
 10
19.24336654206612
 20
53.72751839909138
 10
19.24336654206612
 20
53.60251839909138
 10
18.75139871281053
 20
53.60251839909138
 10
18.75139871281058
 20
53.35151839909137
 42
0.4142135623730951
 10
18.81339871281059
 20
53.28951839909139
 10
21.12639887246652
 20
53.2895244672937
 42
0.4142128141791537
 10
21.18889871281059
 20
53.35202446729347
 10
21.18889871281059
 20
54.13452946867791
 42
-1.000000000000008
 10
21.18889871281059
 20
54.35252946867793
 10
21.18889871281059
 20
54.42752946410208
 10
20.50189871281057
 20
54.42752946410208
 10
20.50189871281057
 20
54.47752946410209
 10
20.28345598574256
 20
54.47752946410209
 42
-0.9999999999999998
 10
20.03345598574256
 20
54.47752946410209
 10
19.62238262743833
 20
54.47752946410209
 42
-0.9999999999999998
 10
19.37238262743832
 20
54.47752946410209
 10
19.12238262743833
 20
54.47752946410209
 42
-0.9999999999999998
 10
18.87238262743833
 20
54.47752946410209
 10
17.37645722169858
 20
54.47752946410209
 42
-0.9999999999999998
 10
17.12645722169859
 20
54.47752946410209
 10
16.62639871281053
 20
54.47752946410209
 10
16.62639871281053
 20
53.8520294641021
 42
0.4142135623730951
 10
16.68889871281052
 20
53.7895294641021
  0
HATCH
  5
143
330
2
100
AcDbEntity
  8
0
100
AcDbHatch
 10
0.0
 20
0.0
 30
0.0
210
0.0
220
0.0
230
1.0
  2
HONEY
 70
     0
 71
     0
 91
        2
 92
       16
 93
        9
 72
     1
 10
19.09454111633155
 20
53.69706100114107
 11
19.09454111633155
 21
53.72673769152057
 72
     1
 10
19.09454111633155
 20
53.72673769152054
 11
18.71714372994418
 21
53.72658203245008
 72
     1
 10
18.71714372994418
 20
53.72658203245008
 11
18.71727585899802
 21
53.40623346915648
 72
     1
 10
18.71727585899802
 20
53.4062334691565
 11
18.75077741200752
 21
53.40624728700682
 72
     1
 10
18.75077741200758
 20
53.40624728700682
 11
18.75065686383996
 21
53.69851784502738
 72
     1
 10
18.75065686383996
 20
53.69851784502738
 11
19.06408339668164
 21
53.6986471190619
 72
     1
 10
19.06408339668164
 20
53.6986471190619
 11
18.96917675686743
 21
53.60366215769279
 72
     1
 10
18.96917675686743
 20
53.60366215769279
 11
19.00121928657617
 21
53.60366215769279
 72
     1
 10
19.00121928657617
 20
53.60366215769279
 11
19.0945411163315
 21
53.69706100114107
 97
        0
 92
        1
 93
       11
 72
     1
 10
18.64747533038522
 20
53.39748201368768
 11
18.6473628444426
 21
53.67020560528191
 72
     2
 10
18.70449085555501
 20
53.67022916795993
 40
0.0571280159716573
 50
179.9763681265573
 51
269.9763681265644
 73
     0
 72
     1
 10
18.70446729287695
 20
53.72735717907234
 11
19.09532149126849
 21
53.72751838845904
 72
     1
 10
19.09532149126849
 20
53.72751838845904
 11
19.09537304801702
 21
53.60251839909143
 72
     1
 10
19.09537304801702
 20
53.60251839909143
 11
18.75139871281047
 21
53.60237652549291
 72
     1
 10
18.75139871281053
 20
53.60237652549291
 11
18.75151541874348
 21
53.31942151399634
 72
     2
 10
18.5640063929836
 20
53.34126591545874
 40
0.1887771506741734
 50
6.644883199816937
 51
173.3078530532888
 73
     0
 72
     1
 10
18.37651545064065
 20
53.31926684375069
 11
18.37638676164042
 21
53.63127495355392
 72
     2
 10
18.46518888438814
 20
53.62518543705935
 40
0.0890106691113012
 50
-176.077140640901
 51
-3.970123105996244
 73
     0
 72
     1
 10
18.55398595363183
 20
53.63134820505523
 11
18.48989904114901
 21
53.42091114493282
 72
     2
 10
18.56694047412353
 20
53.39744879676219
 40
0.0805348631119007
 50
523.0623079543601
 51
720.0236318734479
 73
     1
 97
        0
 75
     1
 76
     1
 52
0.0
 41
0.2
 77
     0
 78
     3
 53
0.0
 43
-89.39950043880443
 44
2.481174541385442
 45
0.0375
 46
0.021650635094611
 79
     2
 49
0.025
 49
-0.05
 53
120.0
 43
-89.39950043880443
 44
2.481174541385442
 45
-0.0375
 46
0.021650635094611
 79
     2
 49
0.0249999999999999
 49
-0.0499999999999999
 53
60.0
 43
-89.39950043880443
 44
2.481174541385442
 45
0.0
 46
0.043301270189222
 79
     2
 49
-0.05
 49
0.025
 98
        1
 10
124.4022978644255
 20
2.481174541385442
1001
GradientColor1ACI
1070
     5
1001
GradientColor2ACI
1070
     2
1001
ACAD
1010
0.0
1020
0.0
1030
0.0
  0
LWPOLYLINE
  5
144
330
2
100
AcDbEntity
  8
0
100
AcDbPolyline
 90
       11
 70
     1
 43
0.0
 10
18.64747533038522
 20
53.39748201368768
 10
18.6473628444426
 20
53.67020560528191
 42
-0.4142135623731042
 10
18.70446729287695
 20
53.72735717907234
 10
19.09532149126849
 20
53.72751838845904
 10
19.09537304801702
 20
53.60251839909143
 10
18.75139871281053
 20
53.60237652549291
 10
18.75151541874348
 20
53.31942151399634
 42
-0.8898955318630001
 10
18.37651545064065
 20
53.31926684375069
 10
18.37638676164042
 20
53.63127495355392
 42
-0.9333884728362816
 10
18.55398595363183
 20
53.63134820505523
 10
18.48989904114901
 20
53.42091114493282
 42
1.16016115395227
  0
LWPOLYLINE
  5
145
330
2
100
AcDbEntity
  8
0
  6
Continuous
100
AcDbPolyline
 90
        9
 70
     1
 43
0.0
 10
19.09454111633155
 20
53.69706100114107
 10
19.09454111633155
 20
53.72673769152054
 10
18.71714372994418
 20
53.72658203245008
 10
18.71727585899802
 20
53.4062334691565
 10
18.75077741200758
 20
53.40624728700682
 10
18.75065686383996
 20
53.69851784502738
 10
19.06408339668164
 20
53.6986471190619
 10
18.96917675686743
 20
53.60366215769279
 10
19.00121928657617
 20
53.60366215769279
  0
LWPOLYLINE
  5
146
330
2
100
AcDbEntity
  8
0
  6
Continuous
100
AcDbPolyline
 90
       22
 70
     1
 43
0.0
 10
18.84555485907961
 20
35.67851897072983
 10
18.84555485907961
 20
35.82215180976537
 42
-0.4142135623730938
 10
18.90755485907962
 20
35.88415180976538
 10
19.25105485907957
 20
35.88415180976538
 10
19.25105485907957
 20
35.94665180976539
 42
-0.4142135623730951
 10
19.31305485907958
 20
36.00865180976537
 10
20.87705485907961
 20
36.00865180976537
 42
-0.4142135623730951
 10
20.93905485907962
 20
35.94665180976539
 10
20.93905485907962
 20
35.80515180976538
 10
21.18855485907957
 20
35.80515180976538
 10
21.18855485907957
 20
35.00915180976539
 10
16.3915548590796
 20
35.00915180976536
 42
-0.4142135623730951
 10
16.32955485907959
 20
35.07115180976537
 10
16.32955485907959
 20
35.28915180976536
 10
16.07955485907959
 20
35.28915180976536
 10
16.07955485907959
 20
35.18115180976538
 42
-0.4142135623730961
 10
16.01755485907964
 20
35.11915180976537
 10
15.75155485907962
 20
35.11915180976537
 10
15.75155485907962
 20
35.68821614295349
 10
18.669679533606
 20
35.94351897072984
 42
-0.4348123749609336
 10
18.73600443497813
 20
35.88166999961372
 10
18.73600443497813
 20
35.67851897072983
  0
LWPOLYLINE
  5
147
330
2
100
AcDbEntity
  8
0
  6
Continuous
100
AcDbPolyline
 90
       11
 70
     0
 43
0.0
 10
18.75136420157813
 20
36.32144479992006
 10
19.25139871281053
 20
36.32144479992006
 10
19.25139871281053
 20
36.19644479992009
 10
18.75140303773068
 20
36.19644479992009
 10
18.75146998859199
 20
36.00865180976537
 10
21.18855485907957
 20
36.00865180976537
 10
21.18855485907957
 20
36.63365180976537
 42
0.4142135623730955
 10
21.12655485907962
 20
36.69565180976538
 10
18.78239871281053
 20
36.69565180976538
 42
0.4142135623730951
 10
18.75139871281053
 20
36.66465180976537
 10
18.75139871281053
 20
36.32144479992006
  0
LWPOLYLINE
  5
148
330
2
100
AcDbEntity
  8
0
100
AcDbPolyline
 90
       14
 70
     1
 43
0.0
 10
15.72027964702889
 20
35.07115180976537
 10
15.72027964702889
 20
35.68409976423051
 10
18.75177964702888
 20
35.94932164770937
 10
18.75177964702888
 20
35.67851897072983
 10
18.82977964702886
 20
35.67851897072983
 10
18.82977964702886
 20
35.94726527589517
 10
19.22077964702888
 20
35.94726527589517
 10
19.22077964702888
 20
36.00926527589518
 10
18.7255682311783
 20
36.00926527589518
 10
15.65827964702888
 20
35.74091229701959
 10
15.65827964702888
 20
35.00915180976536
 10
16.03343601480063
 20
35.00915180976536
 10
16.03343601480063
 20
35.07115180976537
 10
15.97027964702889
 20
35.07115180976537
  0
HATCH
  5
149
330
2
100
AcDbEntity
  8
0
100
AcDbHatch
 10
0.0
 20
0.0
 30
0.0
210
0.0
220
0.0
230
1.0
  2
HONEY
 70
     0
 71
     0
 91
        2
 92
       16
 93
        9
 72
     1
 10
19.09454111633155
 20
36.22690218723806
 11
19.09454111633155
 21
36.19722549685857
 72
     1
 10
19.09454111633155
 20
36.19722549685859
 11
18.71714372994418
 21
36.19738115592905
 72
     1
 10
18.71714372994418
 20
36.19738115592905
 11
18.71727585899802
 21
36.51772971922266
 72
     1
 10
18.71727585899802
 20
36.51772971922263
 11
18.75077741200752
 21
36.51771590137232
 72
     1
 10
18.75077741200758
 20
36.51771590137232
 11
18.75065686383996
 21
36.22544534335175
 72
     1
 10
18.75065686383996
 20
36.22544534335175
 11
19.06408339668164
 21
36.22531606931723
 72
     1
 10
19.06408339668164
 20
36.22531606931723
 11
18.96917675686743
 21
36.32030103068634
 72
     1
 10
18.96917675686743
 20
36.32030103068634
 11
19.00121928657617
 21
36.32030103068634
 72
     1
 10
19.00121928657617
 20
36.32030103068634
 11
19.0945411163315
 21
36.22690218723806
 97
        0
 92
        1
 93
       11
 72
     1
 10
18.64747533038522
 20
36.52648117469146
 11
18.6473628444426
 21
36.25375758309723
 72
     2
 10
18.70449085555501
 20
36.2537340204192
 40
0.0571280159716573
 50
179.9763681265573
 51
269.9763681265644
 73
     1
 72
     1
 10
18.70446729287695
 20
36.19660600930679
 11
19.09532149126849
 21
36.19644479992009
 72
     1
 10
19.09532149126849
 20
36.19644479992009
 11
19.09537304801702
 21
36.3214447892877
 72
     1
 10
19.09537304801702
 20
36.3214447892877
 11
18.75139871281047
 21
36.32158666288622
 72
     1
 10
18.75139871281053
 20
36.32158666288622
 11
18.75151541874348
 21
36.60454167438279
 72
     2
 10
18.5640063929836
 20
36.58269727292039
 40
0.1887771506741734
 50
6.644883199816937
 51
173.3078530532888
 73
     1
 72
     1
 10
18.37651545064065
 20
36.60469634462844
 11
18.37638676164042
 21
36.29268823482521
 72
     2
 10
18.46518888438814
 20
36.29877775131978
 40
0.0890106691113012
 50
-176.077140640901
 51
-3.970123105996244
 73
     1
 72
     1
 10
18.55398595363183
 20
36.2926149833239
 11
18.48989904114901
 21
36.50305204344632
 72
     2
 10
18.56694047412353
 20
36.52651439161694
 40
0.0805348631119007
 50
523.0623079543601
 51
720.0236318734479
 73
     0
 97
        0
 75
     1
 76
     1
 52
0.0
 41
0.2
 77
     0
 78
     3
 53
0.0
 43
-89.39950043880443
 44
-14.7998990684183
 45
0.0375
 46
0.021650635094611
 79
     2
 49
0.025
 49
-0.05
 53
120.0
 43
-89.39950043880443
 44
-14.7998990684183
 45
-0.0375
 46
0.021650635094611
 79
     2
 49
0.0249999999999999
 49
-0.0499999999999998
 53
60.0
 43
-89.39950043880443
 44
-14.7998990684183
 45
0.0
 46
0.043301270189222
 79
     2
 49
-0.05
 49
0.025
 98
        1
 10
124.4022978644255
 20
87.44278864699369
1001
GradientColor1ACI
1070
     5
1001
GradientColor2ACI
1070
     2
1001
ACAD
1010
0.0
1020
0.0
1030
0.0
  0
LWPOLYLINE
  5
14A
330
2
100
AcDbEntity
  8
0
100
AcDbPolyline
 90
       11
 70
     1
 43
0.0
 10
18.64747533038522
 20
36.52648117469146
 10
18.6473628444426
 20
36.25375758309723
 42
0.4142135623731042
 10
18.70446729287695
 20
36.19660600930679
 10
19.09532149126849
 20
36.19644479992009
 10
19.09537304801702
 20
36.3214447892877
 10
18.75139871281053
 20
36.32158666288622
 10
18.75151541874348
 20
36.60454167438279
 42
0.8898955318630001
 10
18.37651545064065
 20
36.60469634462844
 10
18.37638676164042
 20
36.29268823482521
 42
0.9333884728362816
 10
18.55398595363183
 20
36.2926149833239
 10
18.48989904114901
 20
36.50305204344632
 42
-1.16016115395227
  0
LWPOLYLINE
  5
14B
330
2
100
AcDbEntity
  8
0
  6
Continuous
100
AcDbPolyline
 90
        9
 70
     1
 43
0.0
 10
19.09454111633155
 20
36.22690218723806
 10
19.09454111633155
 20
36.19722549685859
 10
18.71714372994418
 20
36.19738115592905
 10
18.71727585899802
 20
36.51772971922263
 10
18.75077741200758
 20
36.51771590137232
 10
18.75065686383996
 20
36.22544534335175
 10
19.06408339668164
 20
36.22531606931723
 10
18.96917675686743
 20
36.32030103068634
 10
19.00121928657617
 20
36.32030103068634
  0
LWPOLYLINE
  5
14C
330
2
100
AcDbEntity
  8
0
100
AcDbPolyline
 90
       11
 70
     1
 43
0.0
 10
23.1882847121357
 20
35.94615180976531
 42
0.4142135623730951
 10
23.1257847121357
 20
36.00865180976531
 10
21.18855485907963
 20
36.00865180976529
 10
21.0005548590797
 20
36.00865180976529
 10
21.0005548590797
 20
35.83659967850819
 10
21.18855485907957
 20
35.82015180976533
 10
21.18855485907957
 20
35.00915180976539
 10
21.81355485907957
 20
35.00915180976539
 10
21.93858728044714
 20
35.2591085656956
 10
22.4382847121357
 20
35.00915180976539
 10
23.1882847121357
 20
35.00915180976539
  0
LWPOLYLINE
  5
14D
330
2
100
AcDbEntity
  8
0
100
AcDbPolyline
 90
       19
 70
     1
 43
0.0
 10
21.75112856586671
 20
53.67952946410246
 10
21.75112856586671
 20
53.47702946410244
 42
-0.4142135623730818
 10
21.6891285658667
 20
53.41502946410243
 10
21.18889871281064
 20
53.41502946410243
 10
21.18889871281064
 20
53.58602945952661
 42
0.3200000000033261
 10
21.18889871281064
 20
53.71102945952824
 10
21.18889871281064
 20
54.15052946867824
 42
-1.0
 10
21.18889871281064
 20
54.33652946867759
 10
21.18889871281064
 20
54.42752946410242
 10
21.81389871281064
 20
54.42752946410242
 10
21.93893113417815
 20
54.17757270817218
 10
22.43862856586671
 20
54.42752946410242
 10
23.18862856586671
 20
54.42752946410239
 10
23.18862856586671
 20
53.8525294641024
 42
-0.4142135623730959
 10
23.1266285658667
 20
53.79052946410242
 10
21.75112856586671
 20
53.79052946410245
 10
21.75112856586671
 20
53.78593436688205
 10
21.511318400075
 20
53.8069150377871
 10
21.50207989134381
 20
53.70131839978937
  0
HATCH
  5
14E
330
2
100
AcDbEntity
  8
0
100
AcDbHatch
 10
0.0
 20
0.0
 30
0.0
210
0.0
220
0.0
230
1.0
  2
HONEY
 70
     0
 71
     0
 91
        1
 92
        1
 93
       16
 72
     1
 10
21.63712856586673
 20
53.68652946410247
 11
21.64212856586673
 21
53.72852946410247
 72
     1
 10
21.64212856586673
 20
53.72852946410244
 11
21.75112856586671
 21
53.72852946410244
 72
     1
 10
21.75112856586671
 20
53.72852946410244
 11
21.75112856586671
 21
53.47552946410242
 72
     2
 10
21.81312856586672
 20
53.47552946410245
 40
0.0620000000000118
 50
180.0
 51
270.0
 73
     1
 72
     1
 10
21.81312856586672
 20
53.41352946410244
 11
21.86035476717965
 21
53.4135294641025
 72
     2
 10
21.86035476717965
 20
53.42852946410248
 40
0.0149999999999864
 50
270.0
 51
340.1499454782621
 73
     1
 72
     1
 10
21.87446353442479
 20
53.42343606770895
 11
21.99434958109961
 21
53.75552181124835
 72
     2
 10
21.98024081385441
 20
53.76061520764186
 40
0.0149999999999975
 50
340.1499454783642
 51
429.5218661953308
 73
     1
 72
     1
 10
21.985488562158
 20
53.77466729423933
 11
21.95550897616275
 21
53.78586316329812
 72
     2
 10
21.95026122785922
 20
53.77181107670065
 40
0.0149999999999873
 50
429.5218661952929
 51
520.1499454783641
 73
     1
 72
     1
 10
21.93615246061407
 20
53.77690447309418
 11
21.84323733311194
 21
53.51952848932952
 72
     2
 10
21.8291285658668
 20
53.52462188572302
 40
0.0149999999999804
 50
19.85005452177482
 51
179.9999999998914
 73
     0
 72
     1
 10
21.81412856586675
 20
53.52462188572302
 11
21.81412856586675
 21
53.75952946410244
 72
     2
 10
21.78312856586675
 20
53.75952946410244
 40
0.0310000000000059
 50
360.0
 51
450.0
 73
     1
 72
     1
 10
21.78312856586675
 20
53.79052946410245
 11
21.53312856586675
 21
53.79052946410245
 72
     1
 10
21.53312856586675
 20
53.79052946410245
 11
21.63712856586673
 21
53.68652946410247
 97
        0
 75
     1
 76
     1
 52
360.0
 41
0.15
 77
     0
 78
     3
 53
360.0
 43
188.776591732116
 44
-104.0142180994426
 45
0.028125
 46
0.0162379763209582
 79
     2
 49
0.01875
 49
-0.0375
 53
119.9999999999999
 43
188.776591732116
 44
-104.0142180994426
 45
-0.028125
 46
0.0162379763209582
 79
     2
 49
0.01875
 49
-0.0374999999999999
 53
59.99999999999997
 43
188.776591732116
 44
-104.0142180994426
 45
0.0
 46
0.0324759526419165
 79
     2
 49
-0.0375
 49
0.01875
 98
        1
 10
-143.6493346003826
 20
-104.0142180994426
1001
GradientColor1ACI
1070
     5
1001
GradientColor2ACI
1070
     2
1001
ACAD
1010
0.0
1020
0.0
1030
0.0
  0
LWPOLYLINE
  5
14F
330
2
100
AcDbEntity
  8
0
100
AcDbPolyline
 90
       16
 70
     1
 43
0.0
 10
21.63712856586673
 20
53.68652946410247
 10
21.64212856586673
 20
53.72852946410244
 10
21.75112856586671
 20
53.72852946410244
 10
21.75112856586671
 20
53.47552946410245
 42
0.4142135623730951
 10
21.81312856586672
 20
53.41352946410244
 10
21.86035476717965
 20
53.4135294641025
 42
0.3160182401893135
 10
21.87446353442479
 20
53.42343606770895
 10
21.99434958109961
 20
53.75552181124833
 42
0.4110064843483962
 10
21.985488562158
 20
53.77466729423933
 10
21.95550897616275
 20
53.78586316329812
 42
0.4174279297685614
 10
21.93615246061407
 20
53.77690447309418
 10
21.84323733311194
 20
53.51952848932949
 42
-0.840215161469082
 10
21.81412856586675
 20
53.52462188572302
 10
21.81412856586675
 20
53.75952946410244
 42
0.4142135623730951
 10
21.78312856586675
 20
53.79052946410245
 10
21.53312856586675
 20
53.79052946410245
  0
LWPOLYLINE
  5
150
330
2
100
AcDbEntity
  8
0
100
AcDbPolyline
 90
       12
 70
     1
 43
0.0
 10
23.12612856586671
 20
53.66552946410242
 42
-0.4142135623730943
 10
23.18862856586671
 20
53.60302946410242
 10
23.18862856586671
 20
50.68321271292463
 10
23.12636639723601
 20
50.6152654790029
 10
22.81362856586671
 20
50.58790446410241
 10
22.81362856586671
 20
51.2754044641024
 10
22.69956464880741
 20
51.2754044641024
 10
22.68862856586671
 20
51.1504044641024
 10
22.0008907344974
 20
51.21057372782512
 10
21.93862856586671
 20
51.27852096174684
 10
21.93862856586671
 20
53.60302946410242
 42
-0.4142135623730951
 10
22.00112856586671
 20
53.66552946410242
  0
LWPOLYLINE
  5
151
330
2
100
AcDbEntity
  8
0
  6
Continuous
100
AcDbPolyline
 90
       25
 70
     0
 43
0.0
 10
22.84487856586671
 20
49.44627946410053
 10
22.96987856586671
 20
49.4462794641005
 10
22.96987856586671
 20
49.3212794641005
 10
22.84487856586671
 20
49.3212794641005
 10
22.84487856586671
 20
49.07177946410242
 10
22.9398396187436
 20
49.07177946410242
 10
22.9398396187436
 20
49.12138668987622
 42
0.3899024490719342
 10
23.12483961874855
 20
49.32255954120059
 10
23.21987856586671
 20
49.32255954120602
 10
23.21987856586671
 20
50.49327946410453
 42
0.4142135623730951
 10
23.18887856587131
 20
50.52427946409993
 10
22.81362856586671
 20
50.52427946409993
 10
22.81362856586671
 20
50.99302946410183
 42
0.4142135623730951
 10
22.78237856586671
 20
51.02427946410184
 10
22.78237856586671
 20
51.02427946410184
 10
22.78237856586671
 20
51.02427946410184
 10
22.78237856586671
 20
51.02427946410184
 10
22.78237856586671
 20
51.02427946410184
 10
22.78237856586671
 20
51.02427946410184
 10
22.03187856587206
 20
51.02427946410184
 10
21.96937856586479
 20
50.96177946410183
 10
21.96937856585751
 20
49.66477946410318
 42
0.4142135623730951
 10
22.00037856586746
 20
49.6337794641005
 10
22.84487856586671
 20
49.6337794641005
 10
22.84487856586671
 20
49.44627946410053
  0
LWPOLYLINE
  5
152
330
2
100
AcDbEntity
  8
0
  6
Continuous
100
AcDbPolyline
 90
       12
 70
     1
 43
0.0
 10
22.82349302206458
 20
49.38377946410047
 10
22.82349302206458
 20
49.6337794641005
 10
22.26148027735943
 20
49.63377946410044
 10
22.26148027735943
 20
49.57630707055042
 42
0.1626057889287369
 10
22.26449179611293
 20
49.56729173265308
 10
22.44019205920202
 20
49.3336477657793
 42
0.235730494161713
 10
22.46496825377804
 20
49.32127946410047
 10
22.54249302206452
 20
49.32127946410047
 10
22.72119205920208
 20
49.0836477657793
 42
0.2357304941617225
 10
22.7459682537781
 20
49.07127946410047
 10
22.82349302206458
 20
49.07127946410047
 10
22.82349302206458
 20
49.19627946410047
 42
-0.6666666666666675
  0
LWPOLYLINE
  5
153
330
2
100
AcDbEntity
  8
0
  6
HIDDEN2
100
AcDbPolyline
 90
        4
 70
     0
 43
0.02
 10
22.96987856586671
 20
49.38377946410049
 10
22.88081011048334
 20
49.38377946410049
 42
0.4142135623730951
 10
22.83431011048336
 20
49.33727946410051
 10
22.83431011048336
 20
48.44708787068104
  0
LWPOLYLINE
  5
155
330
2
100
AcDbEntity
  8
0
100
AcDbPolyline
 90
        2
 70
     1
 43
0.05859375
 10
22.91124561821849
 20
49.41307633910049
 42
1.0
 10
22.91124561821849
 20
49.35448258910049
 42
1.0
  0
LWPOLYLINE
  5
156
102
{ACAD_REACTORS
330
281
330
2C7
102
}
330
2
100
AcDbEntity
  8
0
100
AcDbPolyline
 90
       12
 70
     1
 43
0.0
 10
23.12612856586671
 20
36.32165180976536
 42
0.4142135623730943
 10
23.18862856586671
 20
36.38415180976536
 10
23.18862856586671
 20
42.08596302843746
 10
23.12636639723601
 20
42.15391026235919
 10
22.81362856586671
 20
42.18127127725968
 10
22.81362856586671
 20
41.49377127725968
 10
22.69956464880741
 20
41.49377127725968
 10
22.68862856586671
 20
41.61877127725968
 10
22.0008907344974
 20
41.55860201353696
 10
21.93862856586671
 20
41.49065477961523
 10
21.93862856586671
 20
36.38415180976536
 42
0.4142135623730951
 10
22.00112856586671
 20
36.32165180976536
  0
LWPOLYLINE
  5
157
330
2
100
AcDbEntity
  8
0
  6
Continuous
100
AcDbPolyline
 90
       25
 70
     0
 43
0.0
 10
22.84487856586671
 20
43.32289627726156
 10
22.96987856586671
 20
43.32289627726159
 10
22.96987856586671
 20
43.44789627726159
 10
22.84487856586671
 20
43.44789627726159
 10
22.84487856586671
 20
43.69739627725967
 10
22.9398396187436
 20
43.69739627725967
 10
22.9398396187436
 20
43.64778905148587
 42
-0.3899024490719342
 10
23.12483961874855
 20
43.44661620016149
 10
23.21987856586671
 20
43.44661620015607
 10
23.21987856586671
 20
42.27589627725755
 42
-0.4142135623730951
 10
23.18887856587131
 20
42.24489627726216
 10
22.81362856586671
 20
42.24489627726216
 10
22.81362856586671
 20
41.77614627726025
 42
-0.4142135623730951
 10
22.78237856586671
 20
41.74489627726025
 10
22.78237856586671
 20
41.74489627726025
 10
22.78237856586671
 20
41.74489627726025
 10
22.78237856586671
 20
41.74489627726025
 10
22.78237856586671
 20
41.74489627726025
 10
22.78237856586671
 20
41.74489627726025
 10
22.03187856587206
 20
41.74489627726025
 10
21.96937856586479
 20
41.80739627726025
 10
21.96937856585751
 20
43.10439627725891
 42
-0.4142135623730951
 10
22.00037856586746
 20
43.13539627726159
 10
22.84487856586671
 20
43.13539627726159
 10
22.84487856586671
 20
43.32289627726156
  0
LWPOLYLINE
  5
158
330
2
100
AcDbEntity
  8
0
  6
Continuous
100
AcDbPolyline
 90
       12
 70
     1
 43
0.0
 10
22.82349302206458
 20
43.38539627726162
 10
22.82349302206458
 20
43.13539627726159
 10
22.26148027735943
 20
43.13539627726164
 10
22.26148027735943
 20
43.19286867081167
 42
-0.1626057889287369
 10
22.26449179611293
 20
43.20188400870899
 10
22.44019205920202
 20
43.43552797558278
 42
-0.235730494161713
 10
22.46496825377804
 20
43.44789627726162
 10
22.54249302206452
 20
43.44789627726162
 10
22.72119205920208
 20
43.68552797558279
 42
-0.2357304941617225
 10
22.7459682537781
 20
43.69789627726162
 10
22.82349302206458
 20
43.69789627726162
 10
22.82349302206458
 20
43.57289627726162
 42
0.6666666666666675
  0
LWPOLYLINE
  5
159
330
2
100
AcDbEntity
  8
0
  6
HIDDEN2
100
AcDbPolyline
 90
        4
 70
     0
 43
0.02
 10
22.96987856586671
 20
43.38539627726158
 10
22.88081011048334
 20
43.38539627726158
 42
-0.4142135623730951
 10
22.83431011048336
 20
43.43189627726157
 10
22.83431011048336
 20
44.32208787068105
  0
LWPOLYLINE
  5
15A
330
2
100
AcDbEntity
  8
0
100
AcDbPolyline
 90
        2
 70
     1
 43
0.05859375
 10
22.91124561821849
 20
43.35609940226158
 42
-1.0
 10
22.91124561821849
 20
43.41469315226158
 42
-1.0
  0
HATCH
  5
15B
330
2
100
AcDbEntity
  8
0
100
AcDbHatch
 10
0.0
 20
0.0
 30
0.0
210
0.0
220
0.0
230
1.0
  2
SOLID
 70
     1
 71
     0
 91
        1
 92
        7
 72
     0
 73
     1
 93
        4
 10
24.94083039493026
 20
49.4462794641005
 10
24.81583039493026
 20
49.44627946410053
 10
24.81583039493026
 20
49.3212794641005
 10
24.94083039493026
 20
49.3212794641005
 97
        0
 75
     1
 76
     1
 47
0.0019978748433788
 98
        1
 10
24.85393154979093
 20
49.39962074181109
1001
GradientColor1ACI
1070
     5
1001
GradientColor2ACI
1070
     2
1001
ACAD
1010
0.0
1020
0.0
1030
0.0
  0
LWPOLYLINE
  5
15C
102
{ACAD_REACTORS
330
292
102
}
330
2
100
AcDbEntity
  8
0
  6
Continuous
100
AcDbPolyline
 90
       25
 70
     0
 43
0.0
 10
24.81583039493026
 20
49.44627946410053
 10
24.94083039493026
 20
49.4462794641005
 10
24.94083039493026
 20
49.3212794641005
 10
24.81583039493026
 20
49.3212794641005
 10
24.81583039493026
 20
49.07177946410242
 10
24.91079144780716
 20
49.07177946410242
 10
24.91079144780716
 20
49.12138668987622
 42
0.3899024490719342
 10
25.09579144781211
 20
49.32255954120059
 10
25.19083039493026
 20
49.32255954120602
 10
25.19083039493026
 20
50.49327946410453
 42
0.4142135623730951
 10
25.15983039493486
 20
50.52427946409993
 10
24.78458039493026
 20
50.52427946409993
 10
24.78458039493026
 20
50.99302946410183
 42
0.4142135623730951
 10
24.75333039493026
 20
51.02427946410184
 10
24.75333039493026
 20
51.02427946410184
 10
24.75333039493026
 20
51.02427946410184
 10
24.75333039493026
 20
51.02427946410184
 10
24.75333039493026
 20
51.02427946410184
 10
24.75333039493026
 20
51.02427946410184
 10
24.00283039493562
 20
51.02427946410184
 10
23.94033039492834
 20
50.96177946410183
 10
23.94033039492106
 20
49.66477946410318
 42
0.4142135623730951
 10
23.97133039493102
 20
49.6337794641005
 10
24.81583039493026
 20
49.6337794641005
 10
24.81583039493026
 20
49.44627946410053
  0
LWPOLYLINE
  5
15D
330
2
100
AcDbEntity
  8
0
  6
Continuous
100
AcDbPolyline
 90
       12
 70
     1
 43
0.0
 10
24.6580903161902
 20
49.38377946410047
 10
24.6580903161902
 20
49.6337794641005
 10
24.09607757148504
 20
49.63377946410044
 10
24.09607757148504
 20
49.57630707055042
 42
0.1626057889287369
 10
24.09908909023855
 20
49.56729173265308
 10
24.27478935332763
 20
49.3336477657793
 42
0.235730494161713
 10
24.29956554790365
 20
49.32127946410047
 10
24.37709031619013
 20
49.32127946410047
 10
24.5557893533277
 20
49.0836477657793
 42
0.2357304941617225
 10
24.58056554790372
 20
49.07127946410047
 10
24.6580903161902
 20
49.07127946410047
 10
24.6580903161902
 20
49.19627946410047
 42
-0.6666666666666675
  0
LWPOLYLINE
  5
15E
102
{ACAD_REACTORS
330
2B6
102
}
330
2
100
AcDbEntity
  8
0
  6
Continuous
100
AcDbPolyline
 90
       25
 70
     0
 43
0.0
 10
24.81583039493026
 20
43.32289627726156
 10
24.94083039493026
 20
43.32289627726159
 10
24.94083039493026
 20
43.44789627726159
 10
24.81583039493026
 20
43.44789627726159
 10
24.81583039493026
 20
43.69739627725967
 10
24.91079144780716
 20
43.69739627725967
 10
24.91079144780716
 20
43.64778905148587
 42
-0.3899024490719342
 10
25.09579144781211
 20
43.44661620016149
 10
25.19083039493026
 20
43.44661620015607
 10
25.19083039493026
 20
42.27589627725755
 42
-0.4142135623730951
 10
25.15983039493486
 20
42.24489627726216
 10
24.78458039493026
 20
42.24489627726216
 10
24.78458039493026
 20
41.77614627726025
 42
-0.4142135623730951
 10
24.75333039493026
 20
41.74489627726025
 10
24.75333039493026
 20
41.74489627726025
 10
24.75333039493026
 20
41.74489627726025
 10
24.75333039493026
 20
41.74489627726025
 10
24.75333039493026
 20
41.74489627726025
 10
24.75333039493026
 20
41.74489627726025
 10
24.00283039493562
 20
41.74489627726025
 10
23.94033039492834
 20
41.80739627726025
 10
23.94033039492106
 20
43.10439627725891
 42
-0.4142135623730951
 10
23.97133039493102
 20
43.13539627726159
 10
24.81583039493026
 20
43.13539627726159
 10
24.81583039493026
 20
43.32289627726156
  0
HATCH
  5
15F
330
2
100
AcDbEntity
  8
0
100
AcDbHatch
 10
0.0
 20
0.0
 30
0.0
210
0.0
220
0.0
230
1.0
  2
SOLID
 70
     1
 71
     0
 91
        1
 92
        7
 72
     1
 73
     1
 93
        2
 10
24.65809031619026
 20
49.1962794641005
 42
0.0
 10
24.6580903161902
 20
49.38377946410047
 42
0.6666666666666311
 97
        0
 75
     1
 76
     1
 47
0.0010014887122476
 98
        1
 10
24.61203023984334
 20
49.31118466014464
1001
GradientColor1ACI
1070
     5
1001
GradientColor2ACI
1070
     2
1001
ACAD
1010
0.0
1020
0.0
1030
0.0
  0
LWPOLYLINE
  5
160
330
2
100
AcDbEntity
  8
0
100
AcDbPolyline
 90
        4
 70
     0
 43
0.0
 10
24.81583039493026
 20
48.44617609595615
 10
24.81583039493026
 20
49.52477946410012
 10
24.6580903161902
 20
49.52477946410012
 10
24.6580903161902
 20
48.44617609595615
  0
LWPOLYLINE
  5
161
330
2
100
AcDbEntity
  8
0
100
AcDbPolyline
 90
        8
 70
     0
 43
0.0
 10
24.6580903161902
 20
49.6337794641005
 10
24.81583039493026
 20
49.6337794641005
 10
24.81583039493026
 20
49.52477946410012
 10
24.6580903161902
 20
49.52477946410012
 10
24.6580903161902
 20
49.6337794641005
 10
24.81583039493026
 20
49.52477946410012
 10
24.6580903161902
 20
49.52477946410012
 10
24.81583039493026
 20
49.6337794641005
  0
HATCH
  5
162
330
2
100
AcDbEntity
  8
0
100
AcDbHatch
 10
0.0
 20
0.0
 30
0.0
210
0.0
220
0.0
230
1.0
  2
SOLID
 70
     1
 71
     0
 91
        1
 92
        7
 72
     0
 73
     1
 93
        4
 10
24.94083039493026
 20
43.32289627726159
 10
24.81583039493026
 20
43.32289627726156
 10
24.81583039493026
 20
43.44789627726159
 10
24.94083039493026
 20
43.44789627726159
 97
        0
 75
     1
 76
     1
 47
0.0019978748433788
 98
        1
 10
24.85393154979093
 20
43.369554999551
1001
GradientColor1ACI
1070
     5
1001
GradientColor2ACI
1070
     2
1001
ACAD
1010
0.0
1020
0.0
1030
0.0
  0
LWPOLYLINE
  5
163
330
2
100
AcDbEntity
  8
0
  6
Continuous
100
AcDbPolyline
 90
       12
 70
     1
 43
0.0
 10
24.6580903161902
 20
43.38539627726162
 10
24.6580903161902
 20
43.13539627726159
 10
24.09607757148504
 20
43.13539627726164
 10
24.09607757148504
 20
43.19286867081167
 42
-0.1626057889287369
 10
24.09908909023855
 20
43.20188400870899
 10
24.27478935332763
 20
43.43552797558278
 42
-0.235730494161713
 10
24.29956554790365
 20
43.44789627726162
 10
24.37709031619013
 20
43.44789627726162
 10
24.5557893533277
 20
43.68552797558279
 42
-0.2357304941617225
 10
24.58056554790372
 20
43.69789627726162
 10
24.6580903161902
 20
43.69789627726162
 10
24.6580903161902
 20
43.57289627726162
 42
0.6666666666666675
  0
HATCH
  5
164
330
2
100
AcDbEntity
  8
0
100
AcDbHatch
 10
0.0
 20
0.0
 30
0.0
210
0.0
220
0.0
230
1.0
  2
SOLID
 70
     1
 71
     0
 91
        1
 92
        7
 72
     1
 73
     1
 93
        2
 10
24.65809031619026
 20
43.57289627726159
 42
0.0
 10
24.6580903161902
 20
43.38539627726162
 42
-0.6666666666666311
 97
        0
 75
     1
 76
     1
 47
0.0010014887122476
 98
        1
 10
24.61203023984334
 20
43.45799108121745
1001
GradientColor1ACI
1070
     5
1001
GradientColor2ACI
1070
     2
1001
ACAD
1010
0.0
1020
0.0
1030
0.0
  0
LWPOLYLINE
  5
165
330
2
100
AcDbEntity
  8
0
100
AcDbPolyline
 90
        4
 70
     0
 43
0.0
 10
24.81583039493026
 20
44.32299964540594
 10
24.81583039493026
 20
43.24439627726197
 10
24.6580903161902
 20
43.24439627726197
 10
24.6580903161902
 20
44.32299964540594
  0
LWPOLYLINE
  5
166
330
2
100
AcDbEntity
  8
0
100
AcDbPolyline
 90
        8
 70
     0
 43
0.0
 10
24.6580903161902
 20
43.13539627726159
 10
24.81583039493026
 20
43.13539627726159
 10
24.81583039493026
 20
43.24439627726197
 10
24.6580903161902
 20
43.24439627726197
 10
24.6580903161902
 20
43.13539627726159
 10
24.81583039493026
 20
43.24439627726197
 10
24.6580903161902
 20
43.24439627726197
 10
24.81583039493026
 20
43.13539627726159
  0
LWPOLYLINE
  5
167
330
2
100
AcDbEntity
  8
0
  6
Continuous
100
AcDbPolyline
 90
       24
 70
     1
 43
0.0
 10
23.21987856586671
 20
45.57278295102044
 10
23.21987856586671
 20
47.19639279034161
 10
23.12483961874855
 20
47.19639279034704
 42
0.389902449071936
 10
22.9398396187436
 20
47.39756564167142
 10
22.9398396187436
 20
47.44717286744521
 10
22.84487856586671
 20
47.44717286744521
 10
22.84487856586671
 20
47.19767286744714
 10
22.96987856586671
 20
47.19767286744714
 10
22.96987856586671
 20
47.07267286744714
 10
22.84487856586671
 20
47.07267286744714
 10
22.84487856586671
 20
46.88467286744712
 10
22.0011285658575
 20
46.88467286744712
 42
0.4142135623747382
 10
21.96987856586296
 20
46.85342286744692
 10
21.9698785658575
 20
45.91575287391511
 42
0.4142135623747382
 10
22.0011285658575
 20
45.88450287391494
 10
22.84487856586671
 20
45.88450287391494
 10
22.84487856586671
 20
45.69650287391495
 10
22.96987856586671
 20
45.69650287391492
 10
22.96987856586671
 20
45.57150287391492
 10
22.84487856586671
 20
45.57150287391492
 10
22.84487856586671
 20
45.32200287391684
 10
22.9398396187436
 20
45.32200287391684
 10
22.9398396187436
 20
45.37161009969064
 42
0.3899024490719359
 10
23.12483961874855
 20
45.57278295101501
  0
LWPOLYLINE
  5
168
330
2
100
AcDbEntity
  8
0
  6
Continuous
100
AcDbPolyline
 90
       12
 70
     1
 43
0.0
 10
22.82349302206458
 20
45.63450287391491
 10
22.82349302206458
 20
45.88450287391494
 10
22.26148027735943
 20
45.88450287391488
 10
22.26148027735943
 20
45.82703048036485
 42
0.1626057889287369
 10
22.26449179611293
 20
45.81801514246753
 10
22.44019205920202
 20
45.58437117559374
 42
0.235730494161713
 10
22.46496825377804
 20
45.5720028739149
 10
22.54249302206452
 20
45.5720028739149
 10
22.72119205920208
 20
45.33437117559374
 42
0.2357304941617225
 10
22.7459682537781
 20
45.32200287391491
 10
22.82349302206458
 20
45.32200287391491
 10
22.82349302206458
 20
45.44700287391491
 42
-0.6666666666666675
  0
LWPOLYLINE
  5
169
330
2
100
AcDbEntity
  8
0
  6
HIDDEN2
100
AcDbPolyline
 90
        4
 70
     0
 43
0.02
 10
22.96987856586671
 20
45.63450287391494
 10
22.88081011048334
 20
45.63450287391494
 42
0.4142135623730951
 10
22.83431011048336
 20
45.58800287391496
 10
22.83431011048336
 20
44.69689950577058
  0
LWPOLYLINE
  5
16A
330
2
100
AcDbEntity
  8
0
100
AcDbPolyline
 90
        2
 70
     1
 43
0.05859375
 10
22.91124561821849
 20
45.66379974891494
 42
1.0
 10
22.91124561821849
 20
45.60520599891494
 42
1.0
  0
LWPOLYLINE
  5
16B
330
2
100
AcDbEntity
  8
0
  6
Continuous
100
AcDbPolyline
 90
       12
 70
     1
 43
0.0
 10
22.82349302206458
 20
47.13467286744715
 10
22.82349302206458
 20
46.88467286744712
 10
22.26148027735943
 20
46.88467286744717
 10
22.26148027735943
 20
46.9421452609972
 42
-0.1626057889287369
 10
22.26449179611293
 20
46.95116059889453
 10
22.44019205920202
 20
47.18480456576831
 42
-0.235730494161713
 10
22.46496825377804
 20
47.19717286744715
 10
22.54249302206452
 20
47.19717286744715
 10
22.72119205920208
 20
47.43480456576832
 42
-0.2357304941617225
 10
22.7459682537781
 20
47.44717286744715
 10
22.82349302206458
 20
47.44717286744715
 10
22.82349302206458
 20
47.32217286744715
 42
0.6666666666666675
  0
LWPOLYLINE
  5
16C
330
2
100
AcDbEntity
  8
0
  6
HIDDEN2
100
AcDbPolyline
 90
        4
 70
     0
 43
0.02
 10
22.96987856586671
 20
47.13467286744712
 10
22.88081011048334
 20
47.13467286744712
 42
-0.4142135623730951
 10
22.83431011048336
 20
47.1811728674471
 10
22.83431011048336
 20
48.07227623559147
  0
LWPOLYLINE
  5
16D
330
2
100
AcDbEntity
  8
0
100
AcDbPolyline
 90
        2
 70
     1
 43
0.05859375
 10
22.91124561821849
 20
47.10537599244712
 42
-1.0
 10
22.91124561821849
 20
47.16396974244712
 42
-1.0
  0
LWPOLYLINE
  5
16E
102
{ACAD_REACTORS
330
2A3
102
}
330
2
100
AcDbEntity
  8
0
  6
Continuous
100
AcDbPolyline
 90
       24
 70
     1
 43
0.0
 10
25.19083039493026
 20
45.57278295102044
 10
25.19083039493026
 20
47.19639279034161
 10
25.09579144781211
 20
47.19639279034704
 42
0.389902449071936
 10
24.91079144780716
 20
47.39756564167142
 10
24.91079144780716
 20
47.44717286744521
 10
24.81583039493026
 20
47.44717286744521
 10
24.81583039493026
 20
47.19767286744714
 10
24.94083039493026
 20
47.19767286744714
 10
24.94083039493026
 20
47.07267286744714
 10
24.81583039493026
 20
47.07267286744714
 10
24.81583039493026
 20
46.88467286744712
 10
23.97208039492105
 20
46.88467286744712
 42
0.4142135623747382
 10
23.94083039492651
 20
46.85342286744692
 10
23.94083039492105
 20
45.91575287391511
 42
0.4142135623747382
 10
23.97208039492105
 20
45.88450287391494
 10
24.81583039493026
 20
45.88450287391494
 10
24.81583039493026
 20
45.69650287391495
 10
24.94083039493026
 20
45.69650287391492
 10
24.94083039493026
 20
45.57150287391492
 10
24.81583039493026
 20
45.57150287391492
 10
24.81583039493026
 20
45.32200287391684
 10
24.91079144780716
 20
45.32200287391684
 10
24.91079144780716
 20
45.37161009969064
 42
0.3899024490719359
 10
25.09579144781211
 20
45.57278295101501
  0
HATCH
  5
16F
330
2
100
AcDbEntity
  8
0
100
AcDbHatch
 10
0.0
 20
0.0
 30
0.0
210
0.0
220
0.0
230
1.0
  2
SOLID
 70
     1
 71
     0
 91
        1
 92
        7
 72
     0
 73
     1
 93
        4
 10
24.94083039493026
 20
47.07217286744712
 10
24.81583039493026
 20
47.07217286744709
 10
24.81583039493026
 20
47.19717286744712
 10
24.94083039493026
 20
47.19717286744712
 97
        0
 75
     1
 76
     1
 47
0.0019978748433788
 98
        1
 10
24.85393154979093
 20
47.11883158973653
1001
GradientColor1ACI
1070
     5
1001
GradientColor2ACI
1070
     2
1001
ACAD
1010
0.0
1020
0.0
1030
0.0
  0
LWPOLYLINE
  5
170
330
2
100
AcDbEntity
  8
0
  6
Continuous
100
AcDbPolyline
 90
       12
 70
     1
 43
0.0
 10
24.6580903161902
 20
47.13467286744715
 10
24.6580903161902
 20
46.88467286744712
 10
24.09607757148504
 20
46.88467286744717
 10
24.09607757148504
 20
46.9421452609972
 42
-0.1626057889287369
 10
24.09908909023855
 20
46.95116059889453
 10
24.27478935332763
 20
47.18480456576831
 42
-0.235730494161713
 10
24.29956554790365
 20
47.19717286744715
 10
24.37709031619013
 20
47.19717286744715
 10
24.5557893533277
 20
47.43480456576832
 42
-0.2357304941617225
 10
24.58056554790372
 20
47.44717286744715
 10
24.6580903161902
 20
47.44717286744715
 10
24.6580903161902
 20
47.32217286744715
 42
0.6666666666666675
  0
HATCH
  5
171
330
2
100
AcDbEntity
  8
0
100
AcDbHatch
 10
0.0
 20
0.0
 30
0.0
210
0.0
220
0.0
230
1.0
  2
SOLID
 70
     1
 71
     0
 91
        1
 92
        7
 72
     1
 73
     1
 93
        2
 10
24.65809031619026
 20
47.32217286744712
 42
0.0
 10
24.6580903161902
 20
47.13467286744715
 42
-0.6666666666666311
 97
        0
 75
     1
 76
     1
 47
0.0010014887122476
 98
        1
 10
24.61203023984334
 20
47.20726767140298
1001
GradientColor1ACI
1070
     5
1001
GradientColor2ACI
1070
     2
1001
ACAD
1010
0.0
1020
0.0
1030
0.0
  0
LWPOLYLINE
  5
172
330
2
100
AcDbEntity
  8
0
100
AcDbPolyline
 90
        4
 70
     0
 43
0.0
 10
24.81583039493026
 20
48.07227623559147
 10
24.81583039493026
 20
46.9936728674475
 10
24.6580903161902
 20
46.9936728674475
 10
24.6580903161902
 20
48.07227623559147
  0
LWPOLYLINE
  5
173
330
2
100
AcDbEntity
  8
0
100
AcDbPolyline
 90
        8
 70
     0
 43
0.0
 10
24.6580903161902
 20
46.88467286744712
 10
24.81583039493026
 20
46.88467286744712
 10
24.81583039493026
 20
46.9936728674475
 10
24.6580903161902
 20
46.9936728674475
 10
24.6580903161902
 20
46.88467286744712
 10
24.81583039493026
 20
46.9936728674475
 10
24.6580903161902
 20
46.9936728674475
 10
24.81583039493026
 20
46.88467286744712
  0
HATCH
  5
174
330
2
100
AcDbEntity
  8
0
100
AcDbHatch
 10
0.0
 20
0.0
 30
0.0
210
0.0
220
0.0
230
1.0
  2
SOLID
 70
     1
 71
     0
 91
        1
 92
        7
 72
     0
 73
     1
 93
        4
 10
24.94083039493026
 20
45.69700287391493
 10
24.81583039493026
 20
45.69700287391497
 10
24.81583039493026
 20
45.57200287391494
 10
24.94083039493026
 20
45.57200287391494
 97
        0
 75
     1
 76
     1
 47
0.0019978748433788
 98
        1
 10
24.85393154979093
 20
45.65034415162553
1001
GradientColor1ACI
1070
     5
1001
GradientColor2ACI
1070
     2
1001
ACAD
1010
0.0
1020
0.0
1030
0.0
  0
LWPOLYLINE
  5
175
330
2
100
AcDbEntity
  8
0
  6
Continuous
100
AcDbPolyline
 90
       12
 70
     1
 43
0.0
 10
24.6580903161902
 20
45.63450287391491
 10
24.6580903161902
 20
45.88450287391494
 10
24.09607757148504
 20
45.88450287391488
 10
24.09607757148504
 20
45.82703048036485
 42
0.1626057889287369
 10
24.09908909023855
 20
45.81801514246753
 10
24.27478935332763
 20
45.58437117559374
 42
0.235730494161713
 10
24.29956554790365
 20
45.5720028739149
 10
24.37709031619013
 20
45.5720028739149
 10
24.5557893533277
 20
45.33437117559374
 42
0.2357304941617225
 10
24.58056554790372
 20
45.32200287391491
 10
24.6580903161902
 20
45.32200287391491
 10
24.6580903161902
 20
45.44700287391491
 42
-0.6666666666666675
  0
HATCH
  5
176
330
2
100
AcDbEntity
  8
0
100
AcDbHatch
 10
0.0
 20
0.0
 30
0.0
210
0.0
220
0.0
230
1.0
  2
SOLID
 70
     1
 71
     0
 91
        1
 92
        7
 72
     1
 73
     1
 93
        2
 10
24.65809031619026
 20
45.44700287391494
 42
0.0
 10
24.6580903161902
 20
45.63450287391491
 42
0.6666666666666311
 97
        0
 75
     1
 76
     1
 47
0.0010014887122476
 98
        1
 10
24.61203023984334
 20
45.56190806995907
1001
GradientColor1ACI
1070
     5
1001
GradientColor2ACI
1070
     2
1001
ACAD
1010
0.0
1020
0.0
1030
0.0
  0
LWPOLYLINE
  5
177
330
2
100
AcDbEntity
  8
0
100
AcDbPolyline
 90
        4
 70
     0
 43
0.0
 10
24.81583039493026
 20
44.69689950577058
 10
24.81583039493026
 20
45.77550287391455
 10
24.6580903161902
 20
45.77550287391455
 10
24.6580903161902
 20
44.69689950577058
  0
LWPOLYLINE
  5
178
330
2
100
AcDbEntity
  8
0
100
AcDbPolyline
 90
        8
 70
     0
 43
0.0
 10
24.6580903161902
 20
45.88450287391494
 10
24.81583039493026
 20
45.88450287391494
 10
24.81583039493026
 20
45.77550287391455
 10
24.6580903161902
 20
45.77550287391455
 10
24.6580903161902
 20
45.88450287391494
 10
24.81583039493026
 20
45.77550287391455
 10
24.6580903161902
 20
45.77550287391455
 10
24.81583039493026
 20
45.88450287391494
  0
LINE
  5
179
330
2
100
AcDbEntity
  8
0
  6
HIDDEN2
100
AcDbLine
 10
24.81583039493026
 20
48.07227623559147
 30
0.0
 11
22.83431011048336
 21
48.07227623559147
 31
0.0
  0
LINE
  5
17A
330
2
100
AcDbEntity
  8
0
  6
HIDDEN2
100
AcDbLine
 10
24.81583039493026
 20
44.69689950577058
 30
0.0
 11
22.83431011048336
 21
44.69689950577058
 31
0.0
  0
INSERT
  5
17B
330
2
100
AcDbEntity
  8
0
100
AcDbBlockReference
  2
8 X 1.5 FH
 10
21.87641492349385
 20
54.30255108613848
 30
0.0
 41
-1.0
 50
296.5749607025987
  0
LINE
  5
1E9
330
2
100
AcDbEntity
  8
0
  6
HIDDEN2
100
AcDbLine
 10
24.81583039493026
 20
48.44708787068104
 30
0.0
 11
17.09216855533046
 21
48.44708787068104
 31
0.0
  0
LINE
  5
1EA
330
2
100
AcDbEntity
  8
0
  6
HIDDEN2
100
AcDbLine
 10
24.81583039493026
 20
44.32208787068105
 30
0.0
 11
17.0921685553304
 21
44.32208787068105
 31
0.0
  0
LINE
  5
1EB
330
2
100
AcDbEntity
  8
0
  6
HIDDEN
100
AcDbLine
 10
18.93889871281064
 20
48.44708787068102
 30
0.0
 11
18.93889871281058
 21
53.13352393159674
 31
0.0
  0
LINE
  5
1ED
330
2
100
AcDbEntity
  8
0
100
AcDbLine
 10
18.75270851025519
 20
53.13352393159674
 30
0.0
 11
18.75270851025513
 21
48.44708787068102
 31
0.0
  0
LINE
  5
1EE
330
2
100
AcDbEntity
  8
0
100
AcDbLine
 10
19.81570851025512
 20
53.13352393159674
 30
0.0
 11
19.81570851025512
 21
48.44708787068102
 31
0.0
  0
LINE
  5
1EF
330
2
100
AcDbEntity
  8
0
100
AcDbLine
 10
19.75320851025512
 20
53.13352393159674
 30
0.0
 11
19.75320851025512
 21
48.44708787068102
 31
0.0
  0
LINE
  5
1F0
330
2
100
AcDbEntity
  8
0
100
AcDbLine
 10
19.69070851025512
 20
53.13352393159674
 30
0.0
 11
19.69070851025506
 21
48.44708787068102
 31
0.0
  0
LINE
  5
1F1
330
2
100
AcDbEntity
  8
0
100
AcDbLine
 10
18.37639871281058
 20
53.13352393159674
 30
0.0
 11
19.81570851025512
 21
53.13352393159674
 31
0.0
  0
LINE
  5
1F2
330
2
100
AcDbEntity
  8
0
  6
HIDDEN
100
AcDbLine
 10
18.93888262743852
 20
36.91565180976535
 30
0.0
 11
18.93888262743846
 21
44.32208787068101
 31
0.0
  0
LINE
  5
1F3
330
2
100
AcDbEntity
  8
0
100
AcDbLine
 10
18.75269242488295
 20
44.32208787068101
 30
0.0
 11
18.75269242488295
 21
36.91565180976535
 31
0.0
  0
LINE
  5
1F4
330
2
100
AcDbEntity
  8
0
100
AcDbLine
 10
19.81569242488294
 20
44.32208787068101
 30
0.0
 11
19.81569242488294
 21
36.91565180976535
 31
0.0
  0
LINE
  5
1F5
330
2
100
AcDbEntity
  8
0
100
AcDbLine
 10
19.75319242488294
 20
44.32208787068101
 30
0.0
 11
19.75319242488288
 21
36.91565180976535
 31
0.0
  0
LINE
  5
1F6
330
2
100
AcDbEntity
  8
0
100
AcDbLine
 10
19.69069242488288
 20
44.32208787068101
 30
0.0
 11
19.69069242488288
 21
36.91565180976535
 31
0.0
  0
LINE
  5
1F7
330
2
100
AcDbEntity
  8
0
100
AcDbLine
 10
18.37638262743829
 20
36.91565180976535
 30
0.0
 11
19.81569242488294
 21
36.91565180976535
 31
0.0
  0
LINE
  5
1F8
330
2
100
AcDbEntity
  8
0
100
AcDbLine
 10
21.74981876842204
 20
36.91565180976534
 30
0.0
 11
21.74981876842222
 21
44.32208787068105
 31
0.0
  0
LINE
  5
1F9
330
2
100
AcDbEntity
  8
0
100
AcDbLine
 10
21.74981876842233
 20
48.44708787068104
 30
0.0
 11
21.74981876842239
 21
53.13352393159674
 31
0.0
  0
LINE
  5
1FA
330
2
100
AcDbEntity
  8
0
  6
HIDDEN
100
AcDbLine
 10
21.56181876842217
 20
36.91565180976535
 30
0.0
 11
21.56181876842211
 21
44.32208787068105
 31
0.0
  0
LINE
  5
1FB
330
2
100
AcDbEntity
  8
0
  6
HIDDEN
100
AcDbLine
 10
21.56181876842206
 20
48.44708787068106
 30
0.0
 11
21.56181876842189
 21
53.13352393159674
 31
0.0
  0
LINE
  5
1FC
330
2
100
AcDbEntity
  8
0
100
AcDbLine
 10
20.81081876842208
 20
36.91565180976535
 30
0.0
 11
20.81081876842208
 21
44.32208787068105
 31
0.0
  0
LINE
  5
1FD
330
2
100
AcDbEntity
  8
0
100
AcDbLine
 10
20.81081876842203
 20
48.44708787068106
 30
0.0
 11
20.81081876842203
 21
53.13352393159674
 31
0.0
  0
LINE
  5
1FE
330
2
100
AcDbEntity
  8
0
100
AcDbLine
 10
20.74881876842201
 20
36.91565180976535
 30
0.0
 11
20.74881876842201
 21
44.32208787068105
 31
0.0
  0
LINE
  5
1FF
330
2
100
AcDbEntity
  8
0
100
AcDbLine
 10
20.74881876842207
 20
48.44708787068106
 30
0.0
 11
20.74881876842207
 21
53.13352393159674
 31
0.0
  0
LINE
  5
200
330
2
100
AcDbEntity
  8
0
100
AcDbLine
 10
20.68681876842217
 20
36.91565180976535
 30
0.0
 11
20.68681876842206
 21
44.32208787068105
 31
0.0
  0
LINE
  5
201
330
2
100
AcDbEntity
  8
0
100
AcDbLine
 10
20.686818768422
 20
48.44708787068106
 30
0.0
 11
20.68681876842189
 21
53.13352393159674
 31
0.0
  0
LINE
  5
202
330
2
100
AcDbEntity
  8
0
100
AcDbLine
 10
20.68681876842217
 20
36.91565180976535
 30
0.0
 11
21.93862856586671
 21
36.91565180976535
 31
0.0
  0
LINE
  5
203
330
2
100
AcDbEntity
  8
0
100
AcDbLine
 10
20.68681876842189
 20
53.13352393159674
 30
0.0
 11
21.93862856586671
 21
53.13352393159674
 31
0.0
  0
INSERT
  5
204
330
2
100
AcDbEntity
  8
0
100
AcDbBlockReference
  2
8 X 1.5 FH
 10
21.87607106976262
 20
35.13413018773166
 30
0.0
 41
-1.0
 50
243.4250392969115
  0
DIMENSION
  5
205
330
2
100
AcDbEntity
  8
0
100
AcDbDimension
  2
*D4
 10
14.77490605617029
 20
53.66452393159676
 30
0.0
 11
14.77490605617028
 21
51.36835758521108
 31
0.0
 71
     5
 42
4.59233269277135
  3
Knife
100
AcDbAlignedDimension
 13
17.01464378704398
 23
49.0721912388254
 33
0.0
 14
16.68839871281054
 24
53.66452393159675
 34
0.0
 50
90.0
100
AcDbRotatedDimension
1001
ACAD
1000
DSTYLE
1002
{
1070
    40
1040
1.0
1002
}
  0
DIMENSION
  5
215
330
2
100
AcDbEntity
  8
0
100
AcDbDimension
  2
*D5
 10
14.77490605617029
 20
36.32165180976536
 30
0.0
 11
14.77490605617029
 21
35.66540180976536
 31
0.0
 71
     5
 42
1.312500000000007
  3
Knife
100
AcDbAlignedDimension
 13
15.65827964702888
 23
35.00915180976536
 33
0.0
 14
16.68839871281054
 24
36.32165180976536
 34
0.0
 50
90.0
100
AcDbRotatedDimension
1001
ACAD
1000
DSTYLE
1002
{
1070
    40
1040
1.0
1002
}
  0
DIMENSION
  5
224
330
2
100
AcDbEntity
  8
0
100
AcDbDimension
  2
*D6
 10
14.77490605617029
 20
43.6969845025367
 30
0.0
 11
14.77490605617029
 21
40.00931815615103
 31
0.0
 71
     5
 42
7.375332692771337
  3
Knife
100
AcDbAlignedDimension
 13
16.68839871281054
 23
36.32165180976536
 33
0.0
 14
17.01464378704392
 24
43.69698450253669
 34
0.0
 50
90.0
100
AcDbRotatedDimension
1001
ACAD
1000
DSTYLE
1002
{
1070
    40
1040
1.0
1002
}
  0
DIMENSION
  5
233
330
2
100
AcDbEntity
  8
0
100
AcDbDimension
  2
*D7
 10
14.77490605617029
 20
49.07219123882541
 30
0.0
 11
14.77490605617029
 21
46.38458787068105
 31
0.0
  1
DAYLIGHT OPENING
 71
     5
 42
5.375206736288703
  3
Knife
100
AcDbAlignedDimension
 13
17.01464378704392
 23
43.69698450253669
 33
0.0
 14
17.01464378704398
 24
49.0721912388254
 34
0.0
 50
90.0
100
AcDbRotatedDimension
1001
ACAD
1000
DSTYLE
1002
{
1070
    40
1040
1.0
1002
}
  0
DIMENSION
  5
241
330
2
100
AcDbEntity
  8
0
100
AcDbDimension
  2
*D8
 10
16.68839871281059
 20
55.75827997647265
 30
0.0
 11
19.93851363933865
 21
55.75827997647265
 31
0.0
 71
     5
 42
6.500229853056112
  3
Knife
100
AcDbAlignedDimension
 13
23.18862856586671
 23
54.42752946410239
 33
0.0
 14
16.68839871281059
 24
55.2895294641021
 34
0.0
100
AcDbRotatedDimension
1001
ACAD
1000
DSTYLE
1002
{
1070
    40
1040
1.0
1002
}
  0
DIMENSION
  5
250
330
2
100
AcDbEntity
  8
0
100
AcDbDimension
  2
*D9
 10
17.63527269567276
 20
54.47752946410209
 30
0.0
 11
18.32179814882106
 21
54.95985376170263
 31
0.0
 70
   128
 71
     5
 42
0.6880055325053434
  3
Knife
100
AcDbAlignedDimension
 13
17.71989871281053
 23
53.78952393159675
 33
0.0
 14
17.71989871281053
 24
54.47752946410209
 34
0.0
 50
90.0
100
AcDbRotatedDimension
1001
ACAD
1000
DSTYLE
1002
{
1070
    40
1040
1.0
1002
}
  0
DIMENSION
  5
25F
330
2
100
AcDbEntity
  8
0
100
AcDbDimension
  2
*D10
 10
19.82401676486094
 20
53.28952052148509
 30
0.0
 11
19.82401676486093
 21
53.8835249927936
 31
0.0
 71
     5
 42
1.188008942616995
  3
Knife
100
AcDbAlignedDimension
 13
19.62238262743833
 23
54.47752946410209
 33
0.0
 14
19.62238574420361
 24
53.28952052148509
 34
0.0
 50
90.0
100
AcDbRotatedDimension
1001
ACAD
1000
DSTYLE
1002
{
1070
    40
1040
1.0
1002
}
  0
DIMENSION
  5
26E
102
{ACAD_XDICTIONARY
360
26F
102
}
102
{ACAD_REACTORS
330
270
102
}
330
2
100
AcDbEntity
  8
0
100
AcDbDimension
  2
*D14
 10
16.62639871281053
 20
39.92470361701679
 30
0.0
 11
17.50139871281052
 21
39.92470361701679
 31
0.0
 71
     5
 42
1.75
  3
Knife
100
AcDbAlignedDimension
 13
18.37639871281053
 23
39.88376177121632
 33
0.0
 14
16.62639871281053
 24
39.88376177121632
 34
0.0
100
AcDbRotatedDimension
1001
ACAD
1000
DSTYLE
1002
{
1070
    40
1040
1.0
1002
}
  0
DIMENSION
  5
27F
102
{ACAD_XDICTIONARY
360
280
102
}
102
{ACAD_REACTORS
330
281
102
}
330
2
100
AcDbEntity
  8
0
100
AcDbDimension
  2
*D15
 10
23.18862856586671
 20
39.92470361701679
 30
0.0
 11
22.56362856586671
 21
39.92470361701679
 31
0.0
 71
     5
 42
1.25
  3
Knife
100
AcDbAlignedDimension
 13
21.93862856586671
 23
39.92470361701679
 33
0.0
 14
23.18862856586671
 24
39.92470361701679
 34
0.0
100
AcDbRotatedDimension
1001
ACAD
1000
DSTYLE
1002
{
1070
    40
1040
1.0
1002
}
  0
DIMENSION
  5
290
102
{ACAD_XDICTIONARY
360
291
102
}
102
{ACAD_REACTORS
330
292
102
}
330
2
100
AcDbEntity
  8
0
100
AcDbDimension
  2
*D16
 10
25.81394770523045
 20
49.07177946410242
 30
0.0
 11
25.81394770523044
 21
51.77465446410226
 31
0.0
 71
     5
 42
5.40574999999967
  3
Knife
100
AcDbAlignedDimension
 13
20.50189871281057
 23
54.47752946410209
 33
0.0
 14
24.91079144780716
 24
49.07177946410242
 34
0.0
 50
90.0
100
AcDbRotatedDimension
1001
ACAD
1000
DSTYLE
1002
{
1070
    40
1040
1.0
1002
}
  0
DIMENSION
  5
2A1
102
{ACAD_XDICTIONARY
360
2A2
102
}
102
{ACAD_REACTORS
330
2A3
102
}
330
2
100
AcDbEntity
  8
0
100
AcDbDimension
  2
*D17
 10
25.81394770523045
 20
45.32200287391684
 30
0.0
 11
25.81394770523044
 21
46.38458787068103
 31
0.0
 71
     5
 42
2.125169993528373
  3
Knife
100
AcDbAlignedDimension
 13
24.91079144780716
 23
47.44717286744521
 33
0.0
 14
24.91079144780716
 24
45.32200287391684
 34
0.0
 50
90.0
100
AcDbRotatedDimension
1001
ACAD
1000
DSTYLE
1002
{
1070
    40
1040
1.0
1002
}
  0
TEXT
  5
2B2
330
2
100
AcDbEntity
  8
0
100
AcDbText
 10
26.45078593373801
 20
46.36781988017943
 30
0.0
 40
0.25
  1
%%USTORM INSERT
 41
0.55
 51
5.0
 72
     1
 11
27.13264538229214
 21
46.36781988017943
 31
0.0
100
AcDbText
  0
TEXT
  5
2B3
330
2
100
AcDbEntity
  8
0
100
AcDbText
 10
20.24881804421859
 20
46.36781988017943
 30
0.0
 40
0.25
  1
%%USCREEN INSERT
 41
0.55
 51
5.0
 72
     1
 11
20.98749911348557
 21
46.36781988017943
 31
0.0
100
AcDbText
  0
DIMENSION
  5
2B4
102
{ACAD_XDICTIONARY
360
2B5
102
}
102
{ACAD_REACTORS
330
2B6
102
}
330
2
100
AcDbEntity
  8
0
100
AcDbDimension
  2
*D18
 10
25.81394770523045
 20
43.69739627725967
 30
0.0
 11
25.81394770523044
 21
40.00952404351251
 31
0.0
 71
     5
 42
7.375744467494314
  3
Knife
100
AcDbAlignedDimension
 13
23.12612856586671
 23
36.32165180976536
 33
0.0
 14
24.91079144780716
 24
43.69739627725967
 34
0.0
 50
90.0
100
AcDbRotatedDimension
1001
ACAD
1000
DSTYLE
1002
{
1070
    40
1040
1.0
1002
}
  0
DIMENSION
  5
2C5
102
{ACAD_XDICTIONARY
360
2C6
102
}
102
{ACAD_REACTORS
330
2C7
102
}
330
2
100
AcDbEntity
  8
0
100
AcDbDimension
  2
*D19
 10
25.81394770523045
 20
35.00915180976539
 30
0.0
 11
25.81394770523044
 21
35.66540180976538
 31
0.0
 71
     5
 42
1.312499999999971
  3
Knife
100
AcDbAlignedDimension
 13
23.12612856586671
 23
36.32165180976536
 33
0.0
 14
23.1882847121357
 24
35.00915180976539
 34
0.0
 50
90.0
100
AcDbRotatedDimension
1001
ACAD
1000
DSTYLE
1002
{
1070
    40
1040
1.0
1002
}
  0
DIMENSION
  5
2D6
330
2
100
AcDbEntity
  8
0
100
AcDbDimension
  2
*D11
 10
28.41573799778924
 20
35.00915180976539
 30
0.0
 11
28.41573799778924
 21
46.44606160034036
 31
0.0
 70
   128
  1
BOX
 71
     5
 42
19.4683776543367
  3
Knife
100
AcDbAlignedDimension
 13
20.50189871281057
 23
54.47752946410209
 33
0.0
 14
23.1882847121357
 24
35.00915180976539
 34
0.0
 50
90.0
100
AcDbRotatedDimension
1001
ACAD
1000
DSTYLE
1002
{
1070
    40
1040
1.0
1002
}
  0
DIMENSION
  5
2E4
330
2
100
AcDbEntity
  8
0
100
AcDbDimension
  2
*D12
 10
28.41573799778924
 20
55.22752946410209
 30
0.0
 11
29.10226345093753
 21
55.92136756890393
 31
0.0
 70
   128
 71
     5
 42
0.75
  3
Knife
100
AcDbAlignedDimension
 13
24.49381835529991
 23
54.47752946410209
 33
0.0
 14
24.49381835529991
 24
55.22752946410209
 34
0.0
 50
90.0
100
AcDbRotatedDimension
1001
ACAD
1000
DSTYLE
1002
{
1070
    40
1040
1.0
1002
}
  0
DIMENSION
  5
2F3
330
2
100
AcDbEntity
  8
0
100
AcDbDimension
  2
*D13
 10
29.67810574895027
 20
35.00915180976539
 30
0.0
 11
29.67810574895027
 21
46.42507997000019
 31
0.0
 70
   128
  1
ROUGH\POPENING
 71
     5
 42
20.21837765433671
  3
Knife
100
AcDbAlignedDimension
 13
24.49381835529991
 23
55.22752946410209
 33
0.0
 14
23.1882847121357
 24
35.00915180976539
 34
0.0
 50
90.0
100
AcDbRotatedDimension
1001
ACAD
1000
DSTYLE
1002
{
1070
    40
1040
1.0
1002
}
  0
DIMENSION
  5
301
102
{ACAD_XDICTIONARY
360
302
102
}
102
{ACAD_REACTORS
330
303
102
}
330
2
100
AcDbEntity
  8
0
100
AcDbDimension
  2
*D20
 10
13.44516086712343
 20
49.07219123882541
 30
0.0
 11
13.44516086712342
 21
51.77486035146374
 31
0.0
 71
     5
 42
5.405338225276686
  3
Knife
100
AcDbAlignedDimension
 13
15.68739871281056
 23
54.47752946410209
 33
0.0
 14
17.01464378704398
 24
49.0721912388254
 34
0.0
 50
90.0
100
AcDbRotatedDimension
1001
ACAD
1000
DSTYLE
1002
{
1070
    40
1040
1.0
1002
}
  0
DIMENSION
  5
312
102
{ACAD_XDICTIONARY
360
313
102
}
102
{ACAD_REACTORS
330
314
102
}
330
2
100
AcDbEntity
  8
0
100
AcDbDimension
  2
*D21
 10
13.44516086712343
 20
35.00915180976536
 30
0.0
 11
13.44516086712342
 21
39.35315180976535
 31
0.0
 71
     5
 42
8.687999999999981
  3
Knife
100
AcDbAlignedDimension
 13
17.01464378704392
 23
43.69715180976533
 33
0.0
 14
15.61827964702888
 24
35.00915180976536
 34
0.0
 50
90.0
100
AcDbRotatedDimension
1001
ACAD
1000
DSTYLE
1002
{
1070
    40
1040
1.0
1002
}
  0
LWPOLYLINE
  5
323
330
2
100
AcDbEntity
  8
0
  6
Continuous
100
AcDbPolyline
 90
       16
 70
     1
 43
0.0
 10
21.87662856588318
 20
37.15182657034327
 10
21.87662856587591
 20
36.68582657035019
 42
-0.4142135623730951
 10
21.7516285658759
 20
36.5608265703502
 10
21.68862856586671
 20
36.5608265703502
 10
21.68862856586671
 20
36.30782657034958
 10
21.78162856585291
 20
36.30782657034958
 10
21.78162856585291
 20
36.37282657034827
 10
21.75062856587206
 20
36.37282657034827
 10
21.75062856587206
 20
36.49882657033393
 10
21.87662856588318
 20
36.49882657033393
 10
21.87662856588318
 20
36.37282657034827
 10
21.8456285658514
 20
36.37282657034827
 10
21.8456285658514
 20
36.30782657034958
 10
21.93862856586671
 20
36.30782657034958
 10
21.93862856586671
 20
37.18282657034958
 10
21.90762856587131
 20
37.18282657034328
 42
0.4142135623730951
  0
LWPOLYLINE
  5
324
330
2
100
AcDbEntity
  8
0
  6
Continuous
100
AcDbPolyline
 90
        2
 70
     0
 43
0.0
 10
21.8802055156215
 20
36.00865180976529
 10
21.84362856587759
 20
36.37282657034827
  0
LWPOLYLINE
  5
325
330
2
100
AcDbEntity
  8
0
  6
Continuous
100
AcDbPolyline
 90
        2
 70
     0
 43
0.0
 10
21.81112856587757
 20
36.00865180976529
 10
21.81112856587757
 20
36.39782657034825
  0
LWPOLYLINE
  5
326
330
2
100
AcDbEntity
  8
0
  6
Continuous
100
AcDbPolyline
 90
        2
 70
     0
 43
0.0
 10
21.81612856587745
 20
36.00865180976529
 10
21.81612856587745
 20
36.39782657034825
  0
LWPOLYLINE
  5
327
330
2
100
AcDbEntity
  8
0
  6
Continuous
100
AcDbPolyline
 90
        3
 70
     0
 43
0.0
 10
21.82029523254428
 20
36.39782657034825
 10
21.82029523254428
 20
36.37282657034827
 10
21.82503752673361
 20
36.00865180976529
  0
LWPOLYLINE
  5
328
330
2
100
AcDbEntity
  8
0
  6
Continuous
100
AcDbPolyline
 90
        3
 70
     0
 43
0.0
 10
21.82362856587761
 20
36.39782657034825
 10
21.82362856587761
 20
36.37282657034827
 10
21.83305062590344
 20
36.00865180976529
  0
LWPOLYLINE
  5
329
330
2
100
AcDbEntity
  8
0
  6
Continuous
100
AcDbPolyline
 90
        3
 70
     0
 43
0.0
 10
21.82696189921094
 20
36.39782657034825
 10
21.82696189921094
 20
36.37282657034827
 10
21.84101868065491
 20
36.00865180976529
  0
LWPOLYLINE
  5
32A
330
2
100
AcDbEntity
  8
0
  6
Continuous
100
AcDbPolyline
 90
        3
 70
     0
 43
0.0
 10
21.83029523254427
 20
36.39782657034825
 10
21.83029523254427
 20
36.37282657034827
 10
21.84894233822607
 20
36.00865180976529
  0
LWPOLYLINE
  5
32B
330
2
100
AcDbEntity
  8
0
  6
Continuous
100
AcDbPolyline
 90
        3
 70
     0
 43
0.0
 10
21.8336285658776
 20
36.39782657034825
 10
21.8336285658776
 20
36.37282657034827
 10
21.85682223351378
 20
36.00865180976529
  0
LWPOLYLINE
  5
32C
330
2
100
AcDbEntity
  8
0
  6
Continuous
100
AcDbPolyline
 90
        3
 70
     0
 43
0.0
 10
21.83696189921093
 20
36.39782657034825
 10
21.83696189921093
 20
36.37282657034827
 10
21.86465898936686
 20
36.00865180976529
  0
LWPOLYLINE
  5
32D
330
2
100
AcDbEntity
  8
0
  6
Continuous
100
AcDbPolyline
 90
        3
 70
     0
 43
0.0
 10
21.84029523254427
 20
36.39782657034825
 10
21.84029523254427
 20
36.37282657034827
 10
21.87245321687024
 20
36.00865180976529
  0
LWPOLYLINE
  5
32E
330
2
100
AcDbEntity
  8
0
  6
Continuous
100
AcDbPolyline
 90
        3
 70
     0
 43
0.0
 10
21.80221960502141
 20
36.00865180976529
 10
21.80696189921096
 20
36.37282657034827
 10
21.80696189921096
 20
36.39782657034825
  0
LWPOLYLINE
  5
32F
330
2
100
AcDbEntity
  8
0
  6
Continuous
100
AcDbPolyline
 90
        3
 70
     0
 43
0.0
 10
21.79420650585158
 20
36.00865180976529
 10
21.8036285658774
 20
36.37282657034827
 10
21.8036285658774
 20
36.39782657034825
  0
LWPOLYLINE
  5
330
330
2
100
AcDbEntity
  8
0
  6
Continuous
100
AcDbPolyline
 90
        3
 70
     0
 43
0.0
 10
21.78623845110033
 20
36.00865180976529
 10
21.80029523254408
 20
36.37282657034827
 10
21.80029523254408
 20
36.39782657034825
  0
LWPOLYLINE
  5
331
330
2
100
AcDbEntity
  8
0
  6
Continuous
100
AcDbPolyline
 90
        3
 70
     0
 43
0.0
 10
21.77831479352918
 20
36.00865180976529
 10
21.79696189921074
 20
36.37282657034827
 10
21.79696189921074
 20
36.39782657034825
  0
LWPOLYLINE
  5
332
330
2
100
AcDbEntity
  8
0
  6
Continuous
100
AcDbPolyline
 90
        3
 70
     0
 43
0.0
 10
21.77043489824123
 20
36.00865180976529
 10
21.79362856587741
 20
36.37282657034827
 10
21.79362856587741
 20
36.39782657034825
  0
LWPOLYLINE
  5
333
330
2
100
AcDbEntity
  8
0
  6
Continuous
100
AcDbPolyline
 90
        3
 70
     0
 43
0.0
 10
21.76259814238816
 20
36.00865180976529
 10
21.79029523254408
 20
36.37282657034827
 10
21.79029523254408
 20
36.39782657034825
  0
LWPOLYLINE
  5
334
330
2
100
AcDbEntity
  8
0
  6
Continuous
100
AcDbPolyline
 90
        3
 70
     0
 43
0.0
 10
21.75480391488477
 20
36.00865180976529
 10
21.78696189921075
 20
36.37282657034827
 10
21.78696189921075
 20
36.39782657034825
  0
LWPOLYLINE
  5
335
330
2
100
AcDbEntity
  8
0
  6
Continuous
100
AcDbPolyline
 90
       10
 70
     0
 43
0.0
 10
21.71785044698018
 20
36.00865180976529
 10
21.78362856587742
 20
36.37282657034827
 10
21.75125356587742
 20
36.37282657034827
 10
21.75125356587742
 20
36.49720459345723
 10
21.87600356587759
 20
36.49720459345723
 10
21.87600356587759
 20
36.37282657034827
 10
21.84362856587759
 20
36.37282657034827
 10
21.84362856587759
 20
36.39782657034825
 10
21.78362856587742
 20
36.39782657034825
 10
21.78362856587742
 20
36.37282657034827
  0
LWPOLYLINE
  5
336
330
2
100
AcDbEntity
  8
0
  6
Continuous
100
AcDbPolyline
 90
        3
 70
     0
 43
0.0
 10
21.73430742290034
 20
36.00865180976529
 10
21.78362856587742
 20
36.37282657034827
 10
21.74705161613352
 20
36.00865180976529
  0
LWPOLYLINE
  5
337
330
2
100
AcDbEntity
  8
0
  6
Continuous
100
AcDbPolyline
 90
        2
 70
     0
 43
0.0
 10
21.72679509353034
 20
36.00865180976529
 10
21.78269808040127
 20
36.36946860628287
  0
LWPOLYLINE
  5
338
330
2
100
AcDbEntity
  8
0
  6
Continuous
100
AcDbPolyline
 90
        3
 70
     0
 43
0.0
 10
21.90940668477484
 20
36.00865180976529
 10
21.84362856587759
 20
36.37282657034827
 10
21.89294970885467
 20
36.00865180976529
  0
LWPOLYLINE
  5
339
330
2
100
AcDbEntity
  8
0
  6
Continuous
100
AcDbPolyline
 90
        2
 70
     0
 43
0.0
 10
21.90046203822467
 20
36.00865180976529
 10
21.84455905135374
 20
36.36946860628287
  0
LWPOLYLINE
  5
33A
330
2
100
AcDbEntity
  8
0
  6
Continuous
100
AcDbPolyline
 90
       16
 70
     1
 43
0.0
 10
21.87662856588318
 20
37.15182657034327
 10
21.87662856587591
 20
36.68582657035019
 42
-0.4142135623730951
 10
21.7516285658759
 20
36.5608265703502
 10
21.68862856586671
 20
36.5608265703502
 10
21.68862856586671
 20
36.30782657034958
 10
21.78162856585291
 20
36.30782657034958
 10
21.78162856585291
 20
36.37282657034827
 10
21.75062856587206
 20
36.37282657034827
 10
21.75062856587206
 20
36.49882657033393
 10
21.87662856588318
 20
36.49882657033393
 10
21.87662856588318
 20
36.37282657034827
 10
21.8456285658514
 20
36.37282657034827
 10
21.8456285658514
 20
36.30782657034958
 10
21.93862856586671
 20
36.30782657034958
 10
21.93862856586671
 20
37.18282657034958
 10
21.90762856587131
 20
37.18282657034328
 42
0.4142135623730951
  0
LWPOLYLINE
  5
33B
330
2
100
AcDbEntity
  8
0
  6
Continuous
100
AcDbPolyline
 90
        2
 70
     0
 43
0.0
 10
21.8802055156215
 20
36.00865180976529
 10
21.84362856587759
 20
36.37282657034827
  0
LWPOLYLINE
  5
33C
330
2
100
AcDbEntity
  8
0
  6
Continuous
100
AcDbPolyline
 90
        2
 70
     0
 43
0.0
 10
21.81112856587757
 20
36.00865180976529
 10
21.81112856587757
 20
36.39782657034825
  0
LWPOLYLINE
  5
33D
330
2
100
AcDbEntity
  8
0
  6
Continuous
100
AcDbPolyline
 90
        2
 70
     0
 43
0.0
 10
21.81612856587745
 20
36.00865180976529
 10
21.81612856587745
 20
36.39782657034825
  0
LWPOLYLINE
  5
33E
330
2
100
AcDbEntity
  8
0
  6
Continuous
100
AcDbPolyline
 90
        3
 70
     0
 43
0.0
 10
21.82029523254428
 20
36.39782657034825
 10
21.82029523254428
 20
36.37282657034827
 10
21.82503752673361
 20
36.00865180976529
  0
LWPOLYLINE
  5
33F
330
2
100
AcDbEntity
  8
0
  6
Continuous
100
AcDbPolyline
 90
        3
 70
     0
 43
0.0
 10
21.82362856587761
 20
36.39782657034825
 10
21.82362856587761
 20
36.37282657034827
 10
21.83305062590344
 20
36.00865180976529
  0
LWPOLYLINE
  5
340
330
2
100
AcDbEntity
  8
0
  6
Continuous
100
AcDbPolyline
 90
        3
 70
     0
 43
0.0
 10
21.82696189921094
 20
36.39782657034825
 10
21.82696189921094
 20
36.37282657034827
 10
21.84101868065491
 20
36.00865180976529
  0
LWPOLYLINE
  5
341
330
2
100
AcDbEntity
  8
0
  6
Continuous
100
AcDbPolyline
 90
        3
 70
     0
 43
0.0
 10
21.83029523254427
 20
36.39782657034825
 10
21.83029523254427
 20
36.37282657034827
 10
21.84894233822607
 20
36.00865180976529
  0
LWPOLYLINE
  5
342
330
2
100
AcDbEntity
  8
0
  6
Continuous
100
AcDbPolyline
 90
        3
 70
     0
 43
0.0
 10
21.8336285658776
 20
36.39782657034825
 10
21.8336285658776
 20
36.37282657034827
 10
21.85682223351378
 20
36.00865180976529
  0
LWPOLYLINE
  5
343
330
2
100
AcDbEntity
  8
0
  6
Continuous
100
AcDbPolyline
 90
        3
 70
     0
 43
0.0
 10
21.83696189921093
 20
36.39782657034825
 10
21.83696189921093
 20
36.37282657034827
 10
21.86465898936686
 20
36.00865180976529
  0
LWPOLYLINE
  5
344
330
2
100
AcDbEntity
  8
0
  6
Continuous
100
AcDbPolyline
 90
        3
 70
     0
 43
0.0
 10
21.84029523254427
 20
36.39782657034825
 10
21.84029523254427
 20
36.37282657034827
 10
21.87245321687024
 20
36.00865180976529
  0
LWPOLYLINE
  5
345
330
2
100
AcDbEntity
  8
0
  6
Continuous
100
AcDbPolyline
 90
        3
 70
     0
 43
0.0
 10
21.80221960502141
 20
36.00865180976529
 10
21.80696189921096
 20
36.37282657034827
 10
21.80696189921096
 20
36.39782657034825
  0
LWPOLYLINE
  5
346
330
2
100
AcDbEntity
  8
0
  6
Continuous
100
AcDbPolyline
 90
        3
 70
     0
 43
0.0
 10
21.79420650585158
 20
36.00865180976529
 10
21.8036285658774
 20
36.37282657034827
 10
21.8036285658774
 20
36.39782657034825
  0
LWPOLYLINE
  5
347
330
2
100
AcDbEntity
  8
0
  6
Continuous
100
AcDbPolyline
 90
        3
 70
     0
 43
0.0
 10
21.78623845110033
 20
36.00865180976529
 10
21.80029523254408
 20
36.37282657034827
 10
21.80029523254408
 20
36.39782657034825
  0
LWPOLYLINE
  5
348
330
2
100
AcDbEntity
  8
0
  6
Continuous
100
AcDbPolyline
 90
        3
 70
     0
 43
0.0
 10
21.77831479352918
 20
36.00865180976529
 10
21.79696189921074
 20
36.37282657034827
 10
21.79696189921074
 20
36.39782657034825
  0
LWPOLYLINE
  5
349
330
2
100
AcDbEntity
  8
0
  6
Continuous
100
AcDbPolyline
 90
        3
 70
     0
 43
0.0
 10
21.77043489824123
 20
36.00865180976529
 10
21.79362856587741
 20
36.37282657034827
 10
21.79362856587741
 20
36.39782657034825
  0
LWPOLYLINE
  5
34A
330
2
100
AcDbEntity
  8
0
  6
Continuous
100
AcDbPolyline
 90
        3
 70
     0
 43
0.0
 10
21.76259814238816
 20
36.00865180976529
 10
21.79029523254408
 20
36.37282657034827
 10
21.79029523254408
 20
36.39782657034825
  0
LWPOLYLINE
  5
34B
330
2
100
AcDbEntity
  8
0
  6
Continuous
100
AcDbPolyline
 90
        3
 70
     0
 43
0.0
 10
21.75480391488477
 20
36.00865180976529
 10
21.78696189921075
 20
36.37282657034827
 10
21.78696189921075
 20
36.39782657034825
  0
LWPOLYLINE
  5
34C
330
2
100
AcDbEntity
  8
0
  6
Continuous
100
AcDbPolyline
 90
       10
 70
     0
 43
0.0
 10
21.71785044698018
 20
36.00865180976529
 10
21.78362856587742
 20
36.37282657034827
 10
21.75125356587742
 20
36.37282657034827
 10
21.75125356587742
 20
36.49720459345723
 10
21.87600356587759
 20
36.49720459345723
 10
21.87600356587759
 20
36.37282657034827
 10
21.84362856587759
 20
36.37282657034827
 10
21.84362856587759
 20
36.39782657034825
 10
21.78362856587742
 20
36.39782657034825
 10
21.78362856587742
 20
36.37282657034827
  0
LWPOLYLINE
  5
34D
330
2
100
AcDbEntity
  8
0
  6
Continuous
100
AcDbPolyline
 90
        3
 70
     0
 43
0.0
 10
21.73430742290034
 20
36.00865180976529
 10
21.78362856587742
 20
36.37282657034827
 10
21.74705161613352
 20
36.00865180976529
  0
LWPOLYLINE
  5
34E
330
2
100
AcDbEntity
  8
0
  6
Continuous
100
AcDbPolyline
 90
        2
 70
     0
 43
0.0
 10
21.72679509353034
 20
36.00865180976529
 10
21.78269808040127
 20
36.36946860628287
  0
LWPOLYLINE
  5
34F
330
2
100
AcDbEntity
  8
0
  6
Continuous
100
AcDbPolyline
 90
        3
 70
     0
 43
0.0
 10
21.90940668477484
 20
36.00865180976529
 10
21.84362856587759
 20
36.37282657034827
 10
21.89294970885467
 20
36.00865180976529
  0
LWPOLYLINE
  5
350
330
2
100
AcDbEntity
  8
0
  6
Continuous
100
AcDbPolyline
 90
        2
 70
     0
 43
0.0
 10
21.90046203822467
 20
36.00865180976529
 10
21.84455905135374
 20
36.36946860628287
  0
ENDSEC
  0
SECTION
  2
OBJECTS
  0
DICTIONARY
  5
B
330
0
100
AcDbDictionary
281
     1
  3
ACAD_COLOR
350
50
  3
ACAD_GROUP
350
3D
  3
ACAD_LAYOUT
350
18
  3
ACAD_MATERIAL
350
D
  3
ACAD_MLEADERSTYLE
350
53
  3
ACAD_MLINESTYLE
350
3E
  3
ACAD_PLOTSETTINGS
350
3F
  3
ACAD_PLOTSTYLENAME
350
A
  3
ACAD_SCALELIST
350
51
  3
ACAD_TABLESTYLE
350
52
  3
ACAD_VISUALSTYLE
350
31
  3
ACDB_RECOMPOSE_DATA
350
35E
  3
AcDbVariableDictionary
350
354
  0
DICTIONARY
  5
33
330
2E
100
AcDbDictionary
280
     1
281
     1
  0
DICTIONARY
  5
23
330
22
100
AcDbDictionary
280
     1
281
     1
  3
ACAD_LAYERSTATES
360
24
  0
DICTIONARY
  5
7
330
6
100
AcDbDictionary
280
     1
281
     1
  3
ADSK_XREC_LAYER_RECONCILED
360
8
  0
DICTIONARY
  5
7F
330
7E
100
AcDbDictionary
280
     1
281
     1
  0
DICTIONARY
  5
3
330
2
100
AcDbDictionary
280
     1
281
     1
  3
ACAD_SORTENTS
360
351
  0
DICTIONARY
  5
26F
330
26E
100
AcDbDictionary
280
     1
281
     1
  3
ACAD_DIMASSOC
360
270
  0
DICTIONARY
  5
280
330
27F
100
AcDbDictionary
280
     1
281
     1
  3
ACAD_DIMASSOC
360
281
  0
DICTIONARY
  5
291
330
290
100
AcDbDictionary
280
     1
281
     1
  3
ACAD_DIMASSOC
360
292
  0
DICTIONARY
  5
2A2
330
2A1
100
AcDbDictionary
280
     1
281
     1
  3
ACAD_DIMASSOC
360
2A3
  0
DICTIONARY
  5
2B5
330
2B4
100
AcDbDictionary
280
     1
281
     1
  3
ACAD_DIMASSOC
360
2B6
  0
DICTIONARY
  5
2C6
330
2C5
100
AcDbDictionary
280
     1
281
     1
  3
ACAD_DIMASSOC
360
2C7
  0
DICTIONARY
  5
302
330
301
100
AcDbDictionary
280
     1
281
     1
  3
ACAD_DIMASSOC
360
303
  0
DICTIONARY
  5
313
330
312
100
AcDbDictionary
280
     1
281
     1
  3
ACAD_DIMASSOC
360
314
  0
DICTIONARY
  5
50
102
{ACAD_REACTORS
330
B
102
}
330
B
100
AcDbDictionary
281
     1
  0
DICTIONARY
  5
3D
102
{ACAD_REACTORS
330
B
102
}
330
B
100
AcDbDictionary
281
     1
  0
DICTIONARY
  5
18
102
{ACAD_REACTORS
330
B
102
}
330
B
100
AcDbDictionary
281
     1
  3
Layout1
350
1F
  3
Model
350
17
  0
DICTIONARY
  5
D
102
{ACAD_REACTORS
330
B
102
}
330
B
100
AcDbDictionary
281
     1
  3
ByBlock
350
48
  3
ByLayer
350
40
  3
Global
350
C
  0
DICTIONARY
  5
53
102
{ACAD_REACTORS
330
B
102
}
330
B
100
AcDbDictionary
281
     1
  0
DICTIONARY
  5
3E
102
{ACAD_REACTORS
330
B
102
}
330
B
100
AcDbDictionary
281
     1
  3
Standard
350
54
  0
DICTIONARY
  5
3F
102
{ACAD_REACTORS
330
B
102
}
330
B
100
AcDbDictionary
281
     1
  0
ACDBDICTIONARYWDFLT
  5
A
102
{ACAD_REACTORS
330
B
102
}
330
B
100
AcDbDictionary
281
     1
  3
Normal
350
9
100
AcDbDictionaryWithDefault
340
9
  0
DICTIONARY
  5
51
102
{ACAD_REACTORS
330
B
102
}
330
B
100
AcDbDictionary
281
     1
  3
A0
350
59
  3
A1
350
5A
  3
A2
350
5B
  3
A3
350
5C
  3
A4
350
5D
  3
A5
350
5E
  3
A6
350
5F
  3
A7
350
60
  3
A8
350
61
  3
A9
350
62
  3
B0
350
63
  3
B1
350
64
  3
B2
350
65
  3
B3
350
66
  3
B4
350
67
  3
B5
350
68
  3
B6
350
69
  0
DICTIONARY
  5
52
102
{ACAD_REACTORS
330
B
102
}
330
B
100
AcDbDictionary
281
     1
  3
Standard
350
55
  0
DICTIONARY
  5
31
102
{ACAD_REACTORS
330
B
102
}
330
B
100
AcDbDictionary
281
     1
  3
2dWireframe
350
30
  3
Realistic
350
57
  3
Wireframe
350
58
  0
XRECORD
  5
35E
102
{ACAD_REACTORS
330
B
102
}
330
B
100
AcDbXrecord
280
     1
 90
        1
330
55
  0
DICTIONARY
  5
354
102
{ACAD_REACTORS
330
B
102
}
330
B
100
AcDbDictionary
281
     1
  3
CANNOSCALE
350
357
  3
CMLEADERSTYLE
350
356
  3
CTABLESTYLE
350
355
  3
DIMASSOC
350
35C
  3
HIDETEXT
350
35A
  3
INDEXCTL
350
359
  3
SORTENTS
350
358
  3
XCLIPFRAME
350
35B
  0
DICTIONARY
  5
24
102
{ACAD_REACTORS
330
23
102
}
330
23
100
AcDbDictionary
281
     1
  0
XRECORD
  5
8
102
{ACAD_REACTORS
330
7
102
}
330
7
100
AcDbXrecord
280
     1
290
     1
  0
SORTENTSTABLE
  5
351
102
{ACAD_REACTORS
330
3
102
}
330
3
100
AcDbSortentsTable
330
2
  0
DIMASSOC
  5
270
102
{ACAD_REACTORS
330
26F
102
}
330
26F
100
AcDbDimAssoc
330
26E
 90
        3
 70
     0
 71
     0
  1
AcDbOsnapPointRef
 72
     2
331
6B
 73
     2
 91
       12
 40
0.5
 10
0.0
 20
0.0
 30
0.0
 75
     0
  1
AcDbOsnapPointRef
 72
     8
331
6B
 73
     2
 91
        8
 40
0.476736438712666
 10
0.0
 20
0.0
 30
0.0
 75
     1
  1
AcDbOsnapPointRef
 72
     2
331
6B
 73
     2
 91
       12
 40
0.5
 10
0.0
 20
0.0
 30
0.0
 75
     0
  0
DIMASSOC
  5
281
102
{ACAD_REACTORS
330
280
102
}
330
280
100
AcDbDimAssoc
330
27F
 90
        3
 70
     0
 71
     0
  1
AcDbOsnapPointRef
 72
     8
331
156
 73
     2
 91
       10
 40
0.3066582300733463
 10
0.0
 20
0.0
 30
0.0
 75
     1
  1
AcDbOsnapPointRef
 72
     0
 40
0.0
 10
55.45511420931998
 20
34.85183190682594
 30
0.0
 75
     0
  1
AcDbOsnapPointRef
 72
     8
331
156
 73
     2
 91
        2
 40
0.6209521275725422
 10
0.0
 20
0.0
 30
0.0
 75
     1
  1
AcDbOsnapPointRef
 72
     8
331
156
 73
     2
 91
       10
 40
0.3066582300733463
 10
0.0
 20
0.0
 30
0.0
 75
     1
  1
AcDbOsnapPointRef
 72
     0
 40
0.0
 10
55.45511420931998
 20
34.85183190682594
 30
0.0
 75
     0
  0
DIMASSOC
  5
292
102
{ACAD_REACTORS
330
291
102
}
330
291
100
AcDbDimAssoc
330
290
 90
        3
 70
     0
 71
     0
  1
AcDbOsnapPointRef
 72
     1
331
142
 73
     2
 91
       14
 40
1.0
 10
0.0
 20
0.0
 30
2.000000000000000E+50
 75
     0
  1
AcDbOsnapPointRef
 72
     1
331
15C
 73
     2
 91
        5
 40
1.0
 10
0.0
 20
0.0
 30
2.000000000000000E+50
 75
     0
  0
DIMASSOC
  5
2A3
102
{ACAD_REACTORS
330
2A2
102
}
330
2A2
100
AcDbDimAssoc
330
2A1
 90
        3
 70
     0
 71
     0
  1
AcDbOsnapPointRef
 72
     1
331
16E
 73
     2
 91
        4
 40
1.0
 10
0.0
 20
0.0
 30
2.000000000000000E+50
 75
     0
  1
AcDbOsnapPointRef
 72
     1
331
16E
 73
     2
 91
       21
 40
1.0
 10
0.0
 20
0.0
 30
2.000000000000000E+50
 75
     0
  0
DIMASSOC
  5
2B6
102
{ACAD_REACTORS
330
2B5
102
}
330
2B5
100
AcDbDimAssoc
330
2B4
 90
        2
 70
     0
 71
     0
  1
AcDbOsnapPointRef
 72
     1
331
15E
 73
     2
 91
        5
 40
1.0
 10
0.0
 20
0.0
 30
2.000000000000000E+50
 75
     0
  0
DIMASSOC
  5
2C7
102
{ACAD_REACTORS
330
2C6
102
}
330
2C6
100
AcDbDimAssoc
330
2C5
 90
        1
 70
     0
 71
     0
  1
AcDbOsnapPointRef
 72
     6
331
156
 73
     2
 91
       12
 40
1.0
 10
0.0
 20
0.0
 30
0.0
332
156
 74
     2
 92
        1
 75
     0
  0
DIMASSOC
  5
303
102
{ACAD_REACTORS
330
302
102
}
330
302
100
AcDbDimAssoc
330
301
 90
        2
 70
     0
 71
     0
  1
AcDbOsnapPointRef
 72
     5
331
122
 73
     2
 91
        8
 40
4.712388980384689
 10
0.0
 20
0.0
 30
0.0
 75
     0
  0
DIMASSOC
  5
314
102
{ACAD_REACTORS
330
313
102
}
330
313
100
AcDbDimAssoc
330
312
 90
        1
 70
     0
 71
     0
  1
AcDbOsnapPointRef
 72
     5
331
133
 73
     2
 91
        8
 40
1.570796326794896
 10
0.0
 20
0.0
 30
0.0
 75
     0
  0
LAYOUT
  5
1F
102
{ACAD_XDICTIONARY
360
20
102
}
102
{ACAD_REACTORS
330
18
102
}
330
18
100
AcDbPlotSettings
  1

  2
Default Windows System Printer.pc3
  4
Letter
  6

 40
4.857749938964843
 41
4.857737064361572
 42
4.85772705078125
 43
4.011077880859375
 44
279.3999938964844
 45
215.8999938964844
 46
-0.730858697408237
 47
-3.856245104248928
 48
0.0
 49
0.0
140
0.0
141
0.0
142
1.0
143
1.0
 70
   692
 72
     0
 73
     1
 74
     1
  7
monochrome.ctb
 75
    16
147
1.0
148
0.0083604749971762
149
0.0163435974585369
100
AcDbLayout
  1
Layout1
 70
     1
 71
     1
 10
-0.0064249311656545
 20
-0.1631194818509899
 11
8.493574828538456
 21
10.83688027785312
 12
0.0
 22
0.0
 32
0.0
 14
0.0000000075458644
 24
0.0000000082145277
 34
0.0
 15
8.454000007545857
 25
10.67400000821453
 35
0.0
146
0.0
 13
0.0
 23
0.0
 33
0.0
 16
1.0
 26
0.0
 36
0.0
 17
0.0
 27
1.0
 37
0.0
 76
     0
330
1C
1001
ACAD_PSEXT
1000
Default Windows System Printer.pc3
1000
HP LaserJet Professional M1212nf MFP
1000
USB001
1000

1070
     0
  0
LAYOUT
  5
17
102
{ACAD_XDICTIONARY
360
19
102
}
102
{ACAD_REACTORS
330
18
102
}
330
18
100
AcDbPlotSettings
  1

  2
hp LaserJet 1000
  4
Letter
  6

 40
5.111750125885009
 41
5.11176061630249
 42
5.111740112304687
 43
5.11175537109375
 44
215.8999938964844
 45
279.3999938964844
 46
-1737.727141600119
 47
-1443.590822120185
 48
0.0
 49
0.0
140
0.0
141
0.0
142
1.0
143
1.0
 70
 11956
 72
     0
 73
     1
 74
     1
  7
monochrome.ctb
 75
    16
147
1.0
148
-1178909.293504616
149
-716480.0773740626
100
AcDbLayout
  1
Model
 70
     1
 71
     0
 10
0.0
 20
0.0
 11
12.0
 21
9.0
 12
0.0
 22
0.0
 32
0.0
 14
0.0
 24
0.0
 34
0.0
 15
0.0
 25
0.0
 35
0.0
146
0.0
 13
0.0
 23
0.0
 33
0.0
 16
1.0
 26
0.0
 36
0.0
 17
0.0
 27
1.0
 37
0.0
 76
     0
330
2
331
2F
1001
ACAD_PSEXT
1000
hp LaserJet 1000
1000
hp LaserJet 1000
1000
USB001
1000

1070
     0
  0
MATERIAL
  5
48
102
{ACAD_XDICTIONARY
360
49
102
}
102
{ACAD_REACTORS
330
D
102
}
330
D
100
AcDbMaterial
  1
ByBlock
 72
     0
 43
0.0208333333333333
 43
0.0
 43
0.0
 43
0.0
 43
0.0
 43
0.0208333333333333
 43
0.0
 43
0.0
 43
0.0
 43
0.0
 43
1.0
 43
0.0
 43
0.0
 43
0.0
 43
0.0
 43
1.0
 77
     0
 47
0.0208333333333333
 47
0.0
 47
0.0
 47
0.0
 47
0.0
 47
0.0208333333333333
 47
0.0
 47
0.0
 47
0.0
 47
0.0
 47
1.0
 47
0.0
 47
0.0
 47
0.0
 47
0.0
 47
1.0
171
     0
 49
0.0208333333333333
 49
0.0
 49
0.0
 49
0.0
 49
0.0
 49
0.0208333333333333
 49
0.0
 49
0.0
 49
0.0
 49
0.0
 49
1.0
 49
0.0
 49
0.0
 49
0.0
 49
0.0
 49
1.0
175
     0
142
0.0208333333333333
142
0.0
142
0.0
142
0.0
142
0.0
142
0.0208333333333333
142
0.0
142
0.0
142
0.0
142
0.0
142
1.0
142
0.0
142
0.0
142
0.0
142
0.0
142
1.0
179
     0
144
0.0208333333333333
144
0.0
144
0.0
144
0.0
144
0.0
144
0.0208333333333333
144
0.0
144
0.0
144
0.0
144
0.0
144
1.0
144
0.0
144
0.0
144
0.0
144
0.0
144
1.0
147
0.0208333333333333
147
0.0
147
0.0
147
0.0
147
0.0
147
0.0208333333333333
147
0.0
147
0.0
147
0.0
147
0.0
147
1.0
147
0.0
147
0.0
147
0.0
147
0.0
147
1.0
  0
MATERIAL
  5
40
102
{ACAD_XDICTIONARY
360
41
102
}
102
{ACAD_REACTORS
330
D
102
}
330
D
100
AcDbMaterial
  1
ByLayer
 72
     0
 43
0.0208333333333333
 43
0.0
 43
0.0
 43
0.0
 43
0.0
 43
0.0208333333333333
 43
0.0
 43
0.0
 43
0.0
 43
0.0
 43
1.0
 43
0.0
 43
0.0
 43
0.0
 43
0.0
 43
1.0
 77
     0
 47
0.0208333333333333
 47
0.0
 47
0.0
 47
0.0
 47
0.0
 47
0.0208333333333333
 47
0.0
 47
0.0
 47
0.0
 47
0.0
 47
1.0
 47
0.0
 47
0.0
 47
0.0
 47
0.0
 47
1.0
171
     0
 49
0.0208333333333333
 49
0.0
 49
0.0
 49
0.0
 49
0.0
 49
0.0208333333333333
 49
0.0
 49
0.0
 49
0.0
 49
0.0
 49
1.0
 49
0.0
 49
0.0
 49
0.0
 49
0.0
 49
1.0
175
     0
142
0.0208333333333333
142
0.0
142
0.0
142
0.0
142
0.0
142
0.0208333333333333
142
0.0
142
0.0
142
0.0
142
0.0
142
1.0
142
0.0
142
0.0
142
0.0
142
0.0
142
1.0
179
     0
144
0.0208333333333333
144
0.0
144
0.0
144
0.0
144
0.0
144
0.0208333333333333
144
0.0
144
0.0
144
0.0
144
0.0
144
1.0
144
0.0
144
0.0
144
0.0
144
0.0
144
1.0
147
0.0208333333333333
147
0.0
147
0.0
147
0.0
147
0.0
147
0.0208333333333333
147
0.0
147
0.0
147
0.0
147
0.0
147
1.0
147
0.0
147
0.0
147
0.0
147
0.0
147
1.0
  0
MATERIAL
  5
C
102
{ACAD_XDICTIONARY
360
E
102
}
102
{ACAD_REACTORS
330
D
102
}
330
D
100
AcDbMaterial
  1
Global
 72
     0
 43
0.0208333333333333
 43
0.0
 43
0.0
 43
0.0
 43
0.0
 43
0.0208333333333333
 43
0.0
 43
0.0
 43
0.0
 43
0.0
 43
1.0
 43
0.0
 43
0.0
 43
0.0
 43
0.0
 43
1.0
 77
     0
 47
0.0208333333333333
 47
0.0
 47
0.0
 47
0.0
 47
0.0
 47
0.0208333333333333
 47
0.0
 47
0.0
 47
0.0
 47
0.0
 47
1.0
 47
0.0
 47
0.0
 47
0.0
 47
0.0
 47
1.0
171
     0
 49
0.0208333333333333
 49
0.0
 49
0.0
 49
0.0
 49
0.0
 49
0.0208333333333333
 49
0.0
 49
0.0
 49
0.0
 49
0.0
 49
1.0
 49
0.0
 49
0.0
 49
0.0
 49
0.0
 49
1.0
175
     0
142
0.0208333333333333
142
0.0
142
0.0
142
0.0
142
0.0
142
0.0208333333333333
142
0.0
142
0.0
142
0.0
142
0.0
142
1.0
142
0.0
142
0.0
142
0.0
142
0.0
142
1.0
179
     0
144
0.0208333333333333
144
0.0
144
0.0
144
0.0
144
0.0
144
0.0208333333333333
144
0.0
144
0.0
144
0.0
144
0.0
144
1.0
144
0.0
144
0.0
144
0.0
144
0.0
144
1.0
147
0.0208333333333333
147
0.0
147
0.0
147
0.0
147
0.0
147
0.0208333333333333
147
0.0
147
0.0
147
0.0
147
0.0
147
1.0
147
0.0
147
0.0
147
0.0
147
0.0
147
1.0
  0
MLINESTYLE
  5
54
102
{ACAD_REACTORS
330
3E
102
}
330
3E
100
AcDbMlineStyle
  2
STANDARD
 70
     0
  3

 62
   256
 51
90.0
 52
90.0
 71
     2
 49
0.5
 62
   256
  6
BYLAYER
 49
-0.5
 62
   256
  6
BYLAYER
  0
ACDBPLACEHOLDER
  5
9
102
{ACAD_REACTORS
330
A
102
}
330
A
  0
SCALE
  5
59
102
{ACAD_REACTORS
330
51
102
}
330
51
100
AcDbScale
 70
     0
300
1:1
140
1.0
141
1.0
290
     1
  0
SCALE
  5
5A
102
{ACAD_REACTORS
330
51
102
}
330
51
100
AcDbScale
 70
     0
300
1/128" = 1'-0"
140
0.0078125
141
12.0
290
     0
  0
SCALE
  5
5B
102
{ACAD_REACTORS
330
51
102
}
330
51
100
AcDbScale
 70
     0
300
1/64" = 1'-0"
140
0.015625
141
12.0
290
     0
  0
SCALE
  5
5C
102
{ACAD_REACTORS
330
51
102
}
330
51
100
AcDbScale
 70
     0
300
1/32" = 1'-0"
140
0.03125
141
12.0
290
     0
  0
SCALE
  5
5D
102
{ACAD_REACTORS
330
51
102
}
330
51
100
AcDbScale
 70
     0
300
1/16" = 1'-0"
140
0.0625
141
12.0
290
     0
  0
SCALE
  5
5E
102
{ACAD_REACTORS
330
51
102
}
330
51
100
AcDbScale
 70
     0
300
3/32" = 1'-0"
140
0.09375
141
12.0
290
     0
  0
SCALE
  5
5F
102
{ACAD_REACTORS
330
51
102
}
330
51
100
AcDbScale
 70
     0
300
1/8" = 1'-0"
140
0.125
141
12.0
290
     0
  0
SCALE
  5
60
102
{ACAD_REACTORS
330
51
102
}
330
51
100
AcDbScale
 70
     0
300
3/16" = 1'-0"
140
0.1875
141
12.0
290
     0
  0
SCALE
  5
61
102
{ACAD_REACTORS
330
51
102
}
330
51
100
AcDbScale
 70
     0
300
1/4" = 1'-0"
140
0.25
141
12.0
290
     0
  0
SCALE
  5
62
102
{ACAD_REACTORS
330
51
102
}
330
51
100
AcDbScale
 70
     0
300
3/8" = 1'-0"
140
0.375
141
12.0
290
     0
  0
SCALE
  5
63
102
{ACAD_REACTORS
330
51
102
}
330
51
100
AcDbScale
 70
     0
300
1/2" = 1'-0"
140
0.5
141
12.0
290
     0
  0
SCALE
  5
64
102
{ACAD_REACTORS
330
51
102
}
330
51
100
AcDbScale
 70
     0
300
3/4" = 1'-0"
140
0.75
141
12.0
290
     0
  0
SCALE
  5
65
102
{ACAD_REACTORS
330
51
102
}
330
51
100
AcDbScale
 70
     0
300
1" = 1'-0"
140
1.0
141
12.0
290
     0
  0
SCALE
  5
66
102
{ACAD_REACTORS
330
51
102
}
330
51
100
AcDbScale
 70
     0
300
1-1/2" = 1'-0"
140
1.5
141
12.0
290
     0
  0
SCALE
  5
67
102
{ACAD_REACTORS
330
51
102
}
330
51
100
AcDbScale
 70
     0
300
3" = 1'-0"
140
3.0
141
12.0
290
     0
  0
SCALE
  5
68
102
{ACAD_REACTORS
330
51
102
}
330
51
100
AcDbScale
 70
     0
300
6" = 1'-0"
140
6.0
141
12.0
290
     0
  0
SCALE
  5
69
102
{ACAD_REACTORS
330
51
102
}
330
51
100
AcDbScale
 70
     0
300
1'-0" = 1'-0"
140
12.0
141
12.0
290
     0
  0
TABLESTYLE
  5
55
102
{ACAD_XDICTIONARY
360
56
102
}
102
{ACAD_REACTORS
330
52
102
}
330
52
100
AcDbTableStyle
  3
Standard
 70
     0
 71
     0
 40
0.06
 41
0.06
280
     0
281
     0
  7
Standard
140
0.18
170
     2
 62
     0
 63
     7
283
     0
274
    -2
284
     1
 64
     0
275
    -2
285
     1
 65
     0
276
    -2
286
     1
 66
     0
277
    -2
287
     1
 67
     0
278
    -2
288
     1
 68
     0
279
    -2
289
     1
 69
     0
  7
Standard
140
0.25
170
     5
 62
     0
 63
     7
283
     0
274
    -2
284
     1
 64
     0
275
    -2
285
     1
 65
     0
276
    -2
286
     1
 66
     0
277
    -2
287
     1
 67
     0
278
    -2
288
     1
 68
     0
279
    -2
289
     1
 69
     0
  7
Standard
140
0.18
170
     5
 62
     0
 63
     7
283
     0
274
    -2
284
     1
 64
     0
275
    -2
285
     1
 65
     0
276
    -2
286
     1
 66
     0
277
    -2
287
     1
 67
     0
278
    -2
288
     1
 68
     0
279
    -2
289
     1
 69
     0
  0
VISUALSTYLE
  5
30
102
{ACAD_XDICTIONARY
360
362
102
}
102
{ACAD_REACTORS
330
31
102
}
330
31
100
AcDbVisualStyle
  2
2dWireframe
 70
     4
 71
     0
 72
     2
 73
     0
 90
        0
 40
-0.6
 41
-30.0
 62
     5
 63
     7
 74
     1
 91
        4
 64
     7
 65
   257
 75
     1
175
     1
 42
1.0
 92
        0
 66
   257
 43
1.0
 76
     1
 77
     6
 78
     2
 67
     7
 79
     5
170
     0
171
     0
290
     0
174
     0
 93
        1
 44
0.0
173
     0
291
     0
 45
0.0
1001
ACAD
1000
AcDbSavedByObjectVersion
1070
     0
  0
VISUALSTYLE
  5
57
102
{ACAD_XDICTIONARY
360
367
102
}
102
{ACAD_REACTORS
330
31
102
}
330
31
100
AcDbVisualStyle
  2
Realistic
 70
     8
 71
     2
 72
     2
 73
     0
 90
        2
 40
-0.6
 41
30.0
 62
     5
 63
     7
 74
     0
 91
        0
 64
     7
 65
   257
 75
     1
175
     1
 42
1.0
 92
        8
 66
   257
 43
1.0
 76
     1
 77
     6
 78
     2
 67
     7
 79
     3
170
     0
171
     0
290
     0
174
     0
 93
       13
 44
0.0
173
     0
291
     0
 45
0.0
1001
ACAD
1000
AcDbSavedByObjectVersion
1070
     0
  0
VISUALSTYLE
  5
58
102
{ACAD_XDICTIONARY
360
369
102
}
102
{ACAD_REACTORS
330
31
102
}
330
31
100
AcDbVisualStyle
  2
Wireframe
 70
     5
 71
     0
 72
     2
 73
     0
 90
        0
 40
-0.6
 41
-30.0
 62
     5
 63
     7
 74
     1
 91
        4
 64
     7
 65
   257
 75
     1
175
     1
 42
1.0
 92
        0
 66
   257
 43
1.0
 76
     1
 77
     6
 78
     2
 67
     7
 79
     3
170
     0
171
     0
290
     0
174
     0
 93
        1
 44
0.0
173
     0
291
     0
 45
0.0
1001
ACAD
1000
AcDbSavedByObjectVersion
1070
     0
  0
DICTIONARYVAR
  5
357
102
{ACAD_REACTORS
330
354
102
}
330
354
100
DictionaryVariables
280
     0
  1
1:1
  0
DICTIONARYVAR
  5
356
102
{ACAD_REACTORS
330
354
102
}
330
354
100
DictionaryVariables
280
     0
  1
STANDARD
  0
DICTIONARYVAR
  5
355
102
{ACAD_REACTORS
330
354
102
}
330
354
100
DictionaryVariables
280
     0
  1
STANDARD
  0
DICTIONARYVAR
  5
35C
102
{ACAD_REACTORS
330
354
102
}
330
354
100
DictionaryVariables
280
     0
  1
2
  0
DICTIONARYVAR
  5
35A
102
{ACAD_REACTORS
330
354
102
}
330
354
100
DictionaryVariables
280
     0
  1
1
  0
DICTIONARYVAR
  5
359
102
{ACAD_REACTORS
330
354
102
}
330
354
100
DictionaryVariables
280
     0
  1
0
  0
DICTIONARYVAR
  5
358
102
{ACAD_REACTORS
330
354
102
}
330
354
100
DictionaryVariables
280
     0
  1
127
  0
DICTIONARYVAR
  5
35B
102
{ACAD_REACTORS
330
354
102
}
330
354
100
DictionaryVariables
280
     0
  1
0
  0
DICTIONARY
  5
20
330
1F
100
AcDbDictionary
280
     1
281
     1
  3
ACAD_XREC_ROUNDTRIP
360
361
  3
ADSK_XREC_LAYOUTTHUMBNAIL
360
21
  0
DICTIONARY
  5
19
330
17
100
AcDbDictionary
280
     1
281
     1
  3
ACAD_XREC_ROUNDTRIP
360
360
  3
ADSK_XREC_LAYOUTTHUMBNAIL
360
1A
  0
DICTIONARY
  5
49
330
48
100
AcDbDictionary
280
     1
281
     1
  3
ACAD_XREC_ROUNDTRIP
360
365
  3
BUMPTILE
360
4A
  3
DIFFUSETILE
360
4B
  3
OPACITYTILE
360
4C
  3
REFLECTIONTILE
360
4D
  3
REFRACTIONTILE
360
4E
  3
SPECULARTILE
360
4F
  0
DICTIONARY
  5
41
330
40
100
AcDbDictionary
280
     1
281
     1
  3
ACAD_XREC_ROUNDTRIP
360
364
  3
BUMPTILE
360
42
  3
DIFFUSETILE
360
43
  3
OPACITYTILE
360
44
  3
REFLECTIONTILE
360
45
  3
REFRACTIONTILE
360
46
  3
SPECULARTILE
360
47
  0
DICTIONARY
  5
E
330
C
100
AcDbDictionary
280
     1
281
     1
  3
ACAD_XREC_ROUNDTRIP
360
35F
  3
BUMPTILE
360
F
  3
DIFFUSETILE
360
10
  3
OPACITYTILE
360
11
  3
REFLECTIONTILE
360
12
  3
REFRACTIONTILE
360
13
  3
SPECULARTILE
360
14
  0
DICTIONARY
  5
56
330
55
100
AcDbDictionary
280
     1
281
     1
  3
ACAD_ROUNDTRIP_2008_TABLESTYLE_CELLSTYLEMAP
360
35D
  3
ACAD_XREC_ROUNDTRIP
360
366
  0
DICTIONARY
  5
362
330
30
100
AcDbDictionary
280
     1
281
     1
  3
ACAD_XREC_ROUNDTRIP
360
363
  0
DICTIONARY
  5
367
330
57
100
AcDbDictionary
280
     1
281
     1
  3
ACAD_XREC_ROUNDTRIP
360
368
  0
DICTIONARY
  5
369
330
58
100
AcDbDictionary
280
     1
281
     1
  3
ACAD_XREC_ROUNDTRIP
360
36A
  0
XRECORD
  5
361
102
{ACAD_REACTORS
330
20
102
}
330
20
100
AcDbXrecord
280
     1
102
SHADEPLOT
 70
     1
102
SHADEPLOTRESLEVEL
 70
     4
102
SHADEPLOTCUSTOMDPI
 70
   300
  0
XRECORD
  5
21
102
{ACAD_REACTORS
330
20
102
}
330
20
100
AcDbXrecord
280
     1
310
280000006B0000008C0000000100080000000000103B000000000000000000000001000000000000FFFFFF0000000000C8C8C8000000000000000000000000000000000000000000000000000000000000000000330000006600000099000000CC000000FF00000000330000333300006633000099330000CC330000FF3300
310
0000660000336600006666000099660000CC660000FF66000000990000339900006699000099990000CC990000FF99000000CC000033CC000066CC000099CC0000CCCC0000FFCC000000FF000033FF000066FF000099FF0000CCFF0000FFFF000000003300330033006600330099003300CC003300FF003300003333003333
310
33006633330099333300CC333300FF33330000663300336633006666330099663300CC663300FF66330000993300339933006699330099993300CC993300FF99330000CC330033CC330066CC330099CC3300CCCC3300FFCC330000FF330033FF330066FF330099FF3300CCFF3300FFFF330000006600330066006600660099
310
006600CC006600FF00660000336600333366006633660099336600CC336600FF33660000666600336666006666660099666600CC666600FF66660000996600339966006699660099996600CC996600FF99660000CC660033CC660066CC660099CC6600CCCC6600FFCC660000FF660033FF660066FF660099FF6600CCFF6600
310
FFFF660000009900330099006600990099009900CC009900FF00990000339900333399006633990099339900CC339900FF33990000669900336699006666990099669900CC669900FF66990000999900339999006699990099999900CC999900FF99990000CC990033CC990066CC990099CC9900CCCC9900FFCC990000FF99
310
0033FF990066FF990099FF9900CCFF9900FFFF99000000CC003300CC006600CC009900CC00CC00CC00FF00CC000033CC003333CC006633CC009933CC00CC33CC00FF33CC000066CC003366CC006666CC009966CC00CC66CC00FF66CC000099CC003399CC006699CC009999CC00CC99CC00FF99CC0000CCCC0033CCCC0066CC
310
CC0099CCCC00CCCCCC00FFCCCC0000FFCC0033FFCC0066FFCC0099FFCC00CCFFCC00FFFFCC000000FF003300FF006600FF009900FF00CC00FF00FF00FF000033FF003333FF006633FF009933FF00CC33FF00FF33FF000066FF003366FF006666FF009966FF00CC66FF00FF66FF000099FF003399FF006699FF009999FF00CC
310
99FF00FF99FF0000CCFF0033CCFF0066CCFF0099CCFF00CCCCFF00FFCCFF0000FFFF0033FFFF0066FFFF0099FFFF00CCFFFF00FFFFFF00000000000D0D0D001A1A1A00282828003535350043434300505050005D5D5D006B6B6B00787878008686860093939300A1A1A100AEAEAE00BBBBBB00C9C9C900D6D6D600E4E4E400
310
F1F1F100FFFFFF0000000000000000000000000000000000000000000000000000000000000000000000000000000000E2E2E2E2E2E2E2E2E2E2E2E2E2E2E2E2E2E2E2E2E2E2E2E2E2E2E2E2E2E2E2E2E2E2E2E2E2E2E2E2E2E2E2E2E2E2E2E2E2E2E2E2E2E2E2E2E2E2E2E2E2E2E2E2E2E2E2E2E2E2E2E2E2E2E2E2E2E2E2
310
E2E2E2E2E2E2E2E2E2E2E2E2E2E2E2E2E2E2E2E2E2E2E2E2E2E2E2E240E200000000000000000000000000000000000000000000000000000000000000000000000000000000000000000000000000000000000000000000000000000000000000000000000000000000000000000000000000000000000000000000000000
310
000000000000000000B8E20000000000000000000000000000000000000000000000000000000000000000000000000000000000000000000000000000000000000000000000000000000000000000000000000000000000000000000000000000000000000000000000000000000000000000000030E2E2E2E2E2E2E2E2E2
310
E2E2000000000000000000E2E2E2E2E2E2E2E2E2E2E2E2E2E2E2E200000000000000000000E2E2E2E2E2E2E2E2E2E2E2E2E2E2E2E200000000000000000000E2E2E2E2E2E2E2E2E2E2E2E2E2E2E2E2000000000000000000E2E2E2E2E2E2E2E2E2007EE200E200000000000000000000000000000000000000000000000000
310
0000000000000000000000000000000000000000000000000000000000000000000000000000000000000000000000000000000000000000000000000000000000000000000000000000000000E20000E200E20000000000000000000000000000000000000000000000000000000000000000000000000000000000000000
310
0000000000E2E2E20000000000000000000000000000000000000000000000000000000000000000000000000000000000000000000000000000E20001E200E200000000000000000000000000000000000000000000000000000000000000000000000000000000000000000000000000E2E2E20000000000000000000000
310
000000000000000000000000000000000000000000000000000000000000000000000000000000E20019E200E200000000000000000000000000000000000000000000000000000000000000000000000000000000000000000000000000000000000000000000000000000000000000000000000000000000000000000000
310
0000000000000000000000000000000000000000E20001E200E2000000000000000000000000000000000000000000000000000000000000000000000000000000000000000000000000E2E2E2E2E2000000000000000000000000000000000000000000000000000000000000000000000000000000000000000000000000
310
00E20000E200E2000000000000000000000000000000000000000000000000000000000000000000000000000000000000000000000000E2E2E2E2E200000000000000000000000000000000000000000000000000000000000000000000000000000000000000000000000000E20000E200E2000000000000000000000000
310
000000000000000000000000000000000000000000000000000000000000000000000000000000000000000000000000000000000000000000000000000000000000000000000000000000000000000000000000000000000000E20001E200E200000000000000000000000000000000000000000000000000000000000000
310
0000000000000000000000000000000000000000000000000000000000000000000000000000000000000000000000000000000000000000000000000000000000000000000000E20000E200000000000000000000000000000000000000000000000000000000000000000000000000000000000000000000000000000000
310
00000000000000000000000000000000000000000000000000000000000000000000000000000000000000000000000000000000000000E20000000000000000000000000000000000000000000000000000000000000000000000000000000000000000000000000000000000000000000000000000000000000000000000
310
000000000000000000000000000000000000000000000000000000000000000000000000E2000000000000000000000000000000000000000000000000000000000000000000000000000000000000000000000000000000000000000000000000000000000000000000000000000000000000000000000000000000000000
310
0000000000000000000000000000000000E20000000000000000000000000000000000000000000000000000000000000000000000000000000000000000000000000000000000000000000000000000000000000000000000000000000000000000000000000000000000000000000000000000000000000000000000E200
310
00000000000000000000000000000000000000000000000000000000000000000000000000000000000000000000000000000000000000000000000000000000000000000000000000000000000000000000000000000000000000000000000000000000000000000000E20000000000000000000000000000000000000000
310
000000000000000000000000000000000000000000000000000000000000000000000000000000000000000000000000000000000000000000000000000000000000000000000000000000000000000000000000000002E2000000000000000000000000000000000000000000000000000000000000000000000000000000
310
0000000000000000000000000000000000000000000000000000000000000000000000000000000000000000000000000000000000000000000000000000000000000002E200000000000000000000000000000000000000000000000000000000000000000000000000000000000000000000000000000000000000000000
310
000000000000000000000000000000000000000000000000000000000000000000000000000000000000000000000000FFE20000000000000000000000000000000000000000000000000000000000000000000000000000000000000000000000000000000000000000000000000000000000000000000000000000000000
310
000000000000000000000000000000000000000000000000000000000000E2000000000000000000000000000000000000000000000000000000000000000000000000000000000000000000000000000000000000000000000000000000000000000000000000000000000000000000000000000000000000000000000000
310
0000000000000000000099E200E2000000000000000000000000000000000000000000000000000000000000000000000000000000000000000000000000000000000000000000000000000000000000000000000000000000000000000000000000000000000000000000000000000000000000E20066E200E20000000000
310
00000000000000000000000000000000000000000000000000000000000000000000000000000000000000000000000000000000000000000000000000000000000000000000000000000000000000000000000000000000000000000000000000E20066E200E2000000000000000000000000000000000000000000000000
310
000000000000000000000000000000000000000000000000000000000000000000000000000000000000000000000000000000000000000000000000000000000000000000000000000000000000E20066E200E200000000000000000000000000000000000000000000000000000000000000000000000000000000000000
310
0000000000000000000000000000000000000000000000000000000000000000000000000000000000000000000000000000000000000000000000E20000E200E20000000000000000000000000000000000000000000000000000000000000000000000000000000000000000000000000000000000000000000000000000
310
00000000000000000000000000000000000000000000000000000000000000000000000000000000E20099E200E2000000000000000000000000000000000000000000000000000000000000000000000000000000000000000000000000000000000000000000000000000000000000000000000000000000000000000000
310
000000000000000000000000000000000000000000E20000E200E200000000000000000000000000000000000000000000000000000000000000000000000000000000000000000000000000000000000000000000000000000000000000000000000000000000000000000000000000000000000000000000000000000000
310
0000E200FFE200E2000000000000000000000000000000000000000000000000000000000000000000000000000000000000000000000000000000000000000000000000000000000000000000000000000000000000000000000000000000000000000000000000000000000000E20000E200E20000000000000000000000
310
00000000000000000000000000000000000000000000000000000000000000000000000000000000000000000000000000000000000000000000000000000000000000000000000000000000000000000000000000000000000000E20000E200E2000000000000000000000000000000000000000000000000000000000000
310
000000000000000000000000000000000000000000000000000000000000000000000000000000000000000000000000000000000000000000000000000000000000000000000000E20000E200E200000000000000000000000000000000000000000000000000000000000000000000000000000000000000000000000000
310
0000000000000000000000000000000000000000000000000000000000000000000000000000000000000000000000000000000000E20000E200E20000000000000000000000000000000000000000000000000000000000000000000000000000000000000000000000000000000000000000000000000000000000000000
310
00000000000000000000000000000000000000000000000000000000000000000000E2000FE200E2000000000000000000000000000000000000000000000000000000000000000000000000000000000000000000000000000000000000000000000000000000000000000000000000000000000000000000000000000000
310
000000000000000000000000000000E20000E200E2000000000000000000000000000000000000000000000000000000000000000000000000000000000000000000000000000000000000000000000000000000000000000000000000000000000000000000000000000000000000000000000000000000000000E20000E2
310
00E2000000000000000000000000000000000000000000000000000000000000000000000000000000000000000000000000000000000000000000000000000000000000000000000000000000000000000000000000000000000000000000000000000000000000E20000E200E20000000000000000000000000000000000
310
000000E2E2E2E2E2E2E2E2E2E2E2E2E2E2E2E2E2E2E2E2E2E2E2E2E2E2E2E2E2E2E200E2E2E2E2E2E2E2E2E2E2E2E2E2E2E2E2E2E2E2E2E2E2E2E2E2E2000000000000000000000000000000000000000000000000E20000E200E20000000000000000000000000000000000000000E20000E2E2E20000E2E2E20000000000
310
0000000000000000000000E200E2E2E20000E200000000000000E2E2E200000000000000E2E2000000E2000000000000000000000000000000000000000000000000E2000FE200000000000000000000000000000000000000000000E20000E2E2E20000E20000000000000000000000000000000000E2E2E20000000000E2
310
00000000000000E2E2E20000000000000000E2000000E2000000000000000000000000000000000000000000000000000000E200000000000000000000000000000000000000000000E20000E2E2E2E200E2E2E2E2E2E20000000000E20000000000E2E2E2000000000000E200000000000000E2E2E20000000000000000E2
310
000000E20000000000000000000000000000000000000000000000000000F5E200000000000000000000000000000000000000000000E200000000E20000000000000000E2E2E2E2E2E2E2E2E2E2E2E2E2E2E2E2E2E2E2E2E2000000000000000000E20000000000000000E2000000E2000000000000000000000000000000
310
000000000000000000000000E200000000000000000000000000000000000000000000E200000000E2E2E2E2E2E2E2E2E2E2E2E2E2E2E2E2E20000000000E200E2E2E2E2E2E2E2E2E2E2E2E2E2E2E2E20000000000000000E2000000E2000000000000000000000000000000000000000000000000000000E2000000000000
310
00000000000000000000000000000000E200000000E20000000000E2000000000000E2E2E2E2E2E2E2E2E2E200E2E2000000E2000000000000000000E20000000000000000E2000000E2000000000000000000000000000000000000000000000000000000E200000000000000000000000000000000000000000000E20000
310
0000E20000000000E2000000000000E2E2E2E2E2E20000E2E2E2E2E2000000E2000000000000000000E20000000000000000E2000000E2000000000000000000000000000000000000000000000000000000E200000000000000000000000000000000000000000000E200000000E20000000000E2000000000000E2E20000
310
E2E20000E20000E2E2000000E2000000000000000000E20000000000000000E2000000E200000000000000000000000000000000000000000000000000000FE200000000000000000000000000000000000000000000E200000000E20000000000E2000000000000E2E20000E2E20000E20000E2E2000000E2000000000000
310
000000E20000000000000000E2000000E2000000000000000000000000000000000000000000000000000000E200000000000000000000000000000000000000000000E200000000E20000000000E2000000000000E2E20000E2E20000E20000E2E2000000E2000000000000000000E20000000000000000E2000000E20000
310
00000000000000000000000000000000000000000000000000E200E20000000000000000000000000000000000000000E200000000E20000000000E2000000000000E2E20000E2E20000E20000E2E2000000E2000000000000000000E20000000000000000E2000000E2000000000000000000000000000000000000000000
310
000000E20000E200E20000000000000000000000000000000000000000E200000000E20000000000E2000000000000E2E20000E2E20000E20000E2E2000000E2000000000000000000E20000000000000000E2000000E2000000000000000000000000000000000000000000000000E20000E200E200000000000000000000
310
00000000000000000000E200000000E20000000000E2000000000000E2E20000E2E20000E20000E2E2000000E2000000000000000000E20000000000000000E2000000E2000000000000000000000000000000000000000000000000E200F5E200E2000000000000000000000000000000000000E2E2E2E2000000E2000000
310
0000E2000000000000E2E20000E2E20000E20000E2E2000000E2000000000000000000E20000000000000000E2000000E2000000000000000000000000000000000000000000000000E20000E200E200000000000000000000000000000000000000E2E2E2000000E20000000000E2000000000000E2E20000E2E20000E200
310
00E2E2000000E2000000000000000000E20000000000000000E2000000E2000000000000000000000000000000000000000000000000E20000E200E2000000000000000000000000000000000000E2E2E2E200E2E2E2E200000000E200E2E2E20000E2E20000E2E20000E20000E2E2E2E2E2E200000000000000E2E2E20000
310
000000000000E2000000E2000000000000000000000000000000000000000000000000E20000E200E20000000000000000000000000000000000000000E20000E2E2E2E200000000E200E2E2E20000E2E20000E2E20000E20000E2E2E2E2E2E200000000000000E2E2E20000000000000000E2000000E20000000000000000
310
00000000000000000000000000000000E20000E200E20000000000000000000000000000000000000000E20000E2E2E20000000000E2E2E2E2E2E2E2E2E20000E2E20000E20000E2E2E2E2E2E2E2000000000000E2E2E20000000000000000E2000000E2000000000000000000000000000000000000000000000000E200F5
310
E200E20000000000000000000000000000000000000000E20000E2E2E20000000000E200E2E2E20000E2E20000E2E20000E20000E2E2E2E2E2E200000000000000E2E2E20000000000000000E2000000E2000000000000000000000000000000000000000000000000E20000E200E200000000000000000000000000000000
310
00000000E200000000E20000000000E2000000000000E2E20000E2E20000E20000E2E2000000E2000000000000000000E20000000000000000E2000000E2000000000000000000000000000000000000000000000000E200F5E200E20000000000000000000000000000000000000000E200000000E20000000000E2000000
310
000000E2E20000E2E20000E20000E2E2000000E2000000000000000000E20000000000000000E2000000E2000000000000000000000000000000000000000000000000E20000E200E20000000000000000000000000000000000000000E200000000E20000000000E2000000000000E2E20000E2E20000E20000E2E2000000
310
E2000000000000000000E20000000000000000E2000000E2000000000000000000000000000000000000000000000000E20000E200E20000000000000000000000000000000000000000E200000000E20000000000E2000000000000E2E20000E2E20000E20000E2E20000E2E2000000000000000000E20000000000000000
310
E2000000E2000000000000000000000000000000000000000000000000E20000E200E20000000000000000000000000000000000000000E200000000E20000000000E2000000000000E2E20000E2E20000E20000E2E2E2E2E2E20000E2E2E2E2000000E20000000000000000E2000000E20000000000000000000000000000
310
00000000000000000000E20000E200E20000000000000000000000000000000000000000E200000000E20000000000E2000000000000E2E20000E2E20000E20000E2E20000E2E20000E20000E2000000E20000000000000000E2000000E2000000000000000000000000000000000000000000000000E200F5E200E2000000
310
0000000000000000000000000000000000E200000000E20000000000E2000000000000E2E20000E2E20000E20000E2E20000E2E20000E20000E2E20000E20000000000000000E2000000E2000000000000000000000000000000000000000000000000E20000E200E20000000000000000000000000000000000000000E200
310
000000E20000000000E2000000000000E2E20000E2E20000E20000E2E2000000E20000E2000000E20000E20000000000000000E2000000E2000000000000000000000000000000000000000000000000E20000E200000000000000000000000000000000000000000000E200000000E20000000000E2000000E20000E2E200
310
00E2E20000E20000E2E2000000E20000E2000000E20000E20000000000000000E2000000E2000000000000000000000000000000000000000000000000000000E200000000000000000000000000000000000000000000E200000000E20000000000E2E2E2E2E2E200E2E20000E2E20000E20000E2E2E2E2E2E20000E2E2E2
310
E2E20000E20000000000000000E2000000E2000000000000000000000000000000000000000000000000000000E200000000000000000000000000000000000000000000E200000000E2000000000000E2E2E2E2E2E2E2E20000E2E20000E20000E20000E2E2E2000000E2E2E2E20000E20000000000000000E2000000E200
310
00000000000000000000000000000000000000000000000000F5E200000000000000000000000000000000000000000000E2E2E2E2E2E2E2E2E2E2E2E2E2E2E2E2E2E200E20000E2E20000E20000E2000000E2E200000000E2E2E2E2E2E20000000000000000E2000000E20000000000000000000000000000000000000000
310
00000000000000E2000000000000000000000000000000000000000000000000000000E200000000000000E2E200E20000E20000E2E20000E20000E2000000E2000000000000E2000000000000000000000000E2000000E2000000000000000000000000000000000000000000000000000000E20000000000000000000000
310
00000000000000000000000000000000E200000000000000E2E2E2E2E2E2E2E2E2E2E2E2E2E2E2E2E2E2E2E2E2E2E2E2E2E2E2E2000000000000000000000000E2000000E2000000000000000000000000000000000000000000000000000000E2000000000000000000000000000000000000000000000000000000E20000
310
000000000000000000000000000000000000000000000000000000000000000000000000000000000000000000E2000000E2000000000000000000000000000000000000000000000000000000E2000000000000000000000000000000000000000000000000000000E2000000000000000000000000000000000000000000
310
000000000000E2E2E2E2E2E2E2E2000000000000000000000000E2000000E20000000000000000000000000000000000000000000000000000F5E2000000000000000000000000000000000000000000000000000000E2000000000000000000000000000000000000000000000000000000E2000000000000E20000000000
310
00000000000000E2000000E2000000000000000000000000000000000000000000000000000000E2000000000000000000000000000000000000000000000000000000E2000000000000000000000000000000000000000000000000000000E2E200000000E2E2E2E2E2E20000000000000000E2000000E200000000000000
310
00000000000000000000000000000000000000F5E200E200000000000000000000000000000000000000000000000000E20000000000000000000000000000000000000000000000000000E2E2E2000000E2E2E2E20000E20000000000000000E2000000E2000000000000000000000000000000000000000000000000E200
310
00E200E200000000000000000000000000000000000000000000000000E2000000000000000000000000000000000000000000000000E2E2E2E2E20000E2E2E2E2E2E2E2E20000000000000000E200E2E2E2E20000000000000000000000000000000000000000000000E20000E200E2000000000000000000000000000000
310
000000000000E2E2E2E2E2E2E2E2000000000000000000000000000000E2E2E2E2E2E2E2000000E20000E2000000E2E2E2E200E2E2E2E2E2E2E2E200E2E2E2E20000000000000000000000000000000000000000000000E2007FE200E2000000000000000000000000000000000000000000E2E2E2E2E2E2E2E20000000000
310
00000000000000000000E2E2E2E2E200E2000000E20000E2000000E2E2E2E200E2E2E2E2E200E2E20000E2E2000000000000000000000000000000000000000000000000E20000E200E200000000000000000000000000000000000000000000000000E2000000000000000000000000000000000000000000000000E2E2E2
310
E2E20000E2E2E2E2E20000E20000000000000000E20000E2E2000000000000000000000000000000000000000000000000E200F5E200E200000000000000000000000000000000000000000000000000E200000000000000000000000000000000000000000000000000E2E2E2E2000000E2E2E2E20000E200000000000000
310
00E2000000E2000000000000000000000000000000000000000000000000E20000E200E200000000000000000000000000000000000000000000000000E2000000000000000000000000000000000000000000000000000000E2E200000000E2E2E2E2E2E20000000000000000E2000000E200000000000000000000000000
310
0000000000000000000000E20000E200E200000000000000000000000000000000000000000000000000E2000000000000000000000000000000000000000000000000000000E2000000000000E20000E2000000000000000000E2000000E2000000000000000000000000000000000000000000000000E20000E200E20000
310
0000000000000000000000000000000000000000000000E2000000000000000000000000000000000000000000000000000000E2000000000000E2000000000000000000000000E2000000E2000000000000000000000000000000000000000000000000E20036E200E2000000000000000000000000000000000000000000
310
00000000E2000000000000000000000000000000000000000000000000000000E2E2E2E2E2E2E2E2000000000000000000000000E2000000E2000000000000000000000000000000000000000000000000E200F5E200E200000000000000000000000000000000000000000000000000E200000000000000E2E2E2E2E2E2E2
310
E2E2E2E2E2E2E2E2E2E2E2E2E2E2E2E2E2E2E2E2E2000000000000000000000000E2000000E2000000000000000000000000000000000000000000000000E20000E200E200000000000000000000000000000000000000000000000000E200000000000000E2E200E20000E20000E2E20000E20000E2000000E20000000000
310
00E2000000000000000000000000E2000000E2000000000000000000000000000000000000000000000000E200F5E200E20000000000000000000000000000000000000000E2E2E2E2E2E2E2E2E2E2E2E2E2E2E2E2E2E200E20000E2E20000E20000E2000000E2E200000000E2E2E2E2E2E20000000000000000E2000000E2
310
000000000000000000000000000000000000000000000000E20000E200E20000000000000000000000000000000000000000E200000000E2000000000000E2E2E2E2E2E2E2E20000E2E20000E20000E20000E2E2E2000000E2E2E2E20000E20000000000000000E2000000E200000000000000000000000000000000000000
310
0000000000E20000E200E20000000000000000000000000000000000000000E200000000E20000000000E2E2E2E2E2E200E2E20000E2E20000E20000E2E2E2E2E2E20000E2E2E2E2E20000E20000000000000000E2000000E2000000000000000000000000000000000000000000000000E200F5E200E20000000000000000
310
000000000000000000000000E200000000E20000000000E2000000E2E200E2E20000E2E20000E20000E2E2000000E20000E2000000E20000E20000000000000000E2000000E2000000000000000000000000000000000000000000000000E20000E200E20000000000000000000000000000000000000000E200000000E200
310
00000000E2000000000000E2E20000E2E20000E20000E2E2000000E20000E2000000E20000E20000000000000000E2000000E2000000000000000000000000000000000000000000000000E200F5E200000000000000000000000000000000000000000000E200000000E20000000000E2000000000000E2E20000E2E20000
310
E20000E2E20000E2E20000E20000E2E20000E20000000000000000E2000000E2000000000000000000000000000000000000000000000000000000E200000000000000000000000000000000000000000000E200000000E20000000000E2000000000000E2E20000E2E20000E20000E2E20000E2E20000E20000E2000000E2
310
0000000000000000E2000000E2000000000000000000000000000000000000000000000000000000E200000000000000000000000000000000000000000000E20000E2E2E2E200000000E2000000000000E2E20000E2E20000E20000E2E2E2E2E2E20000E2E2E2E2000000E20000000000000000E2000000E2000000000000
310
000000000000000000000000000000000000000000E20000000000000000000000000000000000000000E2E2E2E200E2E2E2E200000000E2000000000000E2E20000E2E20000E20000E2E2E200E2E200000000000000E2E2E20000000000000000E2000000E200000000000000000000000000000000000000000000000000
310
0000E20000000000000000000000000000000000000000E2E2E2E200E2E2E2E200000000E2000000000000E2E20000E2E20000E20000E2E2000000E200000000000000E2E2E2E200000000000000E2000000E2000000000000000000000000000000000000000000000000000000E200000000000000000000000000000000
310
00000000E2E2E2E2000000E20000000000E2000000000000E2E20000E2E20000E20000E2E2000000E200000000000000E2E2E2E200000000000000E2000000E2000000000000000000000000000000000000000000000000000000E200000000000000000000000000000000000000000000E200000000E20000000000E200
310
0000000000E2E20000E2E20000E20000E2E2000000E2000000000000000000E20000000000000000E2000000E2000000000000000000000000000000000000000000000000000000E200000000000000000000000000000000000000000000E200000000E20000000000E2000000000000E2E20000E2E20000E20000E2E200
310
0000E2000000000000000000E20000000000000000E2000000E2000000000000000000000000000000000000000000000000000000E200000000000000000000000000000000000000000000E200000000E20000000000E2000000000000E2E20000E2E20000E20000E2E2000000E2000000000000000000E2000000000000
310
0000E2000000E2000000000000000000000000000000000000000000000000000000E200E20000000000000000000000000000000000000000E200000000E20000000000E2000000000000E2E2E2E2E2E20000E2E2E2E2E2000000E2000000000000000000E20000000000000000E2000000E2000000000000000000000000
310
000000000000000000000000E200F5E200E20000000000000000000000000000000000000000E200000000E20000000000E2000000000000E2E2E2E2E2E2E2E2E2E2E2E2E2000000E2000000000000000000E20000000000000000E2000000E2000000000000000000000000000000000000000000000000E20000E200E200
310
00000000000000000000000000000000000000E200000000E2E2E2E2E2E2E2E2E2E2E2E2E2E2E2E2E2E2E200E2E2E2E2E2E2E2E2E2E2000000000000000000E20000000000000000E2000000E2000000000000000000000000000000000000000000000000E200F5E200E20000000000000000000000000000000000000000
310
E200000000E20000000000E2E2E2E2E2E2E2E2E2E2E2E2E200E2E2E2E2E2E2E2E2E2E2000000000000000000E20000000000000000E2000000E2000000000000000000000000000000000000000000000000E20000E200E20000000000000000000000000000000000000000E200000000000000E2E2E2E2E2E200E2000000
310
0000E2E2E2000000E2E2E2E2000000E2000000000000000000E20000000000000000E2000000E2000000000000000000000000000000000000000000000000E20000E200E20000000000000000000000000000000000000000E2E2E2E2E2E2E2E2E20000E2E2E2E2E2E2E2E2E2E2E2E2E2E2E2E2E2E2E2E2E2E2E2E2E2E2E2
310
E2E2E2E2E2E2E2E2E2E2E2E2E2E2E2E2000000E2000000000000000000000000000000000000000000000000E200F5E200E200000000000000000000000000000000000000000000000000000000E2E2E2E2E2E200E2E2E2E2000000000000000000000000000000E2000000000000000000000000000000000000E2000000
310
E2000000000000000000000000000000000000000000000000E20000E200E200000000000000000000000000000000000000000000000000000000E2E2E2E2E20000E2E2E2E2000000000000000000000000000000E2000000000000000000000000000000000000E2000000E2000000000000000000000000000000000000
310
000000000000E20000E200E200000000000000000000000000000000000000000000000000000000E20000E2E2000000E2E2E20000E2E2E2E2000000000000000000E200000000E2E2E2E2E2E2E2E2E2E2E2E2E2E2E2E2E2E2E2000000000000000000000000000000000000000000000000E20000E200E200000000000000
310
000000000000000000000000000000000000000000E20000E2E20000000000000000E2E2E2E2000000000000000000E2000000000000000000000000000000000000E2E2E2E200000000000000000000000000000000000000000000000000E20000E200E20000000000000000000000000000000000000000000000000000
310
0000E2E2E2E2E2E2E2E2E2E2E2E2E2E2E2E200E2E2E2E2E2E2E2E2E2E2E20000000000000000000000000000000000E2E2E20000000000000000000000000000000000000000000000000000E20000E200E2000000000000000000000000000000000000000000000000000000000000000000000000000000000000000000
310
0000000000000000000000000000000000000000000000000000000000E2E20000000000000000000000000000000000000000000000000000E20000E200E200000000000000000000000000000000000000000000000000000000000000000000000000000000000000000000000000000000000000000000000000000000
310
0000000000000000000000000000000000000000000000000000000000000000000000000000E20000E200E20000000000000000000000000000000000000000000000000000000000000000000000000000000000000000000000000000000000000000000000000000000000000000000000000000000000000000000000
310
00000000000000000000000000000000000000E20000E200E2000000000000000000000000000000000000000000000000000000000000000000000000000000000000000000000000000000000000000000000000000000000000000000000000000000000000000000000000000000000000000000000000000000000000
310
E20000E200E2000000000000000000000000000000000000000000000000000000000000000000000000000000000000000000000000000000000000000000000000000000000000000000000000000000000000000000000000000000000000000000000000000000000000E20000E200E200000000E2E2E2E2E2E2E2E2E2
310
E2E2E2E2E2E2E2E2E2E2E2E2E2E2E2E2E2E2E2E2E2E2E2E2E2E2E2E2E2E2E2E2E2E2E2E2E2E2E2E2E2E2E2E2E2E2E2E2E2E2E2E2E2E2E2E2000000000000000000000000000000000000000000000000000000000000000000E20000E2000000000000E2E2E2E2E2E2E2E2E2E2E2E2E2E2E2E2E2E2E2E2E2E2E2E2E2E2E2E2
310
E2E2E2E2E2E2E2E2E2E2E2E2E2E2E2E2E2E2E2E2E2E2E2E2E2E2E2E2E2E2E2E2E2E2E2E2E2000000000000000000000000000000000000000000000000000000000000000000000000E2000000000000E2E2E2E2E2E2E2E2E2E2E2E2E2E2E2E2E2E2E2E2E2E2E2E2E2E2E2E2E2E2E2E2E2E2E2E2E2E2E2E2E2E2E2E2E2E2E2
310
E2E2E2E2E2E2E2E2E2E2E2E2E2E2E2E2E2E2000000000000000000000000000000000000000000000000000000000000000000000000E2000000000000E2E2E2E2E2E2E2E2E2E2E2E2E2E2E2E2E2E2E2E2E2E2E2E2E2E2E2E2E2E2E2E2E2E2E2E2E2E2E2E2E2E2E2E2E2E2E2E2E2E2E2E2E2E2E2E2E2E2E2E2E2E2E2E2E200
310
00000000000000000000000000000000000000000000000000000000000000000000F5E20000000000E2E2E2E2E2E2E2E2E2E2E2E2E2E2E2E2E2E2E2E2E2E2E2E2E2E2E2E2E2E2E2E2E2E2E2E2E2E2E2E2E2E2E2E2E2E2E2E2E2E2E2E2E2E2E2E2E2E2E2E2E2E2E2E2E2E2E2E2E2E2E2E2E2E2E2E2E2E2E2E2E2E2E2E2E2E2
310
E2E2E2E2E2E2E2E2E2E2E2E2E2000000E2000000000000E2E2E2E2E2E2E2E2E2E2E2E2E2E2E2E2E2E2E2E2E2E2E2E2E2E2E2E2E2E2E2E2E2E2E2000000000000000000000000000000000000000000000000000000000000000000000000000000000000000000000000000000000000000000000000000000000000E20000
310
00000000E2E2E2E2E2E2E2E2E2E2E2E2E2E2E2E2E2E2E2E2E2E2E2E2E2E2E2E2E2E2E2E2E2E2E20000000000000000000000000000000000000000000000000000000000000000000000000000000000000000000000000000000000000000000000000000000000F5E2000000000000E2E2E2E2E2E2E2E2E2E2E2E2E2E2E2
310
E2E2E2E2E2E2E2E2E2E2E2E2E2E2E2E2E2E2E2E2000000000000000000000000000000000000000000000000000000000000000000E2E2E2E2E2E2E2E2E2E2E2E2E2E2E2E2E2E2E2E2E2E2E2E2E2E2E2E2E200000000E2000000000000E2E2E2E2E2E2E2E2E2E2E2E2E2E2E2E2E2E2E2E2E2E2E2E2E2E2E2E2E2E2E2E2E2E2
310
E2000000000000000000000000000000000000000000000000000000000000000000E2000000000000000000000000000000000000000000000000000000E2000000F5E20000000000000000000000000000000000000000000000000000000000000000000000000000000000000000000000000000000000000000000000
310
000000000000000000000000000000E20000E5E5E5E5E500E5E5E5E5E5E5E5E5E5E000E50025E525E5E500E200000000E20000000000000000000000000000000000000000000000000000000000000000000000000000000000000000000000000000000000000000000000000000000000000000000000000000E200E500
310
0000000000000000000000000000000000000000000000E5E200000000E200E2000000000000000000000000000000000000000000000000000000000000000000000000000000000000000000000000000000000000000000000000000000000000000000000000E2E5E50000000000E50000000000000000000000000000
310
0000E50000E200E20000E200E2000000000000000000000000000000000000000000000000000000000000000000000000000000000000000000000000000000000000000000000000000000000000000000000000E2E5E50000000000E500000000000000000000000000000000E50000E200E20000E200E2000000000000
310
000000000000000000000000000000000000000000000000000000000000000000000000000000000000000000000000000000000000000000000000000000000000E2E5E50000E500000000000000000000E50000000000000000E00000E200E200F5E200E200000000000000000000000000000000000000000000000000
310
0000000000000000000000000000000000000000000000000000000000000000000000000000000000000000000000E2000000000000E0000000040000E500000004002000E500000000E4E200E20000E200E20000000000000000000000000000000000000000000000000000000000000000000000000000000000000000
310
00000000000000000000000000000000000000000000000000000000E20000000000000000C0C00000000000000000C0C000000000000000E200E20000E200E2000000000000000000000000000000000000000000000000000000000000000000000000000000000000000000000000000000000000000000000000000000
310
000000000000000000E2000000000000000000000000000000000000000000000000000000E200E20000E200E2000000000000000000000000000000000000000000000000000000000000000000000000000000000000000000000000000000000000000000000000000000000000000000000000E2000000000000000000
310
000000000000000000000000000000000000E200E20000E200E2000000000000000000000000000000000000000000000000000000000000000000000000000000000000000000000000000000000000000000000000000000000000000000000000E2E2E2E2E2E2E2E2E2E2E2E2E2E2E2E2E2E2E2E2E2E2E2E2E2E2E2E2E2
310
00E200F5E200E2E2E2E2E2E2E2E2E2000000000000000000E2E2E2E2E2E2E2E2E2E2E2E2E2E2E2E200000000000000000000E2E2E2E2E2E2E2E2E2E2E2E2E2E2E2E200000000000000000000E2E2E2E2E2E2E2E2E2E2E2E2E2E2E2E2000000000000000000E2E2E2E2E2E2E2E2E2E200E20000000000000000000000000000
310
00000000000000000000000000000000000000000000000000000000000000000000000000000000000000000000000000000000000000000000000000000000000000000000000000000000000000000000000000000000000000E2F5E2000000000000000000000000000000000000000000000000000000000000000000
310
0000000000000000000000000000000000000000000000000000000000000000000000000000000000000000000000000000000000000000000000000000000000000000000000000000E2E2E2E2E2E2E2E2E2E2E2E2E2E2E2E2E2E2E2E2E2E2E2E2E2E2E2E2E2E2E2E2E2E2E2E2E2E2E2E2E2E2E2E2E2E2E2E2E2E2E2E2E2
310
E2E2E2E2E2E2E2E2E2E2E2E2E2E2E2E2E2E2E2E2E2E2E2E2E2E2E2E2E2E2E2E2E2E2E2E2E2E2E2E2E2E2E2E2E2E2E2E2E2E2E2E2E2E200
  0
XRECORD
  5
360
102
{ACAD_REACTORS
330
19
102
}
330
19
100
AcDbXrecord
280
     1
102
SHADEPLOT
 70
     0
102
SHADEPLOTRESLEVEL
 70
     2
102
SHADEPLOTCUSTOMDPI
 70
   300
  0
XRECORD
  5
1A
102
{ACAD_REACTORS
330
19
102
}
330
19
100
AcDbXrecord
280
     1
310
280000000001000075000000010008000000000000750000000000000000000000010000000000000000000000000000C8C8C8000000000000000000000000000000000000000000000000000000000000000000330000006600000099000000CC000000FF00000000330000333300006633000099330000CC330000FF3300
310
0000660000336600006666000099660000CC660000FF66000000990000339900006699000099990000CC990000FF99000000CC000033CC000066CC000099CC0000CCCC0000FFCC000000FF000033FF000066FF000099FF0000CCFF0000FFFF000000003300330033006600330099003300CC003300FF003300003333003333
310
33006633330099333300CC333300FF33330000663300336633006666330099663300CC663300FF66330000993300339933006699330099993300CC993300FF99330000CC330033CC330066CC330099CC3300CCCC3300FFCC330000FF330033FF330066FF330099FF3300CCFF3300FFFF330000006600330066006600660099
310
006600CC006600FF00660000336600333366006633660099336600CC336600FF33660000666600336666006666660099666600CC666600FF66660000996600339966006699660099996600CC996600FF99660000CC660033CC660066CC660099CC6600CCCC6600FFCC660000FF660033FF660066FF660099FF6600CCFF6600
310
FFFF660000009900330099006600990099009900CC009900FF00990000339900333399006633990099339900CC339900FF33990000669900336699006666990099669900CC669900FF66990000999900339999006699990099999900CC999900FF99990000CC990033CC990066CC990099CC9900CCCC9900FFCC990000FF99
310
0033FF990066FF990099FF9900CCFF9900FFFF99000000CC003300CC006600CC009900CC00CC00CC00FF00CC000033CC003333CC006633CC009933CC00CC33CC00FF33CC000066CC003366CC006666CC009966CC00CC66CC00FF66CC000099CC003399CC006699CC009999CC00CC99CC00FF99CC0000CCCC0033CCCC0066CC
310
CC0099CCCC00CCCCCC00FFCCCC0000FFCC0033FFCC0066FFCC0099FFCC00CCFFCC00FFFFCC000000FF003300FF006600FF009900FF00CC00FF00FF00FF000033FF003333FF006633FF009933FF00CC33FF00FF33FF000066FF003366FF006666FF009966FF00CC66FF00FF66FF000099FF003399FF006699FF009999FF00CC
310
99FF00FF99FF0000CCFF0033CCFF0066CCFF0099CCFF00CCCCFF00FFCCFF0000FFFF0033FFFF0066FFFF0099FFFF00CCFFFF00FFFFFF00000000000D0D0D001A1A1A00282828003535350043434300505050005D5D5D006B6B6B00787878008686860093939300A1A1A100AEAEAE00BBBBBB00C9C9C900D6D6D600E4E4E400
310
F1F1F100FFFFFF000000000000000000000000000000000000000000000000000000000000000000000000000000000000000000000000000000000000000000000000000000000000000000000000000000F5000000F500000000000000000000000000000000000000000000000000000000000000000000000000000000
310
000000000000000000000000000000000000000000000000000000000000000000000000000000000000000000000000000000000000000000000000000000000000000000000000000000000000000000000000F5000000000000000000000000000000000000000000000000000000000000000000000000000000000000
310
000000000000000000000000000000000000000000000000000000000000000000000000000000000000000000000000000000000000000000000000000000000000000000000000000000000000000000000000F5000000F50000000000000000000000000000000000000000000000000000000000000000000000000000
310
0000000000000000000000000000000000000000000000000000000000000000000000000000000000000000000000000000000000000000000000000000000000000000000000000000000000000000000000000000F500000000000000000000000000000000000000000000000000000000000000000000000000000000
310
0000000000000000000000000000000000000000000000000000000000000000000000000000000000000000000000000000000000000000000000000000000000000000000000000000000000000000000000000000F5000000F5000000000000000000000000000000000000000000000000000000000000000000000000
310
00000000000000000000000000000000000000000000000000000000000000000000000000000000000000000000000000000000000000000000000000000000000000000000000000000000000000000000000000000000F50000000000000000000000000000000000000000000000000000000000000000000000000000
310
00000000000000000000000000000000000000000000000000000000000000000000000000000000000000000000000000000000000000000000000000000000000000000000000000000000000000000000000000000000F5000000F500000000000000000000000000000000000000000000000000000000000000000000
310
000000000000000000000000000000000000000000000000000000000000000000000000000000000000000000000000000000000000000000000000000000000000000000000000000000000000000000000000000000000000F5000000000000000000000000000000000000000000000000000000000000000000000000
310
000000000000000000000000000000000000000000000000000000000000000000000000000000000000000000000000000000000000000000000000000000000000000000000000000000000000000000000000000000000000F5000000F50000000000000000000000000000000000000000000000000000000000000000
310
0000000000000000000000000000000000000000000000000000000000000000000000000000000000000000000000000000000000000000000000000000000000000000000000000000000000000000000000000000000000000000F500000000000000000000000000000000000000000000000000000000000000000000
310
0000000000000000000000000000000000000000000000000000000000000000000000000000000000000000000000000000000000000000000000000000000000000000000000000000000000000000000000000000000000000000F5000000F5000000000000000000000000000000000000000000000000000000000000
310
00000000000000000000000000000000000000000000000000000000000000000000000000000000000000000000000000000000000000000000000000000000000000000000000000000000000000000000000000000000000000000000F50000000000000000000000000000000000000000000000000000000000000000
310
00000000000000000000000000000000000000000000000000000000000000000000000000000000000000000000000000000000000000000000000000000000000000000000000000000000000000000000000000000000000000000000F5000000F500000000000000000000000000000000000000000000000000000000
310
000000000000000000000000000000000000000000000000000000000000000000000000000000000000000000000000000000000000000000000000000000000000000000000000000000000000000000000000000000000000000000000000F5000000000000000000000000000000000000000000000000000000000000
310
000000000000000000000000000000000000000000000000000000000000000000000000000000000000000000000000000000000000000000000000000000000000000000000000000000000000000000000000000000000000000000000000F5000000F50000000000000000000000000000000000000000000000000000
310
0000000000000000000000000000000000000000000000000000000000000000000000000000000000000000000000000000000000000000000000000000000000000000000000000000000000000000000000000000000000000000000000000000F500000000000000000000000000000000000000000000000000000000
310
000000000000000000000000000000000000000000000000000000000000000000000000000000000000000000000000000000000000000000000000000000000000000000000000000000000000000000000000000000000000000000000000F5F500000000F5000000000000000000000000000000000000000000000000
310
0000000000000000000000000000000000000000000000000000000000000000000000000000000000000000000000000000000000000000000000000000000000000000000000000000000000000000000000000000000000000000000000000000F5F5000000000000000000000000000000000000000000000000000000
310
000000000000000000000000000000000000000000000000000000000000000000000000000000000000000000000000000000000000000000000000000000000000F5F5F5F5F5F5F5F5F5F5F5F5F5F5F5F5F5F5F5F5F5F5F5F5F5F5F5F5F5F5F5F5F5F5F5F5F5F5F5F5F5F5F5F5F5F5F5F5F5F5F5F5F5F5F5F5F5F5F5F5F5
310
F5F5F5F5F5F5F5F5F5F5F5F5F5F5F5F5F5F5F5F5F5F5F5F5F5F5F5F5F5F5F5F5F5F5F5F5F5F5F5F5F5F5F5F5F5F5F5F5F5F5F5F5F5F5F5F5F5F5F5F5F5F5F5F5F5F5F5F5F5F5F5F5F5F5F5F5F5F5F5F5F5F5F5F5F5F5F5F5F5F5F5F5F5F5F5F5F5F5F5F5000000000000000000000000000000000000000000000000000000
310
0000000000000000000000000000000000000000000000000000000000000000000000000000000000000000000000000000000000000000000000000000000000000000000000000000000000000000000000000000000000000000000000000000000000000000000000000000000000000000F500000000000000000000
310
0000000000000000000000000000000000000000F5F5F5F5F5F5F5F5F5F5F5F50000000000000000000000000000000000000000000000000000000000000000000000000000000000000000000000000000000000000000000000000000000000000000000000000000000000000000000000000000000000000000000000
310
00000000000000000000000000000000000000000000000000000000000000000000000000000000000000000000000000000000000000000000000000000000000000000000000000000000000000000000000000000000000000000000000000000000000000000000000000000000000000000000F50000000000000000
310
00000000000000000000000000000000000000000000F5F5F5F5F5F5F5F5F5F5F5F5000000000000000000000000000000000000000000000000000000000000000000000000000000000000000000000000000000000000000000000000000000000000000000000000000000000000000000000000000000000000000000
310
000000000000000000000000000000000000000000000000000000000000000000000000000000000000000000000000000000000000000000000000000000000000000000000000000000000000000000000000000000000000000000000000000000000000000000000000000000000000000000000000F5000000000000
310
000000000000000000000000000000000000000000000000F5F5F5F5F5F5F5F5F5F5F50000000000000000000000000000000000000000000000000000000000000000000000000000000000000000000000000000000000000000000000000000000000000000000000000000000000000000000000000000000000000000
310
0000000000000000000000000000000000000000000000000000000000000000000000000000000000000000000000000000000000000000000000000000000000000000000000000000000000000000000000000000000000000000000000000000000000000000000000000000000000000000000000000000F500000000
310
000000000000000000000000000000000000000000000000000000F5F5F5F5F5F5F5F5F5F5000000000000000000000000000000000000000000000000000000000000000000000000000000000000000000000000000000000000000000000000000000000000000000000000000000000000000000000000000000000000
310
00000000000000000000000000000000000000000000000000000000000000000000000000000000000000000000000000000000000000000000000000000000000000000000000000000000000000000000000000000000000000000000000000000000000000000000000000000000000000000000000000000000F50000
310
0000000000000000000000000000000000000000000000000000000000F5F5F5F5F5F5F5F5F5F500000000000000000000000000000000000000000000000000000000000000000000000000000000000000000000000000000000000000000000000000000000000000000000000000000000000000000000000000000000
310
000000000000000000000000000000000000000000000000000000000000000000000000000000000000000000000000000000000000000000000000000000000000000000000000000000000000000000000000000000000000000000000000000000000000000000000000000000000000000000000000000000000000F5
310
00000000000000000000000000000000000000000000000000000000000000F5F5F5F5F5F5F5F5F5F50000000000000000000000000000000000000000000000000000000000000000000000000000000000000000000000000000000000000000000000000000000000000000000000000000000000000000000000000000
310
00000000000000000000000000000000000000000000000000000000000000000000000000000000000000000000000000000000000000000000000000000000000000000000000000000000000000000000000000000000000000000000000000000000000000000000000000000000000000000000000000000000000000
310
00F500000000000000000000000000000000000000000000000000000000000000F5F5F5F5F5F5F5F5F5F5000000000000000000000000000000000000000000000000000000000000000000000000000000000000000000000000000000000000000000000000000000000000000000000000000000000000000000000000
310
00000000000000000000000000000000000000000000000000000000000000000000000000000000000000000000000000000000000000000000000000000000000000000000000000000000000000000000000000000000000000000000000000000000000000000000000000000000000000000000000000000000000000
310
000000F500000000000000000000000000000000000000000000000000000000000000F5F5F5F5F5F5F5F5F50000000000000000000000000000000000000000000000000000000000000000000000000000000000000000000000000000000000000000000000000000000000000000000000000000000000000000000000
310
00000000000000000000000000000000000000000000000000000000000000000000000000000000000000000000000000000000000000000000000000000000000000000000000000000000000000000000000000000000000000000000000000000000000000000000000000000000000000000000000000000000000000
310
0000000000F500000000000000000000000000000000000000000000000000000000000000F5F5F5F5F5F5F5F5F5000000000000000000000000000000000000000000000000000000000000000000000000000000000000000000000000000000000000000000000000000000000000000000000000000000000000000000
310
00000000000000000000000000000000000000000000000000000000000000000000000000000000000000000000000000000000000000000000000000000000000000000000000000000000000000000000000000000000000000000000000000000000000000000000000000000000000000000000000000000000000000
310
00000000000000F500000000000000000000000000000000000000000000000000000000000000F5F5F5F5F5F5F5F5F500000000000000000000000000000000000000000000000000000000000000000000000000000000000000000000000000000000000000000000000000000000000000000000000000000000000000
310
00000000000000000000000000000000000000000000000000000000000000000000000000000000000000000000000000000000000000000000000000000000000000000000000000000000000000000000000000000000000000000000000000000000000000000000000000000000000000000000000000000000000000
310
000000000000000000F50000000000000000000000000000000000000000000000000000000000000000F5F5F5F5F5F5F5F50000000000000000000000000000000000000000000000000000000000000000000000000000000000000000000000000000000000000000000000000000000000000000000000000000000000
310
00000000000000000000000000000000000000000000000000000000000000000000000000000000000000000000000000000000000000000000000000000000000000000000000000000000000000000000000000000000000000000000000000000000000000000000000000000000000000000000000000000000000000
310
0000000000000000000000F50000000000000000000000000000000000000000000000000000000000000000F5F5F5F5F5F5F5F5000000000000000000000000000000000000000000000000000000000000000000000000000000000000000000000000000000000000000000000000000000000000000000000000000000
310
00000000000000000000000000000000000000000000000000000000000000000000000000000000000000000000000000000000000000000000000000000000000000000000000000000000000000000000000000000000000000000000000000000000000000000000000000000000000000000000000000000000000000
310
00000000000000000000000000F50000000000000000000000000000000000000000000000000000000000000000F5F5F5F5F5F5F5F500000000000000000000000000000000000000000000000000000000000000000000000000000000000000000000000000000000000000000000000000000000000000000000000000
310
00000000000000000000000000000000000000000000000000000000000000000000000000000000000000000000000000000000000000000000000000000000000000000000000000000000000000000000000000000000000000000000000000000000000000000000000000000000000000000000000000000000000000
310
000000000000000000000000000000F50000000000000000000000000000000000000000000000000000000000000000F5F5F5F5F5F5F5000000000000000000000000000000000000000000000000000000000000000000000000000000000000000000000000000000000000000000000000000000000000000000000000
310
00000000000000000000000000000000000000000000000000000000000000000000000000000000000000000000000000000000000000000000000000000000000000000000000000000000000000000000000000000000000000000000000000000000000000000000000000000000000000000000000000000000000000
310
0000000000000000000000000000000000F50000000000000000000000000000000000000000000000000000000000000000F5F5F5F5F5F5F500000000000000000000000000000000000000000000000000000000000000000000000000000000000000000000000000000000000000000000000000000000000000000000
310
00000000000000000000000000000000000000000000000000000000000000000000000000000000000000000000000000000000000000000000000000000000000000000000000000000000000000000000000000000000000000000000000000000000000000000000000000000000000000000000000000000000000000
310
00000000000000000000000000000000000000F50000000000000000000000000000000000000000000000000000000000000000F5F5F5F5F5F5F50000000000000000000000000000000000000000000000000000000000000000000000000000000000000000000000000000000000000000000000000000000000000000
310
00000000000000000000000000000000000000000000000000000000000000000000000000000000000000000000000000000000000000000000000000000000000000000000000000000000000000000000000000000000000000000000000000000000000000000000000000000000000000000000000000000000000000
310
000000000000000000000000000000000000000000F500000000000000000000000000000000000000000000000000000000F5F5F5F5F5F5F5F5F5F5F5F5F5F5F50000000000000000000000000000000000000000000000000000000000000000000000000000000000000000000000000000000000000000000000000000
310
00000000000000000000000000000000000000000000000000000000000000000000000000000000000000000000000000000000000000000000000000000000000000000000000000000000000000000000000000000000000000000000000000000000000000000000000000000000000000000000000000000000000000
310
0000000000000000000000000000000000000000000000F500000000000000000000000000000000000000000000000000000000F500000000F5F5F5F5F5F5000000F50000F5F5F5F5F5F5F5F5F5F5F5F5F5F5F5F5F5F5F5F5F5F5F5F5F5F5F5F5F5F5F5F5F5F5F5F5F5F5F5F5F5F5F5F5F5F5F5F5F5F5F5F5F5F5F5F5F5F5
310
F5F5F5F5F5F5F5F5F5F5F5F5F5F5F5F5F5F5F5F5F5F5F5F5F5F5F5F5F5F5F5F5F5F5F5F5F5F5F5F5F5F5F5F5F5F5F5F5F5F5F5F5F5F5F5F5F5F5F5F5F5F5F5F5F5F5F5F5F5F5F5F5F5F5F5F5F5F5F5F5F5F5F5F5F5F5F5F5F5F5F5F5F5F5F5F5F5F5F5F5F5F5F5F50000000000000000000000000000000000000000000000
310
00000000000000000000000000000000000000000000000000F500000000000000000000000000000000000000000000000000000000F500000000F5F5F5F5F500000000F5F5F50000000000000000000000000000000000000000000000000000000000000000000000000000000000000000000000000000000000000000
310
000000000000000000000000F5000000000000000000000000000000000000000000000000000000000000000000000000000000000000000000000000000000000000000000000000000000000000000000000000000000000000000000000000000000000000000000000000000000000000000000000000000000000000
310
000000000000000000000000000000000000000000000000000000F500000000000000000000000000000000000000000000000000000000F500000000F5F5F5F5F500000000F5F500000000000000000000000000000000000000000000000000000000000000000000000000000000000000000000000000000000000000
310
000000000000000000000000000000F5000000000000000000000000000000000000000000000000000000000000000000000000000000000000000000000000000000000000000000000000000000000000000000000000000000000000000000000000000000000000000000000000000000000000000000000000000000
310
0000000000000000000000000000000000000000000000000000000000F500000000000000000000000000000000000000000000000000000000F5000000F5F5F5F5F5F5F5F50000F5000000000000000000000000000000000000000000000000000000000000000000000000000000000000000000000000000000000000
310
0000000000000000000000000000000000F500000000000000000000000000000000000000000000000000000000000000000000000000000000000000000000000000000000000000000000000000000000000000000000000000000000000000000000000000000000000000000000000000000000000000000000000000
310
00000000000000000000000000000000000000000000000000000000000000F500000000000000000000000000000000000000000000000000000000F5000000F500F5F5F5F500F50000F500000000000000000000000000000000000000000000000000000000000000000000000000000000000000000000000000000000
310
00000000000000000000000000000000000000F50000000000000000000000000000000000000000000000000000000000000000000000000000000000000000000000000000000000000000000000000000000000000000000000000000000000000000000000000000000000000000000000000000000000000000000000
310
000000000000000000000000000000000000000000000000000000000000000000F500000000000000000000000000000000000000000000000000000000F5000000F5000000000000F50000F50000000000000000000000000000000000000000000000000000000000000000000000000000000000000000000000000000
310
000000000000000000000000000000000000000000F5000000000000000000000000000000000000000000000000000000000000000000000000000000000000000000000000000000000000000000000000000000000000000000000000000000000000000000000000000000000000000000000000000000000000000000
310
0000000000000000000000000000000000000000000000000000000000000000000000F500000000000000000000000000000000000000000000000000000000F5000000F5000000000000F50000F5000000000000000000000000000000000000000000000000000000000000000000000000000000000000000000000000
310
0000000000000000000000000000000000000000000000F500000000000000000000000000000000000000000000000000000000000000000000000000000000000000000000000000000000000000000000000000000000000000000000000000000000000000000000000000000000000000000000000000000000000000
310
00000000000000000000000000000000000000000000000000000000000000000000000000F500000000000000000000000000000000000000000000000000000000F5000000F5000000000000F50000F500000000000000000000000000000000000000000000000000000000000000000000000000000000000000000000
310
00000000000000000000000000000000000000000000000000F50000000000000000000000000000000000000000000000000000000000000000000000000000000000000000000000000000000000000000000000000000000000000000000000000000000000000000000000000000000000000000000000000000000000
310
000000000000000000000000000000000000000000000000000000000000000000000000000000F500000000000000000000000000000000000000000000000000000000F5000000F5000000000000F50000F50000000000000000000000000000000000000000000000000000000000000000000000000000000000000000
310
000000000000000000000000000000000000000000000000000000F5000000000000000000000000000000000000000000000000000000000000000000000000000000000000000000000000000000000000000000000000000000000000000000000000000000000000000000000000000000000000000000000000000000
310
0000000000000000000000000000000000000000000000000000000000000000000000000000000000F500000000000000000000000000000000000000000000000000000000F5000000F5000000000000F50000F5000000000000000000000000000000000000000000000000000000000000000000000000000000000000
310
0000000000000000000000000000000000000000000000000000000000F500000000000000000000000000000000000000000000000000000000000000000000000000000000000000000000000000000000000000000000000000000000000000000000000000000000000000000000000000000000000000000000000000
310
00000000000000000000000000000000000000000000000000000000000000000000000000000000000000F500000000000000000000000000000000000000000000000000000000F5000000F5F5F5F5F5F5F5F50000F500000000000000000000000000000000000000000000000000000000000000000000000000000000
310
00000000000000000000000000000000000000000000000000000000000000F50000000000000000000000000000000000000000000000000000000000000000000000000000000000000000000000000000000000000000000000000000000000000000000000000000000000000000000000000000000000000000000000
310
000000000000000000000000000000000000000000000000000000000000000000000000000000000000000000F500000000000000000000000000000000000000000000000000000000F500000000000000000000000000F50000000000000000000000000000000000000000000000000000000000000000000000000000
310
000000000000000000000000000000000000000000000000000000000000000000F5000000000000000000000000000000000000000000000000000000000000000000000000000000000000000000000000000000000000000000000000000000000000000000000000000000000000000000000000000000000000000000
310
0000000000000000000000000000000000000000000000000000000000000000000000000000000000000000000000F500000000000000000000000000000000000000000000000000000000F500000000000000000000000000F5000000000000000000000000000000000000000000000000000000000000000000000000
310
0000000000000000000000000000000000000000000000000000000000000000000000F500000000000000000000000000000000000000000000000000000000000000000000000000000000000000000000000000000000000000000000000000000000000000000000000000000000000000000000000000000000000000
310
00000000000000000000000000000000000000000000000000000000000000000000000000000000000000000000000000F500000000000000000000000000000000000000000000000000000000F5F5F5F5F5F50000000000000000F500000000000000000000000000000000000000000000000000000000000000000000
310
00000000000000000000000000000000000000000000000000000000000000000000000000F50000000000000000000000000000000000000000000000000000000000000000000000000000000000000000000000000000000000000000000000000000000000000000000000000000000000000000000000000000000000
310
000000000000000000000000000000000000000000000000000000000000000000000000000000000000000000000000000000F500000000000000000000000000000000000000000000000000000000000000000000F5F5F50000000000F50000000000000000000000000000000000000000000000000000000000000000
310
000000000000000000000000000000000000000000000000000000000000000000000000000000F5000000000000000000000000000000000000000000000000000000000000000000000000000000000000000000000000000000000000000000000000000000000000000000000000000000000000000000000000000000
310
0000000000000000000000000000000000000000000000000000000000000000000000000000000000000000000000000000000000F5000000000000000000000000000000000000000000000000000000000000000000000000F5F500000000F5000000000000000000000000000000000000000000000000000000000000
310
0000000000000000000000000000000000000000000000000000000000000000000000000000000000F500000000000000000000000000000000000000000000000000000000000000000000000000000000000000000000000000000000000000000000000000000000000000000000000000000000000000000000000000
310
00000000000000000000000000000000000000000000000000000000000000000000000000000000000000000000000000000000000000F500000000000000000000000000000000000000000000000000000000000000000000000000F5F5000000F500000000000000000000000000000000000000000000000000000000
310
00000000000000000000000000000000000000000000000000000000000000000000000000000000000000F50000000000000000000000000000000000000000000000000000000000000000000000000000000000000000000000000000000000000000000000000000000000000000000000000000000000000000000000
310
000000000000000000000000000000000000000000000000000000000000000000000000000000000000000000000000000000000000000000F50000000000000000000000000000000000000000000000000000000000000000000000000000F5000000F50000000000000000000000000000000000000000000000000000
310
000000000000000000000000000000000000000000000000000000000000000000000000000000000000000000F5000000000000000000000000000000000000000000000000000000000000000000000000000000000000000000000000000000000000000000000000000000000000000000000000000000000000000000
310
0000000000000000000000000000000000000000000000000000000000000000000000000000000000000000000000000000000000000000000000F50000000000000000000000000000000000000000000000000000000000000000000000000000F5F50000F5000000000000000000000000000000000000000000000000
310
0000000000000000000000000000000000000000000000000000000000000000000000000000000000000000000000F500000000000000000000000000000000000000000000000000000000000000000000000000000000000000000000000000000000000000000000000000000000000000000000000000000000000000
310
00000000000000000000000000000000000000000000000000000000000000000000000000000000000000000000000000000000000000000000000000F5000000000000000000000000000000000000000000000000000000000000000000000000000000F50000F500000000000000000000000000000000000000000000
310
00000000000000000000000000000000000000000000000000000000000000000000000000000000000000000000000000F50000000000000000000000000000000000000000000000000000000000000000000000000000000000000000000000000000000000000000000000000000000000000000000000000000000000
310
0000000000000000000000000000000000000000000000000000000000000000000000000000000000000000000000000000000000000000000000000000F500000000000000000000000000000000000000000000000000000000000000000000000000000000F50000F50000000000000000000000000000000000000000
310
000000000000000000000000000000000000000000000000000000000000000000000000000000000000000000000000000000F5000000000000000000000000000000000000000000000000000000000000000000000000000000000000000000000000000000000000000000000000000000000000000000000000000000
310
0000000000000000000000000000000000F5F5F5F5F5F5F5F5F5F5F5F5F5F5F5F5F5F5F5F5F5F5F5F5F5F5F5F5F5F5F5F5F5F5F5F5F5F5F5F5F5F5F5F5F5F5F50000000000000000000000000000000000000000000000000000000000000000000000000000000000F50000F5000000000000000000000000000000000000
310
0000000000000000000000000000000000000000000000000000000000000000000000000000000000000000000000000000000000F500000000000000000000000000000000000000000000000000000000000000000000000000000000000000000000000000000000000000000000000000000000000000000000000000
310
0000000000000000000000000000000000000000000000000000000000000000000000000000000000000000000000000000000000000000000000000000000000000000000000000000000000000000000000000000000000000000000000000000000000000000000000F50000F500000000000000000000000000000000
310
00000000000000000000000000000000000000000000000000000000000000000000000000000000000000000000000000000000000000F50000000000000000000000000000000000000000000000000000000000000000000000000000000000000000000000000000000000000000000000000000000000000000000000
310
00000000000000000000000000000000000000000000000000000000000000000000000000000000000000000000000000000000000000000000000000000000000000000000000000000000000000000000000000000000000000000000000000000000000000000000000000F50000F50000000000000000000000000000
310
000000000000000000000000000000000000000000000000000000000000000000000000000000000000000000000000000000000000000000F5000000000000000000000000000000000000000000000000000000000000000000000000000000000000000000000000000000000000000000000000000000000000000000
310
000000000000000000000000000000000000000000000000000000000000000000000000000000000000000000000000000000000000000000000000000000000000000000000000000000000000000000000000000000000000000000000000000000000000000000000000000000F50000F5000000000000000000000000
310
0000000000000000000000000000000000000000000000000000000000000000000000000000000000000000000000000000000000000000000000F500000000000000000000000000000000000000000000000000000000000000000000000000000000000000000000000000000000000000000000000000000000000000
310
0000000000000000000000000000000000000000000000000000000000000000000000000000000000000000000000000000000000000000000000000000000000000000000000000000000000000000000000000000000000000000000000000000000000000000000000000000000000F50000F500000000000000000000
310
00000000000000000000000000000000000000000000000000000000000000000000000000000000000000000000000000000000000000000000000000F50000000000000000000000000000000000000000000000000000000000000000000000000000000000000000000000000000000000000000000000000000000000
310
00000000000000000000000000000000000000000000000000000000000000000000000000000000000000000000000000000000000000000000000000000000000000000000000000000000000000000000000000000000000000000000000000000000000000000000000000000000000000F50000F50000000000000000
310
000000000000000000000000000000000000000000000000000000000000000000000000000000000000000000000000000000000000000000000000000000F5000000000000000000000000000000000000000000000000000000000000000000000000000000000000000000000000000000000000000000000000000000
310
000000000000000000000000000000000000000000000000000000000000000000000000000000000000000000000000000000000000000000000000000000000000000000000000000000000000000000000000000000000000000000000000000000000000000000000000000000000000000000F50000F5000000000000
310
0000000000000000000000000000000000000000000000000000000000000000000000000000000000000000000000000000000000000000000000000000000000F500000000000000000000000000000000000000000000000000000000000000000000000000000000000000000000000000000000000000000000000000
310
0000000000000000000000000000000000000000000000000000000000000000000000000000000000000000000000000000000000000000000000000000000000000000000000000000000000000000000000000000000000000000000000000000000000000000000000000000000000000000000000F50000F500000000
310
00000000000000000000000000000000000000000000000000000000000000000000000000000000000000000000000000000000000000000000000000000000000000F50000000000000000000000000000000000000000000000000000000000000000000000000000000000000000000000000000000000000000000000
310
00000000000000000000000000000000000000000000000000000000000000000000000000000000000000000000000000000000000000000000000000000000000000000000000000000000000000000000000000000000000000000000000000000000000000000000000000000000000000000000000000F50000F50000
310
000000000000000000000000000000000000000000000000000000000000000000000000000000000000000000000000000000000000000000000000000000000000000000F5000000000000000000000000000000000000000000000000000000000000000000000000000000000000000000000000000000000000000000
310
000000000000000000000000000000000000000000000000000000000000000000000000000000000000000000000000000000000000000000000000000000000000000000000000000000000000000000000000000000000000000000000000000000000000000000000000000000000000000000000000000000F50000F5
310
0000000000000000000000000000000000000000000000000000000000000000000000000000000000000000000000000000000000000000000000000000000000000000000000F500000000000000000000000000000000000000000000000000000000000000000000000000000000000000000000000000000000000000
310
0000000000000000000000000000000000000000000000000000000000000000000000000000000000000000000000000000000000000000000000000000000000000000000000000000000000000000000000000000000000000000000000000000000000000000000000000000000000000000000000000000000000F500
310
00F50000000000000000000000000000000000000000000000000000000000000000000000000000000000000000000000000000000000000000000000000000000000000000000000F50000000000000000000000000000000000000000000000000000000000000000000000000000000000000000000000000000000000
310
00000000000000000000000000000000000000000000000000000000000000000000000000000000000000000000000000000000000000000000000000000000000000000000000000000000000000000000000000000000000000000000000000000000000000000000000000000000000000000000000000000000000000
310
F50000F50000000000000000000000000000000000000000000000000000000000000000000000000000000000000000000000000000000000000000000000000000000000000000000000F5000000000000000000000000000000000000000000000000000000000000000000000000000000000000000000000000000000
310
00000000000000000000000000000000000000000000000000000000000000000000000000000000000000000000000000000000000000000000000000F5F5F5F5F5F5F5F5F5F5F5F5F5F5F5F5F5F5F5F5F5F5F5F5F5F5F5F5F5F5F5F5F5F5F5F5F5F5F5F5F5F5F5F5F5F5F5F5F5F5F5F5F5F5F5F5F5F5F5F5F5F5F5F5F5F5
310
F5F5F5F5F5F50000000000000000000000000000000000000000000000000000000000000000000000000000000000000000000000000000000000000000000000000000000000000000000000F500000000000000000000000000000000000000000000000000000000000000000000000000000000000000000000000000
310
000000000000000000000000000000000000000000000000000000000000000000000000000000000000000000000000000000000000000000000000000000F50000F5000000F5000000000000000000000000000000000000000000000000000000000000000000000000000000000000F500000000000000000000F50000
310
00000000F50000F50000000000000000000000000000000000000000000000000000000000000000000000000000000000000000000000000000000000000000000000000000000000000000000000F50000000000000000000000000000000000000000000000000000000000000000000000000000000000000000000000
310
0000000000000000000000000000000000000000000000000000000000000000000000000000000000000000000000000000000000000000000000000000000000F50000F5000000F5000000000000000000000000000000000000000000000000000000000000000000000000000000000000F500000000000000000000F5
310
000000000000F50000F50000000000000000000000000000000000000000000000000000000000000000000000000000000000000000000000000000000000000000000000000000000000000000000000F5000000000000000000000000000000000000000000000000000000000000000000000000000000000000000000
310
00000000000000000000000000000000000000000000000000000000000000000000000000000000000000000000000000000000000000000000000000000000000000F50000F5000000F5000000000000000000000000000000000000000000000000000000000000000000000000000000000000F5000000000000000000
310
00F5000000000000F50000F50000000000000000000000000000000000000000000000000000000000000000000000000000000000000000000000000000000000000000000000000000000000000000000000F500000000000000000000000000000000000000000000000000000000000000000000000000000000000000
310
000000000000000000000000000000000000000000000000000000000000000000000000000000000000000000000000000000000000000000000000000000000000000000F50000F5000000F5000000000000000000000000000000000000000000000000000000000000000000000000000000000000F500000000000000
310
000000F5000000000000F50000F50000000000000000000000000000000000000000000000000000000000000000000000000000000000000000000000000000000000000000000000000000000000000000000000F50000000000000000000000000000000000000000000000000000000000000000000000000000000000
310
0000000000000000000000000000000000000000000000000000000000000000000000000000000000000000000000000000000000000000000000000000000000000000000000F50000F5000000F5000000000000000000000000000000000000000000000000000000000000000000000000000000000000F50000000000
310
0000000000F5000000000000F50000F50000000000000000000000000000000000000000000000000000000000000000000000000000000000000000000000000000000000000000000000000000000000000000000000F5000000000000000000000000000000000000000000000000000000000000000000000000000000
310
00000000000000000000000000000000000000000000000000000000000000000000000000000000000000000000000000000000000000000000000000000000000000000000000000F50000F5000000F5000000000000000000000000000000000000000000000000000000000000000000000000000000000000F5000000
310
00000000000000F5000000000000F50000F50000000000000000000000000000000000000000000000000000000000000000000000000000000000000000000000000000000000000000000000000000000000000000000000F500000000000000000000000000000000000000000000000000000000000000000000000000
310
000000000000000000000000000000000000000000000000000000000000000000000000000000000000000000000000000000000000000000000000000000000000000000000000000000F50000F5000000F5000000000000000000000000000000000000000000000000000000000000000000000000000000000000F500
310
000000000000000000F5000000000000F50000F50000000000000000000000000000000000000000000000000000000000000000000000000000000000000000000000000000000000000000000000000000000000000000000000F50000000000000000000000000000000000000000000000000000000000000000000000
310
0000000000000000000000000000000000000000000000000000000000000000000000000000000000000000000000000000000000000000000000000000000000000000000000000000000000F50000F5000000F5000000000000000000000000000000000000000000000000000000000000000000000000000000000000
310
0000000000000000000000F5000000000000F50000F50000000000000000000000000000000000000000000000000000000000000000000000000000000000000000000000000000000000000000000000000000000000000000000000F5000000000000000000000000000000000000000000000000000000000000000000
310
00000000000000000000000000000000000000000000000000000000000000000000000000000000000000000000000000000000000000000000000000000000000000000000000000000000000000F50000F5000000F500000000000000000000000000000000000000000000000000000000000000000000000000000000
310
00000000000000000000000000F5000000000000F50000F50000000000000000000000000000000000000000000000000000000000000000000000000000000000000000000000000000000000000000000000000000000000000000000000F500000000000000000000000000000000000000000000000000000000000000
310
000000000000000000000000000000000000000000000000000000000000000000000000000000000000000000000000000000000000000000000000000000000000000000000000000000000000000000F50000F5000000F50000000000000000000000000000000000000000000000000000000000000000000000000000
310
00000000F500000000000000000000F5000000000000F50000F50000000000000000000000000000000000000000000000000000000000000000000000000000000000000000000000000000000000000000000000000000000000000000000000F50000000000000000000000000000000000000000000000000000000000
310
0000000000000000000000000000000000000000000000000000000000000000000000000000000000000000000000000000000000000000000000000000000000000000000000000000000000000000000000F50000F5000000F5000000000000000000000000000000000000000000000000000000000000000000000000
310
000000000000F500000000000000000000F5000000000000F50000F50000000000000000000000000000000000000000000000000000000000000000000000000000000000000000000000000000000000000000000000000000000000000000000000F5000000000000000000000000000000000000000000000000000000
310
00000000000000000000000000000000000000000000000000000000000000000000000000000000000000000000000000000000000000000000000000000000000000000000000000000000000000000000000000F50000F5000000F500000000000000000000000000000000000000000000000000000000000000000000
310
0000000000000000F500000000000000000000F5000000000000F50000F50000000000000000000000000000000000000000000000000000000000000000000000000000000000000000000000000000000000000000000000000000000000000000000000F500000000000000000000000000000000000000000000000000
310
000000000000000000000000000000000000000000000000000000000000000000000000000000000000000000000000000000000000000000000000000000000000000000000000000000000000000000000000000000F50000F5000000F50000000000000000000000000000000000000000000000000000000000000000
310
00000000000000000000F500000000000000000000F5000000000000F50000F50000000000000000000000000000000000000000000000000000000000000000000000000000000000000000000000000000000000000000000000000000000000000000000000F50000000000000000000000000000000000000000000000
310
0000000000000000000000000000000000000000000000000000000000000000000000000000000000000000000000000000000000000000000000000000000000000000000000000000000000000000000000000000000000F50000F5000000F5000000000000000000000000000000000000000000000000000000000000
310
000000000000000000000000F500000000000000000000F5000000000000F50000F50000000000000000000000000000000000000000000000000000000000000000000000000000000000000000000000000000000000000000000000000000000000000000000000F5000000000000000000000000000000000000000000
310
00000000000000000000000000000000000000000000000000000000000000000000000000000000000000000000000000000000000000000000000000000000000000000000000000000000000000000000000000000000000000F50000F5000000F500000000000000000000000000000000000000000000000000000000
310
0000000000000000000000000000F500000000000000000000F5000000000000F5F500F50000000000000000000000000000000000000000000000000000000000000000000000000000000000000000000000000000000000000000000000000000000000000000000000F500000000000000000000000000000000000000
310
000000000000000000000000000000000000000000000000000000000000000000000000000000000000000000000000000000000000000000000000000000000000000000000000000000000000000000000000000000000000000000F50000F5000000F50000000000000000000000000000000000000000000000000000
310
00000000000000000000000000000000F500000000000000000000F500000000000000F5F5F50000000000000000000000000000000000000000000000000000000000000000000000000000000000000000000000000000000000000000000000000000000000000000000000F50000000000000000000000000000000000
310
0000000000000000000000000000000000000000000000000000000000000000000000000000000000000000000000000000000000000000000000000000000000000000000000000000000000000000000000000000000000000000000000F50000F5000000F5000000000000000000000000000000000000000000000000
310
000000000000000000000000000000000000F500000000000000000000F5000000000000000000F50000000000000000000000000000000000000000000000000000000000000000000000000000000000000000000000000000000000000000000000000000000000000000000000F5000000000000000000000000000000
310
00000000000000000000000000000000000000000000000000000000000000000000000000000000000000000000000000000000000000000000000000000000000000000000000000000000000000000000000000000000000000000000000000F50000F5000000F500000000000000000000000000000000000000000000
310
00000000000000000000000000000000000000000000000000000000000000F5000000000000000000F50000000000000000000000000000000000000000000000000000000000000000000000000000000000000000000000000000000000000000000000000000000000000000000000F500000000000000000000000000
310
000000000000000000000000000000000000000000000000000000000000000000000000000000000000000000000000000000000000000000000000000000000000000000000000000000000000000000000000000000000000000000000000000000F50000F5000000F50000000000000000000000000000000000000000
310
000000000000000000000000000000000000000000000000000000000000000000F5000000000000000000F50000000000000000000000000000000000000000000000000000000000000000000000000000000000000000000000000000000000000000000000000000000000000000000000F50000000000000000000000
310
0000000000000000000000000000000000000000000000000000000000000000000000000000000000000000000000000000000000000000000000000000000000000000000000000000000000000000000000000000000000000000000000000000000000F50000F5000000F5000000000000000000000000000000000000
310
0000000000000000000000000000000000000000000000000000000000000000000000F5000000000000000000F50000000000000000000000000000000000000000000000000000000000000000000000000000000000000000000000000000000000000000000000000000000000000000000000F5000000000000000000
310
00000000000000000000000000000000000000000000000000000000000000000000000000000000000000000000000000000000000000000000000000000000000000000000000000000000000000000000000000000000000000000000000000000000000000F50000F5000000F500000000000000000000000000000000
310
0000000000000000000000000000000000000000000000000000F500000000000000000000F5000000000000000000F50000000000000000000000000000000000000000000000000000000000000000000000000000000000000000000000000000000000000000000000000000000000000000000000F500000000000000
310
000000000000000000000000000000000000000000000000000000000000000000000000000000000000000000000000000000000000000000000000000000000000000000000000000000000000000000000000000000000000000000000000000000000000000000F50000F5000000F50000000000000000000000000000
310
00000000000000000000000000000000000000000000000000000000F500000000000000000000F5000000000000000000F50000000000000000000000000000000000000000000000000000000000000000000000000000000000000000000000000000000000000000000000000000000000000000000000F50000000000
310
0000000000000000000000000000000000000000000000000000000000000000000000000000000000000000000000000000000000000000000000000000000000000000000000000000000000000000000000000000000000000000000000000000000000000000000000F50000F5000000F5000000000000000000000000
310
000000000000000000000000000000000000000000000000000000000000F500000000000000000000F5000000000000000000F50000000000000000000000000000000000000000000000000000000000000000000000000000000000000000000000000000000000000000000000000000000000000000000000F5000000
310
00000000000000000000000000000000000000000000000000000000000000000000000000000000000000000000000000000000000000000000000000000000000000000000000000000000000000000000000000000000000000000000000000000000000000000000000000F50000F5000000F500000000000000000000
310
0000000000000000000000000000000000000000000000000000000000000000F500000000000000000000F5000000000000000000F50000000000000000000000000000000000000000000000000000000000000000000000000000000000000000000000000000000000000000000000000000000000000000000000F500
310
000000000000000000000000000000000000000000000000000000000000000000000000000000000000000000000000000000000000000000000000000000000000000000000000000000000000000000000000000000000000000000000000000000000000000000000000000000F50000F5000000F50000000000000000
310
00000000000000000000000000000000000000000000000000000000000000000000F500000000000000000000F5000000000000000000F50000000000000000000000000000000000000000000000000000000000000000000000000000000000000000000000000000000000000000000000000000000000000000000000
310
F500000000000000000000000000000000000000000000000000000000000000000000000000000000000000000000000000000000000000000000000000000000000000000000000000000000000000000000000000000000000000000000000000000000000000000000000000000000F50000F5000000F5000000000000
310
000000000000000000000000000000000000000000000000000000000000000000000000F500000000000000000000F5000000000000000000F5000000000000000000000000000000000000000000000000000000000000000000000000000000000000000000000000000000000000000000000000000000000000000000
310
0000F500000000000000000000000000000000000000000000000000000000000000000000000000000000000000000000000000000000000000000000000000000000000000000000000000000000000000000000000000000000000000000000000000000000000000000000000000000000F50000F5000000F500000000
310
0000000000000000000000000000000000000000000000000000000000000000000000000000F500000000000000000000F5000000000000000000F500000000000000000000000000000000000000000000000000000000000000000000000000000000000000000000000000000000000000000000000000000000000000
310
00000000F500000000000000000000000000000000000000000000000000000000000000000000000000000000000000000000000000000000000000000000000000000000000000000000000000000000000000000000000000000000000000000000000000000000000000000000000000000000F50000F5000000F50000
310
00000000000000000000000000000000000000000000000000000000000000000000000000000000F500000000000000000000F5000000000000000000F50000000000000000000000000000000000000000000000000000000000000000000000000000000000000000000000000000000000000000000000000000000000
310
000000000000F500000000000000000000000000000000000000000000000000000000000000000000000000000000000000000000000000000000000000000000000000000000000000000000000000000000000000000000000000000000000000000000000000000000000000000000000000000000F50000F5000000F5
310
0000000000000000000000000000000000000000000000000000000000000000000000000000000000000000000000000000000000F5000000000000000000F5000000000000000000000000000000000000000000000000000000000000000000000000000000000000000000000000000000000000000000000000000000
310
0000000000000000F500000000000000000000000000000000000000000000000000000000000000000000000000000000000000000000000000000000000000000000000000000000000000000000000000000000000000000000000000000000000000000000000000000000000000000000000000000000F50000F50000
310
00F50000000000000000000000000000000000000000000000000000000000000000000000000000000000000000000000000000000000F5000000000000000000F500000000000000000000000000000000000000000000000000000000000000000000000000000000000000000000000000000000000000000000000000
310
00000000000000000000F500000000000000000000000000000000000000000000000000000000000000000000000000000000000000000000000000000000000000000000000000000000000000000000000000000000000000000000000000000000000000000000000000000000000000000000000000000000F50000F5
310
000000F50000000000000000000000000000000000000000000000000000000000000000000000000000000000000000000000000000000000F5000000000000000000F50000000000000000000000000000000000000000000000000000000000000000000000000000000000000000000000000000000000000000000000
310
000000000000000000000000F500000000000000000000000000000000000000000000000000000000000000000000000000000000000000000000000000000000000000000000000000000000000000000000000000000000000000000000000000000000000000000000000000000000000000000000000000000000F500
310
00F5000000F5000000000000000000000000000000000000000000000000000000000000000000000000000000000000F500000000000000000000F5000000000000000000F5000000000000000000000000000000000000000000000000000000000000000000000000000000000000000000000000000000000000000000
310
0000000000000000000000000000F500000000000000000000000000000000000000000000000000000000000000000000000000000000000000000000000000000000000000000000000000000000000000000000000000000000000000000000000000000000000000000000000000000000000000000000000000000000
310
F50000F5000000F5000000000000000000000000000000000000000000000000000000000000000000000000000000000000F500000000000000000000F5000000000000000000F500000000000000000000000000000000000000000000000000000000000000000000000000000000000000000000000000000000000000
310
00000000000000000000000000000000F50000000000000000000000000000000000000000000000000000000000000000000000000000000000000000000000000000000000000000000000000000000000000000000000000000000000000000000000000000000000000000000000000000000000000000000000000000
310
0000F50000F5000000F5000000000000000000000000000000000000000000000000000000000000000000000000000000000000F500000000000000000000F5000000000000000000F50000000000000000000000000000000000000000000000000000000000000000000000000000000000000000000000000000000000
310
000000000000000000000000000000000000F5000000000000000000000000000000000000000000000000000000000000000000000000000000000000000000000000000000000000000000000000000000000000000000000000000000000000000000000000000000000000000000000000000000000000000000000000
310
00000000F50000F5000000F5000000000000000000000000000000000000000000000000000000000000000000000000000000000000F500000000000000000000F5000000000000000000F5000000000000000000000000000000000000000000000000000000000000000000000000000000000000000000000000000000
310
0000000000000000000000000000000000000000F500000000000000000000000000000000000000000000000000000000000000000000000000000000000000000000000000000000000000000000000000000000000000000000000000000000000000000000000000000000000000000000000000000000000000000000
310
000000000000F50000F5000000F5000000000000000000000000000000000000000000000000000000000000000000000000000000000000F500000000000000000000F5000000000000000000F500000000000000000000000000000000000000000000000000000000000000000000000000000000000000000000000000
310
00000000000000000000000000000000000000000000F50000000000000000000000000000000000000000000000000000000000000000000000000000000000000000000000000000000000000000000000000000000000000000000000000000000000000000000000000000000000000000000000000000000000000000
310
0000000000000000F50000F5000000F5000000000000000000000000000000000000000000000000000000000000000000000000000000000000F500000000000000000000F5000000000000000000F50000000000000000000000000000000000000000000000000000000000000000000000000000000000000000000000
310
000000000000000000000000000000000000000000000000F5000000000000000000000000000000000000000000000000000000000000000000000000000000000000000000000000000000000000000000000000000000000000000000000000000000000000000000000000000000000000000000000000000000000000
310
00000000000000000000F50000F5000000F5000000000000000000000000000000000000000000000000000000000000000000000000000000000000F500000000000000000000F5000000000000000000F5000000000000000000000000000000000000000000000000000000000000000000000000000000000000000000
310
0000000000000000000000000000000000000000000000000000F500000000000000000000000000000000000000000000000000000000000000000000000000000000000000000000000000000000000000000000000000000000000000000000000000000000000000000000000000000000000000000000000000000000
310
000000000000000000000000F50000F5000000F5000000000000000000000000000000000000000000000000000000000000000000000000000000000000F500000000000000000000F5000000000000000000F500000000000000000000000000000000000000000000000000000000000000000000000000000000000000
310
00000000000000000000000000000000000000000000000000000000F50000000000000000000000000000000000000000000000000000000000000000000000000000000000000000000000000000000000000000000000000000000000000000000000000000000000000000000000000000000000000000000000000000
310
0000000000000000000000000000F50000F5000000F50000000000000000000000000000000000000000000000000000000000000000000000000000000000000000000000000000000000F5000000000000000000F50000000000000000000000000000000000000000000000000000000000000000000000000000000000
310
000000000000000000000000000000000000000000000000000000000000F5000000000000000000000000000000000000000000000000000000000000000000000000000000000000000000000000000000000000000000000000000000000000000000000000000000000000000000000000000000000000000000000000
310
00000000000000000000000000000000F50000F5000000F50000000000000000000000000000000000000000000000000000000000000000000000000000000000000000000000000000000000F5000000000000000000F5000000000000000000000000000000000000000000000000000000000000000000000000000000
310
0000000000000000000000000000000000000000000000000000000000000000F500000000000000000000000000000000000000000000000000000000000000000000000000000000000000000000000000000000000000000000000000000000000000000000000000000000000000000000000000000000000000000000
310
000000000000000000000000000000000000F50000F5000000F5000000000000000000000000000000000000000000000000000000000000000000000000000000000000F500000000000000000000F5000000000000000000F500000000000000000000000000000000000000000000000000000000000000000000000000
310
00000000000000000000000000000000000000000000000000000000000000000000F50000000000000000000000000000000000000000000000000000000000000000000000000000000000000000000000000000000000000000000000000000000000000000000000000000000000000000000000000000000000000000
310
0000000000000000000000000000000000000000F50000F5000000F5000000000000000000000000000000000000000000000000000000000000000000000000000000000000F500000000000000000000F5000000000000000000F50000000000000000000000000000000000000000000000000000000000000000000000
310
000000000000000000000000000000000000000000000000000000000000000000000000F5000000000000000000000000000000000000000000000000000000000000000000000000000000000000000000000000000000000000000000000000000000000000000000000000000000000000000000000000000000000000
310
00000000000000000000000000000000000000000000F50000F5000000F5000000000000000000000000000000000000000000000000000000000000000000000000000000000000F500000000000000000000F5000000000000000000F5000000000000000000000000000000000000000000000000000000000000000000
310
0000000000000000000000000000000000000000000000000000000000000000000000000000F500000000000000000000000000000000000000000000000000000000000000000000000000000000000000000000000000000000000000000000000000000000000000000000000000000000000000000000000000000000
310
000000000000000000000000000000000000000000000000F50000F5000000F5000000000000000000000000000000000000000000000000000000000000000000000000000000000000F500000000000000000000F5000000000000000000F500000000000000000000000000000000000000000000000000000000000000
310
00000000000000000000000000000000000000000000000000000000000000000000000000000000F50000000000000000000000000000000000000000000000000000000000000000000000000000000000000000000000000000000000000000000000000000000000000000000000000000000000000000000000000000
310
0000000000000000000000000000000000000000000000000000F50000F5000000F5000000000000000000000000000000000000000000000000000000000000000000000000000000000000F500000000000000000000F5000000000000000000F50000000000000000000000000000000000000000000000000000000000
310
000000000000000000000000000000000000000000000000000000000000000000000000000000000000F5000000000000000000000000000000000000000000000000000000000000000000000000000000000000000000000000000000000000000000000000000000000000000000000000000000000000000000000000
310
00000000000000000000000000000000000000000000000000000000F50000F5000000F5000000000000000000000000000000000000000000000000000000000000000000000000000000000000F500000000000000000000F5000000000000000000F5000000000000000000000000000000000000000000000000000000
310
0000000000000000000000000000000000000000000000000000000000000000000000000000000000000000F500000000000000000000000000000000000000000000000000000000000000000000000000000000000000000000000000000000000000000000000000000000000000000000000000000000000000000000
310
000000000000000000000000000000000000000000000000000000000000F50000F5000000F5000000000000000000000000000000000000000000000000000000000000000000000000000000000000F500000000000000000000F5000000000000000000F500000000000000000000000000000000000000000000000000
310
00000000000000000000000000000000000000000000000000000000000000000000000000000000000000000000F50000000000000000000000000000000000000000000000000000000000000000000000000000000000000000000000000000000000000000000000000000000000000000000000000000000000000000
310
0000000000000000000000000000000000000000000000000000000000000000F50000F5000000F5000000000000000000000000000000000000000000000000000000000000000000000000000000000000F500000000000000000000F5000000000000000000F50000000000000000000000000000000000000000000000
310
000000000000000000000000000000000000000000000000000000000000000000000000000000000000000000000000F5000000000000000000000000000000000000000000000000000000000000000000000000000000000000000000000000000000000000000000000000000000000000000000000000000000000000
310
00000000000000000000000000000000000000000000000000000000000000000000F50000F5000000F5000000000000000000000000000000000000000000000000000000000000000000000000000000000000F500000000000000000000F5000000000000000000F5000000000000000000000000000000000000000000
310
0000000000000000000000000000000000000000000000000000000000000000000000000000000000000000000000000000F500000000000000000000000000000000000000000000000000000000000000000000000000000000000000000000000000000000000000000000000000000000000000000000000000000000
310
000000000000000000000000000000000000000000000000000000000000000000000000F50000F5000000F50000000000000000000000000000000000000000000000000000000000000000000000000000000000000000000000000000000000F5000000000000000000F500000000000000000000000000000000000000
310
00000000000000000000000000000000000000000000000000000000000000000000000000000000000000000000000000000000F50000000000000000000000000000000000000000000000000000000000000000000000000000000000000000000000000000000000000000000000000000000000000000000000000000
310
0000000000000000000000000000000000000000000000000000000000000000000000000000F50000F5000000F50000000000000000000000000000000000000000000000000000000000000000000000000000000000000000000000000000000000F5000000000000000000F50000000000000000000000000000000000
310
000000000000000000000000000000000000000000000000000000000000000000000000000000000000000000000000000000000000F5000000000000000000000000000000000000000000000000000000000000000000000000000000000000000000000000000000000000000000000000000000000000000000000000
310
00000000000000000000000000000000000000000000000000000000000000000000000000000000F50000F5000000F5000000000000000000000000000000000000000000000000000000000000000000000000000000000000F500000000000000000000F5000000000000000000F5000000000000000000000000000000
310
0000000000000000000000000000000000000000000000000000000000000000000000000000000000000000000000000000000000000000F500000000000000000000000000000000000000000000000000000000000000000000000000000000000000000000000000000000000000000000000000000000000000000000
310
000000000000000000000000000000000000000000000000000000000000000000000000000000000000F50000F5000000F5000000000000000000000000000000000000000000000000000000000000000000000000000000000000F500000000000000000000F5000000000000000000F500000000000000000000000000
310
00000000000000000000000000000000000000000000000000000000000000000000000000000000000000000000000000000000000000000000F50000000000000000000000000000000000000000000000000000000000000000000000000000000000000000000000000000000000000000000000000000000000000000
310
0000000000000000000000000000000000000000000000000000000000000000000000000000000000000000F50000F5000000F5000000000000000000000000000000000000000000000000000000000000000000000000000000000000F500000000000000000000F5000000000000000000F50000000000000000000000
310
000000000000000000000000000000000000000000000000000000000000000000000000000000000000000000000000000000000000000000000000F5000000000000000000000000000000000000000000000000000000000000000000000000000000000000000000000000000000000000000000000000000000000000
310
00000000000000000000000000000000000000000000000000000000000000000000000000000000000000000000F50000F5000000F5000000000000000000000000000000000000000000000000000000000000000000000000000000000000F500000000000000000000F5000000000000000000F5000000000000000000
310
0000000000000000000000000000000000000000000000000000000000000000000000000000000000000000000000000000000000000000000000000000F500000000000000000000000000000000000000000000000000000000000000000000000000000000000000000000000000000000000000000000000000000000
310
00000000000000000000000000000000000000000000000000000000
  0
XRECORD
  5
365
102
{ACAD_REACTORS
330
49
102
}
330
49
100
AcDbXrecord
280
     1
102
MATERIAL
148
0.0
149
0.0
149
0.0
 93
        0
 94
      127
282
     0
 72
     0
 77
     0
171
     0
175
     0
179
     0
273
     0
  0
XRECORD
  5
4A
102
{ACAD_REACTORS
330
49
102
}
330
49
100
AcDbXrecord
280
     1
270
     1
271
     1
  0
XRECORD
  5
4B
102
{ACAD_REACTORS
330
49
102
}
330
49
100
AcDbXrecord
280
     1
270
     1
271
     1
  0
XRECORD
  5
4C
102
{ACAD_REACTORS
330
49
102
}
330
49
100
AcDbXrecord
280
     1
270
     1
271
     1
  0
XRECORD
  5
4D
102
{ACAD_REACTORS
330
49
102
}
330
49
100
AcDbXrecord
280
     1
270
     1
271
     1
  0
XRECORD
  5
4E
102
{ACAD_REACTORS
330
49
102
}
330
49
100
AcDbXrecord
280
     1
270
     1
271
     1
  0
XRECORD
  5
4F
102
{ACAD_REACTORS
330
49
102
}
330
49
100
AcDbXrecord
280
     1
270
     1
271
     1
  0
XRECORD
  5
364
102
{ACAD_REACTORS
330
41
102
}
330
41
100
AcDbXrecord
280
     1
102
MATERIAL
148
0.0
149
0.0
149
0.0
 93
        0
 94
      127
282
     0
 72
     0
 77
     0
171
     0
175
     0
179
     0
273
     0
  0
XRECORD
  5
42
102
{ACAD_REACTORS
330
41
102
}
330
41
100
AcDbXrecord
280
     1
270
     1
271
     1
  0
XRECORD
  5
43
102
{ACAD_REACTORS
330
41
102
}
330
41
100
AcDbXrecord
280
     1
270
     1
271
     1
  0
XRECORD
  5
44
102
{ACAD_REACTORS
330
41
102
}
330
41
100
AcDbXrecord
280
     1
270
     1
271
     1
  0
XRECORD
  5
45
102
{ACAD_REACTORS
330
41
102
}
330
41
100
AcDbXrecord
280
     1
270
     1
271
     1
  0
XRECORD
  5
46
102
{ACAD_REACTORS
330
41
102
}
330
41
100
AcDbXrecord
280
     1
270
     1
271
     1
  0
XRECORD
  5
47
102
{ACAD_REACTORS
330
41
102
}
330
41
100
AcDbXrecord
280
     1
270
     1
271
     1
  0
XRECORD
  5
35F
102
{ACAD_REACTORS
330
E
102
}
330
E
100
AcDbXrecord
280
     1
102
MATERIAL
148
0.0
149
0.0
149
0.0
 93
        0
 94
      127
282
     0
 72
     0
 77
     0
171
     0
175
     0
179
     0
273
     0
  0
XRECORD
  5
F
102
{ACAD_REACTORS
330
E
102
}
330
E
100
AcDbXrecord
280
     1
270
     1
271
     1
  0
XRECORD
  5
10
102
{ACAD_REACTORS
330
E
102
}
330
E
100
AcDbXrecord
280
     1
270
     1
271
     1
  0
XRECORD
  5
11
102
{ACAD_REACTORS
330
E
102
}
330
E
100
AcDbXrecord
280
     1
270
     1
271
     1
  0
XRECORD
  5
12
102
{ACAD_REACTORS
330
E
102
}
330
E
100
AcDbXrecord
280
     1
270
     1
271
     1
  0
XRECORD
  5
13
102
{ACAD_REACTORS
330
E
102
}
330
E
100
AcDbXrecord
280
     1
270
     1
271
     1
  0
XRECORD
  5
14
102
{ACAD_REACTORS
330
E
102
}
330
E
100
AcDbXrecord
280
     1
270
     1
271
     1
  0
CELLSTYLEMAP
  5
35D
102
{ACAD_REACTORS
330
56
102
}
330
56
100
AcDbCellStyleMap
 90
        3
300
CELLSTYLE
  1
TABLEFORMAT_BEGIN
 90
        5
170
     1
 91
        0
 92
    32768
 62
   257
 93
        1
300
CONTENTFORMAT
  1
CONTENTFORMAT_BEGIN
 90
        0
 91
        0
 92
        4
 93
        0
300

 40
0.0
140
1.0
 94
        5
 62
     0
340
26
144
0.25
309
CONTENTFORMAT_END
171
     0
 94
        6
 95
        1
302
GRIDFORMAT
  1
GRIDFORMAT_BEGIN
 90
        0
 91
        1
 62
     0
 92
       -2
340
0
 93
        0
 40
0.045
309
GRIDFORMAT_END
 95
        2
302
GRIDFORMAT
  1
GRIDFORMAT_BEGIN
 90
        0
 91
        1
 62
     0
 92
       -2
340
0
 93
        0
 40
0.045
309
GRIDFORMAT_END
 95
        4
302
GRIDFORMAT
  1
GRIDFORMAT_BEGIN
 90
        0
 91
        1
 62
     0
 92
       -2
340
0
 93
        0
 40
0.045
309
GRIDFORMAT_END
 95
        8
302
GRIDFORMAT
  1
GRIDFORMAT_BEGIN
 90
        0
 91
        1
 62
     0
 92
       -2
340
0
 93
        0
 40
0.045
309
GRIDFORMAT_END
 95
       16
302
GRIDFORMAT
  1
GRIDFORMAT_BEGIN
 90
        0
 91
        1
 62
     0
 92
       -2
340
0
 93
        0
 40
0.045
309
GRIDFORMAT_END
 95
       32
302
GRIDFORMAT
  1
GRIDFORMAT_BEGIN
 90
        0
 91
        1
 62
     0
 92
       -2
340
0
 93
        0
 40
0.045
309
GRIDFORMAT_END
309
TABLEFORMAT_END
  1
CELLSTYLE_BEGIN
 90
        1
 91
        1
300
_TITLE
309
CELLSTYLE_END
300
CELLSTYLE
  1
TABLEFORMAT_BEGIN
 90
        5
170
     1
 91
        0
 92
        0
 62
   257
 93
        1
300
CONTENTFORMAT
  1
CONTENTFORMAT_BEGIN
 90
        0
 91
        0
 92
        4
 93
        0
300

 40
0.0
140
1.0
 94
        5
 62
     0
340
26
144
0.18
309
CONTENTFORMAT_END
171
     0
 94
        6
 95
        1
302
GRIDFORMAT
  1
GRIDFORMAT_BEGIN
 90
        0
 91
        1
 62
     0
 92
       -2
340
0
 93
        0
 40
0.045
309
GRIDFORMAT_END
 95
        2
302
GRIDFORMAT
  1
GRIDFORMAT_BEGIN
 90
        0
 91
        1
 62
     0
 92
       -2
340
0
 93
        0
 40
0.045
309
GRIDFORMAT_END
 95
        4
302
GRIDFORMAT
  1
GRIDFORMAT_BEGIN
 90
        0
 91
        1
 62
     0
 92
       -2
340
0
 93
        0
 40
0.045
309
GRIDFORMAT_END
 95
        8
302
GRIDFORMAT
  1
GRIDFORMAT_BEGIN
 90
        0
 91
        1
 62
     0
 92
       -2
340
0
 93
        0
 40
0.045
309
GRIDFORMAT_END
 95
       16
302
GRIDFORMAT
  1
GRIDFORMAT_BEGIN
 90
        0
 91
        1
 62
     0
 92
       -2
340
0
 93
        0
 40
0.045
309
GRIDFORMAT_END
 95
       32
302
GRIDFORMAT
  1
GRIDFORMAT_BEGIN
 90
        0
 91
        1
 62
     0
 92
       -2
340
0
 93
        0
 40
0.045
309
GRIDFORMAT_END
309
TABLEFORMAT_END
  1
CELLSTYLE_BEGIN
 90
        2
 91
        1
300
_HEADER
309
CELLSTYLE_END
300
CELLSTYLE
  1
TABLEFORMAT_BEGIN
 90
        5
170
     1
 91
        0
 92
        0
 62
   257
 93
        1
300
CONTENTFORMAT
  1
CONTENTFORMAT_BEGIN
 90
        0
 91
        0
 92
        4
 93
        0
300

 40
0.0
140
1.0
 94
        2
 62
     0
340
26
144
0.18
309
CONTENTFORMAT_END
171
     0
 94
        6
 95
        1
302
GRIDFORMAT
  1
GRIDFORMAT_BEGIN
 90
        0
 91
        1
 62
     0
 92
       -2
340
0
 93
        0
 40
0.045
309
GRIDFORMAT_END
 95
        2
302
GRIDFORMAT
  1
GRIDFORMAT_BEGIN
 90
        0
 91
        1
 62
     0
 92
       -2
340
0
 93
        0
 40
0.045
309
GRIDFORMAT_END
 95
        4
302
GRIDFORMAT
  1
GRIDFORMAT_BEGIN
 90
        0
 91
        1
 62
     0
 92
       -2
340
0
 93
        0
 40
0.045
309
GRIDFORMAT_END
 95
        8
302
GRIDFORMAT
  1
GRIDFORMAT_BEGIN
 90
        0
 91
        1
 62
     0
 92
       -2
340
0
 93
        0
 40
0.045
309
GRIDFORMAT_END
 95
       16
302
GRIDFORMAT
  1
GRIDFORMAT_BEGIN
 90
        0
 91
        1
 62
     0
 92
       -2
340
0
 93
        0
 40
0.045
309
GRIDFORMAT_END
 95
       32
302
GRIDFORMAT
  1
GRIDFORMAT_BEGIN
 90
        0
 91
        1
 62
     0
 92
       -2
340
0
 93
        0
 40
0.045
309
GRIDFORMAT_END
309
TABLEFORMAT_END
  1
CELLSTYLE_BEGIN
 90
        3
 91
        2
300
_DATA
309
CELLSTYLE_END
  0
XRECORD
  5
366
102
{ACAD_REACTORS
330
56
102
}
330
56
100
AcDbXrecord
280
     1
102
ACAD_ROUNDTRIP_PRE2007_TABLESTYLE
 90
        4
 91
        0
  1

 92
        4
 93
        0
  2

 94
        4
 95
        0
  3

  0
XRECORD
  5
363
102
{ACAD_REACTORS
330
362
102
}
330
362
100
AcDbXrecord
280
     1
102
RTVSPropertyOp0
 70
     1
102
RTVSPropertyOp1
 70
     1
102
RTVSPropertyOp2
 70
     1
102
RTVSPropertyOp3
 70
     1
102
RTVSPropertyOp4
 70
     1
102
RTVSPropertyOp5
 70
     1
102
RTVSPropertyOp6
 70
     1
102
RTVSPropertyOp7
 70
     1
102
RTVSPropertyOp8
 70
     1
102
RTVSPropertyOp9
 70
     1
102
RTVSPropertyOp10
 70
     1
102
RTVSPropertyOp11
 70
     1
102
RTVSPropertyOp12
 70
     1
102
RTVSPropertyOp13
 70
     1
102
RTVSPropertyOp14
 70
     1
102
RTVSPropertyOp15
 70
     1
102
RTVSPropertyOp16
 70
     1
102
RTVSPropertyOp17
 70
     1
102
RTVSPropertyOp18
 70
     1
102
RTVSPropertyOp19
 70
     1
102
RTVSPropertyOp20
 70
     1
102
RTVSPropertyOp21
 70
     1
102
RTVSPropertyOp22
 70
     1
102
RTVSPropertyOp23
 70
     1
102
RTVSPropertyOp24
 70
     1
102
RTVSPropertyOp25
 70
     1
102
RTVSPropertyOp26
 70
     1
102
RTVSPropertyOp27
 70
     1
102
RTVSPropertyOp28
 70
     1
102
RTVSPropertyOp29
 70
     1
102
RTVSPropertyOp30
 70
     1
102
RTVSPropertyOp31
 70
     1
102
RTVSPropertyOp32
 70
     1
  0
XRECORD
  5
368
102
{ACAD_REACTORS
330
367
102
}
330
367
100
AcDbXrecord
280
     1
102
RTVSPropertyOp0
 70
     1
102
RTVSPropertyOp1
 70
     1
102
RTVSPropertyOp2
 70
     1
102
RTVSPropertyOp3
 70
     1
102
RTVSPropertyOp4
 70
     1
102
RTVSPropertyOp5
 70
     1
102
RTVSPropertyOp6
 70
     1
102
RTVSPropertyOp7
 70
     1
102
RTVSPropertyOp8
 70
     1
102
RTVSPropertyOp9
 70
     1
102
RTVSPropertyOp10
 70
     1
102
RTVSPropertyOp11
 70
     1
102
RTVSPropertyOp12
 70
     1
102
RTVSPropertyOp13
 70
     1
102
RTVSPropertyOp14
 70
     1
102
RTVSPropertyOp15
 70
     1
102
RTVSPropertyOp16
 70
     1
102
RTVSPropertyOp17
 70
     1
102
RTVSPropertyOp18
 70
     1
102
RTVSPropertyOp19
 70
     1
102
RTVSPropertyOp20
 70
     1
102
RTVSPropertyOp21
 70
     1
102
RTVSPropertyOp22
 70
     1
102
RTVSPropertyOp23
 70
     1
102
RTVSPropertyOp24
 70
     1
102
RTVSPropertyOp25
 70
     1
102
RTVSPropertyOp26
 70
     1
102
RTVSPropertyOp27
 70
     1
102
RTVSPropertyOp28
 70
     1
102
RTVSPropertyOp29
 70
     1
102
RTVSPropertyOp30
 70
     1
102
RTVSPropertyOp31
 70
     1
102
RTVSPropertyOp32
 70
     1
  0
XRECORD
  5
36A
102
{ACAD_REACTORS
330
369
102
}
330
369
100
AcDbXrecord
280
     1
102
RTVSPropertyOp0
 70
     1
102
RTVSPropertyOp1
 70
     1
102
RTVSPropertyOp2
 70
     1
102
RTVSPropertyOp3
 70
     1
102
RTVSPropertyOp4
 70
     1
102
RTVSPropertyOp5
 70
     1
102
RTVSPropertyOp6
 70
     1
102
RTVSPropertyOp7
 70
     1
102
RTVSPropertyOp8
 70
     1
102
RTVSPropertyOp9
 70
     1
102
RTVSPropertyOp10
 70
     1
102
RTVSPropertyOp11
 70
     1
102
RTVSPropertyOp12
 70
     1
102
RTVSPropertyOp13
 70
     1
102
RTVSPropertyOp14
 70
     1
102
RTVSPropertyOp15
 70
     1
102
RTVSPropertyOp16
 70
     1
102
RTVSPropertyOp17
 70
     1
102
RTVSPropertyOp18
 70
     1
102
RTVSPropertyOp19
 70
     1
102
RTVSPropertyOp20
 70
     1
102
RTVSPropertyOp21
 70
     1
102
RTVSPropertyOp22
 70
     1
102
RTVSPropertyOp23
 70
     1
102
RTVSPropertyOp24
 70
     1
102
RTVSPropertyOp25
 70
     1
102
RTVSPropertyOp26
 70
     1
102
RTVSPropertyOp27
 70
     1
102
RTVSPropertyOp28
 70
     1
102
RTVSPropertyOp29
 70
     1
102
RTVSPropertyOp30
 70
     1
102
RTVSPropertyOp31
 70
     1
102
RTVSPropertyOp32
 70
     1
  0
ENDSEC
  0
EOF
