  0
SECTION
  2
HEADER
  9
$ACADVER
  1
AC1015
  9
$ACADMAINTVER
 70
    18
  9
$DWGCODEPAGE
  3
ANSI_1252
  9
$INSBASE
 10
15.93936987447021
 20
63.61751796216183
 30
0.0
  9
$EXTMIN
 10
9.613060403629788
 20
51.57473037435557
 30
-0.0015258207003583
  9
$EXTMAX
 10
27.92359565841252
 20
73.69996289920528
 30
0.0000000349246037
  9
$LIMMIN
 10
0.0
 20
0.0
  9
$LIMMAX
 10
10000.0
 20
10000.0
  9
$ORTHOMODE
 70
     0
  9
$REGENMODE
 70
     1
  9
$FILLMODE
 70
     1
  9
$QTEXTMODE
 70
     0
  9
$MIRRTEXT
 70
     0
  9
$LTSCALE
 40
0.5
  9
$ATTMODE
 70
     1
  9
$TEXTSIZE
 40
0.25
  9
$TRACEWID
 40
0.05
  9
$TEXTSTYLE
  7
Standard
  9
$CLAYER
  8
0
  9
$CELTYPE
  6
ByLayer
  9
$CECOLOR
 62
   256
  9
$CELTSCALE
 40
1.0
  9
$DISPSILH
 70
     0
  9
$DIMSCALE
 40
0.0
  9
$DIMASZ
 40
0.156
  9
$DIMEXO
 40
0.04
  9
$DIMDLI
 40
0.38
  9
$DIMRND
 40
0.0
  9
$DIMDLE
 40
0.0
  9
$DIMEXE
 40
0.03
  9
$DIMTP
 40
0.0
  9
$DIMTM
 40
0.0
  9
$DIMTXT
 40
0.3125
  9
$DIMCEN
 40
0.0
  9
$DIMTSZ
 40
0.0
  9
$DIMTOL
 70
     0
  9
$DIMLIM
 70
     0
  9
$DIMTIH
 70
     1
  9
$DIMTOH
 70
     1
  9
$DIMSE1
 70
     0
  9
$DIMSE2
 70
     0
  9
$DIMTAD
 70
     0
  9
$DIMZIN
 70
     0
  9
$DIMBLK
  1
ArchTick
  9
$DIMASO
 70
     1
  9
$DIMSHO
 70
     1
  9
$DIMPOST
  1
\X
  9
$DIMAPOST
  1
mm
  9
$DIMALT
 70
     1
  9
$DIMALTD
 70
     0
  9
$DIMALTF
 40
25.4
  9
$DIMLFAC
 40
1.0
  9
$DIMTOFL
 70
     0
  9
$DIMTVP
 40
0.0
  9
$DIMTIX
 70
     0
  9
$DIMSOXD
 70
     0
  9
$DIMSAH
 70
     0
  9
$DIMBLK1
  1

  9
$DIMBLK2
  1

  9
$DIMSTYLE
  2
Knife
  9
$DIMCLRD
 70
     0
  9
$DIMCLRE
 70
     0
  9
$DIMCLRT
 70
     0
  9
$DIMTFAC
 40
1.0
  9
$DIMGAP
 40
0.04
  9
$DIMJUST
 70
     0
  9
$DIMSD1
 70
     0
  9
$DIMSD2
 70
     0
  9
$DIMTOLJ
 70
     1
  9
$DIMTZIN
 70
     0
  9
$DIMALTZ
 70
     0
  9
$DIMALTTZ
 70
     0
  9
$DIMUPT
 70
     0
  9
$DIMDEC
 70
     5
  9
$DIMTDEC
 70
     5
  9
$DIMALTU
 70
     2
  9
$DIMALTTD
 70
     0
  9
$DIMTXSTY
  7
Standard
  9
$DIMAUNIT
 70
     0
  9
$DIMADEC
 70
     1
  9
$DIMALTRND
 40
0.0
  9
$DIMAZIN
 70
     0
  9
$DIMDSEP
 70
    46
  9
$DIMATFIT
 70
     3
  9
$DIMFRAC
 70
     2
  9
$DIMLDRBLK
  1

  9
$DIMLUNIT
 70
     4
  9
$DIMLWD
 70
    -2
  9
$DIMLWE
 70
    -2
  9
$DIMTMOVE
 70
     0
  9
$LUNITS
 70
     2
  9
$LUPREC
 70
     4
  9
$SKETCHINC
 40
0.1
  9
$FILLETRAD
 40
0.0
  9
$AUNITS
 70
     0
  9
$AUPREC
 70
     0
  9
$MENU
  1
.
  9
$ELEVATION
 40
0.0
  9
$PELEVATION
 40
0.0
  9
$THICKNESS
 40
0.0
  9
$LIMCHECK
 70
     0
  9
$CHAMFERA
 40
0.0
  9
$CHAMFERB
 40
0.0
  9
$CHAMFERC
 40
0.0
  9
$CHAMFERD
 40
0.0
  9
$SKPOLY
 70
     0
  9
$TDCREATE
 40
2454538.540644179
  9
$TDUCREATE
 40
2454538.665644178
  9
$TDUPDATE
 40
2456112.644568322
  9
$TDUUPDATE
 40
2456112.769568322
  9
$TDINDWG
 40
0.4459197338
  9
$TDUSRTIMER
 40
0.4459197338
  9
$USRTIMER
 70
     1
  9
$ANGBASE
 50
0.0
  9
$ANGDIR
 70
     0
  9
$PDMODE
 70
     3
  9
$PDSIZE
 40
0.0
  9
$PLINEWID
 40
0.0
  9
$SPLFRAME
 70
     0
  9
$SPLINETYPE
 70
     6
  9
$SPLINESEGS
 70
    12
  9
$HANDSEED
  5
366
  9
$SURFTAB1
 70
     6
  9
$SURFTAB2
 70
     6
  9
$SURFTYPE
 70
     6
  9
$SURFU
 70
     6
  9
$SURFV
 70
     6
  9
$UCSBASE
  2

  9
$UCSNAME
  2

  9
$UCSORG
 10
0.0
 20
0.0
 30
0.0
  9
$UCSXDIR
 10
1.0
 20
0.0
 30
0.0
  9
$UCSYDIR
 10
0.0
 20
1.0
 30
0.0
  9
$UCSORTHOREF
  2

  9
$UCSORTHOVIEW
 70
     0
  9
$UCSORGTOP
 10
0.0
 20
0.0
 30
0.0
  9
$UCSORGBOTTOM
 10
0.0
 20
0.0
 30
0.0
  9
$UCSORGLEFT
 10
0.0
 20
0.0
 30
0.0
  9
$UCSORGRIGHT
 10
0.0
 20
0.0
 30
0.0
  9
$UCSORGFRONT
 10
0.0
 20
0.0
 30
0.0
  9
$UCSORGBACK
 10
0.0
 20
0.0
 30
0.0
  9
$PUCSBASE
  2

  9
$PUCSNAME
  2

  9
$PUCSORG
 10
0.0
 20
0.0
 30
0.0
  9
$PUCSXDIR
 10
1.0
 20
0.0
 30
0.0
  9
$PUCSYDIR
 10
0.0
 20
1.0
 30
0.0
  9
$PUCSORTHOREF
  2

  9
$PUCSORTHOVIEW
 70
     0
  9
$PUCSORGTOP
 10
0.0
 20
0.0
 30
0.0
  9
$PUCSORGBOTTOM
 10
0.0
 20
0.0
 30
0.0
  9
$PUCSORGLEFT
 10
0.0
 20
0.0
 30
0.0
  9
$PUCSORGRIGHT
 10
0.0
 20
0.0
 30
0.0
  9
$PUCSORGFRONT
 10
0.0
 20
0.0
 30
0.0
  9
$PUCSORGBACK
 10
0.0
 20
0.0
 30
0.0
  9
$USERI1
 70
     0
  9
$USERI2
 70
     0
  9
$USERI3
 70
     0
  9
$USERI4
 70
     0
  9
$USERI5
 70
     0
  9
$USERR1
 40
0.0
  9
$USERR2
 40
0.0
  9
$USERR3
 40
0.0
  9
$USERR4
 40
0.0
  9
$USERR5
 40
0.0
  9
$WORLDVIEW
 70
     1
  9
$SHADEDGE
 70
     3
  9
$SHADEDIF
 70
    70
  9
$TILEMODE
 70
     1
  9
$MAXACTVP
 70
    64
  9
$PINSBASE
 10
0.0
 20
0.0
 30
0.0
  9
$PLIMCHECK
 70
     0
  9
$PEXTMIN
 10
0.0000000075458644
 20
0.0000000082145277
 30
0.0
  9
$PEXTMAX
 10
8.454000007545857
 20
10.67400000821453
 30
0.0
  9
$PLIMMIN
 10
-0.0064249311656545
 20
-0.1631194818509899
  9
$PLIMMAX
 10
8.493574828538456
 20
10.83688027785312
  9
$UNITMODE
 70
     0
  9
$VISRETAIN
 70
     1
  9
$PLINEGEN
 70
     0
  9
$PSLTSCALE
 70
     1
  9
$TREEDEPTH
 70
  3020
  9
$CMLSTYLE
  2
Standard
  9
$CMLJUST
 70
     0
  9
$CMLSCALE
 40
1.0
  9
$PROXYGRAPHICS
 70
     1
  9
$MEASUREMENT
 70
     0
  9
$CELWEIGHT
370
    -1
  9
$ENDCAPS
280
     0
  9
$JOINSTYLE
280
     0
  9
$LWDISPLAY
290
     0
  9
$INSUNITS
 70
     1
  9
$HYPERLINKBASE
  1

  9
$STYLESHEET
  1

  9
$XEDIT
290
     1
  9
$CEPSNTYPE
380
     0
  9
$PSTYLEMODE
290
     1
  9
$FINGERPRINTGUID
  2
{EFD46BDE-21B9-4C7A-B071-893954B29142}
  9
$VERSIONGUID
  2
{5F3FDAF2-BF17-4C4D-B26E-00F442A1DE5E}
  9
$EXTNAMES
290
     1
  9
$PSVPSCALE
 40
0.0
  9
$OLESTARTUP
290
     0
  0
ENDSEC
  0
SECTION
  2
CLASSES
  0
CLASS
  1
ACDBDICTIONARYWDFLT
  2
AcDbDictionaryWithDefault
  3
ObjectDBX Classes
 90
        0
280
     0
281
     0
  0
CLASS
  1
ACDBPLACEHOLDER
  2
AcDbPlaceHolder
  3
ObjectDBX Classes
 90
        0
280
     0
281
     0
  0
CLASS
  1
LAYOUT
  2
AcDbLayout
  3
ObjectDBX Classes
 90
        0
280
     0
281
     0
  0
CLASS
  1
DICTIONARYVAR
  2
AcDbDictionaryVar
  3
ObjectDBX Classes
 90
        0
280
     0
281
     0
  0
CLASS
  1
TABLESTYLE
  2
AcDbTableStyle
  3
ObjectDBX Classes
 90
     4095
280
     0
281
     0
  0
CLASS
  1
SORTENTSTABLE
  2
AcDbSortentsTable
  3
ObjectDBX Classes
 90
        0
280
     0
281
     0
  0
CLASS
  1
DIMASSOC
  2
AcDbDimAssoc
  3
"AcDbDimAssoc|Product Desc:     AcDim ARX App For Dimension|Company:          Autodesk, Inc.|WEB Address:      www.autodesk.com"
 90
        0
280
     0
281
     0
  0
CLASS
  1
MATERIAL
  2
AcDbMaterial
  3
ObjectDBX Classes
 90
     1153
280
     0
281
     0
  0
CLASS
  1
VISUALSTYLE
  2
AcDbVisualStyle
  3
ObjectDBX Classes
 90
     4095
280
     0
281
     0
  0
CLASS
  1
SCALE
  2
AcDbScale
  3
ObjectDBX Classes
 90
     1153
280
     0
281
     0
  0
CLASS
  1
MLEADERSTYLE
  2
AcDbMLeaderStyle
  3
ACDB_MLEADERSTYLE_CLASS
 90
    36863
280
     0
281
     0
  0
CLASS
  1
CELLSTYLEMAP
  2
AcDbCellStyleMap
  3
ObjectDBX Classes
 90
     1152
280
     0
281
     0
  0
ENDSEC
  0
SECTION
  2
TABLES
  0
TABLE
  2
VPORT
  5
2E
102
{ACAD_XDICTIONARY
360
33
102
}
330
0
100
AcDbSymbolTable
 70
     1
  0
VPORT
  5
2F
330
2E
100
AcDbSymbolTableRecord
100
AcDbViewportTableRecord
  2
*Active
 70
     0
 10
0.0
 20
0.0
 11
1.0
 21
1.0
 12
18.7683280963815
 22
62.50643991196499
 13
0.0
 23
0.0
 14
0.5
 24
0.5
 15
0.5
 25
0.5
 16
0.0
 26
0.0
 36
1.0
 17
0.0
 27
0.0
 37
0.0
 40
22.31959768062759
 41
2.183284457478005
 42
50.0
 43
0.0
 44
0.0
 50
0.0
 51
0.0
 71
     0
 72
  5000
 73
     1
 74
     3
 75
     0
 76
     0
 77
     0
 78
     0
281
     0
 65
     1
110
0.0
120
0.0
130
0.0
111
1.0
121
0.0
131
0.0
112
0.0
122
1.0
132
0.0
 79
     0
146
0.0
1001
ACAD_NAV_VCDISPLAY
1070
     3
  0
ENDTAB
  0
TABLE
  2
LTYPE
  5
29
330
0
100
AcDbSymbolTable
 70
     4
  0
LTYPE
  5
2A
330
29
100
AcDbSymbolTableRecord
100
AcDbLinetypeTableRecord
  2
ByBlock
 70
     0
  3

 72
    65
 73
     0
 40
0.0
  0
LTYPE
  5
2B
330
29
100
AcDbSymbolTableRecord
100
AcDbLinetypeTableRecord
  2
ByLayer
 70
     0
  3

 72
    65
 73
     0
 40
0.0
  0
LTYPE
  5
15
330
29
100
AcDbSymbolTableRecord
100
AcDbLinetypeTableRecord
  2
Continuous
 70
     0
  3
Solid line
 72
    65
 73
     0
 40
0.0
  0
LTYPE
  5
C6
330
29
100
AcDbSymbolTableRecord
100
AcDbLinetypeTableRecord
  2
CENTER
 70
     0
  3
____ _ ____ _ ____ _ ____ _ ____ _ ____ 
 72
    65
 73
     4
 40
2.0
 49
1.25
 74
     0
 49
-0.25
 74
     0
 49
0.25
 74
     0
 49
-0.25
 74
     0
  0
LTYPE
  5
1BF
330
29
100
AcDbSymbolTableRecord
100
AcDbLinetypeTableRecord
  2
HIDDEN2
 70
     0
  3
Hidden (.5x) _ _ _ _ _ _ _ _ _ _ _ _ _ _ _ _ _
 72
    65
 73
     2
 40
0.1875
 49
0.125
 74
     0
 49
-0.0625
 74
     0
  0
LTYPE
  5
1E2
330
29
100
AcDbSymbolTableRecord
100
AcDbLinetypeTableRecord
  2
HIDDEN
 70
     0
  3
Hidden __ __ __ __ __ __ __ __ __ __ __ __ __ __
 72
    65
 73
     2
 40
0.375
 49
0.25
 74
     0
 49
-0.125
 74
     0
  0
ENDTAB
  0
TABLE
  2
LAYER
  5
22
102
{ACAD_XDICTIONARY
360
23
102
}
330
0
100
AcDbSymbolTable
 70
     3
  0
LAYER
  5
6
102
{ACAD_XDICTIONARY
360
7
102
}
330
22
100
AcDbSymbolTableRecord
100
AcDbLayerTableRecord
  2
0
 70
     0
 62
     7
  6
Continuous
370
    18
390
9
  0
LAYER
  5
209
330
22
100
AcDbSymbolTableRecord
100
AcDbLayerTableRecord
  2
Defpoints
 70
     0
 62
     7
  6
Continuous
290
     0
370
    18
390
9
  0
LAYER
  5
7E
102
{ACAD_XDICTIONARY
360
7F
102
}
330
22
100
AcDbSymbolTableRecord
100
AcDbLayerTableRecord
  2
Screw
 70
     0
 62
     7
  6
Continuous
370
    18
390
9
  0
ENDTAB
  0
TABLE
  2
STYLE
  5
25
330
0
100
AcDbSymbolTable
 70
     1
  0
STYLE
  5
26
330
25
100
AcDbSymbolTableRecord
100
AcDbTextStyleTableRecord
  2
Standard
 70
     0
 40
0.0
 41
0.55
 50
5.0
 71
     0
 42
0.25
  3
lc______.ttf
  4

1001
ACAD
1000
Letter Gothic
1071
       50
  0
ENDTAB
  0
TABLE
  2
VIEW
  5
2C
330
0
100
AcDbSymbolTable
 70
     0
  0
ENDTAB
  0
TABLE
  2
UCS
  5
2D
330
0
100
AcDbSymbolTable
 70
     0
  0
ENDTAB
  0
TABLE
  2
APPID
  5
34
330
0
100
AcDbSymbolTable
 70
     5
  0
APPID
  5
27
330
34
100
AcDbSymbolTableRecord
100
AcDbRegAppTableRecord
  2
ACAD
 70
     0
  0
APPID
  5
1B
330
34
100
AcDbSymbolTableRecord
100
AcDbRegAppTableRecord
  2
ACAD_PSEXT
 70
     0
  0
APPID
  5
32
330
34
100
AcDbSymbolTableRecord
100
AcDbRegAppTableRecord
  2
ACAD_NAV_VCDISPLAY
 70
     0
  0
APPID
  5
11F
330
34
100
AcDbSymbolTableRecord
100
AcDbRegAppTableRecord
  2
GradientColor1ACI
 70
     0
  0
APPID
  5
120
330
34
100
AcDbSymbolTableRecord
100
AcDbRegAppTableRecord
  2
GradientColor2ACI
 70
     0
  0
ENDTAB
  0
TABLE
  2
DIMSTYLE
  5
35
330
0
100
AcDbSymbolTable
 70
     2
100
AcDbDimStyleTable
 71
     2
340
36
340
3B
  0
DIMSTYLE
105
3B
330
35
100
AcDbSymbolTableRecord
100
AcDbDimStyleTableRecord
  2
Standard
 70
     0
  3
"
 40
0.0
 41
0.095
 42
0.04
 44
0.04
140
0.125
141
0.0
147
0.04
179
     1
271
     6
272
     6
276
     2
277
     5
340
26
  0
DIMSTYLE
105
36
102
{ACAD_REACTORS
330
1FB
330
20D
330
21E
330
22C
330
23D
330
24C
330
25D
330
26E
330
27F
330
290
330
2A1
330
2B2
330
2C3
330
2D4
330
2E5
330
2F5
330
304
102
}
330
35
100
AcDbSymbolTableRecord
100
AcDbDimStyleTableRecord
  2
Knife
 70
     0
  3
\X
  4
mm
 40
0.0
 41
0.156
 42
0.04
 44
0.03
140
0.3125
141
0.0
147
0.04
170
     1
171
     0
179
     1
271
     5
272
     5
274
     0
276
     2
277
     4
340
26
342
37
  0
ENDTAB
  0
TABLE
  2
BLOCK_RECORD
  5
1
330
0
100
AcDbSymbolTable
 70
    21
  0
BLOCK_RECORD
  5
2
102
{ACAD_XDICTIONARY
360
3
102
}
330
1
100
AcDbSymbolTableRecord
100
AcDbBlockTableRecord
  2
*Model_Space
340
17
  0
BLOCK_RECORD
  5
1C
330
1
100
AcDbSymbolTableRecord
100
AcDbBlockTableRecord
  2
*Paper_Space
340
1F
  0
BLOCK_RECORD
  5
37
330
1
100
AcDbSymbolTableRecord
100
AcDbBlockTableRecord
  2
_ArchTick
340
0
102
{BLKREFS
331
204
331
205
331
216
331
217
331
225
331
226
331
235
331
236
331
244
331
245
331
255
331
256
331
267
331
268
331
277
331
278
331
288
331
289
331
299
331
29A
331
2AA
331
2AB
331
2BB
331
2BC
331
2CC
331
2CD
331
2DD
331
2DE
331
2EE
331
2EF
331
2FD
331
2FE
331
30B
331
30C
102
}
  0
BLOCK_RECORD
  5
7B
330
1
100
AcDbSymbolTableRecord
100
AcDbBlockTableRecord
  2
8 x .75 FH
340
0
310
2800000020000000200000000100080000000000000400000000000000000000000000000000000000000000000080000080000000808000800000008000800080800000C0C0C000C0DCC000F0CAA6000020400000206000002080000020A0000020C0000020E00000400000004020000040400000406000004080000040A0
310
000040C0000040E00000600000006020000060400000606000006080000060A0000060C0000060E00000800000008020000080400000806000008080000080A0000080C0000080E00000A0000000A0200000A0400000A0600000A0800000A0A00000A0C00000A0E00000C0000000C0200000C0400000C0600000C0800000C0
310
A00000C0C00000C0E00000E0000000E0200000E0400000E0600000E0800000E0A00000E0C00000E0E00040000000400020004000400040006000400080004000A0004000C0004000E00040200000402020004020400040206000402080004020A0004020C0004020E000404000004040200040404000404060004040800040
310
40A0004040C0004040E00040600000406020004060400040606000406080004060A0004060C0004060E00040800000408020004080400040806000408080004080A0004080C0004080E00040A0000040A0200040A0400040A0600040A0800040A0A00040A0C00040A0E00040C0000040C0200040C0400040C0600040C08000
310
40C0A00040C0C00040C0E00040E0000040E0200040E0400040E0600040E0800040E0A00040E0C00040E0E00080000000800020008000400080006000800080008000A0008000C0008000E00080200000802020008020400080206000802080008020A0008020C0008020E00080400000804020008040400080406000804080
310
008040A0008040C0008040E00080600000806020008060400080606000806080008060A0008060C0008060E00080800000808020008080400080806000808080008080A0008080C0008080E00080A0000080A0200080A0400080A0600080A0800080A0A00080A0C00080A0E00080C0000080C0200080C0400080C0600080C0
310
800080C0A00080C0C00080C0E00080E0000080E0200080E0400080E0600080E0800080E0A00080E0C00080E0E000C0000000C0002000C0004000C0006000C0008000C000A000C000C000C000E000C0200000C0202000C0204000C0206000C0208000C020A000C020C000C020E000C0400000C0402000C0404000C0406000C0
310
408000C040A000C040C000C040E000C0600000C0602000C0604000C0606000C0608000C060A000C060C000C060E000C0800000C0802000C0804000C0806000C0808000C080A000C080C000C080E000C0A00000C0A02000C0A04000C0A06000C0A08000C0A0A000C0A0C000C0A0E000C0C00000C0C02000C0C04000C0C06000
310
C0C08000C0C0A000F0FBFF00A4A0A000808080000000FF0000FF000000FFFF00FF000000FF00FF00FFFF0000FFFFFF0007070707070707070707070707070707070707070707070707070707070707070707070707070707070707070707070700070707070707070707070707070707070707070707070707070707070707
310
07000707070707070707070707070707070707070707070707070707070707070700070707070707070707070707070707070707070707070707070707070707070007070707070707070707070707070707070707070707070707070707070000000707070707070707070707070707070707070707070707070707070707
310
07000000070707070707070707070707070707070707070707070707070707000007000007070707070707070707070707070707070707070707070707070707000000000007070707070707070707070707070707070707070707070707070700070000000707070707070707070707070707070707070707070707070707
310
00000000000707070707070707070707070707070707070707070707070707070700070000000707070707070707070707070707070707070707070707070707000000000007070707070707070707070707070707070707070707070707070707000700000007070707070707070707070707070707070707070707070707
310
07000000000007070707070707070707070707070707070707070707070707070707000700000007070707070707070707070707070707070707070707070707070000000000070707070707070707070707070707070707070707070707070707070007000000070707070707070707070707070707070707070707070707
310
07070000000000070707070707070707070707070707070707070707070707070707070007000000070707070707070707070707070707070707070707070707070707000700000707070707070707070707070707070707070707070707070707070000000000070707070707070707070707070707070707070707070707
310
07070707000700000007070707070707070707070707070707070707070707070707070700000000070707070707070707070707070707070707070707070707070707000707000700070707070707070707070707070707070707070707070707070007070700070700070707070707070707070707070707070707070707
310
07070007070707000707070007070707070707070707070707070707070707070700000000000000000000000007070707070707070707070707070707070707070000000000000000000000000707070707070707070707070707070707070707070707070707000707070707070707070707070707070707070707070707
310
0707070707070707000707070707070707070707070707070707070707070707070707070707070707070707070707070707070707070707
102
{BLKREFS
331
7A
102
}
  0
BLOCK_RECORD
  5
C9
330
1
100
AcDbSymbolTableRecord
100
AcDbBlockTableRecord
  2
8 X .625 PH
340
0
310
2800000020000000200000000100080000000000000400000000000000000000000000000000000000000000000080000080000000808000800000008000800080800000C0C0C000C0DCC000F0CAA6000020400000206000002080000020A0000020C0000020E00000400000004020000040400000406000004080000040A0
310
000040C0000040E00000600000006020000060400000606000006080000060A0000060C0000060E00000800000008020000080400000806000008080000080A0000080C0000080E00000A0000000A0200000A0400000A0600000A0800000A0A00000A0C00000A0E00000C0000000C0200000C0400000C0600000C0800000C0
310
A00000C0C00000C0E00000E0000000E0200000E0400000E0600000E0800000E0A00000E0C00000E0E00040000000400020004000400040006000400080004000A0004000C0004000E00040200000402020004020400040206000402080004020A0004020C0004020E000404000004040200040404000404060004040800040
310
40A0004040C0004040E00040600000406020004060400040606000406080004060A0004060C0004060E00040800000408020004080400040806000408080004080A0004080C0004080E00040A0000040A0200040A0400040A0600040A0800040A0A00040A0C00040A0E00040C0000040C0200040C0400040C0600040C08000
310
40C0A00040C0C00040C0E00040E0000040E0200040E0400040E0600040E0800040E0A00040E0C00040E0E00080000000800020008000400080006000800080008000A0008000C0008000E00080200000802020008020400080206000802080008020A0008020C0008020E00080400000804020008040400080406000804080
310
008040A0008040C0008040E00080600000806020008060400080606000806080008060A0008060C0008060E00080800000808020008080400080806000808080008080A0008080C0008080E00080A0000080A0200080A0400080A0600080A0800080A0A00080A0C00080A0E00080C0000080C0200080C0400080C0600080C0
310
800080C0A00080C0C00080C0E00080E0000080E0200080E0400080E0600080E0800080E0A00080E0C00080E0E000C0000000C0002000C0004000C0006000C0008000C000A000C000C000C000E000C0200000C0202000C0204000C0206000C0208000C020A000C020C000C020E000C0400000C0402000C0404000C0406000C0
310
408000C040A000C040C000C040E000C0600000C0602000C0604000C0606000C0608000C060A000C060C000C060E000C0800000C0802000C0804000C0806000C0808000C080A000C080C000C080E000C0A00000C0A02000C0A04000C0A06000C0A08000C0A0A000C0A0C000C0A0E000C0C00000C0C02000C0C04000C0C06000
310
C0C08000C0C0A000F0FBFF00A4A0A000808080000000FF0000FF000000FFFF00FF000000FF00FF00FFFF0000FFFFFF0007070707070707070707070707070707070707070707070707070707070707070707070707070707070707070707070700070707070707070707070707070707070707070707070707070707070707
310
07000707070707070707070707070707070707070707070707070707070707070700070707070707070707070707070707070707070707070707070707070707070007070707070707070707070707070707070707070707070707070707070000000707070707070707070707070707070707070707070707070707070707
310
00000000070707070707070707070707070707070707070707070707070707070007000007070707070707070707070707070707070707070707070707070700000000000007070707070707070707070707070707070707070707070707070007070000000707070707070707070707070707070707070707070707070707
310
00000000070007070707070707070707070707070707070707070707070707070007070000000707070707070707070707070707070707070707070707070707000000000700070707070707070707070707070707070707070707070707070700070700000007070707070707070707070707070707070707070707070707
310
07000000000700070707070707070707070707070707070707070707070707070700070700000007070707070707070707070707070707070707070707070707070007070007000707070707070707070707070707070707070707070707070707000000000700070707070707070707070707070707070707070707070707
310
07070007070000000707070707070707070707070707070707070707070707070707000000000700070707070707070707070707070707070707070707070707070700070700000007070707070707070707070707070707070707070707070707070000000007000707070707070707070707070707070707070707070707
310
07070700070700000007070707070707070707070707070707070707070707070707070000000007000707070707070707070707070707070707070707070707070000000000000000000007070707070707070707070707070707070707070700070707070700070707070007070707070707070707070707070707070707
310
07000000000000000000000000070707070707070707070707070707070707070707000007070700070700000707070707070707070707070707070707070707070707070000000000000707070707070707070707070707070707070707070707070707070707000707070707070707070707070707070707070707070707
310
0707070707070707000707070707070707070707070707070707070707070707070707070707070707070707070707070707070707070707
102
{BLKREFS
331
C8
102
}
  0
BLOCK_RECORD
  5
151
330
1
100
AcDbSymbolTableRecord
100
AcDbBlockTableRecord
  2
8 X 1.5 FH
340
0
310
2800000020000000200000000100080000000000000400000000000000000000000000000000000000000000000080000080000000808000800000008000800080800000C0C0C000C0DCC000F0CAA6000020400000206000002080000020A0000020C0000020E00000400000004020000040400000406000004080000040A0
310
000040C0000040E00000600000006020000060400000606000006080000060A0000060C0000060E00000800000008020000080400000806000008080000080A0000080C0000080E00000A0000000A0200000A0400000A0600000A0800000A0A00000A0C00000A0E00000C0000000C0200000C0400000C0600000C0800000C0
310
A00000C0C00000C0E00000E0000000E0200000E0400000E0600000E0800000E0A00000E0C00000E0E00040000000400020004000400040006000400080004000A0004000C0004000E00040200000402020004020400040206000402080004020A0004020C0004020E000404000004040200040404000404060004040800040
310
40A0004040C0004040E00040600000406020004060400040606000406080004060A0004060C0004060E00040800000408020004080400040806000408080004080A0004080C0004080E00040A0000040A0200040A0400040A0600040A0800040A0A00040A0C00040A0E00040C0000040C0200040C0400040C0600040C08000
310
40C0A00040C0C00040C0E00040E0000040E0200040E0400040E0600040E0800040E0A00040E0C00040E0E00080000000800020008000400080006000800080008000A0008000C0008000E00080200000802020008020400080206000802080008020A0008020C0008020E00080400000804020008040400080406000804080
310
008040A0008040C0008040E00080600000806020008060400080606000806080008060A0008060C0008060E00080800000808020008080400080806000808080008080A0008080C0008080E00080A0000080A0200080A0400080A0600080A0800080A0A00080A0C00080A0E00080C0000080C0200080C0400080C0600080C0
310
800080C0A00080C0C00080C0E00080E0000080E0200080E0400080E0600080E0800080E0A00080E0C00080E0E000C0000000C0002000C0004000C0006000C0008000C000A000C000C000C000E000C0200000C0202000C0204000C0206000C0208000C020A000C020C000C020E000C0400000C0402000C0404000C0406000C0
310
408000C040A000C040C000C040E000C0600000C0602000C0604000C0606000C0608000C060A000C060C000C060E000C0800000C0802000C0804000C0806000C0808000C080A000C080C000C080E000C0A00000C0A02000C0A04000C0A06000C0A08000C0A0A000C0A0C000C0A0E000C0C00000C0C02000C0C04000C0C06000
310
C0C08000C0C0A000F0FBFF00A4A0A000808080000000FF0000FF000000FFFF00FF000000FF00FF00FFFF0000FFFFFF0007070707070707070707070707070707070707070707070707070707070707070707070707070707070707070707070700070707070707070707070707070707070707070707070707070707070707
310
07000707070707070707070707070707070707070707070707070707070707070000070707070707070707070707070707070707070707070707070707070707000007070707070707070707070707070707070707070707070707070707070000000007070707070707070707070707070707070707070707070707070707
310
00000000070707070707070707070707070707070707070707070707070707070000000007070707070707070707070707070707070707070707070707070707000000000707070707070707070707070707070707070707070707070707070700000000070707070707070707070707070707070707070707070707070707
310
07000000000707070707070707070707070707070707070707070707070707070700070000070707070707070707070707070707070707070707070707070707070000000007070707070707070707070707070707070707070707070707070707000000000707070707070707070707070707070707070707070707070707
310
07070000000007070707070707070707070707070707070707070707070707070707000000000707070707070707070707070707070707070707070707070707070700000000070707070707070707070707070707070707070707070707070707070000000007070707070707070707070707070707070707070707070707
310
07070700070000070707070707070707070707070707070707070707070707070707070007000007070707070707070707070707070707070707070707070707070707000700000707070707070707070707070707070707070707070707070707070700070000070707070707070707070707070707070707070707070707
310
07070707000700000707070707070707070707070707070707070707070707070707070700070000070707070707070707070707070707070707070707070707070707070007000007070707070707070707070707070707070707070707070707070707000700000707070707070707070707070707070707070707070707
310
07070707070000000007070707070707070707070707070707070707070707070707070707000700070007070707070707070707070707070707070707070707070707070000000000000707070707070707070707070707070707070707070707070707000000000000070707070707070707070707070707070707070707
310
0707070707070707000707070707070707070707070707070707070707070707070707070707070707070707070707070707070707070707
102
{BLKREFS
331
150
331
1FA
102
}
  0
BLOCK_RECORD
  5
1FE
330
1
100
AcDbSymbolTableRecord
100
AcDbBlockTableRecord
  2
*D4
340
0
  0
BLOCK_RECORD
  5
210
330
1
100
AcDbSymbolTableRecord
100
AcDbBlockTableRecord
  2
*D5
340
0
  0
BLOCK_RECORD
  5
21F
330
1
100
AcDbSymbolTableRecord
100
AcDbBlockTableRecord
  2
*D6
340
0
  0
BLOCK_RECORD
  5
22F
330
1
100
AcDbSymbolTableRecord
100
AcDbBlockTableRecord
  2
*D7
340
0
  0
BLOCK_RECORD
  5
23E
330
1
100
AcDbSymbolTableRecord
100
AcDbBlockTableRecord
  2
*D8
340
0
  0
BLOCK_RECORD
  5
24F
330
1
100
AcDbSymbolTableRecord
100
AcDbBlockTableRecord
  2
*D9
340
0
  0
BLOCK_RECORD
  5
260
330
1
100
AcDbSymbolTableRecord
100
AcDbBlockTableRecord
  2
*D10
340
0
  0
BLOCK_RECORD
  5
271
330
1
100
AcDbSymbolTableRecord
100
AcDbBlockTableRecord
  2
*D11
340
0
  0
BLOCK_RECORD
  5
282
330
1
100
AcDbSymbolTableRecord
100
AcDbBlockTableRecord
  2
*D12
340
0
  0
BLOCK_RECORD
  5
293
330
1
100
AcDbSymbolTableRecord
100
AcDbBlockTableRecord
  2
*D13
340
0
  0
BLOCK_RECORD
  5
2A4
330
1
100
AcDbSymbolTableRecord
100
AcDbBlockTableRecord
  2
*D14
340
0
  0
BLOCK_RECORD
  5
2B5
330
1
100
AcDbSymbolTableRecord
100
AcDbBlockTableRecord
  2
*D15
340
0
  0
BLOCK_RECORD
  5
2C6
330
1
100
AcDbSymbolTableRecord
100
AcDbBlockTableRecord
  2
*D16
340
0
  0
BLOCK_RECORD
  5
2D7
330
1
100
AcDbSymbolTableRecord
100
AcDbBlockTableRecord
  2
*D17
340
0
  0
BLOCK_RECORD
  5
2E8
330
1
100
AcDbSymbolTableRecord
100
AcDbBlockTableRecord
  2
*D18
340
0
  0
BLOCK_RECORD
  5
2F6
330
1
100
AcDbSymbolTableRecord
100
AcDbBlockTableRecord
  2
*D19
340
0
  0
BLOCK_RECORD
  5
305
330
1
100
AcDbSymbolTableRecord
100
AcDbBlockTableRecord
  2
*D20
340
0
  0
ENDTAB
  0
ENDSEC
  0
SECTION
  2
BLOCKS
  0
BLOCK
  5
5
330
2
100
AcDbEntity
  8
0
100
AcDbBlockBegin
  2
*Model_Space
 70
     0
 10
0.0
 20
0.0
 30
0.0
  3
*Model_Space
  1

  0
ENDBLK
  5
16
330
2
100
AcDbEntity
  8
0
100
AcDbBlockEnd
  0
BLOCK
  5
1D
330
1C
100
AcDbEntity
 67
     1
  8
0
100
AcDbBlockBegin
  2
*Paper_Space
 70
     0
 10
0.0
 20
0.0
 30
0.0
  3
*Paper_Space
  1

  0
ENDBLK
  5
1E
330
1C
100
AcDbEntity
 67
     1
  8
0
100
AcDbBlockEnd
  0
BLOCK
  5
38
330
37
100
AcDbEntity
  8
0
100
AcDbBlockBegin
  2
_ArchTick
 70
     0
 10
0.0
 20
0.0
 30
0.0
  3
_ArchTick
  1

  0
LWPOLYLINE
  5
39
330
37
100
AcDbEntity
  8
0
  6
ByBlock
 62
     0
100
AcDbPolyline
 90
        2
 70
     0
 43
0.15
 10
-0.5
 20
-0.5
 10
0.5
 20
0.5
  0
ENDBLK
  5
3A
330
37
100
AcDbEntity
  8
0
100
AcDbBlockEnd
  0
BLOCK
  5
7C
330
7B
100
AcDbEntity
  8
0
 62
     7
370
     9
100
AcDbBlockBegin
  2
8 x .75 FH
 70
     0
 10
0.0
 20
0.0
 30
0.0
  3
8 x .75 FH
  1

  0
LINE
  5
7D
330
7B
100
AcDbEntity
  8
Screw
 62
     7
370
     9
100
AcDbLine
 10
0.0550146141445112
 20
-0.6503624430697528
 30
0.0
 11
-0.040994238129656
 21
-0.6842106249981726
 31
0.0
  0
LINE
  5
80
330
7B
100
AcDbEntity
  8
Screw
 62
     7
370
     9
100
AcDbLine
 10
0.082499999998845
 20
-0.5862344890166469
 30
0.0
 11
-0.0718750000007731
 21
-0.6184212499980504
 31
0.0
  0
LINE
  5
81
330
7B
100
AcDbEntity
  8
Screw
 62
     7
370
     9
100
AcDbLine
 10
0.0439236020391718
 20
-0.6439590442452073
 30
0.0
 11
0.0490410471671794
 21
-0.6316044388123601
 31
0.0
  0
LINE
  5
82
330
7B
100
AcDbEntity
  8
Screw
 62
     7
370
     9
100
AcDbLine
 10
0.029903226022725
 20
-0.6778072261735133
 30
0.0
 11
0.0229311243443817
 21
-0.6946393686034753
 31
0.0
  0
LINE
  5
83
330
7B
100
AcDbEntity
  8
Screw
 62
     7
370
     9
100
AcDbLine
 10
0.0578546239828484
 20
-0.6103265821309379
 30
0.0
 11
0.0490410471671794
 21
-0.6316044388123601
 31
0.0
  0
LINE
  5
84
330
7B
100
AcDbEntity
  8
Screw
 62
     7
370
     9
100
AcDbLine
 10
-0.0000000000006821
 20
-0.749999999998181
 30
0.0
 11
-0.0229311243459733
 21
-0.6946393686034753
 31
0.0
  0
LINE
  5
85
330
7B
100
AcDbEntity
  8
Screw
 62
     7
370
     9
100
AcDbLine
 10
-0.0718750000007731
 20
-0.6184212499980504
 30
0.0
 11
-0.0600000000014234
 21
-0.6115652155518774
 31
0.0
  0
LINE
  5
86
330
7B
100
AcDbEntity
  8
Screw
 62
     7
370
     9
100
AcDbLine
 10
-0.0718750000007731
 20
-0.6184212499981641
 30
0.0
 11
-0.0490410471686573
 21
-0.6316044388123601
 31
0.0
  0
LINE
  5
87
330
7B
100
AcDbEntity
  8
Screw
 62
     7
370
     9
100
AcDbLine
 10
-0.040994238129656
 20
-0.6842106249981726
 30
0.0
 11
-0.0299032260242029
 21
-0.6778072261735133
 31
0.0
  0
LINE
  5
88
330
7B
100
AcDbEntity
  8
Screw
 62
     7
370
     9
100
AcDbLine
 10
-0.040994238129656
 20
-0.6842106249981726
 30
0.0
 11
-0.0229311243459733
 21
-0.6946393686034753
 31
0.0
  0
LINE
  5
89
330
7B
100
AcDbEntity
  8
Screw
 62
     7
370
     9
100
AcDbLine
 10
-0.0299032260242029
 20
-0.6778072261735133
 30
0.0
 11
-0.0490410471686573
 21
-0.6316044388123601
 31
0.0
  0
LINE
  5
8A
330
7B
100
AcDbEntity
  8
Screw
 62
     7
370
     9
100
AcDbLine
 10
0.029903226022725
 20
-0.6778072261735133
 30
0.0
 11
0.0369515003608285
 21
-0.6607911866751693
 31
0.0
  0
LINE
  5
8B
330
7B
100
AcDbEntity
  8
Screw
 62
     7
370
     9
100
AcDbLine
 10
0.0578546239828484
 20
-0.6103265821309379
 30
0.0
 11
0.0632241464040817
 21
-0.5973634082783974
 31
0.0
  0
LINE
  5
8C
330
7B
100
AcDbEntity
  8
Screw
 62
     7
370
     9
100
AcDbLine
 10
0.0550146141445112
 20
-0.6503624430697528
 30
0.0
 11
0.0369515003608285
 21
-0.6607911866751693
 31
0.0
  0
LINE
  5
8D
330
7B
100
AcDbEntity
  8
Screw
 62
     7
370
     9
100
AcDbLine
 10
0.0550146141445112
 20
-0.6503624430697528
 30
0.0
 11
0.0439236020391718
 21
-0.6439590442452073
 31
0.0
  0
LINE
  5
8E
330
7B
100
AcDbEntity
  8
Screw
 62
     7
370
     9
100
AcDbLine
 10
0.0824999999986176
 20
-0.5862344890166469
 30
0.0
 11
0.063224146403968
 21
-0.5973634082782838
 31
0.0
  0
LINE
  5
8F
330
7B
100
AcDbEntity
  8
Screw
 62
     7
370
     9
100
AcDbLine
 10
0.0824999999986176
 20
-0.5862344890166469
 30
0.0
 11
0.0684796239821708
 21
-0.5781398211494207
 31
0.0
  0
LINE
  5
90
330
7B
100
AcDbEntity
  8
Screw
 62
     7
370
     9
100
AcDbLine
 10
-0.0000000000006821
 20
-0.749999999998181
 30
0.0
 11
0.0229311243443817
 21
-0.6946393686034753
 31
0.0
  0
LINE
  5
91
330
7B
100
AcDbEntity
  8
Screw
 62
     7
370
     9
100
AcDbLine
 10
0.0599999999988086
 20
-0.4018567450733599
 30
0.0
 11
0.0599999999988086
 21
-0.4416653579600052
 31
0.0
  0
LINE
  5
92
330
7B
100
AcDbEntity
  8
Screw
 62
     7
370
     9
100
AcDbLine
 10
0.0824999999987313
 20
-0.3888663640167351
 30
0.0
 11
0.0599999999988086
 21
-0.4018567450733599
 31
0.0
  0
LINE
  5
93
330
7B
100
AcDbEntity
  8
Screw
 62
     7
370
     9
100
AcDbLine
 10
0.0599999999988086
 20
-0.4676461200734821
 30
0.0
 11
0.0599999999988086
 21
-0.5074547329599
 31
0.0
  0
LINE
  5
94
330
7B
100
AcDbEntity
  8
Screw
 62
     7
370
     9
100
AcDbLine
 10
0.0824999999987313
 20
-0.5204451140167521
 30
0.0
 11
0.0599999999988086
 21
-0.5334354950734906
 31
0.0
  0
LINE
  5
95
330
7B
100
AcDbEntity
  8
Screw
 62
     7
370
     9
100
AcDbLine
 10
0.0824999999987313
 20
-0.5204451140167521
 30
0.0
 11
0.0599999999986949
 21
-0.5074547329599
 31
0.0
  0
LINE
  5
96
330
7B
100
AcDbEntity
  8
Screw
 62
     7
370
     9
100
AcDbLine
 10
0.0824999999987313
 20
-0.45465573901663
 30
0.0
 11
0.0599999999988086
 21
-0.4676461200734821
 31
0.0
  0
LINE
  5
97
330
7B
100
AcDbEntity
  8
Screw
 62
     7
370
     9
100
AcDbLine
 10
0.0824999999987313
 20
-0.45465573901663
 30
0.0
 11
0.0599999999988086
 21
-0.4416653579600052
 31
0.0
  0
LINE
  5
98
330
7B
100
AcDbEntity
  8
Screw
 62
     7
370
     9
100
AcDbLine
 10
0.0824999999987313
 20
-0.3888663640167351
 30
0.0
 11
-0.0825000000013461
 21
-0.4176219848775418
 31
0.0
  0
LINE
  5
99
330
7B
100
AcDbEntity
  8
Screw
 62
     7
370
     9
100
AcDbLine
 10
0.0824999999987313
 20
-0.5204451140167521
 30
0.0
 11
-0.0825000000013461
 21
-0.5492007348775588
 31
0.0
  0
LINE
  5
9A
330
7B
100
AcDbEntity
  8
Screw
 62
     7
370
     9
100
AcDbLine
 10
0.0824999999987313
 20
-0.45465573901663
 30
0.0
 11
-0.0825000000013461
 21
-0.4834113598775503
 31
0.0
  0
LINE
  5
9B
330
7B
100
AcDbEntity
  8
Screw
 62
     7
370
     9
100
AcDbLine
 10
0.0824999999987313
 20
-0.3888663640167351
 30
0.0
 11
0.0599999999988086
 21
-0.3758759829599967
 31
0.0
  0
LINE
  5
9C
330
7B
100
AcDbEntity
  8
Screw
 62
     7
370
     9
100
AcDbLine
 10
0.0824999999987313
 20
-0.5862344890167606
 30
0.0
 11
0.0599999999986949
 21
-0.5732441079599085
 31
0.0
  0
LINE
  5
9D
330
7B
100
AcDbEntity
  8
Screw
 62
     7
370
     9
100
AcDbLine
 10
0.0599999999988086
 20
-0.5334354950734906
 30
0.0
 11
0.0599999999988086
 21
-0.5732441079599085
 31
0.0
  0
LINE
  5
9E
330
7B
100
AcDbEntity
  8
Screw
 62
     7
370
     9
100
AcDbLine
 10
-0.0825000000012324
 20
-0.4834113598774366
 30
0.0
 11
-0.0600000000013097
 21
-0.4704209788208118
 31
0.0
  0
LINE
  5
9F
330
7B
100
AcDbEntity
  8
Screw
 62
     7
370
     9
100
AcDbLine
 10
-0.0825000000012324
 20
-0.483411359877664
 30
0.0
 11
-0.0600000000013097
 21
-0.4964017409342887
 31
0.0
  0
LINE
  5
A0
330
7B
100
AcDbEntity
  8
Screw
 62
     7
370
     9
100
AcDbLine
 10
-0.0825000000012324
 20
-0.5492007348775588
 30
0.0
 11
-0.0600000000013097
 21
-0.5362103538207066
 31
0.0
  0
LINE
  5
A1
330
7B
100
AcDbEntity
  8
Screw
 62
     7
370
     9
100
AcDbLine
 10
-0.0825000000012324
 20
-0.5492007348775588
 30
0.0
 11
-0.0600000000013097
 21
-0.5621911159342972
 31
0.0
  0
LINE
  5
A2
330
7B
100
AcDbEntity
  8
Screw
 62
     7
370
     9
100
AcDbLine
 10
-0.0825000000012324
 20
-0.4176219848775418
 30
0.0
 11
-0.0600000000013097
 21
-0.4306123659343939
 31
0.0
  0
LINE
  5
A3
330
7B
100
AcDbEntity
  8
Screw
 62
     7
370
     9
100
AcDbLine
 10
-0.0825000000012324
 20
-0.4176219848775418
 30
0.0
 11
-0.0600000000013097
 21
-0.4046316038208034
 31
0.0
  0
LINE
  5
A4
330
7B
100
AcDbEntity
  8
Screw
 62
     7
370
     9
100
AcDbLine
 10
-0.0600000000013097
 20
-0.5621911159342972
 30
0.0
 11
-0.0600000000013097
 21
-0.6115652155519911
 31
0.0
  0
LINE
  5
A5
330
7B
100
AcDbEntity
  8
Screw
 62
     7
370
     9
100
AcDbLine
 10
-0.0600000000013097
 20
-0.496401740934175
 30
0.0
 11
-0.0600000000013097
 21
-0.5362103538205929
 31
0.0
  0
LINE
  5
A6
330
7B
100
AcDbEntity
  8
Screw
 62
     7
370
     9
100
AcDbLine
 10
-0.0600000000013097
 20
-0.4306123659340529
 30
0.0
 11
-0.0600000000013097
 21
-0.4704209788206981
 31
0.0
  0
LINE
  5
A7
330
7B
100
AcDbEntity
  8
Screw
 62
     7
370
     9
100
AcDbLine
 10
0.0824999999987313
 20
-0.2572876140167182
 30
0.0
 11
0.0599999999988086
 21
-0.2442972329599797
 31
0.0
  0
LINE
  5
A8
330
7B
100
AcDbEntity
  8
Screw
 62
     7
370
     9
100
AcDbLine
 10
0.0824999999987313
 20
-0.323076989016613
 30
0.0
 11
-0.0825000000013461
 21
-0.3518326098775333
 31
0.0
  0
LINE
  5
A9
330
7B
100
AcDbEntity
  8
Screw
 62
     7
370
     9
100
AcDbLine
 10
0.0824999999987313
 20
-0.2572876140167182
 30
0.0
 11
-0.0825000000013461
 21
-0.2860432348775248
 31
0.0
  0
LINE
  5
AA
330
7B
100
AcDbEntity
  8
Screw
 62
     7
370
     9
100
AcDbLine
 10
0.0824999999987313
 20
-0.323076989016613
 30
0.0
 11
0.0599999999988086
 21
-0.3100866079599882
 31
0.0
  0
LINE
  5
AB
330
7B
100
AcDbEntity
  8
Screw
 62
     7
370
     9
100
AcDbLine
 10
0.0824999999987313
 20
-0.323076989016613
 30
0.0
 11
0.0599999999988086
 21
-0.3360673700734651
 31
0.0
  0
LINE
  5
AC
330
7B
100
AcDbEntity
  8
Screw
 62
     7
370
     9
100
AcDbLine
 10
0.0599999999988086
 20
-0.3360673700734651
 30
0.0
 11
0.0599999999988086
 21
-0.375875982959883
 31
0.0
  0
LINE
  5
AD
330
7B
100
AcDbEntity
  8
Screw
 62
     7
370
     9
100
AcDbLine
 10
0.0824999999987313
 20
-0.2572876140167182
 30
0.0
 11
0.0599999999988086
 21
-0.2702779950733429
 31
0.0
  0
LINE
  5
AE
330
7B
100
AcDbEntity
  8
Screw
 62
     7
370
     9
100
AcDbLine
 10
0.0599999999988086
 20
-0.2702779950733429
 30
0.0
 11
0.0599999999988086
 21
-0.3100866079599882
 31
0.0
  0
LINE
  5
AF
330
7B
100
AcDbEntity
  8
Screw
 62
     7
370
     9
100
AcDbLine
 10
-0.0600000000013097
 20
-0.2990336159340359
 30
0.0
 11
-0.0600000000013097
 21
-0.3388422288206812
 31
0.0
  0
LINE
  5
B0
330
7B
100
AcDbEntity
  8
Screw
 62
     7
370
     9
100
AcDbLine
 10
-0.0600000000013097
 20
-0.364822990934158
 30
0.0
 11
-0.0600000000013097
 21
-0.404631603820576
 31
0.0
  0
LINE
  5
B1
330
7B
100
AcDbEntity
  8
Screw
 62
     7
370
     9
100
AcDbLine
 10
-0.0825000000012324
 20
-0.2860432348775248
 30
0.0
 11
-0.0600000000013097
 21
-0.2730528538207864
 31
0.0
  0
LINE
  5
B2
330
7B
100
AcDbEntity
  8
Screw
 62
     7
370
     9
100
AcDbLine
 10
-0.0825000000012324
 20
-0.2860432348775248
 30
0.0
 11
-0.0600000000013097
 21
-0.2990336159343769
 31
0.0
  0
LINE
  5
B3
330
7B
100
AcDbEntity
  8
Screw
 62
     7
370
     9
100
AcDbLine
 10
-0.0825000000012324
 20
-0.351832609877647
 30
0.0
 11
-0.0600000000013097
 21
-0.3648229909342717
 31
0.0
  0
LINE
  5
B4
330
7B
100
AcDbEntity
  8
Screw
 62
     7
370
     9
100
AcDbLine
 10
-0.0825000000012324
 20
-0.3518326098774196
 30
0.0
 11
-0.0600000000013097
 21
-0.3388422288207948
 31
0.0
  0
LINE
  5
B5
330
7B
100
AcDbEntity
  8
Screw
 62
     7
370
     9
100
AcDbLine
 10
0.0599999999988086
 20
-0.2044886200734481
 30
0.0
 11
0.0599999999988086
 21
-0.244297232959866
 31
0.0
  0
LINE
  5
B6
330
7B
100
AcDbEntity
  8
Screw
 62
     7
370
     9
100
AcDbLine
 10
-0.0600000000013097
 20
-0.2332442409341411
 30
0.0
 11
-0.0600000000013097
 21
-0.273052853820559
 31
0.0
  0
LINE
  5
B7
330
7B
100
AcDbEntity
  8
Screw
 62
     7
370
     9
100
AcDbLine
 10
-0.0600000000013097
 20
-0.1430000000002565
 30
0.0
 11
-0.0600000000013097
 21
-0.2072634788206642
 31
0.0
  0
LINE
  5
B8
330
7B
100
AcDbEntity
  8
Screw
 62
     7
370
     9
100
AcDbLine
 10
-0.0825000000012324
 20
-0.22025385987763
 30
0.0
 11
-0.0600000000013097
 21
-0.2332442409342548
 31
0.0
  0
LINE
  5
B9
330
7B
100
AcDbEntity
  8
Screw
 62
     7
370
     9
100
AcDbLine
 10
-0.0825000000012324
 20
-0.2202538598774026
 30
0.0
 11
-0.0600000000013097
 21
-0.2072634788207779
 31
0.0
  0
LINE
  5
BA
330
7B
100
AcDbEntity
  8
Screw
 62
     7
370
     9
100
AcDbLine
 10
0.0824999999987313
 20
-0.191498239016596
 30
0.0
 11
-0.0825000000013461
 21
-0.2202538598775163
 31
0.0
  0
LINE
  5
BB
330
7B
100
AcDbEntity
  8
Screw
 62
     7
370
     9
100
AcDbLine
 10
0.0824999999987313
 20
-0.191498239016596
 30
0.0
 11
0.0599999999988086
 21
-0.1785078579599713
 31
0.0
  0
LINE
  5
BC
330
7B
100
AcDbEntity
  8
Screw
 62
     7
370
     9
100
AcDbLine
 10
0.0824999999987313
 20
-0.191498239016596
 30
0.0
 11
0.0599999999988086
 21
-0.2044886200734481
 31
0.0
  0
LINE
  5
BD
330
7B
100
AcDbEntity
  8
Screw
 62
     7
370
     9
100
AcDbLine
 10
0.0599999999989223
 20
-0.1430000000002565
 30
0.0
 11
0.0599999999988086
 21
-0.1785078579599713
 31
0.0
  0
LINE
  5
BE
330
7B
100
AcDbEntity
  8
Screw
 62
     7
370
     9
100
AcDbLine
 10
-0.1550000000002001
 20
0.0000000000001137
 30
0.0
 11
-0.1550000000020191
 21
-0.015999999999849
 31
0.0
  0
LINE
  5
BF
330
7B
100
AcDbEntity
  8
Screw
 62
     7
370
     9
100
AcDbLine
 10
0.1549999999986085
 20
0.0
 30
0.0
 11
0.1549999999986085
 21
-0.0159999999999627
 31
0.0
  0
LINE
  5
C0
330
7B
100
AcDbEntity
  8
Screw
 62
     7
370
     9
100
AcDbLine
 10
0.1549999999987222
 20
-0.0160000000006448
 30
0.0
 11
-0.155000000001337
 21
-0.0159999999999627
 31
0.0
  0
LINE
  5
C1
330
7B
100
AcDbEntity
  8
Screw
 62
     7
370
     9
100
AcDbLine
 10
0.1549999999987222
 20
0.0
 30
0.0
 11
-0.155000000001337
 21
0.0
 31
0.0
  0
LINE
  5
C2
330
7B
100
AcDbEntity
  8
Screw
 62
     7
370
     9
100
AcDbLine
 10
0.0599999999989223
 20
-0.1430000000000291
 30
0.0
 11
-0.0600000000013097
 21
-0.1430000000000291
 31
0.0
  0
LINE
  5
C3
330
7B
100
AcDbEntity
  8
Screw
 62
     7
370
     9
100
AcDbLine
 10
0.1549999999986085
 20
-0.0160000000006448
 30
0.0
 11
0.0599999999988086
 21
-0.1430000000001428
 31
0.0
  0
LINE
  5
C4
330
7B
100
AcDbEntity
  8
Screw
 62
     7
370
     9
100
AcDbLine
 10
-0.1550000000020191
 20
-0.0159999999999627
 30
0.0
 11
-0.0600000000013097
 21
-0.1430000000001428
 31
0.0
  0
LINE
  5
C5
330
7B
100
AcDbEntity
  8
Screw
  6
CENTER
 62
     7
370
     9
100
AcDbLine
 10
0.0
 20
0.0516137131638743
 30
0.0
 11
0.0
 21
-0.8012116686045374
 31
0.0
  0
ENDBLK
  5
C7
330
7B
100
AcDbEntity
  8
0
 62
     7
370
     9
100
AcDbBlockEnd
  0
BLOCK
  5
CA
330
C9
100
AcDbEntity
  8
0
 62
     5
100
AcDbBlockBegin
  2
8 X .625 PH
 70
     0
 10
0.0
 20
0.0
 30
0.0
  3
8 X .625 PH
  1

  0
LINE
  5
CB
330
C9
100
AcDbEntity
  8
Screw
  6
CENTER
 62
     7
370
     9
100
AcDbLine
 10
0.0
 20
0.1516137131640107
 30
0.0
 11
-0.0000000000001137
 21
-0.6762116686043101
 31
0.0
  0
LINE
  5
CC
330
C9
100
AcDbEntity
  8
Screw
 62
     7
370
     9
100
AcDbLine
 10
0.1549999999987222
 20
0.0400000000003047
 30
0.0
 11
0.1549999999986085
 21
0.0100000000001046
 31
0.0
  0
LINE
  5
CD
330
C9
100
AcDbEntity
  8
Screw
 62
     7
370
     9
100
AcDbLine
 10
-0.1550000000386262
 20
0.0400000000013279
 30
0.0
 11
-0.1550000000420368
 21
0.0100000000010141
 31
0.0
  0
LINE
  5
CE
330
C9
100
AcDbEntity
  8
Screw
 62
     7
370
     9
100
AcDbLine
 10
0.0599999999986949
 20
-0.0136992450730986
 30
0.0
 11
0.0599999999986949
 21
-0.0535078579597439
 31
0.0
  0
LINE
  5
CF
330
C9
100
AcDbEntity
  8
Screw
 62
     7
370
     9
100
AcDbLine
 10
0.0824999999986176
 20
-0.0007088640164739
 30
0.0
 11
0.0599999999986949
 21
-0.0136992450730986
 31
0.0
  0
LINE
  5
D0
330
C9
100
AcDbEntity
  8
Screw
 62
     7
370
     9
100
AcDbLine
 10
0.0824999999986176
 20
-0.0664982390163687
 30
0.0
 11
0.0599999999986949
 21
-0.0794886200732208
 31
0.0
  0
LINE
  5
D1
330
C9
100
AcDbEntity
  8
Screw
 62
     7
370
     9
100
AcDbLine
 10
0.0824999999986176
 20
-0.0664982390163687
 30
0.0
 11
0.0599999999986949
 21
-0.0535078579597439
 31
0.0
  0
LINE
  5
D2
330
C9
100
AcDbEntity
  8
Screw
 62
     7
370
     9
100
AcDbLine
 10
0.0824999999986176
 20
-0.0007088640164739
 30
0.0
 11
-0.0825000000014598
 21
-0.0294644848772805
 31
0.0
  0
LINE
  5
D3
330
C9
100
AcDbEntity
  8
Screw
 62
     7
370
     9
100
AcDbLine
 10
0.0824999999986176
 20
-0.0664982390163687
 30
0.0
 11
-0.0825000000014598
 21
-0.095253859877289
 31
0.0
  0
LINE
  5
D4
330
C9
100
AcDbEntity
  8
Screw
 62
     7
370
     9
100
AcDbLine
 10
0.0824999999986176
 20
-0.0007088640164739
 30
0.0
 11
0.0812722115064162
 21
0.0000000000001137
 31
0.0
  0
LINE
  5
D5
330
C9
100
AcDbEntity
  8
Screw
 62
     7
370
     9
100
AcDbLine
 10
-0.0825000000013461
 20
-0.0952538598771753
 30
0.0
 11
-0.0600000000014234
 21
-0.0822634788205505
 31
0.0
  0
LINE
  5
D6
330
C9
100
AcDbEntity
  8
Screw
 62
     7
370
     9
100
AcDbLine
 10
-0.0825000000013461
 20
-0.0952538598774027
 30
0.0
 11
-0.0600000000014234
 21
-0.1082442409340274
 31
0.0
  0
LINE
  5
D7
330
C9
100
AcDbEntity
  8
Screw
 62
     7
370
     9
100
AcDbLine
 10
-0.0825000000013461
 20
-0.0294644848772805
 30
0.0
 11
-0.0600000000014234
 21
-0.0424548659341326
 31
0.0
  0
LINE
  5
D8
330
C9
100
AcDbEntity
  8
Screw
 62
     7
370
     9
100
AcDbLine
 10
-0.0825000000013461
 20
-0.0294644848772805
 30
0.0
 11
-0.0600000000014234
 21
-0.0164741038205421
 31
0.0
  0
LINE
  5
D9
330
C9
100
AcDbEntity
  8
Screw
 62
     7
370
     9
100
AcDbLine
 10
-0.0600000000014234
 20
-0.0424548659337916
 30
0.0
 11
-0.0600000000014234
 21
-0.0822634788204369
 31
0.0
  0
LINE
  5
DA
330
C9
100
AcDbEntity
  8
Screw
 62
     7
370
     9
100
AcDbLine
 10
-0.0600000000015371
 20
0.0
 30
0.0
 11
-0.0600000000014234
 21
-0.0164741038203147
 31
0.0
  0
LINE
  5
DB
330
C9
100
AcDbEntity
  8
Screw
 62
     7
370
     9
100
AcDbLine
 10
-0.0600000000014234
 20
-0.1082442409339137
 30
0.0
 11
-0.0600000000014234
 21
-0.1480528538203316
 31
0.0
  0
LINE
  5
DC
330
C9
100
AcDbEntity
  8
Screw
 62
     7
370
     9
100
AcDbLine
 10
0.0599999999986949
 20
-0.0794886200732208
 30
0.0
 11
0.0599999999986949
 21
-0.1192972329596387
 31
0.0
  0
LINE
  5
DD
330
C9
100
AcDbEntity
  8
Screw
 62
     7
370
     9
100
AcDbLine
 10
-0.0825000000013461
 20
-0.2268326098771922
 30
0.0
 11
-0.0600000000014234
 21
-0.2138422288205675
 31
0.0
  0
LINE
  5
DE
330
C9
100
AcDbEntity
  8
Screw
 62
     7
370
     9
100
AcDbLine
 10
-0.0825000000013461
 20
-0.2268326098774196
 30
0.0
 11
-0.0600000000014234
 21
-0.2398229909340443
 31
0.0
  0
LINE
  5
DF
330
C9
100
AcDbEntity
  8
Screw
 62
     7
370
     9
100
AcDbLine
 10
-0.0825000000013461
 20
-0.1610432348772974
 30
0.0
 11
-0.0600000000014234
 21
-0.1740336159341496
 31
0.0
  0
LINE
  5
E0
330
C9
100
AcDbEntity
  8
Screw
 62
     7
370
     9
100
AcDbLine
 10
-0.0825000000013461
 20
-0.1610432348772974
 30
0.0
 11
-0.0600000000014234
 21
-0.148052853820559
 31
0.0
  0
LINE
  5
E1
330
C9
100
AcDbEntity
  8
Screw
 62
     7
370
     9
100
AcDbLine
 10
-0.0600000000014234
 20
-0.2398229909339307
 30
0.0
 11
-0.0600000000014234
 21
-0.2796316038203486
 31
0.0
  0
LINE
  5
E2
330
C9
100
AcDbEntity
  8
Screw
 62
     7
370
     9
100
AcDbLine
 10
-0.0600000000014234
 20
-0.1740336159338085
 30
0.0
 11
-0.0600000000014234
 21
-0.2138422288204538
 31
0.0
  0
LINE
  5
E3
330
C9
100
AcDbEntity
  8
Screw
 62
     7
370
     9
100
AcDbLine
 10
0.0599999999986949
 20
-0.1452779950731156
 30
0.0
 11
0.0599999999986949
 21
-0.1850866079597608
 31
0.0
  0
LINE
  5
E4
330
C9
100
AcDbEntity
  8
Screw
 62
     7
370
     9
100
AcDbLine
 10
0.0824999999986176
 20
-0.1322876140164908
 30
0.0
 11
0.0599999999986949
 21
-0.1452779950731156
 31
0.0
  0
LINE
  5
E5
330
C9
100
AcDbEntity
  8
Screw
 62
     7
370
     9
100
AcDbLine
 10
0.0599999999986949
 20
-0.2110673700732377
 30
0.0
 11
0.0599999999986949
 21
-0.2508759829596556
 31
0.0
  0
LINE
  5
E6
330
C9
100
AcDbEntity
  8
Screw
 62
     7
370
     9
100
AcDbLine
 10
0.0824999999986176
 20
-0.1980769890163856
 30
0.0
 11
0.0599999999986949
 21
-0.2110673700732377
 31
0.0
  0
LINE
  5
E7
330
C9
100
AcDbEntity
  8
Screw
 62
     7
370
     9
100
AcDbLine
 10
0.0824999999986176
 20
-0.1980769890163856
 30
0.0
 11
0.0599999999986949
 21
-0.1850866079597608
 31
0.0
  0
LINE
  5
E8
330
C9
100
AcDbEntity
  8
Screw
 62
     7
370
     9
100
AcDbLine
 10
0.0824999999986176
 20
-0.1322876140164908
 30
0.0
 11
-0.0825000000014598
 21
-0.1610432348772974
 31
0.0
  0
LINE
  5
E9
330
C9
100
AcDbEntity
  8
Screw
 62
     7
370
     9
100
AcDbLine
 10
0.0824999999986176
 20
-0.1980769890163856
 30
0.0
 11
-0.0825000000014598
 21
-0.2268326098773059
 31
0.0
  0
LINE
  5
EA
330
C9
100
AcDbEntity
  8
Screw
 62
     7
370
     9
100
AcDbLine
 10
0.0824999999986176
 20
-0.1322876140164908
 30
0.0
 11
0.0599999999986949
 21
-0.1192972329597524
 31
0.0
  0
LINE
  5
EB
330
C9
100
AcDbEntity
  8
Screw
 62
     7
370
     9
100
AcDbLine
 10
-0.0600000000014234
 20
-0.3056123659338255
 30
0.0
 11
-0.0600000000014234
 21
-0.3454209788204707
 31
0.0
  0
LINE
  5
EC
330
C9
100
AcDbEntity
  8
Screw
 62
     7
370
     9
100
AcDbLine
 10
-0.0600000000014234
 20
-0.3714017409339476
 30
0.0
 11
-0.0600000000014234
 21
-0.4112103538203656
 31
0.0
  0
LINE
  5
ED
330
C9
100
AcDbEntity
  8
Screw
 62
     7
370
     9
100
AcDbLine
 10
-0.0600000000014234
 20
-0.4371911159340698
 30
0.0
 11
-0.0600000000014234
 21
-0.4865652155517637
 31
0.0
  0
LINE
  5
EE
330
C9
100
AcDbEntity
  8
Screw
 62
     7
370
     9
100
AcDbLine
 10
-0.0825000000013461
 20
-0.2926219848773144
 30
0.0
 11
-0.0600000000014234
 21
-0.2796316038205759
 31
0.0
  0
LINE
  5
EF
330
C9
100
AcDbEntity
  8
Screw
 62
     7
370
     9
100
AcDbLine
 10
-0.0825000000013461
 20
-0.2926219848773144
 30
0.0
 11
-0.0600000000014234
 21
-0.3056123659341665
 31
0.0
  0
LINE
  5
F0
330
C9
100
AcDbEntity
  8
Screw
 62
     7
370
     9
100
AcDbLine
 10
-0.0825000000013461
 20
-0.4242007348773314
 30
0.0
 11
-0.0600000000014234
 21
-0.4371911159340698
 31
0.0
  0
LINE
  5
F1
330
C9
100
AcDbEntity
  8
Screw
 62
     7
370
     9
100
AcDbLine
 10
-0.0825000000013461
 20
-0.4242007348773314
 30
0.0
 11
-0.0600000000014234
 21
-0.4112103538204793
 31
0.0
  0
LINE
  5
F2
330
C9
100
AcDbEntity
  8
Screw
 62
     7
370
     9
100
AcDbLine
 10
-0.0825000000013461
 20
-0.3584113598774365
 30
0.0
 11
-0.0600000000014234
 21
-0.3714017409340613
 31
0.0
  0
LINE
  5
F3
330
C9
100
AcDbEntity
  8
Screw
 62
     7
370
     9
100
AcDbLine
 10
-0.0825000000013461
 20
-0.3584113598772092
 30
0.0
 11
-0.0600000000014234
 21
-0.3454209788205844
 31
0.0
  0
LINE
  5
F4
330
C9
100
AcDbEntity
  8
Screw
 62
     7
370
     9
100
AcDbLine
 10
0.0599999999986949
 20
-0.4084354950732632
 30
0.0
 11
0.0599999999986949
 21
-0.4482441079596811
 31
0.0
  0
LINE
  5
F5
330
C9
100
AcDbEntity
  8
Screw
 62
     7
370
     9
100
AcDbLine
 10
0.0824999999986176
 20
-0.4612344890165332
 30
0.0
 11
0.0599999999985812
 21
-0.4482441079596811
 31
0.0
  0
LINE
  5
F6
330
C9
100
AcDbEntity
  8
Screw
 62
     7
370
     9
100
AcDbLine
 10
0.0824999999986176
 20
-0.2638663640165078
 30
0.0
 11
0.0599999999986949
 21
-0.2508759829597693
 31
0.0
  0
LINE
  5
F7
330
C9
100
AcDbEntity
  8
Screw
 62
     7
370
     9
100
AcDbLine
 10
0.0824999999986176
 20
-0.3296557390164025
 30
0.0
 11
-0.0825000000014598
 21
-0.3584113598773229
 31
0.0
  0
LINE
  5
F8
330
C9
100
AcDbEntity
  8
Screw
 62
     7
370
     9
100
AcDbLine
 10
0.0824999999986176
 20
-0.3954451140165247
 30
0.0
 11
-0.0825000000014598
 21
-0.4242007348773314
 31
0.0
  0
LINE
  5
F9
330
C9
100
AcDbEntity
  8
Screw
 62
     7
370
     9
100
AcDbLine
 10
0.0824999999986176
 20
-0.2638663640165078
 30
0.0
 11
-0.0825000000014598
 21
-0.2926219848773144
 31
0.0
  0
LINE
  5
FA
330
C9
100
AcDbEntity
  8
Screw
 62
     7
370
     9
100
AcDbLine
 10
0.0824999999986176
 20
-0.3296557390164025
 30
0.0
 11
0.0599999999986949
 21
-0.3166653579597778
 31
0.0
  0
LINE
  5
FB
330
C9
100
AcDbEntity
  8
Screw
 62
     7
370
     9
100
AcDbLine
 10
0.0824999999986176
 20
-0.3296557390164025
 30
0.0
 11
0.0599999999986949
 21
-0.3426461200732547
 31
0.0
  0
LINE
  5
FC
330
C9
100
AcDbEntity
  8
Screw
 62
     7
370
     9
100
AcDbLine
 10
0.0824999999986176
 20
-0.3954451140165247
 30
0.0
 11
0.0599999999985812
 21
-0.3824547329596726
 31
0.0
  0
LINE
  5
FD
330
C9
100
AcDbEntity
  8
Screw
 62
     7
370
     9
100
AcDbLine
 10
0.0824999999986176
 20
-0.3954451140165247
 30
0.0
 11
0.0599999999986949
 21
-0.4084354950732632
 31
0.0
  0
LINE
  5
FE
330
C9
100
AcDbEntity
  8
Screw
 62
     7
370
     9
100
AcDbLine
 10
0.0599999999986949
 20
-0.3426461200732547
 30
0.0
 11
0.0599999999986949
 21
-0.3824547329596726
 31
0.0
  0
LINE
  5
FF
330
C9
100
AcDbEntity
  8
Screw
 62
     7
370
     9
100
AcDbLine
 10
0.0824999999986176
 20
-0.2638663640165078
 30
0.0
 11
0.0599999999986949
 21
-0.2768567450731325
 31
0.0
  0
LINE
  5
100
330
C9
100
AcDbEntity
  8
Screw
 62
     7
370
     9
100
AcDbLine
 10
0.0599999999986949
 20
-0.2768567450731325
 30
0.0
 11
0.0599999999986949
 21
-0.3166653579597778
 31
0.0
  0
LINE
  5
101
330
C9
100
AcDbEntity
  8
Screw
 62
     7
370
     9
100
AcDbLine
 10
-0.0000000000007958
 20
-0.6249999999979537
 30
0.0
 11
0.022931124344268
 21
-0.569639368603248
 31
0.0
  0
LINE
  5
102
330
C9
100
AcDbEntity
  8
Screw
 62
     7
370
     9
100
AcDbLine
 10
0.0824999999985039
 20
-0.4612344890164195
 30
0.0
 11
0.0684796239820571
 21
-0.4531398211491933
 31
0.0
  0
LINE
  5
103
330
C9
100
AcDbEntity
  8
Screw
 62
     7
370
     9
100
AcDbLine
 10
0.0824999999985039
 20
-0.4612344890164195
 30
0.0
 11
0.0632241464038543
 21
-0.4723634082780564
 31
0.0
  0
LINE
  5
104
330
C9
100
AcDbEntity
  8
Screw
 62
     7
370
     9
100
AcDbLine
 10
0.0550146141443975
 20
-0.5253624430695254
 30
0.0
 11
0.0439236020390581
 21
-0.5189590442449799
 31
0.0
  0
LINE
  5
105
330
C9
100
AcDbEntity
  8
Screw
 62
     7
370
     9
100
AcDbLine
 10
0.0550146141443975
 20
-0.5253624430695254
 30
0.0
 11
0.0369515003607148
 21
-0.5357911866749419
 31
0.0
  0
LINE
  5
106
330
C9
100
AcDbEntity
  8
Screw
 62
     7
370
     9
100
AcDbLine
 10
0.0578546239827347
 20
-0.4853265821307105
 30
0.0
 11
0.063224146403968
 21
-0.4723634082781701
 31
0.0
  0
LINE
  5
107
330
C9
100
AcDbEntity
  8
Screw
 62
     7
370
     9
100
AcDbLine
 10
0.0299032260226113
 20
-0.552807226173286
 30
0.0
 11
0.0369515003607148
 21
-0.5357911866749419
 31
0.0
  0
LINE
  5
108
330
C9
100
AcDbEntity
  8
Screw
 62
     7
370
     9
100
AcDbLine
 10
-0.0299032260243166
 20
-0.552807226173286
 30
0.0
 11
-0.049041047168771
 21
-0.5066044388121327
 31
0.0
  0
LINE
  5
109
330
C9
100
AcDbEntity
  8
Screw
 62
     7
370
     9
100
AcDbLine
 10
-0.0409942381297697
 20
-0.5592106249979452
 30
0.0
 11
-0.022931124346087
 21
-0.569639368603248
 31
0.0
  0
LINE
  5
10A
330
C9
100
AcDbEntity
  8
Screw
 62
     7
370
     9
100
AcDbLine
 10
-0.0409942381297697
 20
-0.5592106249979452
 30
0.0
 11
-0.0299032260243166
 21
-0.552807226173286
 31
0.0
  0
LINE
  5
10B
330
C9
100
AcDbEntity
  8
Screw
 62
     7
370
     9
100
AcDbLine
 10
-0.0718750000008868
 20
-0.4934212499979367
 30
0.0
 11
-0.049041047168771
 21
-0.5066044388121327
 31
0.0
  0
LINE
  5
10C
330
C9
100
AcDbEntity
  8
Screw
 62
     7
370
     9
100
AcDbLine
 10
-0.0718750000008868
 20
-0.493421249997823
 30
0.0
 11
-0.0600000000015371
 21
-0.48656521555165
 31
0.0
  0
LINE
  5
10D
330
C9
100
AcDbEntity
  8
Screw
 62
     7
370
     9
100
AcDbLine
 10
-0.0000000000007958
 20
-0.6249999999979537
 30
0.0
 11
-0.022931124346087
 21
-0.569639368603248
 31
0.0
  0
LINE
  5
10E
330
C9
100
AcDbEntity
  8
Screw
 62
     7
370
     9
100
AcDbLine
 10
0.0578546239827347
 20
-0.4853265821307105
 30
0.0
 11
0.0490410471670657
 21
-0.5066044388121327
 31
0.0
  0
LINE
  5
10F
330
C9
100
AcDbEntity
  8
Screw
 62
     7
370
     9
100
AcDbLine
 10
0.0299032260226113
 20
-0.552807226173286
 30
0.0
 11
0.022931124344268
 21
-0.569639368603248
 31
0.0
  0
LINE
  5
110
330
C9
100
AcDbEntity
  8
Screw
 62
     7
370
     9
100
AcDbLine
 10
0.0439236020390581
 20
-0.5189590442449799
 30
0.0
 11
0.0490410471670657
 21
-0.5066044388121327
 31
0.0
  0
LINE
  5
111
330
C9
100
AcDbEntity
  8
Screw
 62
     7
370
     9
100
AcDbLine
 10
0.0824999999987313
 20
-0.4612344890164195
 30
0.0
 11
-0.0718750000008868
 21
-0.493421249997823
 31
0.0
  0
LINE
  5
112
330
C9
100
AcDbEntity
  8
Screw
 62
     7
370
     9
100
AcDbLine
 10
0.0550146141443975
 20
-0.5253624430695254
 30
0.0
 11
-0.0409942381297697
 21
-0.5592106249979452
 31
0.0
  0
LINE
  5
113
330
C9
100
AcDbEntity
  8
Screw
 62
     7
370
     9
100
AcDbLine
 10
-0.1450000000420459
 20
-0.0000000000001137
 30
0.0
 11
0.1449999999986176
 21
0.0000000000001137
 31
0.0
  0
LINE
  5
114
330
C9
100
AcDbEntity
  8
Screw
 62
     7
370
     9
100
AcDbLine
 10
-0.1450000000385216
 20
0.0500000000004093
 30
0.0
 11
0.1449999999986176
 21
0.050000000000523
 31
0.0
  0
ARC
  5
115
330
C9
100
AcDbEntity
  8
Screw
 62
     7
370
     9
100
AcDbCircle
 10
0.1449999999986176
 20
0.0100000000001046
 30
0.0
 40
0.01
100
AcDbArc
 50
270.0
 51
0.0
  0
ARC
  5
116
330
C9
100
AcDbEntity
  8
Screw
 62
     7
370
     9
100
AcDbCircle
 10
-0.1450000000420459
 20
0.0099999999998772
 30
0.0
 40
0.01
100
AcDbArc
 50
179.9999999934667
 51
270.0
  0
LINE
  5
117
330
C9
100
AcDbEntity
  8
Screw
 62
     7
370
     9
100
AcDbLine
 10
-0.0570000000392383
 20
0.1000000000004775
 30
0.0
 11
0.0569999999995616
 21
0.1000000000003638
 31
0.0
  0
ARC
  5
118
330
C9
100
AcDbEntity
  8
Screw
 62
     7
370
     9
100
AcDbCircle
 10
0.1449999999986176
 20
0.0400000000003047
 30
0.0
 40
0.01
100
AcDbArc
 50
0.0
 51
90.0
  0
ARC
  5
119
330
C9
100
AcDbEntity
  8
Screw
 62
     7
370
     9
100
AcDbCircle
 10
-0.1450000000385216
 20
0.040000000000191
 30
0.0
 40
0.01
100
AcDbArc
 50
90.0
 51
179.9999999934862
  0
ARC
  5
11A
330
C9
100
AcDbEntity
  8
Screw
 62
     7
370
     9
100
AcDbCircle
 10
-0.0000000000198952
 20
-0.1142505253642412
 30
0.0
 40
0.2217031520327291
100
AcDbArc
 50
46.77058113432305
 51
75.10191228261263
  0
ARC
  5
11B
330
C9
100
AcDbEntity
  8
Screw
 62
     7
370
     9
100
AcDbCircle
 10
-0.0000000000198952
 20
-0.1142505253642412
 30
0.0
 40
0.2217031520327291
100
AcDbArc
 50
104.8980877173874
 51
133.2294188657414
  0
ENDBLK
  5
11C
330
C9
100
AcDbEntity
  8
0
 62
     5
100
AcDbBlockEnd
  0
BLOCK
  5
152
330
151
100
AcDbEntity
  8
0
 62
     5
100
AcDbBlockBegin
  2
8 X 1.5 FH
 70
     0
 10
0.0
 20
0.0
 30
0.0
  3
8 X 1.5 FH
  1

  0
LINE
  5
153
330
151
100
AcDbEntity
  8
Screw
 62
     7
370
     9
100
AcDbLine
 10
-0.0600000000013097
 20
-0.1430000000001428
 30
0.0
 11
-0.0600000000013097
 21
-0.6283166038209629
 31
0.0
  0
LINE
  5
154
330
151
100
AcDbEntity
  8
Screw
 62
     7
370
     9
100
AcDbLine
 10
-0.0825000000012324
 20
-0.6413069848773603
 30
0.0
 11
-0.0600000000013097
 21
-0.6283166038207355
 31
0.0
  0
LINE
  5
155
330
151
100
AcDbEntity
  8
Screw
 62
     7
370
     9
100
AcDbLine
 10
-0.0825000000012324
 20
-0.6413069848775877
 30
0.0
 11
-0.0600000000013097
 21
-0.6542973659342124
 31
0.0
  0
LINE
  5
156
330
151
100
AcDbEntity
  8
Screw
 62
     7
370
     9
100
AcDbLine
 10
-0.0600000000013097
 20
-0.6542973659340987
 30
0.0
 11
-0.0600000000013097
 21
-0.6941059788205167
 31
0.0
  0
LINE
  5
157
330
151
100
AcDbEntity
  8
Screw
 62
     7
370
     9
100
AcDbLine
 10
0.0599999999989223
 20
-0.1430000000001428
 30
0.0
 11
0.0599999999985812
 21
-0.5995609829597015
 31
0.0
  0
LINE
  5
158
330
151
100
AcDbEntity
  8
Screw
 62
     7
370
     9
100
AcDbLine
 10
0.0599999999988086
 20
-0.6255417450734058
 30
0.0
 11
0.0599999999988086
 21
-0.6653503579598237
 31
0.0
  0
LINE
  5
159
330
151
100
AcDbEntity
  8
Screw
 62
     7
370
     9
100
AcDbLine
 10
0.0824999999987313
 20
-0.6125513640165537
 30
0.0
 11
0.0599999999988086
 21
-0.6255417450734058
 31
0.0
  0
LINE
  5
15A
330
151
100
AcDbEntity
  8
Screw
 62
     7
370
     9
100
AcDbLine
 10
0.0824999999987313
 20
-0.6125513640165537
 30
0.0
 11
0.0599999999988086
 21
-0.5995609829599289
 31
0.0
  0
LINE
  5
15B
330
151
100
AcDbEntity
  8
Screw
 62
     7
370
     9
100
AcDbLine
 10
0.0824999999987313
 20
-0.6125513640165537
 30
0.0
 11
-0.0825000000013461
 21
-0.641306984877474
 31
0.0
  0
LINE
  5
15C
330
151
100
AcDbEntity
  8
Screw
 62
     7
370
     9
100
AcDbLine
 10
0.0550146141445112
 20
-1.400362443069752
 30
0.0
 11
-0.040994238129656
 21
-1.434210624998172
 31
0.0
  0
LINE
  5
15D
330
151
100
AcDbEntity
  8
Screw
 62
     7
370
     9
100
AcDbLine
 10
0.082499999998845
 20
-1.336234489016646
 30
0.0
 11
-0.0718750000007731
 21
-1.36842124999805
 31
0.0
  0
LINE
  5
15E
330
151
100
AcDbEntity
  8
Screw
 62
     7
370
     9
100
AcDbLine
 10
0.0439236020391718
 20
-1.393959044245207
 30
0.0
 11
0.0490410471671794
 21
-1.38160443881236
 31
0.0
  0
LINE
  5
15F
330
151
100
AcDbEntity
  8
Screw
 62
     7
370
     9
100
AcDbLine
 10
0.029903226022725
 20
-1.427807226173513
 30
0.0
 11
0.0229311243443817
 21
-1.444639368603475
 31
0.0
  0
LINE
  5
160
330
151
100
AcDbEntity
  8
Screw
 62
     7
370
     9
100
AcDbLine
 10
0.0578546239828484
 20
-1.360326582130937
 30
0.0
 11
0.0490410471671794
 21
-1.38160443881236
 31
0.0
  0
LINE
  5
161
330
151
100
AcDbEntity
  8
Screw
 62
     7
370
     9
100
AcDbLine
 10
-0.0000000000006821
 20
-1.499999999998181
 30
0.0
 11
-0.0229311243459733
 21
-1.444639368603475
 31
0.0
  0
LINE
  5
162
330
151
100
AcDbEntity
  8
Screw
 62
     7
370
     9
100
AcDbLine
 10
-0.0718750000007731
 20
-1.36842124999805
 30
0.0
 11
-0.0600000000014234
 21
-1.361565215551877
 31
0.0
  0
LINE
  5
163
330
151
100
AcDbEntity
  8
Screw
 62
     7
370
     9
100
AcDbLine
 10
-0.0718750000007731
 20
-1.368421249998164
 30
0.0
 11
-0.0490410471686573
 21
-1.38160443881236
 31
0.0
  0
LINE
  5
164
330
151
100
AcDbEntity
  8
Screw
 62
     7
370
     9
100
AcDbLine
 10
-0.040994238129656
 20
-1.434210624998172
 30
0.0
 11
-0.0299032260242029
 21
-1.427807226173513
 31
0.0
  0
LINE
  5
165
330
151
100
AcDbEntity
  8
Screw
 62
     7
370
     9
100
AcDbLine
 10
-0.040994238129656
 20
-1.434210624998172
 30
0.0
 11
-0.0229311243459733
 21
-1.444639368603475
 31
0.0
  0
LINE
  5
166
330
151
100
AcDbEntity
  8
Screw
 62
     7
370
     9
100
AcDbLine
 10
-0.0299032260242029
 20
-1.427807226173513
 30
0.0
 11
-0.0490410471686573
 21
-1.38160443881236
 31
0.0
  0
LINE
  5
167
330
151
100
AcDbEntity
  8
Screw
 62
     7
370
     9
100
AcDbLine
 10
0.029903226022725
 20
-1.427807226173513
 30
0.0
 11
0.0369515003608285
 21
-1.410791186675169
 31
0.0
  0
LINE
  5
168
330
151
100
AcDbEntity
  8
Screw
 62
     7
370
     9
100
AcDbLine
 10
0.0578546239828484
 20
-1.360326582130937
 30
0.0
 11
0.0632241464040817
 21
-1.347363408278397
 31
0.0
  0
LINE
  5
169
330
151
100
AcDbEntity
  8
Screw
 62
     7
370
     9
100
AcDbLine
 10
0.0550146141445112
 20
-1.400362443069752
 30
0.0
 11
0.0369515003608285
 21
-1.410791186675169
 31
0.0
  0
LINE
  5
16A
330
151
100
AcDbEntity
  8
Screw
 62
     7
370
     9
100
AcDbLine
 10
0.0550146141445112
 20
-1.400362443069752
 30
0.0
 11
0.0439236020391718
 21
-1.393959044245207
 31
0.0
  0
LINE
  5
16B
330
151
100
AcDbEntity
  8
Screw
 62
     7
370
     9
100
AcDbLine
 10
0.0824999999986176
 20
-1.336234489016646
 30
0.0
 11
0.063224146403968
 21
-1.347363408278283
 31
0.0
  0
LINE
  5
16C
330
151
100
AcDbEntity
  8
Screw
 62
     7
370
     9
100
AcDbLine
 10
0.0824999999986176
 20
-1.336234489016646
 30
0.0
 11
0.0684796239821708
 21
-1.32813982114942
 31
0.0
  0
LINE
  5
16D
330
151
100
AcDbEntity
  8
Screw
 62
     7
370
     9
100
AcDbLine
 10
-0.0000000000006821
 20
-1.499999999998181
 30
0.0
 11
0.0229311243443817
 21
-1.444639368603475
 31
0.0
  0
LINE
  5
16E
330
151
100
AcDbEntity
  8
Screw
 62
     7
370
     9
100
AcDbLine
 10
0.0599999999988086
 20
-1.151856745073359
 30
0.0
 11
0.0599999999988086
 21
-1.191665357960005
 31
0.0
  0
LINE
  5
16F
330
151
100
AcDbEntity
  8
Screw
 62
     7
370
     9
100
AcDbLine
 10
0.0824999999987313
 20
-1.138866364016735
 30
0.0
 11
0.0599999999988086
 21
-1.151856745073359
 31
0.0
  0
LINE
  5
170
330
151
100
AcDbEntity
  8
Screw
 62
     7
370
     9
100
AcDbLine
 10
0.0599999999988086
 20
-1.217646120073482
 30
0.0
 11
0.0599999999988086
 21
-1.257454732959899
 31
0.0
  0
LINE
  5
171
330
151
100
AcDbEntity
  8
Screw
 62
     7
370
     9
100
AcDbLine
 10
0.0824999999987313
 20
-1.270445114016752
 30
0.0
 11
0.0599999999988086
 21
-1.28343549507349
 31
0.0
  0
LINE
  5
172
330
151
100
AcDbEntity
  8
Screw
 62
     7
370
     9
100
AcDbLine
 10
0.0824999999987313
 20
-1.270445114016752
 30
0.0
 11
0.0599999999986949
 21
-1.257454732959899
 31
0.0
  0
LINE
  5
173
330
151
100
AcDbEntity
  8
Screw
 62
     7
370
     9
100
AcDbLine
 10
0.0824999999987313
 20
-1.204655739016629
 30
0.0
 11
0.0599999999988086
 21
-1.217646120073482
 31
0.0
  0
LINE
  5
174
330
151
100
AcDbEntity
  8
Screw
 62
     7
370
     9
100
AcDbLine
 10
0.0824999999987313
 20
-1.204655739016629
 30
0.0
 11
0.0599999999988086
 21
-1.191665357960005
 31
0.0
  0
LINE
  5
175
330
151
100
AcDbEntity
  8
Screw
 62
     7
370
     9
100
AcDbLine
 10
0.0824999999987313
 20
-1.138866364016735
 30
0.0
 11
-0.0825000000013461
 21
-1.167621984877541
 31
0.0
  0
LINE
  5
176
330
151
100
AcDbEntity
  8
Screw
 62
     7
370
     9
100
AcDbLine
 10
0.0824999999987313
 20
-1.270445114016752
 30
0.0
 11
-0.0825000000013461
 21
-1.299200734877558
 31
0.0
  0
LINE
  5
177
330
151
100
AcDbEntity
  8
Screw
 62
     7
370
     9
100
AcDbLine
 10
0.0824999999987313
 20
-1.204655739016629
 30
0.0
 11
-0.0825000000013461
 21
-1.23341135987755
 31
0.0
  0
LINE
  5
178
330
151
100
AcDbEntity
  8
Screw
 62
     7
370
     9
100
AcDbLine
 10
0.0824999999987313
 20
-1.138866364016735
 30
0.0
 11
0.0599999999988086
 21
-1.125875982959996
 31
0.0
  0
LINE
  5
179
330
151
100
AcDbEntity
  8
Screw
 62
     7
370
     9
100
AcDbLine
 10
0.0824999999987313
 20
-1.33623448901676
 30
0.0
 11
0.0599999999986949
 21
-1.323244107959908
 31
0.0
  0
LINE
  5
17A
330
151
100
AcDbEntity
  8
Screw
 62
     7
370
     9
100
AcDbLine
 10
0.0599999999988086
 20
-1.28343549507349
 30
0.0
 11
0.0599999999988086
 21
-1.323244107959908
 31
0.0
  0
LINE
  5
17B
330
151
100
AcDbEntity
  8
Screw
 62
     7
370
     9
100
AcDbLine
 10
-0.0825000000012324
 20
-1.233411359877436
 30
0.0
 11
-0.0600000000013097
 21
-1.220420978820811
 31
0.0
  0
LINE
  5
17C
330
151
100
AcDbEntity
  8
Screw
 62
     7
370
     9
100
AcDbLine
 10
-0.0825000000012324
 20
-1.233411359877663
 30
0.0
 11
-0.0600000000013097
 21
-1.246401740934288
 31
0.0
  0
LINE
  5
17D
330
151
100
AcDbEntity
  8
Screw
 62
     7
370
     9
100
AcDbLine
 10
-0.0825000000012324
 20
-1.299200734877558
 30
0.0
 11
-0.0600000000013097
 21
-1.286210353820706
 31
0.0
  0
LINE
  5
17E
330
151
100
AcDbEntity
  8
Screw
 62
     7
370
     9
100
AcDbLine
 10
-0.0825000000012324
 20
-1.299200734877558
 30
0.0
 11
-0.0600000000013097
 21
-1.312191115934297
 31
0.0
  0
LINE
  5
17F
330
151
100
AcDbEntity
  8
Screw
 62
     7
370
     9
100
AcDbLine
 10
-0.0825000000012324
 20
-1.167621984877541
 30
0.0
 11
-0.0600000000013097
 21
-1.180612365934393
 31
0.0
  0
LINE
  5
180
330
151
100
AcDbEntity
  8
Screw
 62
     7
370
     9
100
AcDbLine
 10
-0.0825000000012324
 20
-1.167621984877541
 30
0.0
 11
-0.0600000000013097
 21
-1.154631603820803
 31
0.0
  0
LINE
  5
181
330
151
100
AcDbEntity
  8
Screw
 62
     7
370
     9
100
AcDbLine
 10
-0.0600000000013097
 20
-1.312191115934297
 30
0.0
 11
-0.0600000000013097
 21
-1.361565215551991
 31
0.0
  0
LINE
  5
182
330
151
100
AcDbEntity
  8
Screw
 62
     7
370
     9
100
AcDbLine
 10
-0.0600000000013097
 20
-1.246401740934174
 30
0.0
 11
-0.0600000000013097
 21
-1.286210353820592
 31
0.0
  0
LINE
  5
183
330
151
100
AcDbEntity
  8
Screw
 62
     7
370
     9
100
AcDbLine
 10
-0.0600000000013097
 20
-1.180612365934052
 30
0.0
 11
-0.0600000000013097
 21
-1.220420978820698
 31
0.0
  0
LINE
  5
184
330
151
100
AcDbEntity
  8
Screw
 62
     7
370
     9
100
AcDbLine
 10
0.0824999999987313
 20
-1.007287614016718
 30
0.0
 11
0.0599999999988086
 21
-0.9942972329599797
 31
0.0
  0
LINE
  5
185
330
151
100
AcDbEntity
  8
Screw
 62
     7
370
     9
100
AcDbLine
 10
0.0824999999987313
 20
-1.073076989016612
 30
0.0
 11
-0.0825000000013461
 21
-1.101832609877533
 31
0.0
  0
LINE
  5
186
330
151
100
AcDbEntity
  8
Screw
 62
     7
370
     9
100
AcDbLine
 10
0.0824999999987313
 20
-1.007287614016718
 30
0.0
 11
-0.0825000000013461
 21
-1.036043234877524
 31
0.0
  0
LINE
  5
187
330
151
100
AcDbEntity
  8
Screw
 62
     7
370
     9
100
AcDbLine
 10
0.0824999999987313
 20
-1.073076989016612
 30
0.0
 11
0.0599999999988086
 21
-1.060086607959988
 31
0.0
  0
LINE
  5
188
330
151
100
AcDbEntity
  8
Screw
 62
     7
370
     9
100
AcDbLine
 10
0.0824999999987313
 20
-1.073076989016612
 30
0.0
 11
0.0599999999988086
 21
-1.086067370073465
 31
0.0
  0
LINE
  5
189
330
151
100
AcDbEntity
  8
Screw
 62
     7
370
     9
100
AcDbLine
 10
0.0599999999988086
 20
-1.086067370073465
 30
0.0
 11
0.0599999999988086
 21
-1.125875982959883
 31
0.0
  0
LINE
  5
18A
330
151
100
AcDbEntity
  8
Screw
 62
     7
370
     9
100
AcDbLine
 10
0.0824999999987313
 20
-1.007287614016718
 30
0.0
 11
0.0599999999988086
 21
-1.020277995073342
 31
0.0
  0
LINE
  5
18B
330
151
100
AcDbEntity
  8
Screw
 62
     7
370
     9
100
AcDbLine
 10
0.0599999999988086
 20
-1.020277995073342
 30
0.0
 11
0.0599999999988086
 21
-1.060086607959988
 31
0.0
  0
LINE
  5
18C
330
151
100
AcDbEntity
  8
Screw
 62
     7
370
     9
100
AcDbLine
 10
-0.0600000000013097
 20
-1.049033615934035
 30
0.0
 11
-0.0600000000013097
 21
-1.088842228820681
 31
0.0
  0
LINE
  5
18D
330
151
100
AcDbEntity
  8
Screw
 62
     7
370
     9
100
AcDbLine
 10
-0.0600000000013097
 20
-1.114822990934158
 30
0.0
 11
-0.0600000000013097
 21
-1.154631603820575
 31
0.0
  0
LINE
  5
18E
330
151
100
AcDbEntity
  8
Screw
 62
     7
370
     9
100
AcDbLine
 10
-0.0825000000012324
 20
-1.036043234877524
 30
0.0
 11
-0.0600000000013097
 21
-1.023052853820786
 31
0.0
  0
LINE
  5
18F
330
151
100
AcDbEntity
  8
Screw
 62
     7
370
     9
100
AcDbLine
 10
-0.0825000000012324
 20
-1.036043234877524
 30
0.0
 11
-0.0600000000013097
 21
-1.049033615934376
 31
0.0
  0
LINE
  5
190
330
151
100
AcDbEntity
  8
Screw
 62
     7
370
     9
100
AcDbLine
 10
-0.0825000000012324
 20
-1.101832609877646
 30
0.0
 11
-0.0600000000013097
 21
-1.114822990934271
 31
0.0
  0
LINE
  5
191
330
151
100
AcDbEntity
  8
Screw
 62
     7
370
     9
100
AcDbLine
 10
-0.0825000000012324
 20
-1.101832609877419
 30
0.0
 11
-0.0600000000013097
 21
-1.088842228820794
 31
0.0
  0
LINE
  5
192
330
151
100
AcDbEntity
  8
Screw
 62
     7
370
     9
100
AcDbLine
 10
0.0599999999988086
 20
-0.9544886200734481
 30
0.0
 11
0.0599999999988086
 21
-0.994297232959866
 31
0.0
  0
LINE
  5
193
330
151
100
AcDbEntity
  8
Screw
 62
     7
370
     9
100
AcDbLine
 10
-0.0600000000013097
 20
-0.983244240934141
 30
0.0
 11
-0.0600000000013097
 21
-1.023052853820558
 31
0.0
  0
LINE
  5
194
330
151
100
AcDbEntity
  8
Screw
 62
     7
370
     9
100
AcDbLine
 10
-0.0825000000012324
 20
-0.8386751098773856
 30
0.0
 11
-0.0600000000013097
 21
-0.8256847288207609
 31
0.0
  0
LINE
  5
195
330
151
100
AcDbEntity
  8
Screw
 62
     7
370
     9
100
AcDbLine
 10
-0.0825000000012324
 20
-0.838675109877613
 30
0.0
 11
-0.0600000000013097
 21
-0.8516654909342378
 31
0.0
  0
LINE
  5
196
330
151
100
AcDbEntity
  8
Screw
 62
     7
370
     9
100
AcDbLine
 10
-0.0825000000012324
 20
-0.7728857348774909
 30
0.0
 11
-0.0600000000013097
 21
-0.7858761159343431
 31
0.0
  0
LINE
  5
197
330
151
100
AcDbEntity
  8
Screw
 62
     7
370
     9
100
AcDbLine
 10
-0.0825000000012324
 20
-0.7728857348774909
 30
0.0
 11
-0.0600000000013097
 21
-0.7598953538207525
 31
0.0
  0
LINE
  5
198
330
151
100
AcDbEntity
  8
Screw
 62
     7
370
     9
100
AcDbLine
 10
-0.0600000000013097
 20
-0.8516654909341241
 30
0.0
 11
-0.0600000000013097
 21
-0.891474103820542
 31
0.0
  0
LINE
  5
199
330
151
100
AcDbEntity
  8
Screw
 62
     7
370
     9
100
AcDbLine
 10
-0.0600000000013097
 20
-0.785876115934002
 30
0.0
 11
-0.0600000000013097
 21
-0.8256847288206472
 31
0.0
  0
LINE
  5
19A
330
151
100
AcDbEntity
  8
Screw
 62
     7
370
     9
100
AcDbLine
 10
0.0599999999988086
 20
-0.7571204950733091
 30
0.0
 11
0.0599999999988086
 21
-0.7969291079599543
 31
0.0
  0
LINE
  5
19B
330
151
100
AcDbEntity
  8
Screw
 62
     7
370
     9
100
AcDbLine
 10
0.0824999999987313
 20
-0.7441301140166843
 30
0.0
 11
0.0599999999988086
 21
-0.7571204950733091
 31
0.0
  0
LINE
  5
19C
330
151
100
AcDbEntity
  8
Screw
 62
     7
370
     9
100
AcDbLine
 10
0.0599999999988086
 20
-0.8229098700734311
 30
0.0
 11
0.0599999999988086
 21
-0.862718482959849
 31
0.0
  0
LINE
  5
19D
330
151
100
AcDbEntity
  8
Screw
 62
     7
370
     9
100
AcDbLine
 10
0.0824999999987313
 20
-0.809919489016579
 30
0.0
 11
0.0599999999988086
 21
-0.8229098700734311
 31
0.0
  0
LINE
  5
19E
330
151
100
AcDbEntity
  8
Screw
 62
     7
370
     9
100
AcDbLine
 10
0.0824999999987313
 20
-0.809919489016579
 30
0.0
 11
0.0599999999988086
 21
-0.7969291079599543
 31
0.0
  0
LINE
  5
19F
330
151
100
AcDbEntity
  8
Screw
 62
     7
370
     9
100
AcDbLine
 10
0.0824999999987313
 20
-0.7441301140166843
 30
0.0
 11
-0.0825000000013461
 21
-0.7728857348774909
 31
0.0
  0
LINE
  5
1A0
330
151
100
AcDbEntity
  8
Screw
 62
     7
370
     9
100
AcDbLine
 10
0.0824999999987313
 20
-0.809919489016579
 30
0.0
 11
-0.0825000000013461
 21
-0.8386751098774993
 31
0.0
  0
LINE
  5
1A1
330
151
100
AcDbEntity
  8
Screw
 62
     7
370
     9
100
AcDbLine
 10
0.0824999999987313
 20
-0.7441301140166843
 30
0.0
 11
0.0599999999988086
 21
-0.7311397329599459
 31
0.0
  0
LINE
  5
1A2
330
151
100
AcDbEntity
  8
Screw
 62
     7
370
     9
100
AcDbLine
 10
-0.0600000000013097
 20
-0.9174548659340189
 30
0.0
 11
-0.0600000000013097
 21
-0.9572634788206642
 31
0.0
  0
LINE
  5
1A3
330
151
100
AcDbEntity
  8
Screw
 62
     7
370
     9
100
AcDbLine
 10
-0.0825000000012324
 20
-0.9044644848775078
 30
0.0
 11
-0.0600000000013097
 21
-0.8914741038207694
 31
0.0
  0
LINE
  5
1A4
330
151
100
AcDbEntity
  8
Screw
 62
     7
370
     9
100
AcDbLine
 10
-0.0825000000012324
 20
-0.9044644848775078
 30
0.0
 11
-0.0600000000013097
 21
-0.9174548659343599
 31
0.0
  0
LINE
  5
1A5
330
151
100
AcDbEntity
  8
Screw
 62
     7
370
     9
100
AcDbLine
 10
-0.0825000000012324
 20
-0.97025385987763
 30
0.0
 11
-0.0600000000013097
 21
-0.9832442409342547
 31
0.0
  0
LINE
  5
1A6
330
151
100
AcDbEntity
  8
Screw
 62
     7
370
     9
100
AcDbLine
 10
-0.0825000000012324
 20
-0.9702538598774026
 30
0.0
 11
-0.0600000000013097
 21
-0.9572634788207778
 31
0.0
  0
LINE
  5
1A7
330
151
100
AcDbEntity
  8
Screw
 62
     7
370
     9
100
AcDbLine
 10
0.0824999999987313
 20
-0.8757088640167012
 30
0.0
 11
0.0599999999988086
 21
-0.8627184829599627
 31
0.0
  0
LINE
  5
1A8
330
151
100
AcDbEntity
  8
Screw
 62
     7
370
     9
100
AcDbLine
 10
0.0824999999987313
 20
-0.941498239016596
 30
0.0
 11
-0.0825000000013461
 21
-0.9702538598775163
 31
0.0
  0
LINE
  5
1A9
330
151
100
AcDbEntity
  8
Screw
 62
     7
370
     9
100
AcDbLine
 10
0.0824999999987313
 20
-0.8757088640167012
 30
0.0
 11
-0.0825000000013461
 21
-0.9044644848775078
 31
0.0
  0
LINE
  5
1AA
330
151
100
AcDbEntity
  8
Screw
 62
     7
370
     9
100
AcDbLine
 10
0.0824999999987313
 20
-0.941498239016596
 30
0.0
 11
0.0599999999988086
 21
-0.9285078579599712
 31
0.0
  0
LINE
  5
1AB
330
151
100
AcDbEntity
  8
Screw
 62
     7
370
     9
100
AcDbLine
 10
0.0824999999987313
 20
-0.941498239016596
 30
0.0
 11
0.0599999999988086
 21
-0.9544886200734481
 31
0.0
  0
LINE
  5
1AC
330
151
100
AcDbEntity
  8
Screw
 62
     7
370
     9
100
AcDbLine
 10
0.0824999999987313
 20
-0.8757088640167012
 30
0.0
 11
0.0599999999988086
 21
-0.8886992450733259
 31
0.0
  0
LINE
  5
1AD
330
151
100
AcDbEntity
  8
Screw
 62
     7
370
     9
100
AcDbLine
 10
0.0599999999988086
 20
-0.8886992450733259
 30
0.0
 11
0.0599999999988086
 21
-0.9285078579599712
 31
0.0
  0
LINE
  5
1AE
330
151
100
AcDbEntity
  8
Screw
 62
     7
370
     9
100
AcDbLine
 10
-0.1550000000002001
 20
0.0000000000001137
 30
0.0
 11
-0.1550000000020191
 21
-0.015999999999849
 31
0.0
  0
LINE
  5
1AF
330
151
100
AcDbEntity
  8
Screw
 62
     7
370
     9
100
AcDbLine
 10
0.1549999999986085
 20
0.0
 30
0.0
 11
0.1549999999986085
 21
-0.0159999999999627
 31
0.0
  0
LINE
  5
1B0
330
151
100
AcDbEntity
  8
Screw
 62
     7
370
     9
100
AcDbLine
 10
0.1549999999987222
 20
-0.0160000000006448
 30
0.0
 11
-0.155000000001337
 21
-0.0159999999999627
 31
0.0
  0
LINE
  5
1B1
330
151
100
AcDbEntity
  8
Screw
 62
     7
370
     9
100
AcDbLine
 10
0.1549999999987222
 20
0.0
 30
0.0
 11
-0.155000000001337
 21
0.0
 31
0.0
  0
LINE
  5
1B2
330
151
100
AcDbEntity
  8
Screw
 62
     7
370
     9
100
AcDbLine
 10
0.0599999999989223
 20
-0.1430000000000291
 30
0.0
 11
-0.0600000000013097
 21
-0.1430000000000291
 31
0.0
  0
LINE
  5
1B3
330
151
100
AcDbEntity
  8
Screw
 62
     7
370
     9
100
AcDbLine
 10
0.1549999999986085
 20
-0.0160000000006448
 30
0.0
 11
0.0599999999988086
 21
-0.1430000000001428
 31
0.0
  0
LINE
  5
1B4
330
151
100
AcDbEntity
  8
Screw
 62
     7
370
     9
100
AcDbLine
 10
-0.1550000000020191
 20
-0.0159999999999627
 30
0.0
 11
-0.0600000000013097
 21
-0.1430000000001428
 31
0.0
  0
LINE
  5
1B5
330
151
100
AcDbEntity
  8
Screw
 62
     7
370
     9
100
AcDbLine
 10
0.0824999999987313
 20
-0.6783407390166758
 30
0.0
 11
0.0599999999988086
 21
-0.6653503579599374
 31
0.0
  0
LINE
  5
1B6
330
151
100
AcDbEntity
  8
Screw
 62
     7
370
     9
100
AcDbLine
 10
0.0824999999987313
 20
-0.6783407390166758
 30
0.0
 11
-0.0825000000013461
 21
-0.7070963598774825
 31
0.0
  0
LINE
  5
1B7
330
151
100
AcDbEntity
  8
Screw
 62
     7
370
     9
100
AcDbLine
 10
0.0824999999987313
 20
-0.6783407390166758
 30
0.0
 11
0.0599999999988086
 21
-0.6913311200733006
 31
0.0
  0
LINE
  5
1B8
330
151
100
AcDbEntity
  8
Screw
 62
     7
370
     9
100
AcDbLine
 10
0.0599999999988086
 20
-0.6913311200733006
 30
0.0
 11
0.0599999999988086
 21
-0.7311397329599459
 31
0.0
  0
LINE
  5
1B9
330
151
100
AcDbEntity
  8
Screw
 62
     7
370
     9
100
AcDbLine
 10
-0.0600000000013097
 20
-0.7200867409339935
 30
0.0
 11
-0.0600000000013097
 21
-0.7598953538206388
 31
0.0
  0
LINE
  5
1BA
330
151
100
AcDbEntity
  8
Screw
 62
     7
370
     9
100
AcDbLine
 10
-0.0825000000012324
 20
-0.7070963598774825
 30
0.0
 11
-0.0600000000013097
 21
-0.694105978820744
 31
0.0
  0
LINE
  5
1BB
330
151
100
AcDbEntity
  8
Screw
 62
     7
370
     9
100
AcDbLine
 10
-0.0825000000012324
 20
-0.7070963598774825
 30
0.0
 11
-0.0600000000013097
 21
-0.7200867409343346
 31
0.0
  0
LINE
  5
1BC
330
151
100
AcDbEntity
  8
Screw
  6
CENTER
 62
     7
370
     9
100
AcDbLine
 10
0.0
 20
0.0516137131638743
 30
0.0
 11
0.0
 21
-1.551211668604537
 31
0.0
  0
ENDBLK
  5
1BD
330
151
100
AcDbEntity
  8
0
 62
     5
100
AcDbBlockEnd
  0
BLOCK
  5
1FF
330
1FE
100
AcDbEntity
  8
0
100
AcDbBlockBegin
  2
*D4
 70
     1
 10
0.0
 20
0.0
 30
0.0
  3
*D4
  1

  0
LINE
  5
200
330
1FE
100
AcDbEntity
  8
0
 62
     0
370
    -2
100
AcDbLine
 10
13.11966475704414
 20
53.39450293231506
 30
0.0
 11
11.58155224383617
 21
53.39450293231506
 31
0.0
  0
LINE
  5
201
330
1FE
100
AcDbEntity
  8
0
 62
     0
370
    -2
100
AcDbLine
 10
13.50790983127754
 20
60.77000293231503
 30
0.0
 11
11.58155224383617
 21
60.77000293231503
 31
0.0
  0
LINE
  5
202
330
1FE
100
AcDbEntity
  8
0
 62
     0
370
    -2
100
AcDbLine
 10
11.61155224383617
 20
53.39450293231506
 30
0.0
 11
11.61155224383617
 21
56.6600160459667
 31
0.0
  0
LINE
  5
203
330
1FE
100
AcDbEntity
  8
0
 62
     0
370
    -2
100
AcDbLine
 10
11.61155224383617
 20
60.77000293231503
 30
0.0
 11
11.61155224383617
 21
57.5044898186634
 31
0.0
  0
INSERT
  5
204
330
1FE
100
AcDbEntity
  8
0
 62
     0
370
    -2
100
AcDbBlockReference
  2
_ArchTick
 10
11.61155224383617
 20
53.39450293231506
 30
0.0
 41
0.156
 42
0.156
 43
0.156
 50
270.0
  0
INSERT
  5
205
330
1FE
100
AcDbEntity
  8
0
 62
     0
370
    -2
100
AcDbBlockReference
  2
_ArchTick
 10
11.61155224383617
 20
60.77000293231503
 30
0.0
 41
0.156
 42
0.156
 43
0.156
 50
90.0
  0
MTEXT
  5
206
330
1FE
100
AcDbEntity
  8
0
 62
     0
100
AcDbMText
 10
11.61155224383616
 20
57.28459741785641
 30
0.0
 40
0.3125
 41
0.0
 71
     5
 72
     1
  1
\A1;7 3/8"
 73
     1
 44
1.0
1001
ACAD
1000
MTEXTBEGIN
1070
    73
1070
     1
1070
    44
1040
1.0
1070
    74
1070
     0
1000
MTEXTEND
  0
MTEXT
  5
207
330
1FE
100
AcDbEntity
  8
0
 62
     0
100
AcDbMText
 10
11.61155224383616
 20
56.86236053150806
 30
0.0
 40
0.3125
 41
0.0
 71
     5
 72
     1
  1
\A1;[187mm]
 73
     1
 44
1.0
1001
ACAD
1000
MTEXTBEGIN
1070
    73
1070
     1
1070
    44
1040
1.0
1070
    74
1070
     0
1000
MTEXTEND
  0
POINT
  5
208
330
1FE
100
AcDbEntity
  8
Defpoints
 62
     0
100
AcDbPoint
 10
13.15966475704414
 20
53.39450293231506
 30
0.0
  0
POINT
  5
20A
330
1FE
100
AcDbEntity
  8
Defpoints
 62
     0
100
AcDbPoint
 10
13.54790983127754
 20
60.77000293231503
 30
0.0
  0
POINT
  5
20B
330
1FE
100
AcDbEntity
  8
Defpoints
 62
     0
100
AcDbPoint
 10
11.61155224383617
 20
60.77000293231503
 30
0.0
  0
ENDBLK
  5
20C
330
1FE
100
AcDbEntity
  8
0
100
AcDbBlockEnd
  0
BLOCK
  5
211
330
210
100
AcDbEntity
  8
0
100
AcDbBlockBegin
  2
*D5
 70
     1
 10
0.0
 20
0.0
 30
0.0
  3
*D5
  1

  0
LINE
  5
212
330
210
100
AcDbEntity
  8
0
 62
     0
370
    -2
100
AcDbLine
 10
12.15154569126249
 20
52.08200293231506
 30
0.0
 11
11.58155224383617
 21
52.08200293231506
 31
0.0
  0
LINE
  5
213
330
210
100
AcDbEntity
  8
0
 62
     0
370
    -2
100
AcDbLine
 10
13.11966475704414
 20
53.39450293231506
 30
0.0
 11
11.58155224383617
 21
53.39450293231506
 31
0.0
  0
LINE
  5
214
330
210
100
AcDbEntity
  8
0
 62
     0
370
    -2
100
AcDbLine
 10
11.61155224383617
 20
52.08200293231506
 30
0.0
 11
11.61155224383617
 21
52.31601604596671
 31
0.0
  0
LINE
  5
215
330
210
100
AcDbEntity
  8
0
 62
     0
370
    -2
100
AcDbLine
 10
11.61155224383617
 20
53.39450293231506
 30
0.0
 11
11.61155224383617
 21
53.16048981866341
 31
0.0
  0
INSERT
  5
216
330
210
100
AcDbEntity
  8
0
 62
     0
370
    -2
100
AcDbBlockReference
  2
_ArchTick
 10
11.61155224383617
 20
52.08200293231506
 30
0.0
 41
0.156
 42
0.156
 43
0.156
 50
270.0
  0
INSERT
  5
217
330
210
100
AcDbEntity
  8
0
 62
     0
370
    -2
100
AcDbBlockReference
  2
_ArchTick
 10
11.61155224383617
 20
53.39450293231506
 30
0.0
 41
0.156
 42
0.156
 43
0.156
 50
90.0
  0
MTEXT
  5
218
330
210
100
AcDbEntity
  8
0
 62
     0
100
AcDbMText
 10
11.61155224383616
 20
52.94059741785642
 30
0.0
 40
0.3125
 41
0.0
 71
     5
 72
     1
  1
\A1;1 5/16"
 73
     1
 44
1.0
1001
ACAD
1000
MTEXTBEGIN
1070
    73
1070
     1
1070
    44
1040
1.0
1070
    74
1070
     0
1000
MTEXTEND
  0
MTEXT
  5
219
330
210
100
AcDbEntity
  8
0
 62
     0
100
AcDbMText
 10
11.61155224383616
 20
52.51836053150807
 30
0.0
 40
0.3125
 41
0.0
 71
     5
 72
     1
  1
\A1;[33mm]
 73
     1
 44
1.0
1001
ACAD
1000
MTEXTBEGIN
1070
    73
1070
     1
1070
    44
1040
1.0
1070
    74
1070
     0
1000
MTEXTEND
  0
POINT
  5
21A
330
210
100
AcDbEntity
  8
Defpoints
 62
     0
100
AcDbPoint
 10
12.19154569126249
 20
52.08200293231506
 30
0.0
  0
POINT
  5
21B
330
210
100
AcDbEntity
  8
Defpoints
 62
     0
100
AcDbPoint
 10
13.15966475704414
 20
53.39450293231506
 30
0.0
  0
POINT
  5
21C
330
210
100
AcDbEntity
  8
Defpoints
 62
     0
100
AcDbPoint
 10
11.61155224383617
 20
53.39450293231506
 30
0.0
  0
ENDBLK
  5
21D
330
210
100
AcDbEntity
  8
0
100
AcDbBlockEnd
  0
BLOCK
  5
220
330
21F
100
AcDbEntity
  8
0
100
AcDbBlockBegin
  2
*D6
 70
     1
 10
0.0
 20
0.0
 30
0.0
  3
*D6
  1

  0
LINE
  5
221
330
21F
100
AcDbEntity
  8
0
 62
     0
370
    -2
100
AcDbLine
 10
12.15154569126249
 20
52.08200293231506
 30
0.0
 11
10.31150566685235
 21
52.08200293231506
 31
0.0
  0
LINE
  5
222
330
21F
100
AcDbEntity
  8
0
 62
     0
370
    -2
100
AcDbLine
 10
13.50790983127754
 20
60.77000293231503
 30
0.0
 11
10.31150566685235
 21
60.77000293231503
 31
0.0
  0
LINE
  5
223
330
21F
100
AcDbEntity
  8
0
 62
     0
370
    -2
100
AcDbLine
 10
10.34150566685235
 20
52.08200293231506
 30
0.0
 11
10.34150566685235
 21
55.53890455288494
 31
0.0
  0
LINE
  5
224
330
21F
100
AcDbEntity
  8
0
 62
     0
370
    -2
100
AcDbLine
 10
10.34150566685235
 20
60.77000293231503
 30
0.0
 11
10.34150566685235
 21
56.50561717337362
 31
0.0
  0
INSERT
  5
225
330
21F
100
AcDbEntity
  8
0
 62
     0
370
    -2
100
AcDbBlockReference
  2
_ArchTick
 10
10.34150566685235
 20
52.08200293231506
 30
0.0
 41
0.156
 42
0.156
 43
0.156
 50
270.0
  0
INSERT
  5
226
330
21F
100
AcDbEntity
  8
0
 62
     0
370
    -2
100
AcDbBlockReference
  2
_ArchTick
 10
10.34150566685235
 20
60.77000293231503
 30
0.0
 41
0.156
 42
0.156
 43
0.156
 50
90.0
  0
MTEXT
  5
227
330
21F
100
AcDbEntity
  8
0
 62
     0
100
AcDbMText
 10
10.34150566685234
 20
56.02226086312928
 30
0.0
 40
0.3125
 41
0.0
 71
     5
 72
     1
  1
\A1;8 11/16"\P [221mm]
 73
     1
 44
1.0
1001
ACAD
1000
MTEXTBEGIN
1070
    73
1070
     1
1070
    44
1040
1.0
1070
    74
1070
     0
1000
MTEXTEND
  0
POINT
  5
228
330
21F
100
AcDbEntity
  8
Defpoints
 62
     0
100
AcDbPoint
 10
12.19154569126249
 20
52.08200293231506
 30
0.0
  0
POINT
  5
229
330
21F
100
AcDbEntity
  8
Defpoints
 62
     0
100
AcDbPoint
 10
13.54790983127754
 20
60.77000293231503
 30
0.0
  0
POINT
  5
22A
330
21F
100
AcDbEntity
  8
Defpoints
 62
     0
100
AcDbPoint
 10
10.34150566685235
 20
60.77000293231503
 30
0.0
  0
ENDBLK
  5
22B
330
21F
100
AcDbEntity
  8
0
100
AcDbBlockEnd
  0
BLOCK
  5
230
330
22F
100
AcDbEntity
  8
0
100
AcDbBlockBegin
  2
*D7
 70
     1
 10
0.0
 20
0.0
 30
0.0
  3
*D7
  1

  0
LINE
  5
231
330
22F
100
AcDbEntity
  8
0
 62
     0
370
    -2
100
AcDbLine
 10
13.5079098312776
 20
66.1450423613751
 30
0.0
 11
11.58155224383617
 21
66.1450423613751
 31
0.0
  0
LINE
  5
232
330
22F
100
AcDbEntity
  8
0
 62
     0
370
    -2
100
AcDbLine
 10
13.18166475704415
 20
70.73737505414645
 30
0.0
 11
11.58155224383617
 21
70.73737505414645
 31
0.0
  0
LINE
  5
233
330
22F
100
AcDbEntity
  8
0
 62
     0
370
    -2
100
AcDbLine
 10
11.61155224383617
 20
66.1450423613751
 30
0.0
 11
11.61155224383617
 21
68.01897182141242
 31
0.0
  0
LINE
  5
234
330
22F
100
AcDbEntity
  8
0
 62
     0
370
    -2
100
AcDbLine
 10
11.61155224383617
 20
70.73737505414645
 30
0.0
 11
11.61155224383617
 21
68.86344559410914
 31
0.0
  0
INSERT
  5
235
330
22F
100
AcDbEntity
  8
0
 62
     0
370
    -2
100
AcDbBlockReference
  2
_ArchTick
 10
11.61155224383617
 20
66.1450423613751
 30
0.0
 41
0.156
 42
0.156
 43
0.156
 50
270.0
  0
INSERT
  5
236
330
22F
100
AcDbEntity
  8
0
 62
     0
370
    -2
100
AcDbBlockReference
  2
_ArchTick
 10
11.61155224383617
 20
70.73737505414645
 30
0.0
 41
0.156
 42
0.156
 43
0.156
 50
90.0
  0
MTEXT
  5
237
330
22F
100
AcDbEntity
  8
0
 62
     0
100
AcDbMText
 10
11.61155224383616
 20
68.64355319330214
 30
0.0
 40
0.3125
 41
0.0
 71
     5
 72
     1
  1
\A1;4 19/32"
 73
     1
 44
1.0
1001
ACAD
1000
MTEXTBEGIN
1070
    73
1070
     1
1070
    44
1040
1.0
1070
    74
1070
     0
1000
MTEXTEND
  0
MTEXT
  5
238
330
22F
100
AcDbEntity
  8
0
 62
     0
100
AcDbMText
 10
11.61155224383616
 20
68.22131630695378
 30
0.0
 40
0.3125
 41
0.0
 71
     5
 72
     1
  1
\A1;[117mm]
 73
     1
 44
1.0
1001
ACAD
1000
MTEXTBEGIN
1070
    73
1070
     1
1070
    44
1040
1.0
1070
    74
1070
     0
1000
MTEXTEND
  0
POINT
  5
239
330
22F
100
AcDbEntity
  8
Defpoints
 62
     0
100
AcDbPoint
 10
13.5479098312776
 20
66.1450423613751
 30
0.0
  0
POINT
  5
23A
330
22F
100
AcDbEntity
  8
Defpoints
 62
     0
100
AcDbPoint
 10
13.22166475704415
 20
70.73737505414645
 30
0.0
  0
POINT
  5
23B
330
22F
100
AcDbEntity
  8
Defpoints
 62
     0
100
AcDbPoint
 10
11.61155224383617
 20
70.73737505414645
 30
0.0
  0
ENDBLK
  5
23C
330
22F
100
AcDbEntity
  8
0
100
AcDbBlockEnd
  0
BLOCK
  5
23F
330
23E
100
AcDbEntity
  8
0
100
AcDbBlockBegin
  2
*D8
 70
     1
 10
0.0
 20
0.0
 30
0.0
  3
*D8
  1

  0
LINE
  5
240
330
23E
100
AcDbEntity
  8
0
 62
     0
370
    -2
100
AcDbLine
 10
12.18066475704417
 20
71.5503805866518
 30
0.0
 11
10.31150566685236
 21
71.5503805866518
 31
0.0
  0
LINE
  5
241
330
23E
100
AcDbEntity
  8
0
 62
     0
370
    -2
100
AcDbLine
 10
13.5079098312776
 20
66.1450423613751
 30
0.0
 11
10.31150566685236
 21
66.1450423613751
 31
0.0
  0
LINE
  5
242
330
23E
100
AcDbEntity
  8
0
 62
     0
370
    -2
100
AcDbLine
 10
10.34150566685236
 20
71.5503805866518
 30
0.0
 11
10.34150566685236
 21
69.26994836036181
 31
0.0
  0
LINE
  5
243
330
23E
100
AcDbEntity
  8
0
 62
     0
370
    -2
100
AcDbLine
 10
10.34150566685235
 20
66.1450423613751
 30
0.0
 11
10.34150566685236
 21
68.42547458766509
 31
0.0
  0
INSERT
  5
244
330
23E
100
AcDbEntity
  8
0
 62
     0
370
    -2
100
AcDbBlockReference
  2
_ArchTick
 10
10.34150566685236
 20
71.5503805866518
 30
0.0
 41
0.156
 42
0.156
 43
0.156
 50
90.0
  0
INSERT
  5
245
330
23E
100
AcDbEntity
  8
0
 62
     0
370
    -2
100
AcDbBlockReference
  2
_ArchTick
 10
10.34150566685235
 20
66.1450423613751
 30
0.0
 41
0.156
 42
0.156
 43
0.156
 50
270.0
  0
MTEXT
  5
246
330
23E
100
AcDbEntity
  8
0
 62
     0
100
AcDbMText
 10
10.34150566685235
 20
69.05005595955481
 30
0.0
 40
0.3125
 41
0.0
 71
     5
 72
     1
  1
\A1;5 13/32"
 73
     1
 44
1.0
1001
ACAD
1000
MTEXTBEGIN
1070
    73
1070
     1
1070
    44
1040
1.0
1070
    74
1070
     0
1000
MTEXTEND
  0
MTEXT
  5
247
330
23E
100
AcDbEntity
  8
0
 62
     0
100
AcDbMText
 10
10.34150566685235
 20
68.62781907320645
 30
0.0
 40
0.3125
 41
0.0
 71
     5
 72
     1
  1
\A1;[137mm]
 73
     1
 44
1.0
1001
ACAD
1000
MTEXTBEGIN
1070
    73
1070
     1
1070
    44
1040
1.0
1070
    74
1070
     0
1000
MTEXTEND
  0
POINT
  5
248
330
23E
100
AcDbEntity
  8
Defpoints
 62
     0
100
AcDbPoint
 10
12.22066475704417
 20
71.5503805866518
 30
0.0
  0
POINT
  5
249
330
23E
100
AcDbEntity
  8
Defpoints
 62
     0
100
AcDbPoint
 10
13.5479098312776
 20
66.1450423613751
 30
0.0
  0
POINT
  5
24A
330
23E
100
AcDbEntity
  8
Defpoints
 62
     0
100
AcDbPoint
 10
10.34150566685235
 20
66.1450423613751
 30
0.0
  0
ENDBLK
  5
24B
330
23E
100
AcDbEntity
  8
0
100
AcDbBlockEnd
  0
BLOCK
  5
250
330
24F
100
AcDbEntity
  8
0
100
AcDbBlockBegin
  2
*D9
 70
     1
 10
0.0
 20
0.0
 30
0.0
  3
*D9
  1

  0
LINE
  5
251
330
24F
100
AcDbEntity
  8
0
 62
     0
370
    -2
100
AcDbLine
 10
20.22189461010032
 20
71.54038058665211
 30
0.0
 11
20.22189461010032
 21
72.78415871854573
 31
0.0
  0
LINE
  5
252
330
24F
100
AcDbEntity
  8
0
 62
     0
370
    -2
100
AcDbLine
 10
13.22166475704421
 20
72.40238058665181
 30
0.0
 11
13.22166475704421
 21
72.78415871854573
 31
0.0
  0
LINE
  5
253
330
24F
100
AcDbEntity
  8
0
 62
     0
370
    -2
100
AcDbLine
 10
20.22189461010032
 20
72.75415871854573
 30
0.0
 11
17.23303899257911
 21
72.75415871854573
 31
0.0
  0
LINE
  5
254
330
24F
100
AcDbEntity
  8
0
 62
     0
370
    -2
100
AcDbLine
 10
13.22166475704421
 20
72.75415871854573
 30
0.0
 11
16.21052037456541
 21
72.75415871854573
 31
0.0
  0
INSERT
  5
255
330
24F
100
AcDbEntity
  8
0
 62
     0
370
    -2
100
AcDbBlockReference
  2
_ArchTick
 10
20.22189461010032
 20
72.75415871854573
 30
0.0
 41
0.156
 42
0.156
 43
0.156
  0
INSERT
  5
256
330
24F
100
AcDbEntity
  8
0
 62
     0
370
    -2
100
AcDbBlockReference
  2
_ArchTick
 10
13.22166475704421
 20
72.75415871854573
 30
0.0
 41
0.156
 42
0.156
 43
0.156
 50
180.0
  0
MTEXT
  5
257
330
24F
100
AcDbEntity
  8
0
 62
     0
100
AcDbMText
 10
16.72177968357226
 20
72.95040871854573
 30
0.0
 40
0.3125
 41
0.0
 71
     5
 72
     1
  1
\A1;7"
 73
     1
 44
1.0
1001
ACAD
1000
MTEXTBEGIN
1070
    73
1070
     1
1070
    44
1040
1.0
1070
    74
1070
     0
1000
MTEXTEND
  0
MTEXT
  5
258
330
24F
100
AcDbEntity
  8
0
 62
     0
100
AcDbMText
 10
16.72177968357226
 20
72.53426631773873
 30
0.0
 40
0.3125
 41
0.0
 71
     5
 72
     1
  1
\A1;[178mm]
 73
     1
 44
1.0
1001
ACAD
1000
MTEXTBEGIN
1070
    73
1070
     1
1070
    44
1040
1.0
1070
    74
1070
     0
1000
MTEXTEND
  0
POINT
  5
259
330
24F
100
AcDbEntity
  8
Defpoints
 62
     0
100
AcDbPoint
 10
20.22189461010032
 20
71.50038058665209
 30
0.0
  0
POINT
  5
25A
330
24F
100
AcDbEntity
  8
Defpoints
 62
     0
100
AcDbPoint
 10
13.22166475704421
 20
72.36238058665181
 30
0.0
  0
POINT
  5
25B
330
24F
100
AcDbEntity
  8
Defpoints
 62
     0
100
AcDbPoint
 10
13.22166475704421
 20
72.75415871854573
 30
0.0
  0
ENDBLK
  5
25C
330
24F
100
AcDbEntity
  8
0
100
AcDbBlockEnd
  0
BLOCK
  5
261
330
260
100
AcDbEntity
  8
0
100
AcDbBlockBegin
  2
*D10
 70
     1
 10
0.0
 20
0.0
 30
0.0
  3
*D10
  1

  0
LINE
  5
262
330
260
100
AcDbEntity
  8
0
 62
     0
370
    -2
100
AcDbLine
 10
14.21316475704414
 20
70.86237505414645
 30
0.0
 11
14.11287999408393
 21
70.86237505414645
 31
0.0
  0
LINE
  5
263
330
260
100
AcDbEntity
  8
0
 62
     0
370
    -2
100
AcDbLine
 10
14.21316475704414
 20
71.5503805866518
 30
0.0
 11
14.11287999408393
 21
71.5503805866518
 31
0.0
  0
LINE
  5
264
330
260
100
AcDbEntity
  8
0
 62
     0
370
    -2
100
AcDbLine
 10
14.14287999408393
 20
70.86237505414645
 30
0.0
 11
14.14287999408393
 21
71.5503805866518
 31
0.0
  0
LINE
  5
265
330
260
100
AcDbEntity
  8
0
 62
     0
370
    -2
100
AcDbLine
 10
14.14287999408393
 20
71.5503805866518
 30
0.0
 11
14.14287999408393
 21
72.05089434345971
 31
0.0
  0
LINE
  5
266
330
260
100
AcDbEntity
  8
0
 62
     0
370
    -2
100
AcDbLine
 10
14.14287999408393
 20
72.05089434345971
 30
0.0
 11
14.29887999408393
 21
72.05089434345971
 31
0.0
  0
INSERT
  5
267
330
260
100
AcDbEntity
  8
0
 62
     0
370
    -2
100
AcDbBlockReference
  2
_ArchTick
 10
14.14287999408393
 20
70.86237505414645
 30
0.0
 41
0.156
 42
0.156
 43
0.156
 50
270.0
  0
INSERT
  5
268
330
260
100
AcDbEntity
  8
0
 62
     0
370
    -2
100
AcDbBlockReference
  2
_ArchTick
 10
14.14287999408393
 20
71.5503805866518
 30
0.0
 41
0.156
 42
0.156
 43
0.156
 50
90.0
  0
MTEXT
  5
269
330
260
100
AcDbEntity
  8
0
 62
     0
100
AcDbMText
 10
14.82940544723221
 20
72.05089434345971
 30
0.0
 40
0.3125
 41
0.0
 71
     5
 72
     1
  1
\A1;11/16"\P [17mm]
 73
     1
 44
1.0
1001
ACAD
1000
MTEXTBEGIN
1070
    73
1070
     1
1070
    44
1040
1.0
1070
    74
1070
     0
1000
MTEXTEND
  0
POINT
  5
26A
330
260
100
AcDbEntity
  8
Defpoints
 62
     0
100
AcDbPoint
 10
14.25316475704414
 20
70.86237505414645
 30
0.0
  0
POINT
  5
26B
330
260
100
AcDbEntity
  8
Defpoints
 62
     0
100
AcDbPoint
 10
14.25316475704414
 20
71.5503805866518
 30
0.0
  0
POINT
  5
26C
330
260
100
AcDbEntity
  8
Defpoints
 62
     0
100
AcDbPoint
 10
14.14287999408393
 20
71.5503805866518
 30
0.0
  0
ENDBLK
  5
26D
330
260
100
AcDbEntity
  8
0
100
AcDbBlockEnd
  0
BLOCK
  5
272
330
271
100
AcDbEntity
  8
0
100
AcDbBlockBegin
  2
*D11
 70
     1
 10
0.0
 20
0.0
 30
0.0
  3
*D11
  1

  0
LINE
  5
273
330
271
100
AcDbEntity
  8
0
 62
     0
370
    -2
100
AcDbLine
 10
16.19564867167194
 20
71.5503805866518
 30
0.0
 11
16.37514513927115
 21
71.5503805866518
 31
0.0
  0
LINE
  5
274
330
271
100
AcDbEntity
  8
0
 62
     0
370
    -2
100
AcDbLine
 10
16.19565178843723
 20
70.3623716440348
 30
0.0
 11
16.37514513927115
 21
70.3623716440348
 31
0.0
  0
LINE
  5
275
330
271
100
AcDbEntity
  8
0
 62
     0
370
    -2
100
AcDbLine
 10
16.34514513927115
 20
71.5503805866518
 30
0.0
 11
16.34514513927115
 21
71.37861300169166
 31
0.0
  0
LINE
  5
276
330
271
100
AcDbEntity
  8
0
 62
     0
370
    -2
100
AcDbLine
 10
16.34514513927115
 20
70.3623716440348
 30
0.0
 11
16.34514513927115
 21
70.53413922899494
 31
0.0
  0
INSERT
  5
277
330
271
100
AcDbEntity
  8
0
 62
     0
370
    -2
100
AcDbBlockReference
  2
_ArchTick
 10
16.34514513927115
 20
71.5503805866518
 30
0.0
 41
0.156
 42
0.156
 43
0.156
 50
90.0
  0
INSERT
  5
278
330
271
100
AcDbEntity
  8
0
 62
     0
370
    -2
100
AcDbBlockReference
  2
_ArchTick
 10
16.34514513927115
 20
70.3623716440348
 30
0.0
 41
0.156
 42
0.156
 43
0.156
 50
270.0
  0
MTEXT
  5
279
330
271
100
AcDbEntity
  8
0
 62
     0
100
AcDbMText
 10
16.34514513927114
 20
71.15872060088467
 30
0.0
 40
0.3125
 41
0.0
 71
     5
 72
     1
  1
\A1;1 3/16"
 73
     1
 44
1.0
1001
ACAD
1000
MTEXTBEGIN
1070
    73
1070
     1
1070
    44
1040
1.0
1070
    74
1070
     0
1000
MTEXTEND
  0
MTEXT
  5
27A
330
271
100
AcDbEntity
  8
0
 62
     0
100
AcDbMText
 10
16.34514513927114
 20
70.7364837145363
 30
0.0
 40
0.3125
 41
0.0
 71
     5
 72
     1
  1
\A1;[30mm]
 73
     1
 44
1.0
1001
ACAD
1000
MTEXTBEGIN
1070
    73
1070
     1
1070
    44
1040
1.0
1070
    74
1070
     0
1000
MTEXTEND
  0
POINT
  5
27B
330
271
100
AcDbEntity
  8
Defpoints
 62
     0
100
AcDbPoint
 10
16.15564867167194
 20
71.5503805866518
 30
0.0
  0
POINT
  5
27C
330
271
100
AcDbEntity
  8
Defpoints
 62
     0
100
AcDbPoint
 10
16.15565178843723
 20
70.3623716440348
 30
0.0
  0
POINT
  5
27D
330
271
100
AcDbEntity
  8
Defpoints
 62
     0
100
AcDbPoint
 10
16.34514513927115
 20
70.3623716440348
 30
0.0
  0
ENDBLK
  5
27E
330
271
100
AcDbEntity
  8
0
100
AcDbBlockEnd
  0
BLOCK
  5
283
330
282
100
AcDbEntity
  8
0
100
AcDbBlockBegin
  2
*D12
 70
     1
 10
0.0
 20
0.0
 30
0.0
  3
*D12
  1

  0
LINE
  5
284
330
282
100
AcDbEntity
  8
0
 62
     0
370
    -2
100
AcDbLine
 10
14.90966475704414
 20
56.99661289376602
 30
0.0
 11
14.90966475704414
 21
57.09471259232619
 31
0.0
  0
LINE
  5
285
330
282
100
AcDbEntity
  8
0
 62
     0
370
    -2
100
AcDbLine
 10
13.15966475704414
 20
56.99661289376602
 30
0.0
 11
13.15966475704414
 21
57.09471259232619
 31
0.0
  0
LINE
  5
286
330
282
100
AcDbEntity
  8
0
 62
     0
370
    -2
100
AcDbLine
 10
14.90966475704414
 20
57.06471259232618
 30
0.0
 11
14.4776030150621
 21
57.06471259232618
 31
0.0
  0
LINE
  5
287
330
282
100
AcDbEntity
  8
0
 62
     0
370
    -2
100
AcDbLine
 10
13.15966475704414
 20
57.06471259232618
 30
0.0
 11
13.59172649902618
 21
57.06471259232618
 31
0.0
  0
INSERT
  5
288
330
282
100
AcDbEntity
  8
0
 62
     0
370
    -2
100
AcDbBlockReference
  2
_ArchTick
 10
14.90966475704414
 20
57.06471259232618
 30
0.0
 41
0.156
 42
0.156
 43
0.156
  0
INSERT
  5
289
330
282
100
AcDbEntity
  8
0
 62
     0
370
    -2
100
AcDbBlockReference
  2
_ArchTick
 10
13.15966475704414
 20
57.06471259232618
 30
0.0
 41
0.156
 42
0.156
 43
0.156
 50
180.0
  0
MTEXT
  5
28A
330
282
100
AcDbEntity
  8
0
 62
     0
100
AcDbMText
 10
14.03466475704414
 20
57.26705707786755
 30
0.0
 40
0.3125
 41
0.0
 71
     5
 72
     1
  1
\A1;1 3/4"
 73
     1
 44
1.0
1001
ACAD
1000
MTEXTBEGIN
1070
    73
1070
     1
1070
    44
1040
1.0
1070
    74
1070
     0
1000
MTEXTEND
  0
MTEXT
  5
28B
330
282
100
AcDbEntity
  8
0
 62
     0
100
AcDbMText
 10
14.03466475704414
 20
56.8448201915192
 30
0.0
 40
0.3125
 41
0.0
 71
     5
 72
     1
  1
\A1;[44mm]
 73
     1
 44
1.0
1001
ACAD
1000
MTEXTBEGIN
1070
    73
1070
     1
1070
    44
1040
1.0
1070
    74
1070
     0
1000
MTEXTEND
  0
POINT
  5
28C
330
282
100
AcDbEntity
  8
Defpoints
 62
     0
100
AcDbPoint
 10
14.90966475704414
 20
56.95661289376602
 30
0.0
  0
POINT
  5
28D
330
282
100
AcDbEntity
  8
Defpoints
 62
     0
100
AcDbPoint
 10
13.15966475704414
 20
56.95661289376602
 30
0.0
  0
POINT
  5
28E
330
282
100
AcDbEntity
  8
Defpoints
 62
     0
100
AcDbPoint
 10
13.15966475704414
 20
57.06471259232618
 30
0.0
  0
ENDBLK
  5
28F
330
282
100
AcDbEntity
  8
0
100
AcDbBlockEnd
  0
BLOCK
  5
294
330
293
100
AcDbEntity
  8
0
100
AcDbBlockBegin
  2
*D13
 70
     1
 10
0.0
 20
0.0
 30
0.0
  3
*D13
  1

  0
LINE
  5
295
330
293
100
AcDbEntity
  8
0
 62
     0
370
    -2
100
AcDbLine
 10
18.47189461010032
 20
57.10471259232619
 30
0.0
 11
18.47189461010032
 21
57.09471259232619
 31
0.0
  0
LINE
  5
296
330
293
100
AcDbEntity
  8
0
 62
     0
370
    -2
100
AcDbLine
 10
20.22189461010032
 20
57.10471259232619
 30
0.0
 11
20.22189461010032
 21
57.09471259232619
 31
0.0
  0
LINE
  5
297
330
293
100
AcDbEntity
  8
0
 62
     0
370
    -2
100
AcDbLine
 10
18.47189461010032
 20
57.06471259232618
 30
0.0
 11
18.90395635208236
 21
57.06471259232618
 31
0.0
  0
LINE
  5
298
330
293
100
AcDbEntity
  8
0
 62
     0
370
    -2
100
AcDbLine
 10
20.22189461010032
 20
57.06471259232618
 30
0.0
 11
19.78983286811828
 21
57.06471259232618
 31
0.0
  0
INSERT
  5
299
330
293
100
AcDbEntity
  8
0
 62
     0
370
    -2
100
AcDbBlockReference
  2
_ArchTick
 10
18.47189461010032
 20
57.06471259232618
 30
0.0
 41
0.156
 42
0.156
 43
0.156
 50
180.0
  0
INSERT
  5
29A
330
293
100
AcDbEntity
  8
0
 62
     0
370
    -2
100
AcDbBlockReference
  2
_ArchTick
 10
20.22189461010032
 20
57.06471259232618
 30
0.0
 41
0.156
 42
0.156
 43
0.156
  0
MTEXT
  5
29B
330
293
100
AcDbEntity
  8
0
 62
     0
100
AcDbMText
 10
19.34689461010032
 20
57.26705707786755
 30
0.0
 40
0.3125
 41
0.0
 71
     5
 72
     1
  1
\A1;1 3/4"
 73
     1
 44
1.0
1001
ACAD
1000
MTEXTBEGIN
1070
    73
1070
     1
1070
    44
1040
1.0
1070
    74
1070
     0
1000
MTEXTEND
  0
MTEXT
  5
29C
330
293
100
AcDbEntity
  8
0
 62
     0
100
AcDbMText
 10
19.34689461010032
 20
56.8448201915192
 30
0.0
 40
0.3125
 41
0.0
 71
     5
 72
     1
  1
\A1;[44mm]
 73
     1
 44
1.0
1001
ACAD
1000
MTEXTBEGIN
1070
    73
1070
     1
1070
    44
1040
1.0
1070
    74
1070
     0
1000
MTEXTEND
  0
POINT
  5
29D
330
293
100
AcDbEntity
  8
Defpoints
 62
     0
100
AcDbPoint
 10
18.47189461010032
 20
57.06471259232618
 30
0.0
  0
POINT
  5
29E
330
293
100
AcDbEntity
  8
Defpoints
 62
     0
100
AcDbPoint
 10
20.22189461010032
 20
57.06471259232618
 30
0.0
  0
POINT
  5
29F
330
293
100
AcDbEntity
  8
Defpoints
 62
     0
100
AcDbPoint
 10
20.22189461010032
 20
57.06471259232618
 30
0.0
  0
ENDBLK
  5
2A0
330
293
100
AcDbEntity
  8
0
100
AcDbBlockEnd
  0
BLOCK
  5
2A5
330
2A4
100
AcDbEntity
  8
0
100
AcDbBlockBegin
  2
*D14
 70
     1
 10
0.0
 20
0.0
 30
0.0
  3
*D14
  1

  0
LINE
  5
2A6
330
2A4
100
AcDbEntity
  8
0
 62
     0
370
    -2
100
AcDbLine
 10
22.1518364197647
 20
66.14463058665217
 30
0.0
 11
22.9847987302177
 21
66.14463058665217
 31
0.0
  0
LINE
  5
2A7
330
2A4
100
AcDbEntity
  8
0
 62
     0
370
    -2
100
AcDbLine
 10
20.19939461010031
 20
70.73838058665214
 30
0.0
 11
22.9847987302177
 21
70.73838058665214
 31
0.0
  0
LINE
  5
2A8
330
2A4
100
AcDbEntity
  8
0
 62
     0
370
    -2
100
AcDbLine
 10
22.9547987302177
 20
66.14463058665217
 30
0.0
 11
22.9547987302177
 21
68.0192687003038
 31
0.0
  0
LINE
  5
2A9
330
2A4
100
AcDbEntity
  8
0
 62
     0
370
    -2
100
AcDbLine
 10
22.9547987302177
 20
70.73838058665214
 30
0.0
 11
22.9547987302177
 21
68.86374247300051
 31
0.0
  0
INSERT
  5
2AA
330
2A4
100
AcDbEntity
  8
0
 62
     0
370
    -2
100
AcDbBlockReference
  2
_ArchTick
 10
22.9547987302177
 20
66.14463058665217
 30
0.0
 41
0.156
 42
0.156
 43
0.156
 50
270.0
  0
INSERT
  5
2AB
330
2A4
100
AcDbEntity
  8
0
 62
     0
370
    -2
100
AcDbBlockReference
  2
_ArchTick
 10
22.9547987302177
 20
70.73838058665214
 30
0.0
 41
0.156
 42
0.156
 43
0.156
 50
90.0
  0
MTEXT
  5
2AC
330
2A4
100
AcDbEntity
  8
0
 62
     0
100
AcDbMText
 10
22.95479873021769
 20
68.64385007219351
 30
0.0
 40
0.3125
 41
0.0
 71
     5
 72
     1
  1
\A1;4 19/32"
 73
     1
 44
1.0
1001
ACAD
1000
MTEXTBEGIN
1070
    73
1070
     1
1070
    44
1040
1.0
1070
    74
1070
     0
1000
MTEXTEND
  0
MTEXT
  5
2AD
330
2A4
100
AcDbEntity
  8
0
 62
     0
100
AcDbMText
 10
22.95479873021769
 20
68.22161318584516
 30
0.0
 40
0.3125
 41
0.0
 71
     5
 72
     1
  1
\A1;[117mm]
 73
     1
 44
1.0
1001
ACAD
1000
MTEXTBEGIN
1070
    73
1070
     1
1070
    44
1040
1.0
1070
    74
1070
     0
1000
MTEXTEND
  0
POINT
  5
2AE
330
2A4
100
AcDbEntity
  8
Defpoints
 62
     0
100
AcDbPoint
 10
22.1118364197647
 20
66.14463058665217
 30
0.0
  0
POINT
  5
2AF
330
2A4
100
AcDbEntity
  8
Defpoints
 62
     0
100
AcDbPoint
 10
20.15939461010031
 20
70.73838058665214
 30
0.0
  0
POINT
  5
2B0
330
2A4
100
AcDbEntity
  8
Defpoints
 62
     0
100
AcDbPoint
 10
22.9547987302177
 20
70.73838058665214
 30
0.0
  0
ENDBLK
  5
2B1
330
2A4
100
AcDbEntity
  8
0
100
AcDbBlockEnd
  0
BLOCK
  5
2B6
330
2B5
100
AcDbEntity
  8
0
100
AcDbBlockBegin
  2
*D15
 70
     1
 10
0.0
 20
0.0
 30
0.0
  3
*D15
  1

  0
LINE
  5
2B7
330
2B5
100
AcDbEntity
  8
0
 62
     0
370
    -2
100
AcDbLine
 10
22.1518364197647
 20
64.52002398999496
 30
0.0
 11
22.9847987302177
 21
64.52002398999496
 31
0.0
  0
LINE
  5
2B8
330
2B5
100
AcDbEntity
  8
0
 62
     0
370
    -2
100
AcDbLine
 10
22.1518364197647
 20
62.39485399646659
 30
0.0
 11
22.9847987302177
 21
62.39485399646659
 31
0.0
  0
LINE
  5
2B9
330
2B5
100
AcDbEntity
  8
0
 62
     0
370
    -2
100
AcDbLine
 10
22.9547987302177
 20
64.52002398999496
 30
0.0
 11
22.9547987302177
 21
63.87967587957913
 31
0.0
  0
LINE
  5
2BA
330
2B5
100
AcDbEntity
  8
0
 62
     0
370
    -2
100
AcDbLine
 10
22.9547987302177
 20
62.39485399646659
 30
0.0
 11
22.9547987302177
 21
63.03520210688242
 31
0.0
  0
INSERT
  5
2BB
330
2B5
100
AcDbEntity
  8
0
 62
     0
370
    -2
100
AcDbBlockReference
  2
_ArchTick
 10
22.9547987302177
 20
64.52002398999496
 30
0.0
 41
0.156
 42
0.156
 43
0.156
 50
90.0
  0
INSERT
  5
2BC
330
2B5
100
AcDbEntity
  8
0
 62
     0
370
    -2
100
AcDbBlockReference
  2
_ArchTick
 10
22.9547987302177
 20
62.39485399646659
 30
0.0
 41
0.156
 42
0.156
 43
0.156
 50
270.0
  0
MTEXT
  5
2BD
330
2B5
100
AcDbEntity
  8
0
 62
     0
100
AcDbMText
 10
22.95479873021769
 20
63.65978347877214
 30
0.0
 40
0.3125
 41
0.0
 71
     5
 72
     1
  1
\A1;2 1/8"
 73
     1
 44
1.0
1001
ACAD
1000
MTEXTBEGIN
1070
    73
1070
     1
1070
    44
1040
1.0
1070
    74
1070
     0
1000
MTEXTEND
  0
MTEXT
  5
2BE
330
2B5
100
AcDbEntity
  8
0
 62
     0
100
AcDbMText
 10
22.95479873021769
 20
63.23754659242379
 30
0.0
 40
0.3125
 41
0.0
 71
     5
 72
     1
  1
\A1;[54mm]
 73
     1
 44
1.0
1001
ACAD
1000
MTEXTBEGIN
1070
    73
1070
     1
1070
    44
1040
1.0
1070
    74
1070
     0
1000
MTEXTEND
  0
POINT
  5
2BF
330
2B5
100
AcDbEntity
  8
Defpoints
 62
     0
100
AcDbPoint
 10
22.1118364197647
 20
64.52002398999496
 30
0.0
  0
POINT
  5
2C0
330
2B5
100
AcDbEntity
  8
Defpoints
 62
     0
100
AcDbPoint
 10
22.1118364197647
 20
62.39485399646659
 30
0.0
  0
POINT
  5
2C1
330
2B5
100
AcDbEntity
  8
Defpoints
 62
     0
100
AcDbPoint
 10
22.9547987302177
 20
62.39485399646659
 30
0.0
  0
ENDBLK
  5
2C2
330
2B5
100
AcDbEntity
  8
0
100
AcDbBlockEnd
  0
BLOCK
  5
2C7
330
2C6
100
AcDbEntity
  8
0
100
AcDbBlockBegin
  2
*D16
 70
     1
 10
0.0
 20
0.0
 30
0.0
  3
*D16
  1

  0
LINE
  5
2C8
330
2C6
100
AcDbEntity
  8
0
 62
     0
370
    -2
100
AcDbLine
 10
22.1518364197647
 20
60.77024739980942
 30
0.0
 11
22.9847987302177
 21
60.77024739980942
 31
0.0
  0
LINE
  5
2C9
330
2C6
100
AcDbEntity
  8
0
 62
     0
370
    -2
100
AcDbLine
 10
20.19939461010032
 20
53.39450293231511
 30
0.0
 11
22.9847987302177
 21
53.39450293231511
 31
0.0
  0
LINE
  5
2CA
330
2C6
100
AcDbEntity
  8
0
 62
     0
370
    -2
100
AcDbLine
 10
22.9547987302177
 20
60.77024739980942
 30
0.0
 11
22.9547987302177
 21
57.50461205241061
 31
0.0
  0
LINE
  5
2CB
330
2C6
100
AcDbEntity
  8
0
 62
     0
370
    -2
100
AcDbLine
 10
22.9547987302177
 20
53.39450293231511
 30
0.0
 11
22.9547987302177
 21
56.66013827971391
 31
0.0
  0
INSERT
  5
2CC
330
2C6
100
AcDbEntity
  8
0
 62
     0
370
    -2
100
AcDbBlockReference
  2
_ArchTick
 10
22.9547987302177
 20
60.77024739980942
 30
0.0
 41
0.156
 42
0.156
 43
0.156
 50
90.0
  0
INSERT
  5
2CD
330
2C6
100
AcDbEntity
  8
0
 62
     0
370
    -2
100
AcDbBlockReference
  2
_ArchTick
 10
22.9547987302177
 20
53.39450293231511
 30
0.0
 41
0.156
 42
0.156
 43
0.156
 50
270.0
  0
MTEXT
  5
2CE
330
2C6
100
AcDbEntity
  8
0
 62
     0
100
AcDbMText
 10
22.95479873021769
 20
57.28471965160363
 30
0.0
 40
0.3125
 41
0.0
 71
     5
 72
     1
  1
\A1;7 3/8"
 73
     1
 44
1.0
1001
ACAD
1000
MTEXTBEGIN
1070
    73
1070
     1
1070
    44
1040
1.0
1070
    74
1070
     0
1000
MTEXTEND
  0
MTEXT
  5
2CF
330
2C6
100
AcDbEntity
  8
0
 62
     0
100
AcDbMText
 10
22.95479873021769
 20
56.86248276525528
 30
0.0
 40
0.3125
 41
0.0
 71
     5
 72
     1
  1
\A1;[187mm]
 73
     1
 44
1.0
1001
ACAD
1000
MTEXTBEGIN
1070
    73
1070
     1
1070
    44
1040
1.0
1070
    74
1070
     0
1000
MTEXTEND
  0
POINT
  5
2D0
330
2C6
100
AcDbEntity
  8
Defpoints
 62
     0
100
AcDbPoint
 10
22.1118364197647
 20
60.77024739980942
 30
0.0
  0
POINT
  5
2D1
330
2C6
100
AcDbEntity
  8
Defpoints
 62
     0
100
AcDbPoint
 10
20.15939461010032
 20
53.39450293231511
 30
0.0
  0
POINT
  5
2D2
330
2C6
100
AcDbEntity
  8
Defpoints
 62
     0
100
AcDbPoint
 10
22.9547987302177
 20
53.39450293231511
 30
0.0
  0
ENDBLK
  5
2D3
330
2C6
100
AcDbEntity
  8
0
100
AcDbBlockEnd
  0
BLOCK
  5
2D8
330
2D7
100
AcDbEntity
  8
0
100
AcDbBlockBegin
  2
*D17
 70
     1
 10
0.0
 20
0.0
 30
0.0
  3
*D17
  1

  0
LINE
  5
2D9
330
2D7
100
AcDbEntity
  8
0
 62
     0
370
    -2
100
AcDbLine
 10
20.19939461010032
 20
53.39450293231511
 30
0.0
 11
22.9847987302177
 21
53.39450293231511
 31
0.0
  0
LINE
  5
2DA
330
2D7
100
AcDbEntity
  8
0
 62
     0
370
    -2
100
AcDbLine
 10
20.26155075636931
 20
52.08200293231509
 30
0.0
 11
22.9847987302177
 21
52.08200293231509
 31
0.0
  0
LINE
  5
2DB
330
2D7
100
AcDbEntity
  8
0
 62
     0
370
    -2
100
AcDbLine
 10
22.9547987302177
 20
53.39450293231511
 30
0.0
 11
22.9547987302177
 21
53.16048981866345
 31
0.0
  0
LINE
  5
2DC
330
2D7
100
AcDbEntity
  8
0
 62
     0
370
    -2
100
AcDbLine
 10
22.9547987302177
 20
52.08200293231509
 30
0.0
 11
22.9547987302177
 21
52.31601604596675
 31
0.0
  0
INSERT
  5
2DD
330
2D7
100
AcDbEntity
  8
0
 62
     0
370
    -2
100
AcDbBlockReference
  2
_ArchTick
 10
22.9547987302177
 20
53.39450293231511
 30
0.0
 41
0.156
 42
0.156
 43
0.156
 50
90.0
  0
INSERT
  5
2DE
330
2D7
100
AcDbEntity
  8
0
 62
     0
370
    -2
100
AcDbBlockReference
  2
_ArchTick
 10
22.9547987302177
 20
52.08200293231509
 30
0.0
 41
0.156
 42
0.156
 43
0.156
 50
270.0
  0
MTEXT
  5
2DF
330
2D7
100
AcDbEntity
  8
0
 62
     0
100
AcDbMText
 10
22.9547987302177
 20
52.94059741785646
 30
0.0
 40
0.3125
 41
0.0
 71
     5
 72
     1
  1
\A1;1 5/16"
 73
     1
 44
1.0
1001
ACAD
1000
MTEXTBEGIN
1070
    73
1070
     1
1070
    44
1040
1.0
1070
    74
1070
     0
1000
MTEXTEND
  0
MTEXT
  5
2E0
330
2D7
100
AcDbEntity
  8
0
 62
     0
100
AcDbMText
 10
22.9547987302177
 20
52.51836053150811
 30
0.0
 40
0.3125
 41
0.0
 71
     5
 72
     1
  1
\A1;[33mm]
 73
     1
 44
1.0
1001
ACAD
1000
MTEXTBEGIN
1070
    73
1070
     1
1070
    44
1040
1.0
1070
    74
1070
     0
1000
MTEXTEND
  0
POINT
  5
2E1
330
2D7
100
AcDbEntity
  8
Defpoints
 62
     0
100
AcDbPoint
 10
20.15939461010032
 20
53.39450293231511
 30
0.0
  0
POINT
  5
2E2
330
2D7
100
AcDbEntity
  8
Defpoints
 62
     0
100
AcDbPoint
 10
20.22155075636931
 20
52.08200293231509
 30
0.0
  0
POINT
  5
2E3
330
2D7
100
AcDbEntity
  8
Defpoints
 62
     0
100
AcDbPoint
 10
22.9547987302177
 20
52.08200293231509
 30
0.0
  0
ENDBLK
  5
2E4
330
2D7
100
AcDbEntity
  8
0
100
AcDbBlockEnd
  0
BLOCK
  5
2E9
330
2E8
100
AcDbEntity
  8
0
100
AcDbBlockBegin
  2
*D18
 70
     1
 10
0.0
 20
0.0
 30
0.0
  3
*D18
  1

  0
LINE
  5
2EA
330
2E8
100
AcDbEntity
  8
0
 62
     0
370
    -2
100
AcDbLine
 10
17.07516475704418
 20
71.5503805866518
 30
0.0
 11
25.6044264058514
 21
71.5503805866518
 31
0.0
  0
LINE
  5
2EB
330
2E8
100
AcDbEntity
  8
0
 62
     0
370
    -2
100
AcDbLine
 10
20.26155075636931
 20
52.08200293231509
 30
0.0
 11
25.6044264058514
 21
52.08200293231509
 31
0.0
  0
LINE
  5
2EC
330
2E8
100
AcDbEntity
  8
0
 62
     0
370
    -2
100
AcDbLine
 10
25.5744264058514
 20
71.5503805866518
 30
0.0
 11
25.5744264058514
 21
63.75447627253616
 31
0.0
  0
LINE
  5
2ED
330
2E8
100
AcDbEntity
  8
0
 62
     0
370
    -2
100
AcDbLine
 10
25.5744264058514
 20
52.08200293231509
 30
0.0
 11
25.5744264058514
 21
63.34978730145344
 31
0.0
  0
INSERT
  5
2EE
330
2E8
100
AcDbEntity
  8
0
 62
     0
370
    -2
100
AcDbBlockReference
  2
_ArchTick
 10
25.5744264058514
 20
71.5503805866518
 30
0.0
 41
0.156
 42
0.156
 43
0.156
 50
90.0
  0
INSERT
  5
2EF
330
2E8
100
AcDbEntity
  8
0
 62
     0
370
    -2
100
AcDbBlockReference
  2
_ArchTick
 10
25.5744264058514
 20
52.08200293231509
 30
0.0
 41
0.156
 42
0.156
 43
0.156
 50
270.0
  0
MTEXT
  5
2F0
330
2E8
100
AcDbEntity
  8
0
 62
     0
100
AcDbMText
 10
25.57442640585139
 20
63.5521317869948
 30
0.0
 40
0.3125
 41
0.0
 71
     5
 72
     1
  1
\A1;BOX
 73
     1
 44
1.0
1001
ACAD
1000
MTEXTBEGIN
1070
    73
1070
     1
1070
    44
1040
1.0
1070
    74
1070
     0
1000
MTEXTEND
  0
POINT
  5
2F1
330
2E8
100
AcDbEntity
  8
Defpoints
 62
     0
100
AcDbPoint
 10
17.03516475704418
 20
71.5503805866518
 30
0.0
  0
POINT
  5
2F2
330
2E8
100
AcDbEntity
  8
Defpoints
 62
     0
100
AcDbPoint
 10
20.22155075636931
 20
52.08200293231509
 30
0.0
  0
POINT
  5
2F3
330
2E8
100
AcDbEntity
  8
Defpoints
 62
     0
100
AcDbPoint
 10
25.5744264058514
 20
52.08200293231509
 30
0.0
  0
ENDBLK
  5
2F4
330
2E8
100
AcDbEntity
  8
0
100
AcDbBlockEnd
  0
BLOCK
  5
2F7
330
2F6
100
AcDbEntity
  8
0
100
AcDbBlockBegin
  2
*D19
 70
     1
 10
0.0
 20
0.0
 30
0.0
  3
*D19
  1

  0
LINE
  5
2F8
330
2F6
100
AcDbEntity
  8
0
 62
     0
370
    -2
100
AcDbLine
 10
17.07516475704418
 20
71.5503805866518
 30
0.0
 11
25.6044264058514
 21
71.5503805866518
 31
0.0
  0
LINE
  5
2F9
330
2F6
100
AcDbEntity
  8
0
 62
     0
370
    -2
100
AcDbLine
 10
20.7632461912771
 20
72.30038058665179
 30
0.0
 11
25.60442640585141
 21
72.30038058665179
 31
0.0
  0
LINE
  5
2FA
330
2F6
100
AcDbEntity
  8
0
 62
     0
370
    -2
100
AcDbLine
 10
25.5744264058514
 20
71.5503805866518
 30
0.0
 11
25.5744264058514
 21
72.30038058665179
 31
0.0
  0
LINE
  5
2FB
330
2F6
100
AcDbEntity
  8
0
 62
     0
370
    -2
100
AcDbLine
 10
25.5744264058514
 20
72.30038058665179
 30
0.0
 11
25.5744264058514
 21
72.9618436216392
 31
0.0
  0
LINE
  5
2FC
330
2F6
100
AcDbEntity
  8
0
 62
     0
370
    -2
100
AcDbLine
 10
25.5744264058514
 20
72.9618436216392
 30
0.0
 11
25.7304264058514
 21
72.9618436216392
 31
0.0
  0
INSERT
  5
2FD
330
2F6
100
AcDbEntity
  8
0
 62
     0
370
    -2
100
AcDbBlockReference
  2
_ArchTick
 10
25.5744264058514
 20
71.5503805866518
 30
0.0
 41
0.156
 42
0.156
 43
0.156
 50
270.0
  0
INSERT
  5
2FE
330
2F6
100
AcDbEntity
  8
0
 62
     0
370
    -2
100
AcDbBlockReference
  2
_ArchTick
 10
25.5744264058514
 20
72.30038058665179
 30
0.0
 41
0.156
 42
0.156
 43
0.156
 50
90.0
  0
MTEXT
  5
2FF
330
2F6
100
AcDbEntity
  8
0
 62
     0
100
AcDbMText
 10
26.26095185899969
 20
72.9618436216392
 30
0.0
 40
0.3125
 41
0.0
 71
     5
 72
     1
  1
\A1;3/4"\P [19mm]
 73
     1
 44
1.0
1001
ACAD
1000
MTEXTBEGIN
1070
    73
1070
     1
1070
    44
1040
1.0
1070
    74
1070
     0
1000
MTEXTEND
  0
POINT
  5
300
330
2F6
100
AcDbEntity
  8
Defpoints
 62
     0
100
AcDbPoint
 10
17.03516475704418
 20
71.5503805866518
 30
0.0
  0
POINT
  5
301
330
2F6
100
AcDbEntity
  8
Defpoints
 62
     0
100
AcDbPoint
 10
20.7232461912771
 20
72.30038058665179
 30
0.0
  0
POINT
  5
302
330
2F6
100
AcDbEntity
  8
Defpoints
 62
     0
100
AcDbPoint
 10
25.5744264058514
 20
72.30038058665179
 30
0.0
  0
ENDBLK
  5
303
330
2F6
100
AcDbEntity
  8
0
100
AcDbBlockEnd
  0
BLOCK
  5
306
330
305
100
AcDbEntity
  8
0
100
AcDbBlockBegin
  2
*D20
 70
     1
 10
0.0
 20
0.0
 30
0.0
  3
*D20
  1

  0
LINE
  5
307
330
305
100
AcDbEntity
  8
0
 62
     0
370
    -2
100
AcDbLine
 10
20.7632461912771
 20
72.30038058665179
 30
0.0
 11
26.88290661771512
 21
72.30038058665179
 31
0.0
  0
LINE
  5
308
330
305
100
AcDbEntity
  8
0
 62
     0
370
    -2
100
AcDbLine
 10
20.26155075636931
 20
52.08200293231509
 30
0.0
 11
26.88290661771512
 21
52.08200293231509
 31
0.0
  0
LINE
  5
309
330
305
100
AcDbEntity
  8
0
 62
     0
370
    -2
100
AcDbLine
 10
26.85290661771512
 20
72.30038058665179
 30
0.0
 11
26.85290661771512
 21
64.00593081955846
 31
0.0
  0
LINE
  5
30A
330
305
100
AcDbEntity
  8
0
 62
     0
370
    -2
100
AcDbLine
 10
26.85290661771512
 20
52.08200293231509
 30
0.0
 11
26.85290661771512
 21
63.07431402960104
 31
0.0
  0
INSERT
  5
30B
330
305
100
AcDbEntity
  8
0
 62
     0
370
    -2
100
AcDbBlockReference
  2
_ArchTick
 10
26.85290661771512
 20
72.30038058665179
 30
0.0
 41
0.156
 42
0.156
 43
0.156
 50
90.0
  0
INSERT
  5
30C
330
305
100
AcDbEntity
  8
0
 62
     0
370
    -2
100
AcDbBlockReference
  2
_ArchTick
 10
26.85290661771512
 20
52.08200293231509
 30
0.0
 41
0.156
 42
0.156
 43
0.156
 50
270.0
  0
MTEXT
  5
30D
330
305
100
AcDbEntity
  8
0
 62
     0
100
AcDbMText
 10
26.85290661771511
 20
63.54012242457975
 30
0.0
 40
0.3125
 41
0.0
 71
     5
 72
     1
  1
\A1;ROUGH\POPENING
 73
     1
 44
1.0
1001
ACAD
1000
MTEXTBEGIN
1070
    73
1070
     1
1070
    44
1040
1.0
1070
    74
1070
     0
1000
MTEXTEND
  0
POINT
  5
30E
330
305
100
AcDbEntity
  8
Defpoints
 62
     0
100
AcDbPoint
 10
20.7232461912771
 20
72.30038058665179
 30
0.0
  0
POINT
  5
30F
330
305
100
AcDbEntity
  8
Defpoints
 62
     0
100
AcDbPoint
 10
20.22155075636931
 20
52.08200293231509
 30
0.0
  0
POINT
  5
310
330
305
100
AcDbEntity
  8
Defpoints
 62
     0
100
AcDbPoint
 10
26.85290661771512
 20
52.08200293231509
 30
0.0
  0
ENDBLK
  5
311
330
305
100
AcDbEntity
  8
0
100
AcDbBlockEnd
  0
ENDSEC
  0
SECTION
  2
ENTITIES
  0
LWPOLYLINE
  5
6A
102
{ACAD_REACTORS
330
22E
102
}
330
2
100
AcDbEntity
  8
0
  6
Continuous
100
AcDbPolyline
 90
       19
 70
     1
 43
0.0
 10
14.5346647570442
 20
66.45787505414647
 10
14.5346647570442
 20
66.7075423613751
 10
14.34766475704418
 20
66.7075423613751
 10
14.34766475704418
 20
66.80737505414647
 42
1.045128398166766
 10
14.16107280629592
 20
66.79813356979941
 42
-0.4419056050544676
 10
14.07843621975667
 20
66.70737505414646
 10
13.22166475704415
 20
66.70737505414646
 10
13.15966475704414
 20
66.76937505414646
 10
13.15966475704414
 20
70.67537505414647
 42
-0.4142135623730951
 10
13.22166475704415
 20
70.73737505414645
 10
14.84766475704418
 20
70.73737505414645
 42
-0.4142135623730951
 10
14.90966475704414
 20
70.67537505414647
 10
14.90966475704414
 20
66.45815513124451
 10
14.84766475704418
 20
66.3961551312445
 10
14.81462580992587
 20
66.3961551312445
 42
-0.3899024490717814
 10
14.62962580992587
 20
66.19498227991734
 10
14.62962580992587
 20
66.14537505414644
 10
14.53466475704414
 20
66.14537505414647
 10
14.53466475704414
 20
66.27037505414647
 42
0.7066666666666829
  0
LWPOLYLINE
  5
6B
102
{ACAD_REACTORS
330
281
102
}
330
2
100
AcDbEntity
  8
0
  6
Continuous
100
AcDbPolyline
 90
       19
 70
     1
 43
0.0
 10
14.53466475704414
 20
60.45700293231504
 10
14.53466475704414
 20
60.2073356250864
 10
14.34766475704418
 20
60.2073356250864
 10
14.34766475704418
 20
60.10750293231502
 42
-1.045128398166766
 10
14.16107280629598
 20
60.11674441666208
 42
0.4419056050544676
 10
14.07843621975667
 20
60.20750293231505
 10
13.22166475704415
 20
60.20750293231505
 10
13.15966475704414
 20
60.14550293231504
 10
13.15966475704414
 20
53.45650293231504
 42
0.4142135623730951
 10
13.22166475704415
 20
53.39450293231506
 10
14.84766475704413
 20
53.39450293231506
 42
0.4142135623730951
 10
14.90966475704414
 20
53.45650293231504
 10
14.90966475704414
 20
60.456722855217
 10
14.84766475704413
 20
60.518722855217
 10
14.81462580992587
 20
60.518722855217
 42
0.3899024490717814
 10
14.62962580992587
 20
60.71989570654416
 10
14.62962580992587
 20
60.76950293231506
 10
14.53466475704414
 20
60.76950293231504
 10
14.53466475704414
 20
60.64450293231503
 42
-0.7066666666666826
  0
LINE
  5
6C
330
2
100
AcDbEntity
  8
0
  6
Continuous
100
AcDbLine
 10
14.90969692778856
 20
53.39450293231506
 30
0.0
 11
13.15966475704414
 21
53.39450293231506
 31
0.0
  0
LINE
  5
6D
102
{ACAD_REACTORS
330
1FD
102
}
330
2
100
AcDbEntity
  8
0
  6
Continuous
100
AcDbLine
 10
13.15966475704414
 20
53.39450293231506
 30
0.0
 11
13.15966475704414
 21
53.28550293231505
 31
0.0
  0
LINE
  5
6E
330
2
100
AcDbEntity
  8
0
  6
Continuous
100
AcDbLine
 10
13.15966475704414
 20
53.28550293231505
 30
0.0
 11
15.01866475704417
 21
53.28550293231505
 31
0.0
  0
LINE
  5
6F
330
2
100
AcDbEntity
  8
0
  6
Continuous
100
AcDbLine
 10
15.01866475704417
 20
53.28550293231505
 30
0.0
 11
15.01866475704417
 21
53.58250293231505
 31
0.0
  0
ARC
  5
70
330
2
100
AcDbEntity
  8
0
  6
Continuous
100
AcDbCircle
 10
14.95666475704416
 20
53.58250293231505
 30
0.0
 40
0.0620000000000118
100
AcDbArc
 50
0.0
 51
90.0
  0
LINE
  5
71
330
2
100
AcDbEntity
  8
0
  6
Continuous
100
AcDbLine
 10
14.95666475704416
 20
53.64450293231506
 30
0.0
 11
14.90966475704414
 21
53.64450293231506
 31
0.0
  0
LINE
  5
72
330
2
100
AcDbEntity
  8
0
  6
Continuous
100
AcDbLine
 10
14.90966475704414
 20
53.64450293231506
 30
0.0
 11
14.90966475704414
 21
53.39450293231506
 31
0.0
  0
LWPOLYLINE
  5
73
102
{ACAD_REACTORS
330
24E
102
}
330
2
100
AcDbEntity
  8
0
100
AcDbPolyline
 90
       15
 70
     0
 43
0.0
 10
12.22066475704417
 20
71.17438058665182
 42
0.4142135623730951
 10
12.28266475704419
 20
71.11238058665181
 10
13.15966475704414
 20
71.11238058665181
 10
13.15966475704425
 20
72.36238058665181
 10
13.22166475704421
 20
72.36238058665181
 10
13.22166475704421
 20
72.98738058665181
 10
12.15866475704422
 20
72.98738058665181
 42
0.4142135623731003
 10
12.09666475704421
 20
72.92538058665179
 10
12.09666475704421
 20
72.39338058665182
 42
0.4142135623730951
 10
12.12766475704416
 20
72.36238058665181
 10
12.15866475704422
 20
72.36238058665181
 10
12.15866475704422
 20
72.14338058665181
 42
0.4142135623730951
 10
12.18966475704417
 20
72.1123805866518
 10
12.22066475704417
 20
72.1123805866518
 10
12.22066475704417
 20
71.17438059612114
  0
HATCH
  5
74
330
2
100
AcDbEntity
  8
0
  6
Continuous
100
AcDbHatch
 10
0.0
 20
0.0
 30
0.0
210
0.0
220
0.0
230
1.0
  2
STEEL
 70
     0
 71
     0
 91
        1
 92
        7
 72
     0
 73
     1
 93
        6
 10
13.22166475704415
 20
71.5623805866518
 10
13.22166475704421
 20
72.28219885058748
 10
13.1596647570442
 20
72.28219885058748
 10
13.15966475704414
 20
71.50038058665178
 10
13.81679615131889
 20
71.50038058665178
 10
13.81679615131889
 20
71.5623805866518
 97
        0
 75
     0
 76
     1
 52
-0.0000000000000127
 41
1.0
 77
     0
 78
     2
 53
44.99999999999999
 43
111.1150495925699
 44
28.29632810564472
 45
-0.0883883476483184
 46
0.0883883476483185
 79
     0
 53
44.99999999999999
 43
111.1150495925699
 44
28.35882810564472
 45
-0.0883883476483184
 46
0.0883883476483185
 79
     0
 47
0.003572857848563
 98
        1
 10
13.33024032218856
 20
71.53476249969556
  0
LINE
  5
75
330
2
100
AcDbEntity
  8
0
100
AcDbLine
 10
13.1596647570442
 20
72.28219885058748
 30
0.0
 11
13.15966475704414
 21
71.50038058665178
 31
0.0
  0
LINE
  5
76
330
2
100
AcDbEntity
  8
0
  6
Continuous
100
AcDbLine
 10
13.15966475704414
 20
71.50038058665178
 30
0.0
 11
13.81679615131889
 21
71.50038058665178
 31
0.0
  0
LINE
  5
77
330
2
100
AcDbEntity
  8
0
  6
Continuous
100
AcDbLine
 10
13.22166475704415
 20
71.5623805866518
 30
0.0
 11
13.81679615131889
 21
71.5623805866518
 31
0.0
  0
LINE
  5
78
330
2
100
AcDbEntity
  8
0
  6
Continuous
100
AcDbLine
 10
13.81679615131889
 20
71.5623805866518
 30
0.0
 11
13.81679615131889
 21
71.50038058665178
 31
0.0
  0
LINE
  5
79
330
2
100
AcDbEntity
  8
0
100
AcDbLine
 10
13.22166475704421
 20
72.28219885058748
 30
0.0
 11
13.22166475704415
 21
71.5623805866518
 31
0.0
  0
INSERT
  5
7A
330
2
100
AcDbEntity
  8
0
100
AcDbBlockReference
  2
8 x .75 FH
 10
13.22166475704421
 20
71.92228971861966
 30
0.0
 50
270.0
  0
INSERT
  5
C8
330
2
100
AcDbEntity
  8
0
100
AcDbBlockReference
  2
8 X .625 PH
 10
13.51923045418152
 20
71.5623805866518
 30
0.0
  0
LINE
  5
11D
330
2
100
AcDbEntity
  8
0
100
AcDbLine
 10
13.22166475704421
 20
72.28219885058748
 30
0.0
 11
13.15966475704425
 21
72.2821988505875
 31
0.0
  0
HATCH
  5
11E
330
2
100
AcDbEntity
  8
0
100
AcDbHatch
 10
0.0
 20
0.0
 30
0.0
210
0.0
220
0.0
230
1.0
  2
SOLID
 70
     1
 71
     0
 91
        1
 92
        7
 72
     1
 73
     1
 93
        2
 10
14.53466475704414
 20
66.2700423613751
 42
0.0
 10
14.5346647570442
 20
66.45754236137507
 42
-0.6666666666666311
 97
        0
 75
     1
 76
     1
 47
0.0010014887122476
 98
        1
 10
14.58072483339106
 20
66.38494755741923
1001
GradientColor1ACI
1070
     5
1001
GradientColor2ACI
1070
     2
1001
ACAD
1010
0.0
1020
0.0
1030
0.0
  0
HATCH
  5
121
330
2
100
AcDbEntity
  8
0
100
AcDbHatch
 10
0.0
 20
0.0
 30
0.0
210
0.0
220
0.0
230
1.0
  2
SOLID
 70
     1
 71
     0
 91
        1
 92
        7
 72
     1
 73
     1
 93
        2
 10
13.62543459956407
 20
66.2700423613751
 42
0.0
 10
13.62543459956407
 20
66.45754236137507
 42
0.6666666666666311
 97
        0
 75
     1
 76
     1
 47
0.0010014887122476
 98
        1
 10
13.57937452321715
 20
66.38494755741923
1001
GradientColor1ACI
1070
     5
1001
GradientColor2ACI
1070
     2
1001
ACAD
1010
0.0
1020
0.0
1030
0.0
  0
LWPOLYLINE
  5
122
102
{ACAD_REACTORS
330
22E
102
}
330
2
100
AcDbEntity
  8
0
100
AcDbPolyline
 90
       11
 70
     1
 43
0.0
 10
13.62543459956407
 20
66.45754236137507
 10
13.62543459956407
 20
66.7075423613751
 10
13.25143459956405
 20
66.70754236137508
 10
13.25143459956405
 20
66.42604236137508
 42
0.4142135623731695
 10
13.282434599564
 20
66.3950423613751
 10
13.32895936785053
 20
66.3950423613751
 42
-0.235730494161761
 10
13.35373556242655
 20
66.38267405969627
 10
13.52313363670157
 20
66.15741066305393
 42
0.235730494161718
 10
13.54790983127759
 20
66.1450423613751
 10
13.62543459956407
 20
66.1450423613751
 10
13.62543459956407
 20
66.2700423613751
 42
-0.6666666666666588
  0
LWPOLYLINE
  5
123
330
2
100
AcDbEntity
  8
0
100
AcDbPolyline
 90
        4
 70
     0
 43
0.0
 10
14.37692467830413
 20
65.51993899323075
 10
14.37692467830413
 20
66.59854236137473
 10
14.5346647570442
 20
66.59854236137473
 10
14.5346647570442
 20
65.51993899323075
  0
LWPOLYLINE
  5
124
330
2
100
AcDbEntity
  8
0
100
AcDbPolyline
 90
        4
 70
     0
 43
0.0
 10
13.78317467830413
 20
65.51993899323075
 10
13.78317467830413
 20
66.59854236137473
 10
13.62543459956407
 20
66.59854236137473
 10
13.62543459956407
 20
65.51993899323075
  0
LWPOLYLINE
  5
125
330
2
100
AcDbEntity
  8
0
100
AcDbPolyline
 90
       14
 70
     1
 43
0.0
 10
13.89254967830413
 20
66.38871762042619
 42
-0.3359746306540741
 10
13.86004576855714
 20
66.36835486137444
 10
13.8241746783043
 20
66.3925423613746
 42
0.4142135623730951
 10
13.8085496783043
 20
66.37691736137459
 10
13.8085496783043
 20
66.19529236137442
 10
14.35154967830397
 20
66.19529236137442
 10
14.35154967830397
 20
66.37691736137459
 42
0.414213562373094
 10
14.33592467830397
 20
66.3925423613746
 10
14.3004368902458
 20
66.36835486137444
 42
-0.3208708054700532
 10
14.26754967830413
 20
66.38908052950684
 10
14.26754967830413
 20
66.44591736137501
 42
0.4142135623730951
 10
14.25192467830413
 20
66.46154236137501
 10
13.90817467830413
 20
66.46154236137501
 42
0.4142135623730951
 10
13.89254967830413
 20
66.44591736137501
  0
LWPOLYLINE
  5
126
330
2
100
AcDbEntity
  8
0
100
AcDbPolyline
 90
       14
 70
     1
 43
0.0
 10
13.89954967830465
 20
66.38749922028184
 42
-0.3593608004949541
 10
13.85754979098067
 20
66.36159520440107
 10
13.82233084386837
 20
66.38534297111984
 42
0.3524310491054993
 10
13.81554967830391
 20
66.37691736137459
 10
13.81554967830391
 20
66.19529236137442
 10
14.34454967830436
 20
66.19529236137442
 10
14.34454967830436
 20
66.37691736137459
 42
0.3518693664465323
 10
14.33778535060276
 20
66.38533926873607
 10
14.30286095943677
 20
66.36153576455673
 42
-0.3446308864324803
 10
14.26054967830362
 20
66.38777467855836
 10
14.26054967830362
 20
66.44591736137501
 42
0.4142135623730946
 10
14.25192467830413
 20
66.4545423613745
 10
13.90817467830413
 20
66.4545423613745
 42
0.4142135623730946
 10
13.89954967830465
 20
66.44591736137501
  0
LWPOLYLINE
  5
127
330
2
100
AcDbEntity
  8
0
100
AcDbPolyline
 90
       10
 70
     1
 43
0.0
 10
13.92379967830413
 20
66.38397986137444
 42
-0.3584554666094669
 10
13.85889583215078
 20
66.33710486137444
 10
13.8397996783043
 20
66.33710486137444
 10
13.8397996783043
 20
66.22654236137442
 10
14.32029967830397
 20
66.22654236137442
 10
14.32029967830397
 20
66.33710486137444
 10
14.30120352445749
 20
66.33710486137444
 42
-0.3467993108968364
 10
14.23629967830413
 20
66.38397986137444
 10
14.23629967830413
 20
66.430292361375
 10
13.92379967830413
 20
66.430292361375
  0
LWPOLYLINE
  5
128
330
2
100
AcDbEntity
  8
0
100
AcDbPolyline
 90
        6
 70
     0
 43
0.0
 10
13.8085496783043
 20
66.22354236137472
 10
13.79879967830413
 20
66.22354236137472
 10
13.79879967830413
 20
66.18554236137426
 10
14.36129967830413
 20
66.18554236137426
 10
14.36129967830413
 20
66.22354236137472
 10
14.35154967830397
 20
66.22354236137472
  0
LINE
  5
129
330
2
100
AcDbEntity
  8
0
100
AcDbLine
 10
14.35154967830397
 20
66.37691736137459
 30
0.0
 11
14.37692467830413
 21
66.37691736137459
 31
0.0
  0
LINE
  5
12A
330
2
100
AcDbEntity
  8
0
100
AcDbLine
 10
14.35154967830397
 20
66.22354236137472
 30
0.0
 11
14.37692467830413
 21
66.22354236137472
 31
0.0
  0
LINE
  5
12B
330
2
100
AcDbEntity
  8
0
100
AcDbLine
 10
13.8085496783043
 20
66.37691736137459
 30
0.0
 11
13.78317467830413
 21
66.37691736137459
 31
0.0
  0
LINE
  5
12C
330
2
100
AcDbEntity
  8
0
100
AcDbLine
 10
13.8085496783043
 20
66.22354236137472
 30
0.0
 11
13.78317467830413
 21
66.22354236137472
 31
0.0
  0
HATCH
  5
12D
330
2
100
AcDbEntity
  8
0
  6
Continuous
100
AcDbHatch
 10
0.0
 20
0.0
 30
0.0
210
0.0
220
0.0
230
1.0
  2
DOTS
 70
     0
 71
     0
 91
        2
 92
        7
 72
     0
 73
     1
 93
        4
 10
13.8085496783043
 20
66.37691736137459
 10
13.78317467830413
 20
66.37691736137459
 10
13.78317467830413
 20
66.22354236137472
 10
13.8085496783043
 20
66.22354236137472
 97
        0
 92
        7
 72
     0
 73
     1
 93
        4
 10
14.37692467830413
 20
66.37691736137459
 10
14.35154967830397
 20
66.37691736137459
 10
14.35154967830397
 20
66.22354236137472
 10
14.37692467830413
 20
66.22354236137472
 97
        0
 75
     0
 76
     1
 52
360.0
 41
0.1
 77
     0
 78
     1
 53
360.0
 43
7.689694932767565
 44
68.67124710496138
 45
0.003125
 46
-0.00625
 79
     2
 49
0.0
 49
-0.00625
 47
0.0006001443632006
 98
        2
 10
13.79682938815688
 20
66.31933242132619
 10
14.36671431755269
 20
66.31573154752733
  0
HATCH
  5
12E
330
2
100
AcDbEntity
  8
0
  6
Continuous
100
AcDbHatch
 10
0.0
 20
0.0
 30
0.0
210
0.0
220
0.0
230
1.0
  2
DASH
 70
     0
 71
     0
 91
        1
 92
        7
 72
     1
 73
     1
 93
       16
 10
14.25192467830413
 20
66.46154236137501
 42
-0.4142135623730951
 10
14.26754967830413
 20
66.44591736137501
 42
0.0
 10
14.26754967830413
 20
66.38908052950684
 42
0.3208708054700533
 10
14.3004368902458
 20
66.36835486137444
 42
0.0
 10
14.33592467830397
 20
66.3925423613746
 42
-0.414213562373094
 10
14.35154967830397
 20
66.37691736137459
 42
0.0
 10
14.37692467830504
 20
66.37691736137459
 42
0.0
 10
14.37692467830322
 20
66.59854236137381
 42
0.0
 10
13.78317467830413
 20
66.59854236137381
 42
0.0
 10
13.78317467830413
 20
66.37691736137459
 42
0.0
 10
13.8085496783043
 20
66.37691736137459
 42
-0.4142135623730951
 10
13.8241746783043
 20
66.3925423613746
 42
0.0
 10
13.86004576855714
 20
66.36835486137444
 42
0.3359746306540741
 10
13.89254967830413
 20
66.38871762042619
 42
0.0
 10
13.89254967830413
 20
66.44591736137501
 42
-0.4142135623730951
 10
13.90817467830413
 20
66.46154236137501
 42
0.0
 97
        0
 75
     0
 76
     1
 52
360.0
 41
0.1
 77
     0
 78
     1
 53
360.0
 43
7.689694932767565
 44
68.67124710496138
 45
0.0125
 46
-0.0125
 79
     2
 49
0.0125
 49
-0.0125
 47
0.0009600803746669
 98
        1
 10
14.12907115838891
 20
66.51238163356904
  0
LINE
  5
12F
330
2
100
AcDbEntity
  8
0
100
AcDbLine
 10
13.62543459956407
 20
66.7075423613751
 30
0.0
 11
14.5346647570442
 21
66.59854236137473
 31
0.0
  0
LWPOLYLINE
  5
130
330
2
100
AcDbEntity
  8
0
100
AcDbPolyline
 90
        8
 70
     0
 43
0.0
 10
13.62543459956407
 20
66.7075423613751
 10
14.5346647570442
 20
66.7075423613751
 10
14.5346647570442
 20
66.59854236137473
 10
13.62543459956407
 20
66.59854236137473
 10
13.62543459956407
 20
66.7075423613751
 10
14.5346647570442
 20
66.59854236137473
 10
13.62543459956407
 20
66.59854236137473
 10
14.5346647570442
 20
66.7075423613751
  0
HATCH
  5
131
330
2
100
AcDbEntity
  8
0
100
AcDbHatch
 10
0.0
 20
0.0
 30
0.0
210
0.0
220
0.0
230
1.0
  2
SOLID
 70
     1
 71
     0
 91
        1
 92
        7
 72
     1
 73
     1
 93
        2
 10
14.53466475704414
 20
60.64500293231503
 42
0.0
 10
14.53466475704414
 20
60.45750293231506
 42
0.6666666666666311
 97
        0
 75
     1
 76
     1
 47
0.0010014887122476
 98
        1
 10
14.58072483339106
 20
60.5300977362709
1001
GradientColor1ACI
1070
     5
1001
GradientColor2ACI
1070
     2
1001
ACAD
1010
0.0
1020
0.0
1030
0.0
  0
HATCH
  5
132
330
2
100
AcDbEntity
  8
0
100
AcDbHatch
 10
0.0
 20
0.0
 30
0.0
210
0.0
220
0.0
230
1.0
  2
SOLID
 70
     1
 71
     0
 91
        1
 92
        7
 72
     1
 73
     1
 93
        2
 10
13.62543459956407
 20
60.64500293231503
 42
0.0
 10
13.62543459956401
 20
60.45750293231506
 42
-0.6666666666666311
 97
        0
 75
     1
 76
     1
 47
0.0010014887122476
 98
        1
 10
13.57937452321715
 20
60.5300977362709
1001
GradientColor1ACI
1070
     5
1001
GradientColor2ACI
1070
     2
1001
ACAD
1010
0.0
1020
0.0
1030
0.0
  0
LWPOLYLINE
  5
133
102
{ACAD_REACTORS
330
1FD
102
}
330
2
100
AcDbEntity
  8
0
100
AcDbPolyline
 90
       11
 70
     1
 43
0.0
 10
13.62543459956401
 20
60.45750293231506
 10
13.62543459956401
 20
60.20750293231504
 10
13.25143459956405
 20
60.20750293231507
 10
13.25143459956399
 20
60.48900293231506
 42
-0.4142135623731695
 10
13.282434599564
 20
60.52000293231504
 10
13.32895936785047
 20
60.52000293231504
 42
0.235730494161761
 10
13.35373556242649
 20
60.53237123399387
 10
13.52313363670151
 20
60.7576346306362
 42
-0.235730494161718
 10
13.54790983127754
 20
60.77000293231503
 10
13.62543459956407
 20
60.77000293231503
 10
13.62543459956407
 20
60.64500293231503
 42
0.6666666666666588
  0
LWPOLYLINE
  5
134
330
2
100
AcDbEntity
  8
0
100
AcDbPolyline
 90
        4
 70
     0
 43
0.0
 10
14.37692467830408
 20
61.39510630045939
 10
14.37692467830408
 20
60.31650293231542
 10
14.53466475704414
 20
60.31650293231542
 10
14.53466475704414
 20
61.39510630045939
  0
LWPOLYLINE
  5
135
330
2
100
AcDbEntity
  8
0
100
AcDbPolyline
 90
        4
 70
     0
 43
0.0
 10
13.78317467830408
 20
61.39510630045939
 10
13.78317467830408
 20
60.31650293231542
 10
13.62543459956401
 20
60.31650293231542
 10
13.62543459956401
 20
61.39510630045939
  0
LWPOLYLINE
  5
136
330
2
100
AcDbEntity
  8
0
100
AcDbPolyline
 90
       14
 70
     1
 43
0.0
 10
13.89254967830408
 20
60.52632767326395
 42
0.3359746306540741
 10
13.86004576855708
 20
60.54669043231569
 10
13.82417467830424
 20
60.52250293231555
 42
-0.4142135623730951
 10
13.80854967830424
 20
60.53812793231554
 10
13.80854967830424
 20
60.71975293231571
 10
14.35154967830391
 20
60.71975293231571
 10
14.35154967830391
 20
60.53812793231554
 42
-0.414213562373094
 10
14.33592467830391
 20
60.52250293231555
 10
14.30043689024575
 20
60.54669043231569
 42
0.3208708054700532
 10
14.26754967830408
 20
60.52596476418329
 10
14.26754967830408
 20
60.46912793231513
 42
-0.4142135623730951
 10
14.25192467830408
 20
60.45350293231513
 10
13.90817467830408
 20
60.45350293231513
 42
-0.4142135623730951
 10
13.89254967830408
 20
60.46912793231513
  0
LWPOLYLINE
  5
137
330
2
100
AcDbEntity
  8
0
100
AcDbPolyline
 90
       14
 70
     1
 43
0.0
 10
13.89954967830459
 20
60.5275460734083
 42
0.3593608004949541
 10
13.85754979098061
 20
60.55345008928907
 10
13.82233084386831
 20
60.5297023225703
 42
-0.3524310491054993
 10
13.81554967830385
 20
60.53812793231554
 10
13.81554967830385
 20
60.71975293231571
 10
14.3445496783043
 20
60.71975293231571
 10
14.3445496783043
 20
60.53812793231554
 42
-0.3518693664465323
 10
14.3377853506027
 20
60.52970602495406
 10
14.30286095943671
 20
60.5535095291334
 42
0.3446308864324803
 10
14.26054967830356
 20
60.52727061513178
 10
14.26054967830356
 20
60.46912793231513
 42
-0.4142135623730946
 10
14.25192467830408
 20
60.46050293231565
 10
13.90817467830408
 20
60.46050293231565
 42
-0.4142135623730946
 10
13.89954967830459
 20
60.46912793231513
  0
LWPOLYLINE
  5
138
330
2
100
AcDbEntity
  8
0
100
AcDbPolyline
 90
       10
 70
     1
 43
0.0
 10
13.92379967830408
 20
60.5310654323157
 42
0.3584554666094669
 10
13.85889583215072
 20
60.5779404323157
 10
13.83979967830424
 20
60.5779404323157
 10
13.83979967830424
 20
60.68850293231571
 10
14.32029967830391
 20
60.68850293231571
 10
14.32029967830391
 20
60.5779404323157
 10
14.30120352445743
 20
60.5779404323157
 42
0.3467993108968364
 10
14.23629967830408
 20
60.5310654323157
 10
14.23629967830408
 20
60.48475293231513
 10
13.92379967830408
 20
60.48475293231513
  0
LWPOLYLINE
  5
139
330
2
100
AcDbEntity
  8
0
100
AcDbPolyline
 90
        6
 70
     0
 43
0.0
 10
13.80854967830424
 20
60.69150293231541
 10
13.79879967830408
 20
60.69150293231541
 10
13.79879967830408
 20
60.72950293231588
 10
14.36129967830408
 20
60.72950293231588
 10
14.36129967830408
 20
60.69150293231541
 10
14.35154967830391
 20
60.69150293231541
  0
LINE
  5
13A
330
2
100
AcDbEntity
  8
0
100
AcDbLine
 10
14.35154967830391
 20
60.53812793231554
 30
0.0
 11
14.37692467830408
 21
60.53812793231554
 31
0.0
  0
LINE
  5
13B
330
2
100
AcDbEntity
  8
0
100
AcDbLine
 10
14.35154967830391
 20
60.69150293231541
 30
0.0
 11
14.37692467830408
 21
60.69150293231541
 31
0.0
  0
LINE
  5
13C
330
2
100
AcDbEntity
  8
0
100
AcDbLine
 10
13.80854967830424
 20
60.53812793231554
 30
0.0
 11
13.78317467830408
 21
60.53812793231554
 31
0.0
  0
LINE
  5
13D
330
2
100
AcDbEntity
  8
0
100
AcDbLine
 10
13.80854967830424
 20
60.69150293231541
 30
0.0
 11
13.78317467830408
 21
60.69150293231541
 31
0.0
  0
HATCH
  5
13E
330
2
100
AcDbEntity
  8
0
  6
Continuous
100
AcDbHatch
 10
0.0
 20
0.0
 30
0.0
210
0.0
220
0.0
230
1.0
  2
DOTS
 70
     0
 71
     0
 91
        2
 92
        7
 72
     0
 73
     1
 93
        4
 10
13.80854967830424
 20
60.53812793231554
 10
13.78317467830408
 20
60.53812793231554
 10
13.78317467830408
 20
60.69150293231541
 10
13.80854967830424
 20
60.69150293231541
 97
        0
 92
        7
 72
     0
 73
     1
 93
        4
 10
14.37692467830408
 20
60.53812793231554
 10
14.35154967830391
 20
60.53812793231554
 10
14.35154967830391
 20
60.69150293231541
 10
14.37692467830408
 20
60.69150293231541
 97
        0
 75
     0
 76
     1
 52
360.0
 41
0.1
 77
     0
 78
     1
 53
360.0
 43
7.689694932767508
 44
63.79641441219002
 45
0.003125
 46
-0.00625
 79
     2
 49
0.0
 49
-0.00625
 47
0.0006001443632006
 98
        2
 10
13.79682938815682
 20
60.59571287236394
 10
14.36671431755263
 20
60.5993137461628
  0
HATCH
  5
13F
330
2
100
AcDbEntity
  8
0
  6
Continuous
100
AcDbHatch
 10
0.0
 20
0.0
 30
0.0
210
0.0
220
0.0
230
1.0
  2
DASH
 70
     0
 71
     0
 91
        1
 92
        7
 72
     1
 73
     1
 93
       16
 10
14.25192467830408
 20
60.45350293231513
 42
0.4142135623730951
 10
14.26754967830408
 20
60.46912793231513
 42
0.0
 10
14.26754967830408
 20
60.52596476418329
 42
-0.3208708054700533
 10
14.30043689024575
 20
60.54669043231569
 42
0.0
 10
14.33592467830391
 20
60.52250293231555
 42
0.414213562373094
 10
14.35154967830391
 20
60.53812793231554
 42
0.0
 10
14.37692467830499
 20
60.53812793231554
 42
0.0
 10
14.37692467830317
 20
60.31650293231632
 42
0.0
 10
13.78317467830408
 20
60.31650293231632
 42
0.0
 10
13.78317467830408
 20
60.53812793231554
 42
0.0
 10
13.80854967830424
 20
60.53812793231554
 42
0.4142135623730951
 10
13.82417467830424
 20
60.52250293231555
 42
0.0
 10
13.86004576855708
 20
60.54669043231569
 42
-0.3359746306540741
 10
13.89254967830408
 20
60.52632767326395
 42
0.0
 10
13.89254967830408
 20
60.46912793231513
 42
0.4142135623730951
 10
13.90817467830408
 20
60.45350293231513
 42
0.0
 97
        0
 75
     0
 76
     1
 52
360.0
 41
0.1
 77
     0
 78
     1
 53
360.0
 43
7.689694932767508
 44
63.79641441219002
 45
0.0125
 46
-0.0125
 79
     2
 49
0.0125
 49
-0.0125
 47
0.0009600803746669
 98
        1
 10
14.12907115838885
 20
60.40266366012111
  0
LINE
  5
140
330
2
100
AcDbEntity
  8
0
100
AcDbLine
 10
13.62543459956401
 20
60.20750293231504
 30
0.0
 11
14.53466475704414
 21
60.31650293231542
 31
0.0
  0
LWPOLYLINE
  5
141
330
2
100
AcDbEntity
  8
0
100
AcDbPolyline
 90
        8
 70
     0
 43
0.0
 10
13.62543459956401
 20
60.20750293231504
 10
14.53466475704414
 20
60.20750293231504
 10
14.53466475704414
 20
60.31650293231542
 10
13.62543459956401
 20
60.31650293231542
 10
13.62543459956401
 20
60.20750293231504
 10
14.53466475704414
 20
60.31650293231542
 10
13.62543459956401
 20
60.31650293231542
 10
14.53466475704414
 20
60.20750293231504
  0
LWPOLYLINE
  5
142
102
{ACAD_REACTORS
330
25F
330
270
330
2E7
102
}
330
2
100
AcDbEntity
  8
0
  6
Continuous
100
AcDbPolyline
 90
       26
 70
     0
 43
0.0
 10
13.22166475704409
 20
70.8623805866518
 10
15.28466475704419
 20
70.8623695216411
 10
15.28466475704419
 20
70.80036952164109
 10
15.77663258629974
 20
70.80036952164109
 10
15.77663258629974
 20
70.67536952164108
 10
15.28466475704414
 20
70.67536952164108
 10
15.28466475704419
 20
70.42436952164108
 42
0.4142135623730951
 10
15.34666475704421
 20
70.36236952164109
 10
17.65966491670013
 20
70.36237558984341
 42
0.4142128141791537
 10
17.7221647570442
 20
70.42487558984318
 10
17.7221647570442
 20
71.20738059122762
 42
-1.000000000000008
 10
17.7221647570442
 20
71.42538059122763
 10
17.7221647570442
 20
71.50038058665178
 10
17.03516475704418
 20
71.50038058665178
 10
17.03516475704418
 20
71.5503805866518
 10
16.81672202997617
 20
71.5503805866518
 42
-0.9999999999999998
 10
16.56672202997618
 20
71.5503805866518
 10
16.15564867167194
 20
71.5503805866518
 42
-0.9999999999999998
 10
15.90564867167194
 20
71.5503805866518
 10
15.65564867167194
 20
71.5503805866518
 42
-0.9999999999999998
 10
15.40564867167194
 20
71.5503805866518
 10
13.9097232659322
 20
71.5503805866518
 42
-0.9999999999999998
 10
13.6597232659322
 20
71.5503805866518
 10
13.15966475704414
 20
71.5503805866518
 10
13.15966475704414
 20
70.92488058665181
 42
0.4142135623730951
 10
13.22216475704414
 20
70.8623805866518
  0
HATCH
  5
143
330
2
100
AcDbEntity
  8
0
100
AcDbHatch
 10
0.0
 20
0.0
 30
0.0
210
0.0
220
0.0
230
1.0
  2
HONEY
 70
     0
 71
     0
 91
        2
 92
       16
 93
        9
 72
     1
 10
15.62780716056517
 20
70.76991212369079
 11
15.62780716056517
 21
70.79958881407027
 72
     1
 10
15.62780716056517
 20
70.79958881407025
 11
15.2504097741778
 21
70.79943315499979
 72
     1
 10
15.2504097741778
 20
70.79943315499979
 11
15.25054190323163
 21
70.47908459170618
 72
     1
 10
15.25054190323163
 20
70.47908459170621
 11
15.28404345624113
 21
70.47909840955653
 72
     1
 10
15.28404345624119
 20
70.47909840955653
 11
15.28392290807358
 21
70.77136896757709
 72
     1
 10
15.28392290807358
 20
70.77136896757709
 11
15.59734944091525
 21
70.77149824161161
 72
     1
 10
15.59734944091525
 20
70.77149824161161
 11
15.50244280110104
 21
70.67651328024251
 72
     1
 10
15.50244280110104
 20
70.67651328024251
 11
15.53448533080979
 21
70.67651328024251
 72
     1
 10
15.53448533080979
 20
70.67651328024251
 11
15.62780716056511
 21
70.76991212369079
 97
        0
 92
        1
 93
       11
 72
     1
 10
15.18074137461883
 20
70.47033313623739
 11
15.18062888867621
 21
70.74305672783161
 72
     2
 10
15.23775689978862
 20
70.74308029050964
 40
0.0571280159716573
 50
179.9763681265573
 51
269.9763681265644
 73
     0
 72
     1
 10
15.23773333711057
 20
70.80020830162204
 11
15.6285875355021
 21
70.80036951100876
 72
     1
 10
15.6285875355021
 20
70.80036951100876
 11
15.62863909225064
 21
70.67536952164115
 72
     1
 10
15.62863909225064
 20
70.67536952164115
 11
15.28466475704408
 21
70.67522764804262
 72
     1
 10
15.28466475704414
 20
70.67522764804262
 11
15.28478146297709
 21
70.39227263654606
 72
     2
 10
15.09727243721721
 20
70.41411703800846
 40
0.1887771506741734
 50
6.644883199816937
 51
173.3078530532888
 73
     0
 72
     1
 10
14.90978149487427
 20
70.3921179663004
 11
14.90965280587403
 21
70.70412607610363
 72
     2
 10
14.99845492862175
 20
70.69803655960907
 40
0.0890106691113012
 50
-176.077140640901
 51
-3.970123105996244
 73
     0
 72
     1
 10
15.08725199786545
 20
70.70419932760493
 11
15.02316508538263
 21
70.49376226748252
 72
     2
 10
15.10020651835714
 20
70.47029991931189
 40
0.0805348631119007
 50
523.0623079543601
 51
720.0236318734479
 73
     1
 97
        0
 75
     1
 76
     1
 52
0.0
 41
0.2
 77
     0
 78
     3
 53
0.0
 43
-92.86623439457082
 44
19.55402566393515
 45
0.0375
 46
0.021650635094611
 79
     2
 49
0.025
 49
-0.05
 53
120.0
 43
-92.86623439457082
 44
19.55402566393515
 45
-0.0375
 46
0.021650635094611
 79
     2
 49
0.025
 49
-0.0499999999999999
 53
60.0
 43
-92.86623439457082
 44
19.55402566393515
 45
0.0
 46
0.043301270189222
 79
     2
 49
-0.05
 49
0.025
 98
        1
 10
120.9355639086591
 20
19.55402566393515
1001
GradientColor1ACI
1070
     5
1001
GradientColor2ACI
1070
     2
1001
ACAD
1010
0.0
1020
0.0
1030
0.0
  0
LWPOLYLINE
  5
144
330
2
100
AcDbEntity
  8
0
100
AcDbPolyline
 90
       11
 70
     1
 43
0.0
 10
15.18074137461883
 20
70.47033313623739
 10
15.18062888867621
 20
70.74305672783161
 42
-0.4142135623731042
 10
15.23773333711057
 20
70.80020830162204
 10
15.6285875355021
 20
70.80036951100876
 10
15.62863909225064
 20
70.67536952164115
 10
15.28466475704414
 20
70.67522764804262
 10
15.28478146297709
 20
70.39227263654606
 42
-0.8898955318630001
 10
14.90978149487427
 20
70.3921179663004
 10
14.90965280587403
 20
70.70412607610363
 42
-0.9333884728362816
 10
15.08725199786545
 20
70.70419932760493
 10
15.02316508538263
 20
70.49376226748252
 42
1.16016115395227
  0
LWPOLYLINE
  5
145
330
2
100
AcDbEntity
  8
0
  6
Continuous
100
AcDbPolyline
 90
        9
 70
     1
 43
0.0
 10
15.62780716056517
 20
70.76991212369079
 10
15.62780716056517
 20
70.79958881407025
 10
15.2504097741778
 20
70.79943315499979
 10
15.25054190323163
 20
70.47908459170621
 10
15.28404345624119
 20
70.47909840955653
 10
15.28392290807358
 20
70.77136896757709
 10
15.59734944091525
 20
70.77149824161161
 10
15.50244280110104
 20
70.67651328024251
 10
15.53448533080979
 20
70.67651328024251
  0
LWPOLYLINE
  5
146
330
2
100
AcDbEntity
  8
0
  6
Continuous
100
AcDbPolyline
 90
       22
 70
     1
 43
0.0
 10
15.37882090331322
 20
52.75137009327953
 10
15.37882090331322
 20
52.89500293231508
 42
-0.4142135623730938
 10
15.44082090331324
 20
52.95700293231509
 10
15.78432090331318
 20
52.95700293231509
 10
15.78432090331318
 20
53.01950293231509
 42
-0.4142135623730951
 10
15.8463209033132
 20
53.08150293231507
 10
17.41032090331322
 20
53.08150293231507
 42
-0.4142135623730951
 10
17.47232090331323
 20
53.01950293231509
 10
17.47232090331323
 20
52.87800293231509
 10
17.72182090331319
 20
52.87800293231509
 10
17.72182090331319
 20
52.08200293231509
 10
12.92482090331322
 20
52.08200293231506
 42
-0.4142135623730951
 10
12.86282090331321
 20
52.14400293231507
 10
12.86282090331321
 20
52.36200293231506
 10
12.6128209033132
 20
52.36200293231506
 10
12.6128209033132
 20
52.25400293231508
 42
-0.4142135623730961
 10
12.55082090331325
 20
52.19200293231508
 10
12.28482090331323
 20
52.19200293231508
 10
12.28482090331323
 20
52.7610672655032
 10
15.20294557783961
 20
53.01637009327954
 42
-0.4348123749609336
 10
15.26927047921174
 20
52.95452112216342
 10
15.26927047921174
 20
52.75137009327953
  0
LWPOLYLINE
  5
147
330
2
100
AcDbEntity
  8
0
  6
Continuous
100
AcDbPolyline
 90
       11
 70
     0
 43
0.0
 10
15.28463024581174
 20
53.39429592246976
 10
15.78466475704414
 20
53.39429592246976
 10
15.78466475704414
 20
53.2692959224698
 10
15.28466908196429
 20
53.2692959224698
 10
15.2847360328256
 20
53.08150293231507
 10
17.72182090331319
 20
53.08150293231507
 10
17.72182090331319
 20
53.70650293231507
 42
0.4142135623730955
 10
17.65982090331323
 20
53.76850293231509
 10
15.31566475704414
 20
53.76850293231509
 42
0.4142135623730951
 10
15.28466475704414
 20
53.73750293231508
 10
15.28466475704414
 20
53.39429592246976
  0
LWPOLYLINE
  5
148
102
{ACAD_REACTORS
330
20F
102
}
330
2
100
AcDbEntity
  8
0
100
AcDbPolyline
 90
       14
 70
     1
 43
0.0
 10
12.2535456912625
 20
52.14400293231507
 10
12.2535456912625
 20
52.75695088678022
 10
15.28504569126249
 20
53.02217277025907
 10
15.28504569126249
 20
52.75137009327953
 10
15.36304569126247
 20
52.75137009327953
 10
15.36304569126247
 20
53.02011639844486
 10
15.75404569126249
 20
53.02011639844486
 10
15.75404569126249
 20
53.08211639844488
 10
15.25883427541191
 20
53.08211639844488
 10
12.19154569126249
 20
52.8137634195693
 10
12.19154569126249
 20
52.08200293231506
 10
12.56670205903424
 20
52.08200293231506
 10
12.56670205903424
 20
52.14400293231507
 10
12.5035456912625
 20
52.14400293231507
  0
HATCH
  5
149
330
2
100
AcDbEntity
  8
0
100
AcDbHatch
 10
0.0
 20
0.0
 30
0.0
210
0.0
220
0.0
230
1.0
  2
HONEY
 70
     0
 71
     0
 91
        2
 92
       16
 93
        9
 72
     1
 10
15.62780716056517
 20
53.29975330978776
 11
15.62780716056517
 21
53.27007661940827
 72
     1
 10
15.62780716056517
 20
53.2700766194083
 11
15.2504097741778
 21
53.27023227847876
 72
     1
 10
15.2504097741778
 20
53.27023227847876
 11
15.25054190323163
 21
53.59058084177236
 72
     1
 10
15.25054190323163
 20
53.59058084177234
 11
15.28404345624113
 21
53.59056702392201
 72
     1
 10
15.28404345624119
 20
53.59056702392201
 11
15.28392290807358
 21
53.29829646590146
 72
     1
 10
15.28392290807358
 20
53.29829646590146
 11
15.59734944091525
 21
53.29816719186694
 72
     1
 10
15.59734944091525
 20
53.29816719186694
 11
15.50244280110104
 21
53.39315215323605
 72
     1
 10
15.50244280110104
 20
53.39315215323605
 11
15.53448533080979
 21
53.39315215323605
 72
     1
 10
15.53448533080979
 20
53.39315215323605
 11
15.62780716056511
 21
53.29975330978776
 97
        0
 92
        1
 93
       11
 72
     1
 10
15.18074137461883
 20
53.59933229724116
 11
15.18062888867621
 21
53.32660870564693
 72
     2
 10
15.23775689978862
 20
53.32658514296891
 40
0.0571280159716573
 50
179.9763681265573
 51
269.9763681265644
 73
     1
 72
     1
 10
15.23773333711057
 20
53.2694571318565
 11
15.6285875355021
 21
53.2692959224698
 72
     1
 10
15.6285875355021
 20
53.2692959224698
 11
15.62863909225064
 21
53.39429591183741
 72
     1
 10
15.62863909225064
 20
53.39429591183741
 11
15.28466475704408
 21
53.39443778543593
 72
     1
 10
15.28466475704414
 20
53.39443778543593
 11
15.28478146297709
 21
53.6773927969325
 72
     2
 10
15.09727243721721
 20
53.65554839547009
 40
0.1887771506741734
 50
6.644883199816937
 51
173.3078530532888
 73
     1
 72
     1
 10
14.90978149487427
 20
53.67754746717814
 11
14.90965280587403
 21
53.36553935737491
 72
     2
 10
14.99845492862175
 20
53.37162887386948
 40
0.0890106691113012
 50
-176.077140640901
 51
-3.970123105996244
 73
     1
 72
     1
 10
15.08725199786545
 20
53.36546610587361
 11
15.02316508538263
 21
53.57590316599602
 72
     2
 10
15.10020651835714
 20
53.59936551416665
 40
0.0805348631119007
 50
523.0623079543601
 51
720.0236318734479
 73
     0
 97
        0
 75
     1
 76
     1
 52
0.0
 41
0.2
 77
     0
 78
     3
 53
0.0
 43
-92.86623439457082
 44
2.272952054131408
 45
0.0375
 46
0.021650635094611
 79
     2
 49
0.025
 49
-0.05
 53
120.0
 43
-92.86623439457082
 44
2.272952054131408
 45
-0.0375
 46
0.021650635094611
 79
     2
 49
0.0249999999999999
 49
-0.0499999999999999
 53
60.0
 43
-92.86623439457082
 44
2.272952054131408
 45
0.0
 46
0.043301270189222
 79
     2
 49
-0.05
 49
0.025
 98
        1
 10
120.9355639086591
 20
104.5156397695434
1001
GradientColor1ACI
1070
     5
1001
GradientColor2ACI
1070
     2
1001
ACAD
1010
0.0
1020
0.0
1030
0.0
  0
LWPOLYLINE
  5
14A
330
2
100
AcDbEntity
  8
0
100
AcDbPolyline
 90
       11
 70
     1
 43
0.0
 10
15.18074137461883
 20
53.59933229724116
 10
15.18062888867621
 20
53.32660870564693
 42
0.4142135623731042
 10
15.23773333711057
 20
53.2694571318565
 10
15.6285875355021
 20
53.2692959224698
 10
15.62863909225064
 20
53.39429591183741
 10
15.28466475704414
 20
53.39443778543593
 10
15.28478146297709
 20
53.6773927969325
 42
0.8898955318630001
 10
14.90978149487427
 20
53.67754746717814
 10
14.90965280587403
 20
53.36553935737491
 42
0.9333884728362816
 10
15.08725199786545
 20
53.36546610587361
 10
15.02316508538263
 20
53.57590316599602
 42
-1.16016115395227
  0
LWPOLYLINE
  5
14B
330
2
100
AcDbEntity
  8
0
  6
Continuous
100
AcDbPolyline
 90
        9
 70
     1
 43
0.0
 10
15.62780716056517
 20
53.29975330978776
 10
15.62780716056517
 20
53.2700766194083
 10
15.2504097741778
 20
53.27023227847876
 10
15.25054190323163
 20
53.59058084177234
 10
15.28404345624119
 20
53.59056702392201
 10
15.28392290807358
 20
53.29829646590146
 10
15.59734944091525
 20
53.29816719186694
 10
15.50244280110104
 20
53.39315215323605
 10
15.53448533080979
 20
53.39315215323605
  0
LWPOLYLINE
  5
14C
102
{ACAD_REACTORS
330
2D6
102
}
330
2
100
AcDbEntity
  8
0
100
AcDbPolyline
 90
       11
 70
     1
 43
0.0
 10
20.22155075636931
 20
53.01900293231502
 42
0.4142135623730951
 10
20.15905075636931
 20
53.08150293231502
 10
17.72182090331324
 20
53.08150293231499
 10
17.53382090331331
 20
53.08150293231499
 10
17.53382090331331
 20
52.9094508010579
 10
17.72182090331319
 20
52.89300293231504
 10
17.72182090331319
 20
52.08200293231509
 10
18.34682090331319
 20
52.08200293231509
 10
18.47185332468075
 20
52.33195968824531
 10
18.97155075636931
 20
52.08200293231509
 10
20.22155075636931
 20
52.08200293231509
  0
LWPOLYLINE
  5
14D
102
{ACAD_REACTORS
330
24E
102
}
330
2
100
AcDbEntity
  8
0
100
AcDbPolyline
 90
       19
 70
     1
 43
0.0
 10
18.28439461010032
 20
70.75238058665217
 10
18.28439461010032
 20
70.54988058665215
 42
-0.4142135623730818
 10
18.22239461010031
 20
70.48788058665214
 10
17.72216475704425
 20
70.48788058665214
 10
17.72216475704425
 20
70.65888058207632
 42
0.3200000000033261
 10
17.72216475704425
 20
70.78388058207794
 10
17.72216475704425
 20
71.22338059122795
 42
-1.0
 10
17.72216475704425
 20
71.4093805912273
 10
17.72216475704425
 20
71.50038058665213
 10
18.34716475704425
 20
71.50038058665213
 10
18.47219717841176
 20
71.25042383072188
 10
18.97189461010032
 20
71.50038058665213
 10
20.22189461010032
 20
71.50038058665209
 10
20.22189461010032
 20
70.92538058665211
 42
-0.4142135623730959
 10
20.15989461010031
 20
70.86338058665212
 10
18.28439461010032
 20
70.86338058665216
 10
18.28439461010032
 20
70.85878548943175
 10
18.04458444430861
 20
70.87976616033682
 10
18.03534593557742
 20
70.77416952233908
  0
HATCH
  5
14E
330
2
100
AcDbEntity
  8
0
100
AcDbHatch
 10
0.0
 20
0.0
 30
0.0
210
0.0
220
0.0
230
1.0
  2
HONEY
 70
     0
 71
     0
 91
        1
 92
        1
 93
       16
 72
     1
 10
18.17039461010034
 20
70.75938058665217
 11
18.17539461010034
 21
70.80138058665217
 72
     1
 10
18.17539461010034
 20
70.80138058665214
 11
18.28439461010032
 21
70.80138058665214
 72
     1
 10
18.28439461010032
 20
70.80138058665214
 11
18.28439461010032
 21
70.54838058665213
 72
     2
 10
18.34639461010033
 20
70.54838058665215
 40
0.0620000000000118
 50
180.0
 51
270.0
 73
     1
 72
     1
 10
18.34639461010033
 20
70.48638058665215
 11
18.39362081141326
 21
70.4863805866522
 72
     2
 10
18.39362081141326
 20
70.50138058665218
 40
0.0149999999999864
 50
270.0
 51
340.1499454782621
 73
     1
 72
     1
 10
18.4077295786584
 20
70.49628719025865
 11
18.52761562533322
 21
70.82837293379807
 72
     2
 10
18.51350685808802
 20
70.83346633019157
 40
0.0149999999999975
 50
340.1499454783642
 51
429.5218661953308
 73
     1
 72
     1
 10
18.51875460639161
 20
70.84751841678905
 11
18.48877502039636
 21
70.85871428584782
 72
     2
 10
18.48352727209283
 20
70.84466219925035
 40
0.0149999999999873
 50
429.5218661952929
 51
520.1499454783641
 73
     1
 72
     1
 10
18.46941850484768
 20
70.84975559564388
 11
18.37650337734556
 21
70.59237961187922
 72
     2
 10
18.36239461010041
 20
70.59747300827273
 40
0.0149999999999804
 50
19.85005452177482
 51
179.9999999998914
 73
     0
 72
     1
 10
18.34739461010036
 20
70.59747300827273
 11
18.34739461010036
 21
70.83238058665215
 72
     2
 10
18.31639461010036
 20
70.83238058665215
 40
0.0310000000000059
 50
360.0
 51
450.0
 73
     1
 72
     1
 10
18.31639461010036
 20
70.86338058665216
 11
18.06639461010036
 21
70.86338058665216
 72
     1
 10
18.06639461010036
 20
70.86338058665216
 11
18.17039461010034
 21
70.75938058665217
 97
        0
 75
     1
 76
     1
 52
360.0
 41
0.15
 77
     0
 78
     3
 53
360.0
 43
185.3098577763496
 44
-86.94136697689289
 45
0.028125
 46
0.0162379763209582
 79
     2
 49
0.01875
 49
-0.0375
 53
119.9999999999999
 43
185.3098577763496
 44
-86.94136697689289
 45
-0.028125
 46
0.0162379763209582
 79
     2
 49
0.01875
 49
-0.0374999999999999
 53
59.99999999999997
 43
185.3098577763496
 44
-86.94136697689289
 45
0.0
 46
0.0324759526419165
 79
     2
 49
-0.0375
 49
0.01875
 98
        1
 10
-147.116068556149
 20
-86.94136697689289
1001
GradientColor1ACI
1070
     5
1001
GradientColor2ACI
1070
     2
1001
ACAD
1010
0.0
1020
0.0
1030
0.0
  0
LWPOLYLINE
  5
14F
330
2
100
AcDbEntity
  8
0
100
AcDbPolyline
 90
       16
 70
     1
 43
0.0
 10
18.17039461010034
 20
70.75938058665217
 10
18.17539461010034
 20
70.80138058665214
 10
18.28439461010032
 20
70.80138058665214
 10
18.28439461010032
 20
70.54838058665215
 42
0.4142135623730951
 10
18.34639461010033
 20
70.48638058665215
 10
18.39362081141326
 20
70.4863805866522
 42
0.3160182401893135
 10
18.4077295786584
 20
70.49628719025865
 10
18.52761562533322
 20
70.82837293379803
 42
0.4110064843483962
 10
18.51875460639161
 20
70.84751841678905
 10
18.48877502039636
 20
70.85871428584782
 42
0.4174279297685614
 10
18.46941850484768
 20
70.84975559564388
 10
18.37650337734556
 20
70.59237961187919
 42
-0.840215161469082
 10
18.34739461010036
 20
70.59747300827273
 10
18.34739461010036
 20
70.83238058665215
 42
0.4142135623730951
 10
18.31639461010036
 20
70.86338058665216
 10
18.06639461010036
 20
70.86338058665216
  0
INSERT
  5
150
330
2
100
AcDbEntity
  8
0
100
AcDbBlockReference
  2
8 X 1.5 FH
 10
18.40968096772747
 20
71.37540220868818
 30
0.0
 41
-1.0
 50
296.5749607025987
  0
LINE
  5
1BE
330
2
100
AcDbEntity
  8
0
  6
HIDDEN2
100
AcDbLine
 10
22.0168753668878
 20
65.51993899323075
 30
0.0
 11
13.62543459956407
 21
65.51993899323075
 31
0.0
  0
LINE
  5
1C0
330
2
100
AcDbEntity
  8
0
  6
HIDDEN2
100
AcDbLine
 10
22.0168753668878
 20
61.39493899323075
 30
0.0
 11
13.62543459956401
 21
61.39493899323075
 31
0.0
  0
LWPOLYLINE
  5
1C1
330
2
100
AcDbEntity
  8
0
  6
HIDDEN2
100
AcDbPolyline
 90
        4
 70
     0
 43
0.02
 10
20.00314461010032
 20
66.45663058665025
 10
19.91407615471701
 20
66.45663058665025
 42
0.4142135623730951
 10
19.86757615471697
 20
66.41013058665027
 10
19.86757615471697
 20
65.51993899323079
  0
LWPOLYLINE
  5
1C2
330
2
100
AcDbEntity
  8
0
100
AcDbPolyline
 90
        2
 70
     1
 43
0.05859375
 10
19.9445116624521
 20
66.48592746165025
 42
1.0
 10
19.9445116624521
 20
66.42733371165025
 42
1.0
  0
HATCH
  5
1C3
330
2
100
AcDbEntity
  8
0
100
AcDbHatch
 10
0.0
 20
0.0
 30
0.0
210
0.0
220
0.0
230
1.0
  2
SOLID
 70
     1
 71
     0
 91
        1
 92
        7
 72
     0
 73
     1
 93
        4
 10
22.1418753668878
 20
66.51913058665025
 10
22.0168753668878
 20
66.51913058665027
 10
22.0168753668878
 20
66.39413058665025
 10
22.1418753668878
 20
66.39413058665025
 97
        0
 75
     1
 76
     1
 47
0.0019978748433788
 98
        1
 10
22.05497652174847
 20
66.47247186436084
1001
GradientColor1ACI
1070
     5
1001
GradientColor2ACI
1070
     2
1001
ACAD
1010
0.0
1020
0.0
1030
0.0
  0
HATCH
  5
1C4
330
2
100
AcDbEntity
  8
0
100
AcDbHatch
 10
0.0
 20
0.0
 30
0.0
210
0.0
220
0.0
230
1.0
  2
SOLID
 70
     1
 71
     0
 91
        1
 92
        7
 72
     1
 73
     1
 93
        2
 10
21.85913528814785
 20
66.26913058665024
 42
0.0
 10
21.85913528814774
 20
66.45663058665022
 42
0.6666666666666311
 97
        0
 75
     1
 76
     1
 47
0.0010014887122476
 98
        1
 10
21.81307521180088
 20
66.38403578269438
1001
GradientColor1ACI
1070
     5
1001
GradientColor2ACI
1070
     2
1001
ACAD
1010
0.0
1020
0.0
1030
0.0
  0
LWPOLYLINE
  5
1C5
330
2
100
AcDbEntity
  8
0
100
AcDbPolyline
 90
        4
 70
     0
 43
0.0
 10
22.0168753668878
 20
65.5190272185059
 10
22.0168753668878
 20
66.59763058664987
 10
21.85913528814774
 20
66.59763058664987
 10
21.85913528814774
 20
65.5190272185059
  0
LWPOLYLINE
  5
1C6
330
2
100
AcDbEntity
  8
0
100
AcDbPolyline
 90
        8
 70
     0
 43
0.0
 10
21.85913528814774
 20
66.70663058665025
 10
22.0168753668878
 20
66.70663058665025
 10
22.0168753668878
 20
66.59763058664987
 10
21.85913528814774
 20
66.59763058664987
 10
21.85913528814774
 20
66.70663058665025
 10
22.0168753668878
 20
66.59763058664987
 10
21.85913528814774
 20
66.59763058664987
 10
22.0168753668878
 20
66.70663058665025
  0
LWPOLYLINE
  5
1C7
330
2
100
AcDbEntity
  8
0
  6
Continuous
100
AcDbPolyline
 90
       24
 70
     1
 43
0.0
 10
20.25314461010032
 20
62.64563407357019
 10
20.25314461010032
 20
64.26924391289137
 10
20.15810566298217
 20
64.2692439128968
 42
0.389902449071936
 10
19.97310566297722
 20
64.47041676422117
 10
19.97310566297722
 20
64.52002398999496
 10
19.87814461010032
 20
64.52002398999496
 10
19.87814461010032
 20
64.27052398999689
 10
20.00314461010032
 20
64.27052398999689
 10
20.00314461010032
 20
64.14552398999688
 10
19.87814461010032
 20
64.14552398999688
 10
19.87814461010032
 20
63.95752398999687
 10
18.53439461009111
 20
63.95752398999687
 42
0.4142135623747382
 10
18.50314461009657
 20
63.92627398999668
 10
18.50314461009111
 20
62.98860399646486
 42
0.4142135623747382
 10
18.53439461009111
 20
62.95735399646469
 10
19.87814461010032
 20
62.95735399646469
 10
19.87814461010032
 20
62.7693539964647
 10
20.00314461010032
 20
62.76935399646467
 10
20.00314461010032
 20
62.64435399646467
 10
19.87814461010032
 20
62.64435399646467
 10
19.87814461010032
 20
62.39485399646659
 10
19.97310566297722
 20
62.39485399646659
 10
19.97310566297722
 20
62.44446122224039
 42
0.3899024490719359
 10
20.15810566298217
 20
62.64563407356476
  0
LWPOLYLINE
  5
1C8
330
2
100
AcDbEntity
  8
0
  6
HIDDEN2
100
AcDbPolyline
 90
        4
 70
     0
 43
0.02
 10
20.00314461010032
 20
62.70735399646468
 10
19.91407615471701
 20
62.70735399646468
 42
0.4142135623730951
 10
19.86757615471697
 20
62.6608539964647
 10
19.86757615471697
 20
61.76975062832034
  0
LWPOLYLINE
  5
1C9
330
2
100
AcDbEntity
  8
0
100
AcDbPolyline
 90
        2
 70
     1
 43
0.05859375
 10
19.9445116624521
 20
62.73665087146468
 42
1.0
 10
19.9445116624521
 20
62.67805712146468
 42
1.0
  0
LWPOLYLINE
  5
1CA
330
2
100
AcDbEntity
  8
0
  6
HIDDEN2
100
AcDbPolyline
 90
        4
 70
     0
 43
0.02
 10
20.00314461010032
 20
64.20752398999687
 10
19.91407615471701
 20
64.20752398999687
 42
-0.4142135623730951
 10
19.86757615471697
 20
64.25402398999685
 10
19.86757615471697
 20
65.14512735814122
  0
LWPOLYLINE
  5
1CB
330
2
100
AcDbEntity
  8
0
100
AcDbPolyline
 90
        2
 70
     1
 43
0.05859375
 10
19.9445116624521
 20
64.17822711499687
 42
-1.0
 10
19.9445116624521
 20
64.23682086499687
 42
-1.0
  0
LWPOLYLINE
  5
1CC
102
{ACAD_REACTORS
330
2B4
102
}
330
2
100
AcDbEntity
  8
0
  6
Continuous
100
AcDbPolyline
 90
       24
 70
     1
 43
0.0
 10
22.3918753668878
 20
62.64563407357019
 10
22.3918753668878
 20
64.26924391289137
 10
22.29683641976965
 20
64.2692439128968
 42
0.389902449071936
 10
22.1118364197647
 20
64.47041676422117
 10
22.1118364197647
 20
64.52002398999496
 10
22.0168753668878
 20
64.52002398999496
 10
22.0168753668878
 20
64.27052398999689
 10
22.1418753668878
 20
64.27052398999689
 10
22.1418753668878
 20
64.14552398999688
 10
22.0168753668878
 20
64.14552398999688
 10
22.0168753668878
 20
63.95752398999687
 10
20.67312536687859
 20
63.95752398999687
 42
0.4142135623747382
 10
20.64187536688405
 20
63.92627398999668
 10
20.64187536687859
 20
62.98860399646486
 42
0.4142135623747382
 10
20.67312536687859
 20
62.95735399646469
 10
22.0168753668878
 20
62.95735399646469
 10
22.0168753668878
 20
62.7693539964647
 10
22.1418753668878
 20
62.76935399646467
 10
22.1418753668878
 20
62.64435399646467
 10
22.0168753668878
 20
62.64435399646467
 10
22.0168753668878
 20
62.39485399646659
 10
22.1118364197647
 20
62.39485399646659
 10
22.1118364197647
 20
62.44446122224039
 42
0.3899024490719359
 10
22.29683641976965
 20
62.64563407356476
  0
HATCH
  5
1CD
330
2
100
AcDbEntity
  8
0
100
AcDbHatch
 10
0.0
 20
0.0
 30
0.0
210
0.0
220
0.0
230
1.0
  2
SOLID
 70
     1
 71
     0
 91
        1
 92
        7
 72
     0
 73
     1
 93
        4
 10
22.1418753668878
 20
64.14502398999687
 10
22.0168753668878
 20
64.14502398999684
 10
22.0168753668878
 20
64.27002398999687
 10
22.1418753668878
 20
64.27002398999687
 97
        0
 75
     1
 76
     1
 47
0.0019978748433788
 98
        1
 10
22.05497652174847
 20
64.19168271228627
1001
GradientColor1ACI
1070
     5
1001
GradientColor2ACI
1070
     2
1001
ACAD
1010
0.0
1020
0.0
1030
0.0
  0
HATCH
  5
1CE
330
2
100
AcDbEntity
  8
0
100
AcDbHatch
 10
0.0
 20
0.0
 30
0.0
210
0.0
220
0.0
230
1.0
  2
SOLID
 70
     1
 71
     0
 91
        1
 92
        7
 72
     1
 73
     1
 93
        2
 10
21.85913528814785
 20
64.39502398999687
 42
0.0
 10
21.85913528814774
 20
64.2075239899969
 42
-0.6666666666666311
 97
        0
 75
     1
 76
     1
 47
0.0010014887122476
 98
        1
 10
21.81307521180088
 20
64.28011879395274
1001
GradientColor1ACI
1070
     5
1001
GradientColor2ACI
1070
     2
1001
ACAD
1010
0.0
1020
0.0
1030
0.0
  0
LWPOLYLINE
  5
1CF
330
2
100
AcDbEntity
  8
0
100
AcDbPolyline
 90
        4
 70
     0
 43
0.0
 10
22.0168753668878
 20
65.14512735814122
 10
22.0168753668878
 20
64.06652398999725
 10
21.85913528814774
 20
64.06652398999725
 10
21.85913528814774
 20
65.14512735814122
  0
LWPOLYLINE
  5
1D0
330
2
100
AcDbEntity
  8
0
100
AcDbPolyline
 90
        8
 70
     0
 43
0.0
 10
21.85913528814774
 20
63.95752398999687
 10
22.0168753668878
 20
63.95752398999687
 10
22.0168753668878
 20
64.06652398999725
 10
21.85913528814774
 20
64.06652398999725
 10
21.85913528814774
 20
63.95752398999687
 10
22.0168753668878
 20
64.06652398999725
 10
21.85913528814774
 20
64.06652398999725
 10
22.0168753668878
 20
63.95752398999687
  0
HATCH
  5
1D1
330
2
100
AcDbEntity
  8
0
100
AcDbHatch
 10
0.0
 20
0.0
 30
0.0
210
0.0
220
0.0
230
1.0
  2
SOLID
 70
     1
 71
     0
 91
        1
 92
        7
 72
     0
 73
     1
 93
        4
 10
22.1418753668878
 20
62.76985399646469
 10
22.0168753668878
 20
62.76985399646472
 10
22.0168753668878
 20
62.64485399646469
 10
22.1418753668878
 20
62.64485399646469
 97
        0
 75
     1
 76
     1
 47
0.0019978748433788
 98
        1
 10
22.05497652174847
 20
62.72319527417528
1001
GradientColor1ACI
1070
     5
1001
GradientColor2ACI
1070
     2
1001
ACAD
1010
0.0
1020
0.0
1030
0.0
  0
HATCH
  5
1D2
330
2
100
AcDbEntity
  8
0
100
AcDbHatch
 10
0.0
 20
0.0
 30
0.0
210
0.0
220
0.0
230
1.0
  2
SOLID
 70
     1
 71
     0
 91
        1
 92
        7
 72
     1
 73
     1
 93
        2
 10
21.85913528814785
 20
62.51985399646469
 42
0.0
 10
21.85913528814774
 20
62.70735399646466
 42
0.6666666666666311
 97
        0
 75
     1
 76
     1
 47
0.0010014887122476
 98
        1
 10
21.81307521180088
 20
62.63475919250883
1001
GradientColor1ACI
1070
     5
1001
GradientColor2ACI
1070
     2
1001
ACAD
1010
0.0
1020
0.0
1030
0.0
  0
LWPOLYLINE
  5
1D3
330
2
100
AcDbEntity
  8
0
100
AcDbPolyline
 90
        4
 70
     0
 43
0.0
 10
22.0168753668878
 20
61.76975062832034
 10
22.0168753668878
 20
62.84835399646431
 10
21.85913528814774
 20
62.84835399646431
 10
21.85913528814774
 20
61.76975062832034
  0
LWPOLYLINE
  5
1D4
330
2
100
AcDbEntity
  8
0
100
AcDbPolyline
 90
        8
 70
     0
 43
0.0
 10
21.85913528814774
 20
62.95735399646469
 10
22.0168753668878
 20
62.95735399646469
 10
22.0168753668878
 20
62.84835399646431
 10
21.85913528814774
 20
62.84835399646431
 10
21.85913528814774
 20
62.95735399646469
 10
22.0168753668878
 20
62.84835399646431
 10
21.85913528814774
 20
62.84835399646431
 10
22.0168753668878
 20
62.95735399646469
  0
LINE
  5
1D5
330
2
100
AcDbEntity
  8
0
  6
HIDDEN2
100
AcDbLine
 10
19.86757615471697
 20
65.14512735814122
 30
0.0
 11
22.0168753668878
 21
65.14512735814122
 31
0.0
  0
LINE
  5
1D6
330
2
100
AcDbEntity
  8
0
  6
HIDDEN2
100
AcDbLine
 10
19.86757615471697
 20
61.76975062832034
 30
0.0
 11
22.0168753668878
 21
61.76975062832034
 31
0.0
  0
LWPOLYLINE
  5
1D7
330
2
100
AcDbEntity
  8
0
100
AcDbPolyline
 90
       10
 70
     1
 43
0.0
 10
21.85913528814774
 20
64.20752398999687
 10
21.85913528814774
 20
63.95752398999687
 10
20.85913528814774
 20
63.95752398999687
 10
20.85913528814774
 20
64.13113184532844
 42
-0.3738846794847955
 10
20.88582092201801
 20
64.16183015545946
 10
21.24966005643421
 20
64.21296441110769
 10
21.42835909357177
 20
64.45059610942886
 42
-0.2357304941617284
 10
21.45313528814779
 20
64.46296441110769
 10
21.85913528814774
 20
64.52002398999687
 10
21.85913528814774
 20
64.39502398999687
 42
0.6666666666666656
  0
LWPOLYLINE
  5
1D8
330
2
100
AcDbEntity
  8
0
100
AcDbPolyline
 90
       10
 70
     1
 43
0.0
 10
19.8569274515844
 20
64.20752398999687
 10
19.8569274515844
 20
63.95752398999687
 10
18.8569274515844
 20
63.95752398999687
 10
18.8569274515844
 20
64.13113184532844
 42
-0.3738846794847955
 10
18.88361308545461
 20
64.16183015545946
 10
19.24745221987086
 20
64.21296441110769
 10
19.42615125700837
 20
64.45059610942886
 42
-0.2357304941617284
 10
19.45092745158439
 20
64.46296441110769
 10
19.8569274515844
 20
64.52002398999687
 10
19.8569274515844
 20
64.39502398999687
 42
0.6666666666666656
  0
LWPOLYLINE
  5
1D9
330
2
100
AcDbEntity
  8
0
100
AcDbPolyline
 90
       10
 70
     1
 43
0.0
 10
19.8569274515844
 20
62.70735399646466
 10
19.8569274515844
 20
62.95735399646466
 10
18.8569274515844
 20
62.95735399646466
 10
18.8569274515844
 20
62.78374614113309
 42
0.3738846794847955
 10
18.88361308545461
 20
62.75304783100208
 10
19.24745221987086
 20
62.70191357535384
 10
19.42615125700837
 20
62.46428187703267
 42
0.2357304941617284
 10
19.45092745158439
 20
62.45191357535384
 10
19.8569274515844
 20
62.39485399646466
 10
19.8569274515844
 20
62.51985399646466
 42
-0.6666666666666656
  0
LWPOLYLINE
  5
1DA
330
2
100
AcDbEntity
  8
0
100
AcDbPolyline
 90
       10
 70
     1
 43
0.0
 10
21.85913528814774
 20
62.70735399646466
 10
21.85913528814774
 20
62.95735399646466
 10
20.85913528814774
 20
62.95735399646466
 10
20.85913528814774
 20
62.78374614113309
 42
0.3738846794847955
 10
20.88582092201801
 20
62.75304783100208
 10
21.24966005643421
 20
62.70191357535384
 10
21.42835909357177
 20
62.46428187703267
 42
0.2357304941617284
 10
21.45313528814779
 20
62.45191357535384
 10
21.85913528814774
 20
62.39485399646466
 10
21.85913528814774
 20
62.51985399646466
 42
-0.6666666666666656
  0
LWPOLYLINE
  5
1DB
102
{ACAD_REACTORS
330
2A3
102
}
330
2
100
AcDbEntity
  8
0
  6
Continuous
100
AcDbPolyline
 90
       25
 70
     0
 43
0.0
 10
22.0168753668878
 20
66.51913058665025
 10
22.1418753668878
 20
66.51913058665025
 10
22.1418753668878
 20
66.39413058665025
 10
22.0168753668878
 20
66.39413058665025
 10
22.0168753668878
 20
66.14463058665217
 10
22.1118364197647
 20
66.14463058665217
 10
22.1118364197647
 20
66.19423781242597
 42
0.3899024490719342
 10
22.29683641976965
 20
66.39541066375034
 10
22.3918753668878
 20
66.39541066375574
 10
22.3918753668878
 20
67.56563058665427
 42
0.4142135623730951
 10
22.3608753668924
 20
67.59663058664966
 10
21.9856253668878
 20
67.59663058664966
 10
21.9856253668878
 20
68.0653805866516
 42
0.4142135623730951
 10
21.9543753668878
 20
68.0966305866516
 10
21.9543753668878
 20
68.0966305866516
 10
21.9543753668878
 20
68.0966305866516
 10
21.9543753668878
 20
68.0966305866516
 10
21.9543753668878
 20
68.0966305866516
 10
21.9543753668878
 20
68.0966305866516
 10
20.70437536689679
 20
68.0966305866516
 10
20.64187536688951
 20
68.0341305866516
 10
20.64187536688223
 20
66.73763058665293
 42
0.4142135623730951
 10
20.67287536689219
 20
66.70663058665025
 10
22.0168753668878
 20
66.70663058665025
 10
22.0168753668878
 20
66.51913058665025
  0
LWPOLYLINE
  5
1DC
330
2
100
AcDbEntity
  8
0
100
AcDbPolyline
 90
       10
 70
     1
 43
0.0
 10
21.85913528814774
 20
66.45663058665022
 10
21.85913528814774
 20
66.70663058665022
 10
20.85913528814774
 20
66.70663058665022
 10
20.85913528814774
 20
66.53302273131865
 42
0.3738846794847955
 10
20.88582092201801
 20
66.50232442118763
 10
21.24966005643421
 20
66.4511901655394
 10
21.42835909357177
 20
66.21355846721823
 42
0.2357304941617284
 10
21.45313528814779
 20
66.2011901655394
 10
21.85913528814774
 20
66.14413058665022
 10
21.85913528814774
 20
66.26913058665022
 42
-0.6666666666666656
  0
LWPOLYLINE
  5
1DD
330
2
100
AcDbEntity
  8
0
  6
Continuous
100
AcDbPolyline
 90
       25
 70
     0
 43
0.0
 10
19.87814461010032
 20
66.51913058665025
 10
20.00314461010032
 20
66.51913058665025
 10
20.00314461010032
 20
66.39413058665025
 10
19.87814461010032
 20
66.39413058665025
 10
19.87814461010032
 20
66.14463058665217
 10
19.97310566297722
 20
66.14463058665217
 10
19.97310566297722
 20
66.19423781242597
 42
0.3899024490719342
 10
20.15810566298217
 20
66.39541066375034
 10
20.25314461010032
 20
66.39541066375574
 10
20.25314461010032
 20
67.56563058665427
 42
0.4142135623730951
 10
20.22214461010492
 20
67.59663058664966
 10
19.84689461010032
 20
67.59663058664966
 10
19.84689461010032
 20
68.0653805866516
 42
0.4142135623730951
 10
19.81564461010032
 20
68.0966305866516
 10
19.81564461010032
 20
68.0966305866516
 10
19.81564461010032
 20
68.0966305866516
 10
19.81564461010032
 20
68.0966305866516
 10
19.81564461010032
 20
68.0966305866516
 10
19.81564461010032
 20
68.0966305866516
 10
18.5656446101093
 20
68.0966305866516
 10
18.50314461010203
 20
68.0341305866516
 10
18.50314461009475
 20
66.73763058665293
 42
0.4142135623730951
 10
18.5341446101047
 20
66.70663058665025
 10
19.87814461010032
 20
66.70663058665025
 10
19.87814461010032
 20
66.51913058665025
  0
LWPOLYLINE
  5
1DE
330
2
100
AcDbEntity
  8
0
100
AcDbPolyline
 90
       10
 70
     1
 43
0.0
 10
19.85651153034735
 20
66.45663058665022
 10
19.85651153034735
 20
66.70663058665022
 10
18.85651153034735
 20
66.70663058665022
 10
18.85651153034735
 20
66.53302273131865
 42
0.3738846794847955
 10
18.88319716421762
 20
66.50232442118763
 10
19.24703629863381
 20
66.4511901655394
 10
19.42573533577138
 20
66.21355846721823
 42
0.2357304941617284
 10
19.4505115303474
 20
66.2011901655394
 10
19.85651153034735
 20
66.14413058665022
 10
19.85651153034735
 20
66.26913058665022
 42
-0.6666666666666656
  0
LWPOLYLINE
  5
1DF
102
{ACAD_REACTORS
330
2A3
102
}
330
2
100
AcDbEntity
  8
0
100
AcDbPolyline
 90
       12
 70
     1
 43
0.0
 10
18.47189461010032
 20
70.67588058665214
 10
18.47189461010032
 20
68.28575558665216
 10
18.53439461010032
 20
68.22325558665216
 10
19.72189461010032
 20
68.22325558665216
 10
19.73283069304108
 20
68.34825558665215
 10
19.84689461010032
 20
68.34825558665215
 10
19.84689461010032
 20
67.66075558665216
 10
20.15963244146963
 20
67.68811660155265
 10
20.22189461010032
 20
67.75606383547438
 10
20.22189461010032
 20
70.67588058665214
 42
0.4142135623730951
 10
20.15939461010032
 20
70.73838058665214
 10
18.53439461010032
 20
70.73838058665214
 42
0.414213562373094
  0
LWPOLYLINE
  5
1E0
102
{ACAD_REACTORS
330
292
330
2C5
102
}
330
2
100
AcDbEntity
  8
0
100
AcDbPolyline
 90
       12
 70
     1
 43
0.0
 10
18.47189461010032
 20
53.4570029323151
 10
18.47189461010032
 20
58.62912239980937
 10
18.53439461010032
 20
58.69162239980937
 10
19.72189461010032
 20
58.69162239980937
 10
19.73283069304108
 20
58.56662239980938
 10
19.84689461010032
 20
58.56662239980938
 10
19.84689461010032
 20
59.25412239980937
 10
20.15963244146963
 20
59.22676138490889
 10
20.22189461010032
 20
59.15881415098716
 10
20.22189461010032
 20
53.4570029323151
 42
-0.4142135623730951
 10
20.15939461010032
 20
53.39450293231511
 10
18.53439461010032
 20
53.39450293231511
 42
-0.414213562373094
  0
LINE
  5
1E1
330
2
100
AcDbEntity
  8
0
  6
HIDDEN
100
AcDbLine
 10
15.47216475704425
 20
65.51993899323072
 30
0.0
 11
15.4721647570442
 21
70.20637505414645
 31
0.0
  0
LINE
  5
1E3
330
2
100
AcDbEntity
  8
0
100
AcDbLine
 10
15.2859745544888
 20
70.20637505414645
 30
0.0
 11
15.28597455448874
 21
65.51993899323072
 31
0.0
  0
LINE
  5
1E4
330
2
100
AcDbEntity
  8
0
100
AcDbLine
 10
16.34897455448873
 20
70.20637505414645
 30
0.0
 11
16.34897455448873
 21
65.51993899323072
 31
0.0
  0
LINE
  5
1E5
330
2
100
AcDbEntity
  8
0
100
AcDbLine
 10
16.28647455448873
 20
70.20637505414645
 30
0.0
 11
16.28647455448873
 21
65.51993899323072
 31
0.0
  0
LINE
  5
1E6
330
2
100
AcDbEntity
  8
0
100
AcDbLine
 10
16.22397455448873
 20
70.20637505414645
 30
0.0
 11
16.22397455448868
 21
65.51993899323072
 31
0.0
  0
LINE
  5
1E7
330
2
100
AcDbEntity
  8
0
100
AcDbLine
 10
14.9096647570442
 20
70.20637505414645
 30
0.0
 11
16.34897455448873
 21
70.20637505414645
 31
0.0
  0
LINE
  5
1E8
330
2
100
AcDbEntity
  8
0
100
AcDbLine
 10
18.28308481265594
 20
65.51993899323076
 30
0.0
 11
18.283084812656
 21
70.20637505414646
 31
0.0
  0
LINE
  5
1E9
330
2
100
AcDbEntity
  8
0
  6
HIDDEN
100
AcDbLine
 10
18.09508481265567
 20
65.51993899323078
 30
0.0
 11
18.0950848126555
 21
70.20637505414646
 31
0.0
  0
LINE
  5
1EA
330
2
100
AcDbEntity
  8
0
100
AcDbLine
 10
17.34408481265564
 20
65.51993899323078
 30
0.0
 11
17.34408481265564
 21
70.20637505414646
 31
0.0
  0
LINE
  5
1EB
330
2
100
AcDbEntity
  8
0
100
AcDbLine
 10
17.28208481265568
 20
65.51993899323078
 30
0.0
 11
17.28208481265568
 21
70.20637505414646
 31
0.0
  0
LINE
  5
1EC
330
2
100
AcDbEntity
  8
0
100
AcDbLine
 10
17.22008481265561
 20
65.51993899323078
 30
0.0
 11
17.2200848126555
 21
70.20637505414646
 31
0.0
  0
LINE
  5
1ED
330
2
100
AcDbEntity
  8
0
100
AcDbLine
 10
17.2200848126555
 20
70.20637505414646
 30
0.0
 11
18.47189461010032
 21
70.20637505414646
 31
0.0
  0
LINE
  5
1EE
330
2
100
AcDbEntity
  8
0
  6
HIDDEN
100
AcDbLine
 10
15.47216475704437
 20
53.98850293231506
 30
0.0
 11
15.47216475704431
 21
61.39493899323072
 31
0.0
  0
LINE
  5
1EF
330
2
100
AcDbEntity
  8
0
100
AcDbLine
 10
15.2859745544888
 20
61.39493899323072
 30
0.0
 11
15.2859745544888
 21
53.98850293231506
 31
0.0
  0
LINE
  5
1F0
330
2
100
AcDbEntity
  8
0
100
AcDbLine
 10
16.34897455448879
 20
61.39493899323072
 30
0.0
 11
16.34897455448879
 21
53.98850293231506
 31
0.0
  0
LINE
  5
1F1
330
2
100
AcDbEntity
  8
0
100
AcDbLine
 10
16.28647455448879
 20
61.39493899323072
 30
0.0
 11
16.28647455448873
 21
53.98850293231506
 31
0.0
  0
LINE
  5
1F2
330
2
100
AcDbEntity
  8
0
100
AcDbLine
 10
16.22397455448873
 20
61.39493899323072
 30
0.0
 11
16.22397455448873
 21
53.98850293231506
 31
0.0
  0
LINE
  5
1F3
330
2
100
AcDbEntity
  8
0
100
AcDbLine
 10
14.90966475704414
 20
53.98850293231506
 30
0.0
 11
16.34897455448879
 21
53.98850293231506
 31
0.0
  0
LINE
  5
1F4
330
2
100
AcDbEntity
  8
0
100
AcDbLine
 10
18.2831008980279
 20
53.98850293231504
 30
0.0
 11
18.28310089802807
 21
61.39493899323075
 31
0.0
  0
LINE
  5
1F5
330
2
100
AcDbEntity
  8
0
100
AcDbLine
 10
17.34410089802793
 20
53.98850293231506
 30
0.0
 11
17.34410089802793
 21
61.39493899323075
 31
0.0
  0
LINE
  5
1F6
330
2
100
AcDbEntity
  8
0
100
AcDbLine
 10
17.28210089802786
 20
53.98850293231506
 30
0.0
 11
17.28210089802786
 21
61.39493899323075
 31
0.0
  0
LINE
  5
1F7
330
2
100
AcDbEntity
  8
0
100
AcDbLine
 10
17.22010089802802
 20
53.98850293231506
 30
0.0
 11
17.22010089802791
 21
61.39493899323075
 31
0.0
  0
LINE
  5
1F8
330
2
100
AcDbEntity
  8
0
100
AcDbLine
 10
17.22010089802802
 20
53.98850293231506
 30
0.0
 11
18.47191069547256
 21
53.98850293231506
 31
0.0
  0
LINE
  5
1F9
330
2
100
AcDbEntity
  8
0
  6
HIDDEN
100
AcDbLine
 10
18.09510089802802
 20
53.9885029323155
 30
0.0
 11
18.09510089802796
 21
61.39493899323119
 31
0.0
  0
INSERT
  5
1FA
330
2
100
AcDbEntity
  8
0
100
AcDbBlockReference
  2
8 X 1.5 FH
 10
18.40933711399623
 20
52.20698131028136
 30
0.0
 41
-1.0
 50
243.4250392969115
  0
DIMENSION
  5
1FB
102
{ACAD_XDICTIONARY
360
1FC
102
}
102
{ACAD_REACTORS
330
1FD
102
}
330
2
100
AcDbEntity
  8
0
100
AcDbDimension
  2
*D4
 10
11.61155224383617
 20
60.77000293231503
 30
0.0
 11
11.61155224383616
 21
57.08225293231505
 31
0.0
 71
     5
 42
7.375499999999973
  3
Knife
100
AcDbAlignedDimension
 13
13.15966475704414
 23
53.39450293231506
 33
0.0
 14
13.54790983127754
 24
60.77000293231503
 34
0.0
 50
90.0
100
AcDbRotatedDimension
1001
ACAD
1000
DSTYLE
1002
{
1070
    40
1040
1.0
1002
}
  0
DIMENSION
  5
20D
102
{ACAD_XDICTIONARY
360
20E
102
}
102
{ACAD_REACTORS
330
20F
102
}
330
2
100
AcDbEntity
  8
0
100
AcDbDimension
  2
*D5
 10
11.61155224383617
 20
53.39450293231506
 30
0.0
 11
11.61155224383616
 21
52.73825293231507
 31
0.0
 71
     5
 42
1.3125
  3
Knife
100
AcDbAlignedDimension
 13
12.19154569126249
 23
52.08200293231506
 33
0.0
 14
13.15966475704414
 24
53.39450293231506
 34
0.0
 50
90.0
100
AcDbRotatedDimension
1001
ACAD
1000
DSTYLE
1002
{
1070
    40
1040
1.0
1002
}
  0
DIMENSION
  5
21E
330
2
100
AcDbEntity
  8
0
100
AcDbDimension
  2
*D6
 10
10.34150566685235
 20
60.77000293231503
 30
0.0
 11
10.34150566685234
 21
56.02226086312928
 31
0.0
 70
   128
 71
     5
 42
8.687999999999973
  3
Knife
100
AcDbAlignedDimension
 13
12.19154569126249
 23
52.08200293231506
 33
0.0
 14
13.54790983127754
 24
60.77000293231503
 34
0.0
 50
90.0
100
AcDbRotatedDimension
1001
ACAD
1000
DSTYLE
1002
{
1070
    40
1040
1.0
1002
}
  0
DIMENSION
  5
22C
102
{ACAD_XDICTIONARY
360
22D
102
}
102
{ACAD_REACTORS
330
22E
102
}
330
2
100
AcDbEntity
  8
0
100
AcDbDimension
  2
*D7
 10
11.61155224383617
 20
70.73737505414645
 30
0.0
 11
11.61155224383616
 21
68.44120870776078
 31
0.0
 71
     5
 42
4.59233269277135
  3
Knife
100
AcDbAlignedDimension
 13
13.5479098312776
 23
66.1450423613751
 33
0.0
 14
13.22166475704415
 24
70.73737505414645
 34
0.0
 50
90.0
100
AcDbRotatedDimension
1001
ACAD
1000
DSTYLE
1002
{
1070
    40
1040
1.0
1002
}
  0
DIMENSION
  5
23D
330
2
100
AcDbEntity
  8
0
100
AcDbDimension
  2
*D8
 10
10.34150566685235
 20
66.1450423613751
 30
0.0
 11
10.34150566685235
 21
68.84771147401345
 31
0.0
 71
     5
 42
5.405338225276693
  3
Knife
100
AcDbAlignedDimension
 13
12.22066475704417
 23
71.5503805866518
 33
0.0
 14
13.5479098312776
 24
66.1450423613751
 34
0.0
 50
90.0
100
AcDbRotatedDimension
1001
ACAD
1000
DSTYLE
1002
{
1070
    40
1040
1.0
1002
}
  0
DIMENSION
  5
24C
102
{ACAD_XDICTIONARY
360
24D
102
}
102
{ACAD_REACTORS
330
24E
102
}
330
2
100
AcDbEntity
  8
0
100
AcDbDimension
  2
*D9
 10
13.22166475704421
 20
72.75415871854573
 30
0.0
 11
16.72177968357226
 21
72.75415871854573
 31
0.0
 71
     5
 42
7.000229853056112
  3
Knife
100
AcDbAlignedDimension
 13
20.22189461010032
 23
71.50038058665209
 33
0.0
 14
13.22166475704421
 24
72.36238058665181
 34
0.0
100
AcDbRotatedDimension
1001
ACAD
1000
DSTYLE
1002
{
1070
    40
1040
1.0
1002
}
  0
DIMENSION
  5
25D
102
{ACAD_XDICTIONARY
360
25E
102
}
102
{ACAD_REACTORS
330
25F
102
}
330
2
100
AcDbEntity
  8
0
100
AcDbDimension
  2
*D10
 10
14.14287999408393
 20
71.5503805866518
 30
0.0
 11
14.82940544723221
 21
72.05089434345971
 31
0.0
 70
   128
 71
     5
 42
0.6880055325053434
  3
Knife
100
AcDbAlignedDimension
 13
14.25316475704414
 23
70.86237505414645
 33
0.0
 14
14.25316475704414
 24
71.5503805866518
 34
0.0
 50
90.0
100
AcDbRotatedDimension
1001
ACAD
1000
DSTYLE
1002
{
1070
    40
1040
1.0
1002
}
  0
DIMENSION
  5
26E
102
{ACAD_XDICTIONARY
360
26F
102
}
102
{ACAD_REACTORS
330
270
102
}
330
2
100
AcDbEntity
  8
0
100
AcDbDimension
  2
*D11
 10
16.34514513927115
 20
70.3623716440348
 30
0.0
 11
16.34514513927114
 21
70.9563761153433
 31
0.0
 71
     5
 42
1.188008942616988
  3
Knife
100
AcDbAlignedDimension
 13
16.15564867167194
 23
71.5503805866518
 33
0.0
 14
16.15565178843723
 24
70.3623716440348
 34
0.0
 50
90.0
100
AcDbRotatedDimension
1001
ACAD
1000
DSTYLE
1002
{
1070
    40
1040
1.0
1002
}
  0
DIMENSION
  5
27F
102
{ACAD_XDICTIONARY
360
280
102
}
102
{ACAD_REACTORS
330
281
102
}
330
2
100
AcDbEntity
  8
0
100
AcDbDimension
  2
*D12
 10
13.15966475704414
 20
57.06471259232618
 30
0.0
 11
14.03466475704414
 21
57.06471259232618
 31
0.0
 71
     5
 42
1.75
  3
Knife
100
AcDbAlignedDimension
 13
14.90966475704414
 23
56.95661289376602
 33
0.0
 14
13.15966475704414
 24
56.95661289376602
 34
0.0
100
AcDbRotatedDimension
1001
ACAD
1000
DSTYLE
1002
{
1070
    40
1040
1.0
1002
}
  0
DIMENSION
  5
290
102
{ACAD_XDICTIONARY
360
291
102
}
102
{ACAD_REACTORS
330
292
102
}
330
2
100
AcDbEntity
  8
0
100
AcDbDimension
  2
*D13
 10
20.22189461010032
 20
57.06471259232618
 30
0.0
 11
19.34689461010032
 21
57.06471259232618
 31
0.0
 71
     5
 42
1.75
  3
Knife
100
AcDbAlignedDimension
 13
18.47189461010032
 23
57.06471259232618
 33
0.0
 14
20.22189461010032
 24
57.06471259232618
 34
0.0
100
AcDbRotatedDimension
1001
ACAD
1000
DSTYLE
1002
{
1070
    40
1040
1.0
1002
}
  0
DIMENSION
  5
2A1
102
{ACAD_XDICTIONARY
360
2A2
102
}
102
{ACAD_REACTORS
330
2A3
102
}
330
2
100
AcDbEntity
  8
0
100
AcDbDimension
  2
*D14
 10
22.9547987302177
 20
70.73838058665214
 30
0.0
 11
22.95479873021769
 21
68.44150558665216
 31
0.0
 71
     5
 42
4.593749999999971
  3
Knife
100
AcDbAlignedDimension
 13
22.1118364197647
 23
66.14463058665217
 33
0.0
 14
20.15939461010031
 24
70.73838058665214
 34
0.0
 50
90.0
100
AcDbRotatedDimension
1001
ACAD
1000
DSTYLE
1002
{
1070
    40
1040
1.0
1002
}
  0
DIMENSION
  5
2B2
102
{ACAD_XDICTIONARY
360
2B3
102
}
102
{ACAD_REACTORS
330
2B4
102
}
330
2
100
AcDbEntity
  8
0
100
AcDbDimension
  2
*D15
 10
22.9547987302177
 20
62.39485399646659
 30
0.0
 11
22.95479873021769
 21
63.45743899323078
 31
0.0
 71
     5
 42
2.125169993528366
  3
Knife
100
AcDbAlignedDimension
 13
22.1118364197647
 23
64.52002398999496
 33
0.0
 14
22.1118364197647
 24
62.39485399646659
 34
0.0
 50
90.0
100
AcDbRotatedDimension
1001
ACAD
1000
DSTYLE
1002
{
1070
    40
1040
1.0
1002
}
  0
DIMENSION
  5
2C3
102
{ACAD_XDICTIONARY
360
2C4
102
}
102
{ACAD_REACTORS
330
2C5
102
}
330
2
100
AcDbEntity
  8
0
100
AcDbDimension
  2
*D16
 10
22.9547987302177
 20
53.39450293231511
 30
0.0
 11
22.95479873021769
 21
57.08237516606227
 31
0.0
 71
     5
 42
7.375744467494314
  3
Knife
100
AcDbAlignedDimension
 13
22.1118364197647
 23
60.77024739980942
 33
0.0
 14
20.15939461010032
 24
53.39450293231511
 34
0.0
 50
90.0
100
AcDbRotatedDimension
1001
ACAD
1000
DSTYLE
1002
{
1070
    40
1040
1.0
1002
}
  0
DIMENSION
  5
2D4
102
{ACAD_XDICTIONARY
360
2D5
102
}
102
{ACAD_REACTORS
330
2D6
102
}
330
2
100
AcDbEntity
  8
0
100
AcDbDimension
  2
*D17
 10
22.9547987302177
 20
52.08200293231509
 30
0.0
 11
22.9547987302177
 21
52.7382529323151
 31
0.0
 71
     5
 42
1.312500000000014
  3
Knife
100
AcDbAlignedDimension
 13
20.15939461010032
 23
53.39450293231511
 33
0.0
 14
20.22155075636931
 24
52.08200293231509
 34
0.0
 50
90.0
100
AcDbRotatedDimension
1001
ACAD
1000
DSTYLE
1002
{
1070
    40
1040
1.0
1002
}
  0
DIMENSION
  5
2E5
102
{ACAD_XDICTIONARY
360
2E6
102
}
102
{ACAD_REACTORS
330
2E7
102
}
330
2
100
AcDbEntity
  8
0
100
AcDbDimension
  2
*D18
 10
25.5744264058514
 20
52.08200293231509
 30
0.0
 11
25.57442640585139
 21
63.5521317869948
 31
0.0
 70
   128
  1
BOX
 71
     5
 42
19.4683776543367
  3
Knife
100
AcDbAlignedDimension
 13
17.03516475704418
 23
71.5503805866518
 33
0.0
 14
20.22155075636931
 24
52.08200293231509
 34
0.0
 50
90.0
100
AcDbRotatedDimension
1001
ACAD
1000
DSTYLE
1002
{
1070
    40
1040
1.0
1002
}
  0
DIMENSION
  5
2F5
330
2
100
AcDbEntity
  8
0
100
AcDbDimension
  2
*D19
 10
25.5744264058514
 20
72.30038058665179
 30
0.0
 11
26.26095185899969
 21
72.9618436216392
 31
0.0
 70
   128
 71
     5
 42
0.75
  3
Knife
100
AcDbAlignedDimension
 13
17.03516475704418
 23
71.5503805866518
 33
0.0
 14
20.7232461912771
 24
72.30038058665179
 34
0.0
 50
90.0
100
AcDbRotatedDimension
1001
ACAD
1000
DSTYLE
1002
{
1070
    40
1040
1.0
1002
}
  0
DIMENSION
  5
304
330
2
100
AcDbEntity
  8
0
100
AcDbDimension
  2
*D20
 10
26.85290661771512
 20
52.08200293231509
 30
0.0
 11
26.85290661771511
 21
63.54012242457975
 31
0.0
 70
   128
  1
ROUGH\POPENING
 71
     5
 42
20.2183776543367
  3
Knife
100
AcDbAlignedDimension
 13
20.7232461912771
 23
72.30038058665179
 33
0.0
 14
20.22155075636931
 24
52.08200293231509
 34
0.0
 50
90.0
100
AcDbRotatedDimension
1001
ACAD
1000
DSTYLE
1002
{
1070
    40
1040
1.0
1002
}
  0
TEXT
  5
312
330
2
100
AcDbEntity
  8
0
100
AcDbText
 10
23.5419600164078
 20
63.45743899323078
 30
0.0
 40
0.25
  1
%%USTORM INSERT
 41
0.55
 51
5.0
 72
     1
 11
24.22381946496193
 21
63.45743899323078
 31
0.0
100
AcDbText
  0
TEXT
  5
313
330
2
100
AcDbEntity
  8
0
100
AcDbText
 10
16.80680551148294
 20
63.45743899323077
 30
0.0
 40
0.25
  1
%%USCREEN INSERT
 41
0.55
 51
5.0
 72
     1
 11
17.54548658074992
 21
63.45743899323077
 31
0.0
100
AcDbText
  0
LWPOLYLINE
  5
314
330
2
100
AcDbEntity
  8
0
  6
HIDDEN2
100
AcDbPolyline
 90
        4
 70
     0
 43
0.02
 10
20.00314461010032
 20
60.45824739981128
 10
19.91407615471701
 20
60.45824739981128
 42
-0.4142135623730951
 10
19.86757615471697
 20
60.50474739981126
 10
19.86757615471697
 20
61.39493899323074
  0
LWPOLYLINE
  5
315
330
2
100
AcDbEntity
  8
0
100
AcDbPolyline
 90
        2
 70
     1
 43
0.05859375
 10
19.9445116624521
 20
60.42895052481128
 42
-1.0
 10
19.9445116624521
 20
60.48754427481128
 42
-1.0
  0
HATCH
  5
316
330
2
100
AcDbEntity
  8
0
100
AcDbHatch
 10
0.0
 20
0.0
 30
0.0
210
0.0
220
0.0
230
1.0
  2
SOLID
 70
     1
 71
     0
 91
        1
 92
        7
 72
     0
 73
     1
 93
        4
 10
22.1418753668878
 20
60.39574739981128
 10
22.0168753668878
 20
60.39574739981126
 10
22.0168753668878
 20
60.52074739981128
 10
22.1418753668878
 20
60.52074739981128
 97
        0
 75
     1
 76
     1
 47
0.0019978748433788
 98
        1
 10
22.05497652174847
 20
60.44240612210069
1001
GradientColor1ACI
1070
     5
1001
GradientColor2ACI
1070
     2
1001
ACAD
1010
0.0
1020
0.0
1030
0.0
  0
HATCH
  5
317
330
2
100
AcDbEntity
  8
0
100
AcDbHatch
 10
0.0
 20
0.0
 30
0.0
210
0.0
220
0.0
230
1.0
  2
SOLID
 70
     1
 71
     0
 91
        1
 92
        7
 72
     1
 73
     1
 93
        2
 10
21.85913528814785
 20
60.64574739981129
 42
0.0
 10
21.85913528814774
 20
60.45824739981132
 42
-0.6666666666666311
 97
        0
 75
     1
 76
     1
 47
0.0010014887122476
 98
        1
 10
21.81307521180088
 20
60.53084220376715
1001
GradientColor1ACI
1070
     5
1001
GradientColor2ACI
1070
     2
1001
ACAD
1010
0.0
1020
0.0
1030
0.0
  0
LWPOLYLINE
  5
318
330
2
100
AcDbEntity
  8
0
100
AcDbPolyline
 90
        4
 70
     0
 43
0.0
 10
22.0168753668878
 20
61.39585076795563
 10
22.0168753668878
 20
60.31724739981166
 10
21.85913528814774
 20
60.31724739981166
 10
21.85913528814774
 20
61.39585076795563
  0
LWPOLYLINE
  5
319
330
2
100
AcDbEntity
  8
0
100
AcDbPolyline
 90
        8
 70
     0
 43
0.0
 10
21.85913528814774
 20
60.20824739981128
 10
22.0168753668878
 20
60.20824739981128
 10
22.0168753668878
 20
60.31724739981166
 10
21.85913528814774
 20
60.31724739981166
 10
21.85913528814774
 20
60.20824739981128
 10
22.0168753668878
 20
60.31724739981166
 10
21.85913528814774
 20
60.31724739981166
 10
22.0168753668878
 20
60.20824739981128
  0
LWPOLYLINE
  5
31A
330
2
100
AcDbEntity
  8
0
  6
Continuous
100
AcDbPolyline
 90
       25
 70
     0
 43
0.0
 10
22.0168753668878
 20
60.39574739981128
 10
22.1418753668878
 20
60.39574739981128
 10
22.1418753668878
 20
60.52074739981128
 10
22.0168753668878
 20
60.52074739981128
 10
22.0168753668878
 20
60.77024739980936
 10
22.1118364197647
 20
60.77024739980936
 10
22.1118364197647
 20
60.72064017403556
 42
-0.3899024490719342
 10
22.29683641976965
 20
60.51946732271119
 10
22.3918753668878
 20
60.51946732270579
 10
22.3918753668878
 20
59.34924739980727
 42
-0.4142135623730951
 10
22.3608753668924
 20
59.31824739981187
 10
21.9856253668878
 20
59.31824739981187
 10
21.9856253668878
 20
58.84949739980993
 42
-0.4142135623730951
 10
21.9543753668878
 20
58.81824739980993
 10
21.9543753668878
 20
58.81824739980993
 10
21.9543753668878
 20
58.81824739980993
 10
21.9543753668878
 20
58.81824739980993
 10
21.9543753668878
 20
58.81824739980993
 10
21.9543753668878
 20
58.81824739980993
 10
20.70437536689679
 20
58.81824739980993
 10
20.64187536688951
 20
58.88074739980993
 10
20.64187536688223
 20
60.1772473998086
 42
-0.4142135623730951
 10
20.67287536689219
 20
60.20824739981128
 10
22.0168753668878
 20
60.20824739981128
 10
22.0168753668878
 20
60.39574739981128
  0
LWPOLYLINE
  5
31B
330
2
100
AcDbEntity
  8
0
100
AcDbPolyline
 90
       10
 70
     1
 43
0.0
 10
21.85913528814774
 20
60.45824739981132
 10
21.85913528814774
 20
60.20824739981131
 10
20.85913528814774
 20
60.20824739981131
 10
20.85913528814774
 20
60.38185525514288
 42
-0.3738846794847955
 10
20.88582092201801
 20
60.4125535652739
 10
21.24966005643421
 20
60.46368782092213
 10
21.42835909357177
 20
60.7013195192433
 42
-0.2357304941617284
 10
21.45313528814779
 20
60.71368782092213
 10
21.85913528814774
 20
60.77074739981132
 10
21.85913528814774
 20
60.64574739981131
 42
0.6666666666666656
  0
LWPOLYLINE
  5
31C
330
2
100
AcDbEntity
  8
0
  6
Continuous
100
AcDbPolyline
 90
       25
 70
     0
 43
0.0
 10
19.87814461010032
 20
60.39574739981128
 10
20.00314461010032
 20
60.39574739981128
 10
20.00314461010032
 20
60.52074739981128
 10
19.87814461010032
 20
60.52074739981128
 10
19.87814461010032
 20
60.77024739980936
 10
19.97310566297722
 20
60.77024739980936
 10
19.97310566297722
 20
60.72064017403556
 42
-0.3899024490719342
 10
20.15810566298217
 20
60.51946732271119
 10
20.25314461010032
 20
60.51946732270579
 10
20.25314461010032
 20
59.34924739980727
 42
-0.4142135623730951
 10
20.22214461010492
 20
59.31824739981187
 10
19.84689461010032
 20
59.31824739981187
 10
19.84689461010032
 20
58.84949739980993
 42
-0.4142135623730951
 10
19.81564461010032
 20
58.81824739980993
 10
19.81564461010032
 20
58.81824739980993
 10
19.81564461010032
 20
58.81824739980993
 10
19.81564461010032
 20
58.81824739980993
 10
19.81564461010032
 20
58.81824739980993
 10
19.81564461010032
 20
58.81824739980993
 10
18.5656446101093
 20
58.81824739980993
 10
18.50314461010203
 20
58.88074739980993
 10
18.50314461009475
 20
60.1772473998086
 42
-0.4142135623730951
 10
18.5341446101047
 20
60.20824739981128
 10
19.87814461010032
 20
60.20824739981128
 10
19.87814461010032
 20
60.39574739981128
  0
LWPOLYLINE
  5
31D
330
2
100
AcDbEntity
  8
0
100
AcDbPolyline
 90
       10
 70
     1
 43
0.0
 10
19.85651153034735
 20
60.45824739981132
 10
19.85651153034735
 20
60.20824739981131
 10
18.85651153034735
 20
60.20824739981131
 10
18.85651153034735
 20
60.38185525514288
 42
-0.3738846794847955
 10
18.88319716421762
 20
60.4125535652739
 10
19.24703629863381
 20
60.46368782092213
 10
19.42573533577138
 20
60.7013195192433
 42
-0.2357304941617284
 10
19.4505115303474
 20
60.71368782092213
 10
19.85651153034735
 20
60.77074739981132
 10
19.85651153034735
 20
60.64574739981131
 42
0.6666666666666656
  0
LWPOLYLINE
  5
31E
330
2
100
AcDbEntity
  8
0
  6
Continuous
100
AcDbPolyline
 90
       16
 70
     1
 43
0.0
 10
18.40989461011679
 20
54.22467769289298
 10
18.40989461010952
 20
53.7586776928999
 42
-0.4142135623730951
 10
18.28489461010952
 20
53.6336776928999
 10
18.22189461010032
 20
53.6336776928999
 10
18.22189461010032
 20
53.38067769289929
 10
18.31489461008652
 20
53.38067769289929
 10
18.31489461008652
 20
53.44567769289798
 10
18.28389461010567
 20
53.44567769289798
 10
18.28389461010567
 20
53.57167769288363
 10
18.40989461011679
 20
53.57167769288363
 10
18.40989461011679
 20
53.44567769289798
 10
18.37889461008501
 20
53.44567769289798
 10
18.37889461008501
 20
53.38067769289929
 10
18.47189461010032
 20
53.38067769289929
 10
18.47189461010032
 20
54.25567769289929
 10
18.44089461010492
 20
54.25567769289298
 42
0.4142135623730951
  0
LWPOLYLINE
  5
31F
330
2
100
AcDbEntity
  8
0
  6
Continuous
100
AcDbPolyline
 90
        2
 70
     0
 43
0.0
 10
18.41347155985511
 20
53.08150293231499
 10
18.37689461011121
 20
53.44567769289798
  0
LWPOLYLINE
  5
320
330
2
100
AcDbEntity
  8
0
  6
Continuous
100
AcDbPolyline
 90
        2
 70
     0
 43
0.0
 10
18.34439461011118
 20
53.08150293231499
 10
18.34439461011118
 20
53.47067769289796
  0
LWPOLYLINE
  5
321
330
2
100
AcDbEntity
  8
0
  6
Continuous
100
AcDbPolyline
 90
        2
 70
     0
 43
0.0
 10
18.34939461011106
 20
53.08150293231499
 10
18.34939461011106
 20
53.47067769289796
  0
LWPOLYLINE
  5
322
330
2
100
AcDbEntity
  8
0
  6
Continuous
100
AcDbPolyline
 90
        3
 70
     0
 43
0.0
 10
18.35356127677789
 20
53.47067769289796
 10
18.35356127677789
 20
53.44567769289798
 10
18.35830357096722
 20
53.08150293231499
  0
LWPOLYLINE
  5
323
330
2
100
AcDbEntity
  8
0
  6
Continuous
100
AcDbPolyline
 90
        3
 70
     0
 43
0.0
 10
18.35689461011122
 20
53.47067769289796
 10
18.35689461011122
 20
53.44567769289798
 10
18.36631667013705
 20
53.08150293231499
  0
LWPOLYLINE
  5
324
330
2
100
AcDbEntity
  8
0
  6
Continuous
100
AcDbPolyline
 90
        3
 70
     0
 43
0.0
 10
18.36022794344455
 20
53.47067769289796
 10
18.36022794344455
 20
53.44567769289798
 10
18.37428472488852
 20
53.08150293231499
  0
LWPOLYLINE
  5
325
330
2
100
AcDbEntity
  8
0
  6
Continuous
100
AcDbPolyline
 90
        3
 70
     0
 43
0.0
 10
18.36356127677788
 20
53.47067769289796
 10
18.36356127677788
 20
53.44567769289798
 10
18.38220838245968
 20
53.08150293231499
  0
LWPOLYLINE
  5
326
330
2
100
AcDbEntity
  8
0
  6
Continuous
100
AcDbPolyline
 90
        3
 70
     0
 43
0.0
 10
18.36689461011122
 20
53.47067769289796
 10
18.36689461011122
 20
53.44567769289798
 10
18.39008827774739
 20
53.08150293231499
  0
LWPOLYLINE
  5
327
330
2
100
AcDbEntity
  8
0
  6
Continuous
100
AcDbPolyline
 90
        3
 70
     0
 43
0.0
 10
18.37022794344455
 20
53.47067769289796
 10
18.37022794344455
 20
53.44567769289798
 10
18.39792503360047
 20
53.08150293231499
  0
LWPOLYLINE
  5
328
330
2
100
AcDbEntity
  8
0
  6
Continuous
100
AcDbPolyline
 90
        3
 70
     0
 43
0.0
 10
18.37356127677788
 20
53.47067769289796
 10
18.37356127677788
 20
53.44567769289798
 10
18.40571926110385
 20
53.08150293231499
  0
LWPOLYLINE
  5
329
330
2
100
AcDbEntity
  8
0
  6
Continuous
100
AcDbPolyline
 90
        3
 70
     0
 43
0.0
 10
18.33548564925502
 20
53.08150293231499
 10
18.34022794344457
 20
53.44567769289798
 10
18.34022794344457
 20
53.47067769289796
  0
LWPOLYLINE
  5
32A
330
2
100
AcDbEntity
  8
0
  6
Continuous
100
AcDbPolyline
 90
        3
 70
     0
 43
0.0
 10
18.32747255008519
 20
53.08150293231499
 10
18.33689461011102
 20
53.44567769289798
 10
18.33689461011102
 20
53.47067769289796
  0
LWPOLYLINE
  5
32B
330
2
100
AcDbEntity
  8
0
  6
Continuous
100
AcDbPolyline
 90
        3
 70
     0
 43
0.0
 10
18.31950449533394
 20
53.08150293231499
 10
18.33356127677769
 20
53.44567769289798
 10
18.33356127677769
 20
53.47067769289796
  0
LWPOLYLINE
  5
32C
330
2
100
AcDbEntity
  8
0
  6
Continuous
100
AcDbPolyline
 90
        3
 70
     0
 43
0.0
 10
18.31158083776279
 20
53.08150293231499
 10
18.33022794344435
 20
53.44567769289798
 10
18.33022794344435
 20
53.47067769289796
  0
LWPOLYLINE
  5
32D
330
2
100
AcDbEntity
  8
0
  6
Continuous
100
AcDbPolyline
 90
        3
 70
     0
 43
0.0
 10
18.30370094247484
 20
53.08150293231499
 10
18.32689461011102
 20
53.44567769289798
 10
18.32689461011102
 20
53.47067769289796
  0
LWPOLYLINE
  5
32E
330
2
100
AcDbEntity
  8
0
  6
Continuous
100
AcDbPolyline
 90
        3
 70
     0
 43
0.0
 10
18.29586418662177
 20
53.08150293231499
 10
18.32356127677769
 20
53.44567769289798
 10
18.32356127677769
 20
53.47067769289796
  0
LWPOLYLINE
  5
32F
330
2
100
AcDbEntity
  8
0
  6
Continuous
100
AcDbPolyline
 90
        3
 70
     0
 43
0.0
 10
18.28806995911839
 20
53.08150293231499
 10
18.32022794344436
 20
53.44567769289798
 10
18.32022794344436
 20
53.47067769289796
  0
LWPOLYLINE
  5
330
330
2
100
AcDbEntity
  8
0
  6
Continuous
100
AcDbPolyline
 90
       10
 70
     0
 43
0.0
 10
18.25111649121379
 20
53.08150293231499
 10
18.31689461011103
 20
53.44567769289798
 10
18.28451961011103
 20
53.44567769289798
 10
18.28451961011103
 20
53.57005571600694
 10
18.40926961011121
 20
53.57005571600694
 10
18.40926961011121
 20
53.44567769289798
 10
18.37689461011121
 20
53.44567769289798
 10
18.37689461011121
 20
53.47067769289796
 10
18.31689461011103
 20
53.47067769289796
 10
18.31689461011103
 20
53.44567769289798
  0
LWPOLYLINE
  5
331
330
2
100
AcDbEntity
  8
0
  6
Continuous
100
AcDbPolyline
 90
        3
 70
     0
 43
0.0
 10
18.26757346713396
 20
53.08150293231499
 10
18.31689461011103
 20
53.44567769289798
 10
18.28031766036713
 20
53.08150293231499
  0
LWPOLYLINE
  5
332
330
2
100
AcDbEntity
  8
0
  6
Continuous
100
AcDbPolyline
 90
        2
 70
     0
 43
0.0
 10
18.26006113776395
 20
53.08150293231499
 10
18.31596412463489
 20
53.44231972883258
  0
LWPOLYLINE
  5
333
330
2
100
AcDbEntity
  8
0
  6
Continuous
100
AcDbPolyline
 90
        3
 70
     0
 43
0.0
 10
18.44267272900845
 20
53.08150293231499
 10
18.37689461011121
 20
53.44567769289798
 10
18.42621575308828
 20
53.08150293231499
  0
LWPOLYLINE
  5
334
330
2
100
AcDbEntity
  8
0
  6
Continuous
100
AcDbPolyline
 90
        2
 70
     0
 43
0.0
 10
18.43372808245829
 20
53.08150293231499
 10
18.37782509558735
 20
53.44231972883258
  0
LWPOLYLINE
  5
335
330
2
100
AcDbEntity
  8
0
  6
Continuous
100
AcDbPolyline
 90
       16
 70
     1
 43
0.0
 10
18.40989461011679
 20
54.22467769289298
 10
18.40989461010952
 20
53.7586776928999
 42
-0.4142135623730951
 10
18.28489461010952
 20
53.6336776928999
 10
18.22189461010032
 20
53.6336776928999
 10
18.22189461010032
 20
53.38067769289929
 10
18.31489461008652
 20
53.38067769289929
 10
18.31489461008652
 20
53.44567769289798
 10
18.28389461010567
 20
53.44567769289798
 10
18.28389461010567
 20
53.57167769288363
 10
18.40989461011679
 20
53.57167769288363
 10
18.40989461011679
 20
53.44567769289798
 10
18.37889461008501
 20
53.44567769289798
 10
18.37889461008501
 20
53.38067769289929
 10
18.47189461010032
 20
53.38067769289929
 10
18.47189461010032
 20
54.25567769289929
 10
18.44089461010492
 20
54.25567769289298
 42
0.4142135623730951
  0
LWPOLYLINE
  5
336
330
2
100
AcDbEntity
  8
0
  6
Continuous
100
AcDbPolyline
 90
        2
 70
     0
 43
0.0
 10
18.41347155985511
 20
53.08150293231499
 10
18.37689461011121
 20
53.44567769289798
  0
LWPOLYLINE
  5
337
330
2
100
AcDbEntity
  8
0
  6
Continuous
100
AcDbPolyline
 90
        2
 70
     0
 43
0.0
 10
18.34439461011118
 20
53.08150293231499
 10
18.34439461011118
 20
53.47067769289796
  0
LWPOLYLINE
  5
338
330
2
100
AcDbEntity
  8
0
  6
Continuous
100
AcDbPolyline
 90
        2
 70
     0
 43
0.0
 10
18.34939461011106
 20
53.08150293231499
 10
18.34939461011106
 20
53.47067769289796
  0
LWPOLYLINE
  5
339
330
2
100
AcDbEntity
  8
0
  6
Continuous
100
AcDbPolyline
 90
        3
 70
     0
 43
0.0
 10
18.35356127677789
 20
53.47067769289796
 10
18.35356127677789
 20
53.44567769289798
 10
18.35830357096722
 20
53.08150293231499
  0
LWPOLYLINE
  5
33A
330
2
100
AcDbEntity
  8
0
  6
Continuous
100
AcDbPolyline
 90
        3
 70
     0
 43
0.0
 10
18.35689461011122
 20
53.47067769289796
 10
18.35689461011122
 20
53.44567769289798
 10
18.36631667013705
 20
53.08150293231499
  0
LWPOLYLINE
  5
33B
330
2
100
AcDbEntity
  8
0
  6
Continuous
100
AcDbPolyline
 90
        3
 70
     0
 43
0.0
 10
18.36022794344455
 20
53.47067769289796
 10
18.36022794344455
 20
53.44567769289798
 10
18.37428472488852
 20
53.08150293231499
  0
LWPOLYLINE
  5
33C
330
2
100
AcDbEntity
  8
0
  6
Continuous
100
AcDbPolyline
 90
        3
 70
     0
 43
0.0
 10
18.36356127677788
 20
53.47067769289796
 10
18.36356127677788
 20
53.44567769289798
 10
18.38220838245968
 20
53.08150293231499
  0
LWPOLYLINE
  5
33D
330
2
100
AcDbEntity
  8
0
  6
Continuous
100
AcDbPolyline
 90
        3
 70
     0
 43
0.0
 10
18.36689461011122
 20
53.47067769289796
 10
18.36689461011122
 20
53.44567769289798
 10
18.39008827774739
 20
53.08150293231499
  0
LWPOLYLINE
  5
33E
330
2
100
AcDbEntity
  8
0
  6
Continuous
100
AcDbPolyline
 90
        3
 70
     0
 43
0.0
 10
18.37022794344455
 20
53.47067769289796
 10
18.37022794344455
 20
53.44567769289798
 10
18.39792503360047
 20
53.08150293231499
  0
LWPOLYLINE
  5
33F
330
2
100
AcDbEntity
  8
0
  6
Continuous
100
AcDbPolyline
 90
        3
 70
     0
 43
0.0
 10
18.37356127677788
 20
53.47067769289796
 10
18.37356127677788
 20
53.44567769289798
 10
18.40571926110385
 20
53.08150293231499
  0
LWPOLYLINE
  5
340
330
2
100
AcDbEntity
  8
0
  6
Continuous
100
AcDbPolyline
 90
        3
 70
     0
 43
0.0
 10
18.33548564925502
 20
53.08150293231499
 10
18.34022794344457
 20
53.44567769289798
 10
18.34022794344457
 20
53.47067769289796
  0
LWPOLYLINE
  5
341
330
2
100
AcDbEntity
  8
0
  6
Continuous
100
AcDbPolyline
 90
        3
 70
     0
 43
0.0
 10
18.32747255008519
 20
53.08150293231499
 10
18.33689461011102
 20
53.44567769289798
 10
18.33689461011102
 20
53.47067769289796
  0
LWPOLYLINE
  5
342
330
2
100
AcDbEntity
  8
0
  6
Continuous
100
AcDbPolyline
 90
        3
 70
     0
 43
0.0
 10
18.31950449533394
 20
53.08150293231499
 10
18.33356127677769
 20
53.44567769289798
 10
18.33356127677769
 20
53.47067769289796
  0
LWPOLYLINE
  5
343
330
2
100
AcDbEntity
  8
0
  6
Continuous
100
AcDbPolyline
 90
        3
 70
     0
 43
0.0
 10
18.31158083776279
 20
53.08150293231499
 10
18.33022794344435
 20
53.44567769289798
 10
18.33022794344435
 20
53.47067769289796
  0
LWPOLYLINE
  5
344
330
2
100
AcDbEntity
  8
0
  6
Continuous
100
AcDbPolyline
 90
        3
 70
     0
 43
0.0
 10
18.30370094247484
 20
53.08150293231499
 10
18.32689461011102
 20
53.44567769289798
 10
18.32689461011102
 20
53.47067769289796
  0
LWPOLYLINE
  5
345
330
2
100
AcDbEntity
  8
0
  6
Continuous
100
AcDbPolyline
 90
        3
 70
     0
 43
0.0
 10
18.29586418662177
 20
53.08150293231499
 10
18.32356127677769
 20
53.44567769289798
 10
18.32356127677769
 20
53.47067769289796
  0
LWPOLYLINE
  5
346
330
2
100
AcDbEntity
  8
0
  6
Continuous
100
AcDbPolyline
 90
        3
 70
     0
 43
0.0
 10
18.28806995911839
 20
53.08150293231499
 10
18.32022794344436
 20
53.44567769289798
 10
18.32022794344436
 20
53.47067769289796
  0
LWPOLYLINE
  5
347
330
2
100
AcDbEntity
  8
0
  6
Continuous
100
AcDbPolyline
 90
       10
 70
     0
 43
0.0
 10
18.25111649121379
 20
53.08150293231499
 10
18.31689461011103
 20
53.44567769289798
 10
18.28451961011103
 20
53.44567769289798
 10
18.28451961011103
 20
53.57005571600694
 10
18.40926961011121
 20
53.57005571600694
 10
18.40926961011121
 20
53.44567769289798
 10
18.37689461011121
 20
53.44567769289798
 10
18.37689461011121
 20
53.47067769289796
 10
18.31689461011103
 20
53.47067769289796
 10
18.31689461011103
 20
53.44567769289798
  0
LWPOLYLINE
  5
348
330
2
100
AcDbEntity
  8
0
  6
Continuous
100
AcDbPolyline
 90
        3
 70
     0
 43
0.0
 10
18.26757346713396
 20
53.08150293231499
 10
18.31689461011103
 20
53.44567769289798
 10
18.28031766036713
 20
53.08150293231499
  0
LWPOLYLINE
  5
349
330
2
100
AcDbEntity
  8
0
  6
Continuous
100
AcDbPolyline
 90
        2
 70
     0
 43
0.0
 10
18.26006113776395
 20
53.08150293231499
 10
18.31596412463489
 20
53.44231972883258
  0
LWPOLYLINE
  5
34A
330
2
100
AcDbEntity
  8
0
  6
Continuous
100
AcDbPolyline
 90
        3
 70
     0
 43
0.0
 10
18.44267272900845
 20
53.08150293231499
 10
18.37689461011121
 20
53.44567769289798
 10
18.42621575308828
 20
53.08150293231499
  0
LWPOLYLINE
  5
34B
330
2
100
AcDbEntity
  8
0
  6
Continuous
100
AcDbPolyline
 90
        2
 70
     0
 43
0.0
 10
18.43372808245829
 20
53.08150293231499
 10
18.37782509558735
 20
53.44231972883258
  0
ENDSEC
  0
SECTION
  2
OBJECTS
  0
DICTIONARY
  5
B
330
0
100
AcDbDictionary
281
     1
  3
ACAD_COLOR
350
50
  3
ACAD_GROUP
350
3D
  3
ACAD_LAYOUT
350
18
  3
ACAD_MATERIAL
350
D
  3
ACAD_MLEADERSTYLE
350
53
  3
ACAD_MLINESTYLE
350
3E
  3
ACAD_PLOTSETTINGS
350
3F
  3
ACAD_PLOTSTYLENAME
350
A
  3
ACAD_SCALELIST
350
51
  3
ACAD_TABLESTYLE
350
52
  3
ACAD_VISUALSTYLE
350
31
  3
ACDB_RECOMPOSE_DATA
350
359
  3
AcDbVariableDictionary
350
34F
  0
DICTIONARY
  5
33
330
2E
100
AcDbDictionary
280
     1
281
     1
  0
DICTIONARY
  5
23
330
22
100
AcDbDictionary
280
     1
281
     1
  3
ACAD_LAYERSTATES
360
24
  0
DICTIONARY
  5
7
330
6
100
AcDbDictionary
280
     1
281
     1
  3
ADSK_XREC_LAYER_RECONCILED
360
8
  0
DICTIONARY
  5
7F
330
7E
100
AcDbDictionary
280
     1
281
     1
  0
DICTIONARY
  5
3
330
2
100
AcDbDictionary
280
     1
281
     1
  3
ACAD_SORTENTS
360
34C
  0
DICTIONARY
  5
1FC
330
1FB
100
AcDbDictionary
280
     1
281
     1
  3
ACAD_DIMASSOC
360
1FD
  0
DICTIONARY
  5
20E
330
20D
100
AcDbDictionary
280
     1
281
     1
  3
ACAD_DIMASSOC
360
20F
  0
DICTIONARY
  5
22D
330
22C
100
AcDbDictionary
280
     1
281
     1
  3
ACAD_DIMASSOC
360
22E
  0
DICTIONARY
  5
24D
330
24C
100
AcDbDictionary
280
     1
281
     1
  3
ACAD_DIMASSOC
360
24E
  0
DICTIONARY
  5
25E
330
25D
100
AcDbDictionary
280
     1
281
     1
  3
ACAD_DIMASSOC
360
25F
  0
DICTIONARY
  5
26F
330
26E
100
AcDbDictionary
280
     1
281
     1
  3
ACAD_DIMASSOC
360
270
  0
DICTIONARY
  5
280
330
27F
100
AcDbDictionary
280
     1
281
     1
  3
ACAD_DIMASSOC
360
281
  0
DICTIONARY
  5
291
330
290
100
AcDbDictionary
280
     1
281
     1
  3
ACAD_DIMASSOC
360
292
  0
DICTIONARY
  5
2A2
330
2A1
100
AcDbDictionary
280
     1
281
     1
  3
ACAD_DIMASSOC
360
2A3
  0
DICTIONARY
  5
2B3
330
2B2
100
AcDbDictionary
280
     1
281
     1
  3
ACAD_DIMASSOC
360
2B4
  0
DICTIONARY
  5
2C4
330
2C3
100
AcDbDictionary
280
     1
281
     1
  3
ACAD_DIMASSOC
360
2C5
  0
DICTIONARY
  5
2D5
330
2D4
100
AcDbDictionary
280
     1
281
     1
  3
ACAD_DIMASSOC
360
2D6
  0
DICTIONARY
  5
2E6
330
2E5
100
AcDbDictionary
280
     1
281
     1
  3
ACAD_DIMASSOC
360
2E7
  0
DICTIONARY
  5
50
102
{ACAD_REACTORS
330
B
102
}
330
B
100
AcDbDictionary
281
     1
  0
DICTIONARY
  5
3D
102
{ACAD_REACTORS
330
B
102
}
330
B
100
AcDbDictionary
281
     1
  0
DICTIONARY
  5
18
102
{ACAD_REACTORS
330
B
102
}
330
B
100
AcDbDictionary
281
     1
  3
Layout1
350
1F
  3
Model
350
17
  0
DICTIONARY
  5
D
102
{ACAD_REACTORS
330
B
102
}
330
B
100
AcDbDictionary
281
     1
  3
ByBlock
350
48
  3
ByLayer
350
40
  3
Global
350
C
  0
DICTIONARY
  5
53
102
{ACAD_REACTORS
330
B
102
}
330
B
100
AcDbDictionary
281
     1
  0
DICTIONARY
  5
3E
102
{ACAD_REACTORS
330
B
102
}
330
B
100
AcDbDictionary
281
     1
  3
Standard
350
54
  0
DICTIONARY
  5
3F
102
{ACAD_REACTORS
330
B
102
}
330
B
100
AcDbDictionary
281
     1
  0
ACDBDICTIONARYWDFLT
  5
A
102
{ACAD_REACTORS
330
B
102
}
330
B
100
AcDbDictionary
281
     1
  3
Normal
350
9
100
AcDbDictionaryWithDefault
340
9
  0
DICTIONARY
  5
51
102
{ACAD_REACTORS
330
B
102
}
330
B
100
AcDbDictionary
281
     1
  3
A0
350
59
  3
A1
350
5A
  3
A2
350
5B
  3
A3
350
5C
  3
A4
350
5D
  3
A5
350
5E
  3
A6
350
5F
  3
A7
350
60
  3
A8
350
61
  3
A9
350
62
  3
B0
350
63
  3
B1
350
64
  3
B2
350
65
  3
B3
350
66
  3
B4
350
67
  3
B5
350
68
  3
B6
350
69
  0
DICTIONARY
  5
52
102
{ACAD_REACTORS
330
B
102
}
330
B
100
AcDbDictionary
281
     1
  3
Standard
350
55
  0
DICTIONARY
  5
31
102
{ACAD_REACTORS
330
B
102
}
330
B
100
AcDbDictionary
281
     1
  3
2dWireframe
350
30
  3
Realistic
350
57
  3
Wireframe
350
58
  0
XRECORD
  5
359
102
{ACAD_REACTORS
330
B
102
}
330
B
100
AcDbXrecord
280
     1
 90
        1
330
55
  0
DICTIONARY
  5
34F
102
{ACAD_REACTORS
330
B
102
}
330
B
100
AcDbDictionary
281
     1
  3
CANNOSCALE
350
352
  3
CMLEADERSTYLE
350
351
  3
CTABLESTYLE
350
350
  3
DIMASSOC
350
357
  3
HIDETEXT
350
355
  3
INDEXCTL
350
354
  3
SORTENTS
350
353
  3
XCLIPFRAME
350
356
  0
DICTIONARY
  5
24
102
{ACAD_REACTORS
330
23
102
}
330
23
100
AcDbDictionary
281
     1
  0
XRECORD
  5
8
102
{ACAD_REACTORS
330
7
102
}
330
7
100
AcDbXrecord
280
     1
290
     1
  0
SORTENTSTABLE
  5
34C
102
{ACAD_REACTORS
330
3
102
}
330
3
100
AcDbSortentsTable
330
2
  0
DIMASSOC
  5
1FD
102
{ACAD_REACTORS
330
1FC
102
}
330
1FC
100
AcDbDimAssoc
330
1FB
 90
        3
 70
     0
 71
     0
  1
AcDbOsnapPointRef
 72
    13
331
6D
 73
     2
 91
        0
 40
0.0
 10
0.0
 20
0.0
 30
2.000000000000000E+50
 75
     0
  1
AcDbOsnapPointRef
 72
     5
331
133
 73
     2
 91
        8
 40
1.570796326794896
 10
0.0
 20
0.0
 30
0.0
 75
     0
  0
DIMASSOC
  5
20F
102
{ACAD_REACTORS
330
20E
102
}
330
20E
100
AcDbDimAssoc
330
20D
 90
        1
 70
     0
 71
     0
  1
AcDbOsnapPointRef
 72
     1
331
148
 73
     2
 91
       10
 40
1.0
 10
0.0
 20
0.0
 30
2.000000000000000E+50
 75
     0
  0
DIMASSOC
  5
22E
102
{ACAD_REACTORS
330
22D
102
}
330
22D
100
AcDbDimAssoc
330
22C
 90
        3
 70
     0
 71
     0
  1
AcDbOsnapPointRef
 72
     5
331
122
 73
     2
 91
        8
 40
4.712388980384689
 10
0.0
 20
0.0
 30
0.0
 75
     0
  1
AcDbOsnapPointRef
 72
    13
331
6A
 73
     2
 91
       10
 40
0.0
 10
0.0
 20
0.0
 30
2.000000000000000E+50
 75
     0
  0
DIMASSOC
  5
24E
102
{ACAD_REACTORS
330
24D
102
}
330
24D
100
AcDbDimAssoc
330
24C
 90
        3
 70
     0
 71
     0
  1
AcDbOsnapPointRef
 72
     1
331
14D
 73
     2
 91
       12
 40
1.0
 10
0.0
 20
0.0
 30
2.000000000000000E+50
 75
     0
  1
AcDbOsnapPointRef
 72
     1
331
73
 73
     2
 91
        4
 40
1.0
 10
0.0
 20
0.0
 30
2.000000000000000E+50
 75
     0
  0
DIMASSOC
  5
25F
102
{ACAD_REACTORS
330
25E
102
}
330
25E
100
AcDbDimAssoc
330
25D
 90
        3
 70
     0
 71
     0
  1
AcDbOsnapPointRef
 72
     2
331
142
 73
     2
 91
        1
 40
0.5
 10
0.0
 20
0.0
 30
0.0
 75
     0
  1
AcDbOsnapPointRef
 72
     8
331
142
 73
     2
 91
       21
 40
0.7704153630961878
 10
0.0
 20
0.0
 30
0.0
 75
     1
  1
AcDbOsnapPointRef
 72
     2
331
142
 73
     2
 91
        1
 40
0.5
 10
0.0
 20
0.0
 30
0.0
 75
     0
  0
DIMASSOC
  5
270
102
{ACAD_REACTORS
330
26F
102
}
330
26F
100
AcDbDimAssoc
330
26E
 90
        3
 70
     0
 71
     0
  1
AcDbOsnapPointRef
 72
     1
331
142
 73
     2
 91
       17
 40
1.0
 10
0.0
 20
0.0
 30
2.000000000000000E+50
 75
     0
  1
AcDbOsnapPointRef
 72
     8
331
142
 73
     2
 91
        8
 40
0.349756582599355
 10
0.0
 20
0.0
 30
0.0
 75
     1
  1
AcDbOsnapPointRef
 72
     1
331
142
 73
     2
 91
       17
 40
1.0
 10
0.0
 20
0.0
 30
2.000000000000000E+50
 75
     0
  0
DIMASSOC
  5
281
102
{ACAD_REACTORS
330
280
102
}
330
280
100
AcDbDimAssoc
330
27F
 90
        3
 70
     0
 71
     0
  1
AcDbOsnapPointRef
 72
     2
331
6B
 73
     2
 91
       12
 40
0.5
 10
0.0
 20
0.0
 30
0.0
 75
     0
  1
AcDbOsnapPointRef
 72
     8
331
6B
 73
     2
 91
        8
 40
0.476736438712666
 10
0.0
 20
0.0
 30
0.0
 75
     1
  1
AcDbOsnapPointRef
 72
     2
331
6B
 73
     2
 91
       12
 40
0.5
 10
0.0
 20
0.0
 30
0.0
 75
     0
  0
DIMASSOC
  5
292
102
{ACAD_REACTORS
330
291
102
}
330
291
100
AcDbDimAssoc
330
290
 90
        3
 70
     0
 71
     0
  1
AcDbOsnapPointRef
 72
     8
331
1E0
 73
     2
 91
        1
 40
0.6975302257971441
 10
0.0
 20
0.0
 30
0.0
 75
     1
  1
AcDbOsnapPointRef
 72
     0
 40
0.0
 10
13.45425442547588
 20
57.06471259232618
 30
0.0
 75
     0
  1
AcDbOsnapPointRef
 72
     8
331
1E0
 73
     2
 91
        9
 40
0.3672695356526873
 10
0.0
 20
0.0
 30
0.0
 75
     1
  1
AcDbOsnapPointRef
 72
     8
331
1E0
 73
     2
 91
        1
 40
0.6975302257971441
 10
0.0
 20
0.0
 30
0.0
 75
     1
  1
AcDbOsnapPointRef
 72
     0
 40
0.0
 10
13.45425442547588
 20
57.06471259232618
 30
0.0
 75
     0
  0
DIMASSOC
  5
2A3
102
{ACAD_REACTORS
330
2A2
102
}
330
2A2
100
AcDbDimAssoc
330
2A1
 90
        3
 70
     0
 71
     0
  1
AcDbOsnapPointRef
 72
     1
331
1DB
 73
     2
 91
        5
 40
1.0
 10
0.0
 20
0.0
 30
2.000000000000000E+50
 75
     0
  1
AcDbOsnapPointRef
 72
     6
331
1DF
 73
     2
 91
       11
 40
0.0
 10
0.0
 20
0.0
 30
0.0
332
1DF
 74
     2
 92
       10
 75
     0
  0
DIMASSOC
  5
2B4
102
{ACAD_REACTORS
330
2B3
102
}
330
2B3
100
AcDbDimAssoc
330
2B2
 90
        3
 70
     0
 71
     0
  1
AcDbOsnapPointRef
 72
     1
331
1CC
 73
     2
 91
        4
 40
1.0
 10
0.0
 20
0.0
 30
2.000000000000000E+50
 75
     0
  1
AcDbOsnapPointRef
 72
     1
331
1CC
 73
     2
 91
       21
 40
1.0
 10
0.0
 20
0.0
 30
2.000000000000000E+50
 75
     0
  0
DIMASSOC
  5
2C5
102
{ACAD_REACTORS
330
2C4
102
}
330
2C4
100
AcDbDimAssoc
330
2C3
 90
        2
 70
     0
 71
     0
  1
AcDbOsnapPointRef
 72
     6
331
1E0
 73
     2
 91
       11
 40
0.0000000000000022
 10
0.0
 20
0.0
 30
0.0
332
1E0
 74
     2
 92
       10
 75
     0
  0
DIMASSOC
  5
2D6
102
{ACAD_REACTORS
330
2D5
102
}
330
2D5
100
AcDbDimAssoc
330
2D4
 90
        2
 70
     0
 71
     0
  1
AcDbOsnapPointRef
 72
     1
331
14C
 73
     2
 91
       10
 40
1.0
 10
0.0
 20
0.0
 30
2.000000000000000E+50
 75
     0
  0
DIMASSOC
  5
2E7
102
{ACAD_REACTORS
330
2E6
102
}
330
2E6
100
AcDbDimAssoc
330
2E5
 90
        1
 70
     0
 71
     0
  1
AcDbOsnapPointRef
 72
     1
331
142
 73
     2
 91
       14
 40
1.0
 10
0.0
 20
0.0
 30
2.000000000000000E+50
 75
     0
  0
LAYOUT
  5
1F
102
{ACAD_XDICTIONARY
360
20
102
}
102
{ACAD_REACTORS
330
18
102
}
330
18
100
AcDbPlotSettings
  1

  2
Default Windows System Printer.pc3
  4
Letter
  6

 40
4.857749938964843
 41
4.857737064361572
 42
4.85772705078125
 43
4.011077880859375
 44
279.3999938964844
 45
215.8999938964844
 46
-0.730858697408237
 47
-3.856245104248928
 48
0.0
 49
0.0
140
0.0
141
0.0
142
1.0
143
1.0
 70
   692
 72
     0
 73
     1
 74
     1
  7
monochrome.ctb
 75
    16
147
1.0
148
0.0083604749971762
149
0.0163435974585369
100
AcDbLayout
  1
Layout1
 70
     1
 71
     1
 10
-0.0064249311656545
 20
-0.1631194818509899
 11
8.493574828538456
 21
10.83688027785312
 12
0.0
 22
0.0
 32
0.0
 14
0.0000000075458644
 24
0.0000000082145277
 34
0.0
 15
8.454000007545857
 25
10.67400000821453
 35
0.0
146
0.0
 13
0.0
 23
0.0
 33
0.0
 16
1.0
 26
0.0
 36
0.0
 17
0.0
 27
1.0
 37
0.0
 76
     0
330
1C
1001
ACAD_PSEXT
1000
Default Windows System Printer.pc3
1000
HP LaserJet Professional M1212nf MFP
1000
USB001
1000

1070
     0
  0
LAYOUT
  5
17
102
{ACAD_XDICTIONARY
360
19
102
}
102
{ACAD_REACTORS
330
18
102
}
330
18
100
AcDbPlotSettings
  1

  2
hp LaserJet 1000
  4
Letter
  6

 40
5.111750125885009
 41
5.11176061630249
 42
5.111740112304687
 43
5.11175537109375
 44
215.8999938964844
 45
279.3999938964844
 46
-1737.727141600119
 47
-1443.590822120185
 48
0.0
 49
0.0
140
0.0
141
0.0
142
1.0
143
1.0
 70
 11956
 72
     0
 73
     1
 74
     1
  7
monochrome.ctb
 75
    16
147
1.0
148
-1178909.293504616
149
-716480.0773740626
100
AcDbLayout
  1
Model
 70
     1
 71
     0
 10
0.0
 20
0.0
 11
12.0
 21
9.0
 12
0.0
 22
0.0
 32
0.0
 14
0.0
 24
0.0
 34
0.0
 15
0.0
 25
0.0
 35
0.0
146
0.0
 13
0.0
 23
0.0
 33
0.0
 16
1.0
 26
0.0
 36
0.0
 17
0.0
 27
1.0
 37
0.0
 76
     0
330
2
1001
ACAD_PSEXT
1000
hp LaserJet 1000
1000
hp LaserJet 1000
1000
USB001
1000

1070
     0
  0
MATERIAL
  5
48
102
{ACAD_XDICTIONARY
360
49
102
}
102
{ACAD_REACTORS
330
D
102
}
330
D
100
AcDbMaterial
  1
ByBlock
 72
     0
 43
0.0208333333333333
 43
0.0
 43
0.0
 43
0.0
 43
0.0
 43
0.0208333333333333
 43
0.0
 43
0.0
 43
0.0
 43
0.0
 43
1.0
 43
0.0
 43
0.0
 43
0.0
 43
0.0
 43
1.0
 77
     0
 47
0.0208333333333333
 47
0.0
 47
0.0
 47
0.0
 47
0.0
 47
0.0208333333333333
 47
0.0
 47
0.0
 47
0.0
 47
0.0
 47
1.0
 47
0.0
 47
0.0
 47
0.0
 47
0.0
 47
1.0
171
     0
 49
0.0208333333333333
 49
0.0
 49
0.0
 49
0.0
 49
0.0
 49
0.0208333333333333
 49
0.0
 49
0.0
 49
0.0
 49
0.0
 49
1.0
 49
0.0
 49
0.0
 49
0.0
 49
0.0
 49
1.0
175
     0
142
0.0208333333333333
142
0.0
142
0.0
142
0.0
142
0.0
142
0.0208333333333333
142
0.0
142
0.0
142
0.0
142
0.0
142
1.0
142
0.0
142
0.0
142
0.0
142
0.0
142
1.0
179
     0
144
0.0208333333333333
144
0.0
144
0.0
144
0.0
144
0.0
144
0.0208333333333333
144
0.0
144
0.0
144
0.0
144
0.0
144
1.0
144
0.0
144
0.0
144
0.0
144
0.0
144
1.0
147
0.0208333333333333
147
0.0
147
0.0
147
0.0
147
0.0
147
0.0208333333333333
147
0.0
147
0.0
147
0.0
147
0.0
147
1.0
147
0.0
147
0.0
147
0.0
147
0.0
147
1.0
  0
MATERIAL
  5
40
102
{ACAD_XDICTIONARY
360
41
102
}
102
{ACAD_REACTORS
330
D
102
}
330
D
100
AcDbMaterial
  1
ByLayer
 72
     0
 43
0.0208333333333333
 43
0.0
 43
0.0
 43
0.0
 43
0.0
 43
0.0208333333333333
 43
0.0
 43
0.0
 43
0.0
 43
0.0
 43
1.0
 43
0.0
 43
0.0
 43
0.0
 43
0.0
 43
1.0
 77
     0
 47
0.0208333333333333
 47
0.0
 47
0.0
 47
0.0
 47
0.0
 47
0.0208333333333333
 47
0.0
 47
0.0
 47
0.0
 47
0.0
 47
1.0
 47
0.0
 47
0.0
 47
0.0
 47
0.0
 47
1.0
171
     0
 49
0.0208333333333333
 49
0.0
 49
0.0
 49
0.0
 49
0.0
 49
0.0208333333333333
 49
0.0
 49
0.0
 49
0.0
 49
0.0
 49
1.0
 49
0.0
 49
0.0
 49
0.0
 49
0.0
 49
1.0
175
     0
142
0.0208333333333333
142
0.0
142
0.0
142
0.0
142
0.0
142
0.0208333333333333
142
0.0
142
0.0
142
0.0
142
0.0
142
1.0
142
0.0
142
0.0
142
0.0
142
0.0
142
1.0
179
     0
144
0.0208333333333333
144
0.0
144
0.0
144
0.0
144
0.0
144
0.0208333333333333
144
0.0
144
0.0
144
0.0
144
0.0
144
1.0
144
0.0
144
0.0
144
0.0
144
0.0
144
1.0
147
0.0208333333333333
147
0.0
147
0.0
147
0.0
147
0.0
147
0.0208333333333333
147
0.0
147
0.0
147
0.0
147
0.0
147
1.0
147
0.0
147
0.0
147
0.0
147
0.0
147
1.0
  0
MATERIAL
  5
C
102
{ACAD_XDICTIONARY
360
E
102
}
102
{ACAD_REACTORS
330
D
102
}
330
D
100
AcDbMaterial
  1
Global
 72
     0
 43
0.0208333333333333
 43
0.0
 43
0.0
 43
0.0
 43
0.0
 43
0.0208333333333333
 43
0.0
 43
0.0
 43
0.0
 43
0.0
 43
1.0
 43
0.0
 43
0.0
 43
0.0
 43
0.0
 43
1.0
 77
     0
 47
0.0208333333333333
 47
0.0
 47
0.0
 47
0.0
 47
0.0
 47
0.0208333333333333
 47
0.0
 47
0.0
 47
0.0
 47
0.0
 47
1.0
 47
0.0
 47
0.0
 47
0.0
 47
0.0
 47
1.0
171
     0
 49
0.0208333333333333
 49
0.0
 49
0.0
 49
0.0
 49
0.0
 49
0.0208333333333333
 49
0.0
 49
0.0
 49
0.0
 49
0.0
 49
1.0
 49
0.0
 49
0.0
 49
0.0
 49
0.0
 49
1.0
175
     0
142
0.0208333333333333
142
0.0
142
0.0
142
0.0
142
0.0
142
0.0208333333333333
142
0.0
142
0.0
142
0.0
142
0.0
142
1.0
142
0.0
142
0.0
142
0.0
142
0.0
142
1.0
179
     0
144
0.0208333333333333
144
0.0
144
0.0
144
0.0
144
0.0
144
0.0208333333333333
144
0.0
144
0.0
144
0.0
144
0.0
144
1.0
144
0.0
144
0.0
144
0.0
144
0.0
144
1.0
147
0.0208333333333333
147
0.0
147
0.0
147
0.0
147
0.0
147
0.0208333333333333
147
0.0
147
0.0
147
0.0
147
0.0
147
1.0
147
0.0
147
0.0
147
0.0
147
0.0
147
1.0
  0
MLINESTYLE
  5
54
102
{ACAD_REACTORS
330
3E
102
}
330
3E
100
AcDbMlineStyle
  2
STANDARD
 70
     0
  3

 62
   256
 51
90.0
 52
90.0
 71
     2
 49
0.5
 62
   256
  6
BYLAYER
 49
-0.5
 62
   256
  6
BYLAYER
  0
ACDBPLACEHOLDER
  5
9
102
{ACAD_REACTORS
330
A
102
}
330
A
  0
SCALE
  5
59
102
{ACAD_REACTORS
330
51
102
}
330
51
100
AcDbScale
 70
     0
300
1:1
140
1.0
141
1.0
290
     1
  0
SCALE
  5
5A
102
{ACAD_REACTORS
330
51
102
}
330
51
100
AcDbScale
 70
     0
300
1/128" = 1'-0"
140
0.0078125
141
12.0
290
     0
  0
SCALE
  5
5B
102
{ACAD_REACTORS
330
51
102
}
330
51
100
AcDbScale
 70
     0
300
1/64" = 1'-0"
140
0.015625
141
12.0
290
     0
  0
SCALE
  5
5C
102
{ACAD_REACTORS
330
51
102
}
330
51
100
AcDbScale
 70
     0
300
1/32" = 1'-0"
140
0.03125
141
12.0
290
     0
  0
SCALE
  5
5D
102
{ACAD_REACTORS
330
51
102
}
330
51
100
AcDbScale
 70
     0
300
1/16" = 1'-0"
140
0.0625
141
12.0
290
     0
  0
SCALE
  5
5E
102
{ACAD_REACTORS
330
51
102
}
330
51
100
AcDbScale
 70
     0
300
3/32" = 1'-0"
140
0.09375
141
12.0
290
     0
  0
SCALE
  5
5F
102
{ACAD_REACTORS
330
51
102
}
330
51
100
AcDbScale
 70
     0
300
1/8" = 1'-0"
140
0.125
141
12.0
290
     0
  0
SCALE
  5
60
102
{ACAD_REACTORS
330
51
102
}
330
51
100
AcDbScale
 70
     0
300
3/16" = 1'-0"
140
0.1875
141
12.0
290
     0
  0
SCALE
  5
61
102
{ACAD_REACTORS
330
51
102
}
330
51
100
AcDbScale
 70
     0
300
1/4" = 1'-0"
140
0.25
141
12.0
290
     0
  0
SCALE
  5
62
102
{ACAD_REACTORS
330
51
102
}
330
51
100
AcDbScale
 70
     0
300
3/8" = 1'-0"
140
0.375
141
12.0
290
     0
  0
SCALE
  5
63
102
{ACAD_REACTORS
330
51
102
}
330
51
100
AcDbScale
 70
     0
300
1/2" = 1'-0"
140
0.5
141
12.0
290
     0
  0
SCALE
  5
64
102
{ACAD_REACTORS
330
51
102
}
330
51
100
AcDbScale
 70
     0
300
3/4" = 1'-0"
140
0.75
141
12.0
290
     0
  0
SCALE
  5
65
102
{ACAD_REACTORS
330
51
102
}
330
51
100
AcDbScale
 70
     0
300
1" = 1'-0"
140
1.0
141
12.0
290
     0
  0
SCALE
  5
66
102
{ACAD_REACTORS
330
51
102
}
330
51
100
AcDbScale
 70
     0
300
1-1/2" = 1'-0"
140
1.5
141
12.0
290
     0
  0
SCALE
  5
67
102
{ACAD_REACTORS
330
51
102
}
330
51
100
AcDbScale
 70
     0
300
3" = 1'-0"
140
3.0
141
12.0
290
     0
  0
SCALE
  5
68
102
{ACAD_REACTORS
330
51
102
}
330
51
100
AcDbScale
 70
     0
300
6" = 1'-0"
140
6.0
141
12.0
290
     0
  0
SCALE
  5
69
102
{ACAD_REACTORS
330
51
102
}
330
51
100
AcDbScale
 70
     0
300
1'-0" = 1'-0"
140
12.0
141
12.0
290
     0
  0
TABLESTYLE
  5
55
102
{ACAD_XDICTIONARY
360
56
102
}
102
{ACAD_REACTORS
330
52
102
}
330
52
100
AcDbTableStyle
  3
Standard
 70
     0
 71
     0
 40
0.06
 41
0.06
280
     0
281
     0
  7
Standard
140
0.18
170
     2
 62
     0
 63
     7
283
     0
274
    -2
284
     1
 64
     0
275
    -2
285
     1
 65
     0
276
    -2
286
     1
 66
     0
277
    -2
287
     1
 67
     0
278
    -2
288
     1
 68
     0
279
    -2
289
     1
 69
     0
  7
Standard
140
0.25
170
     5
 62
     0
 63
     7
283
     0
274
    -2
284
     1
 64
     0
275
    -2
285
     1
 65
     0
276
    -2
286
     1
 66
     0
277
    -2
287
     1
 67
     0
278
    -2
288
     1
 68
     0
279
    -2
289
     1
 69
     0
  7
Standard
140
0.18
170
     5
 62
     0
 63
     7
283
     0
274
    -2
284
     1
 64
     0
275
    -2
285
     1
 65
     0
276
    -2
286
     1
 66
     0
277
    -2
287
     1
 67
     0
278
    -2
288
     1
 68
     0
279
    -2
289
     1
 69
     0
  0
VISUALSTYLE
  5
30
102
{ACAD_XDICTIONARY
360
35D
102
}
102
{ACAD_REACTORS
330
31
102
}
330
31
100
AcDbVisualStyle
  2
2dWireframe
 70
     4
 71
     0
 72
     2
 73
     0
 90
        0
 40
-0.6
 41
-30.0
 62
     5
 63
     7
 74
     1
 91
        4
 64
     7
 65
   257
 75
     1
175
     1
 42
1.0
 92
        0
 66
   257
 43
1.0
 76
     1
 77
     6
 78
     2
 67
     7
 79
     5
170
     0
171
     0
290
     0
174
     0
 93
        1
 44
0.0
173
     0
291
     0
 45
0.0
1001
ACAD
1000
AcDbSavedByObjectVersion
1070
     0
  0
VISUALSTYLE
  5
57
102
{ACAD_XDICTIONARY
360
362
102
}
102
{ACAD_REACTORS
330
31
102
}
330
31
100
AcDbVisualStyle
  2
Realistic
 70
     8
 71
     2
 72
     2
 73
     0
 90
        2
 40
-0.6
 41
30.0
 62
     5
 63
     7
 74
     0
 91
        0
 64
     7
 65
   257
 75
     1
175
     1
 42
1.0
 92
        8
 66
   257
 43
1.0
 76
     1
 77
     6
 78
     2
 67
     7
 79
     3
170
     0
171
     0
290
     0
174
     0
 93
       13
 44
0.0
173
     0
291
     0
 45
0.0
1001
ACAD
1000
AcDbSavedByObjectVersion
1070
     0
  0
VISUALSTYLE
  5
58
102
{ACAD_XDICTIONARY
360
364
102
}
102
{ACAD_REACTORS
330
31
102
}
330
31
100
AcDbVisualStyle
  2
Wireframe
 70
     5
 71
     0
 72
     2
 73
     0
 90
        0
 40
-0.6
 41
-30.0
 62
     5
 63
     7
 74
     1
 91
        4
 64
     7
 65
   257
 75
     1
175
     1
 42
1.0
 92
        0
 66
   257
 43
1.0
 76
     1
 77
     6
 78
     2
 67
     7
 79
     3
170
     0
171
     0
290
     0
174
     0
 93
        1
 44
0.0
173
     0
291
     0
 45
0.0
1001
ACAD
1000
AcDbSavedByObjectVersion
1070
     0
  0
DICTIONARYVAR
  5
352
102
{ACAD_REACTORS
330
34F
102
}
330
34F
100
DictionaryVariables
280
     0
  1
1:1
  0
DICTIONARYVAR
  5
351
102
{ACAD_REACTORS
330
34F
102
}
330
34F
100
DictionaryVariables
280
     0
  1
STANDARD
  0
DICTIONARYVAR
  5
350
102
{ACAD_REACTORS
330
34F
102
}
330
34F
100
DictionaryVariables
280
     0
  1
STANDARD
  0
DICTIONARYVAR
  5
357
102
{ACAD_REACTORS
330
34F
102
}
330
34F
100
DictionaryVariables
280
     0
  1
2
  0
DICTIONARYVAR
  5
355
102
{ACAD_REACTORS
330
34F
102
}
330
34F
100
DictionaryVariables
280
     0
  1
1
  0
DICTIONARYVAR
  5
354
102
{ACAD_REACTORS
330
34F
102
}
330
34F
100
DictionaryVariables
280
     0
  1
0
  0
DICTIONARYVAR
  5
353
102
{ACAD_REACTORS
330
34F
102
}
330
34F
100
DictionaryVariables
280
     0
  1
127
  0
DICTIONARYVAR
  5
356
102
{ACAD_REACTORS
330
34F
102
}
330
34F
100
DictionaryVariables
280
     0
  1
0
  0
DICTIONARY
  5
20
330
1F
100
AcDbDictionary
280
     1
281
     1
  3
ACAD_XREC_ROUNDTRIP
360
35C
  3
ADSK_XREC_LAYOUTTHUMBNAIL
360
21
  0
DICTIONARY
  5
19
330
17
100
AcDbDictionary
280
     1
281
     1
  3
ACAD_XREC_ROUNDTRIP
360
35B
  3
ADSK_XREC_LAYOUTTHUMBNAIL
360
1A
  0
DICTIONARY
  5
49
330
48
100
AcDbDictionary
280
     1
281
     1
  3
ACAD_XREC_ROUNDTRIP
360
360
  3
BUMPTILE
360
4A
  3
DIFFUSETILE
360
4B
  3
OPACITYTILE
360
4C
  3
REFLECTIONTILE
360
4D
  3
REFRACTIONTILE
360
4E
  3
SPECULARTILE
360
4F
  0
DICTIONARY
  5
41
330
40
100
AcDbDictionary
280
     1
281
     1
  3
ACAD_XREC_ROUNDTRIP
360
35F
  3
BUMPTILE
360
42
  3
DIFFUSETILE
360
43
  3
OPACITYTILE
360
44
  3
REFLECTIONTILE
360
45
  3
REFRACTIONTILE
360
46
  3
SPECULARTILE
360
47
  0
DICTIONARY
  5
E
330
C
100
AcDbDictionary
280
     1
281
     1
  3
ACAD_XREC_ROUNDTRIP
360
35A
  3
BUMPTILE
360
F
  3
DIFFUSETILE
360
10
  3
OPACITYTILE
360
11
  3
REFLECTIONTILE
360
12
  3
REFRACTIONTILE
360
13
  3
SPECULARTILE
360
14
  0
DICTIONARY
  5
56
330
55
100
AcDbDictionary
280
     1
281
     1
  3
ACAD_ROUNDTRIP_2008_TABLESTYLE_CELLSTYLEMAP
360
358
  3
ACAD_XREC_ROUNDTRIP
360
361
  0
DICTIONARY
  5
35D
330
30
100
AcDbDictionary
280
     1
281
     1
  3
ACAD_XREC_ROUNDTRIP
360
35E
  0
DICTIONARY
  5
362
330
57
100
AcDbDictionary
280
     1
281
     1
  3
ACAD_XREC_ROUNDTRIP
360
363
  0
DICTIONARY
  5
364
330
58
100
AcDbDictionary
280
     1
281
     1
  3
ACAD_XREC_ROUNDTRIP
360
365
  0
XRECORD
  5
35C
102
{ACAD_REACTORS
330
20
102
}
330
20
100
AcDbXrecord
280
     1
102
SHADEPLOT
 70
     1
102
SHADEPLOTRESLEVEL
 70
     4
102
SHADEPLOTCUSTOMDPI
 70
   300
  0
XRECORD
  5
21
102
{ACAD_REACTORS
330
20
102
}
330
20
100
AcDbXrecord
280
     1
310
280000006B0000008C0000000100080000000000103B000000000000000000000001000000000000FFFFFF0000000000C8C8C8000000000000000000000000000000000000000000000000000000000000000000330000006600000099000000CC000000FF00000000330000333300006633000099330000CC330000FF3300
310
0000660000336600006666000099660000CC660000FF66000000990000339900006699000099990000CC990000FF99000000CC000033CC000066CC000099CC0000CCCC0000FFCC000000FF000033FF000066FF000099FF0000CCFF0000FFFF000000003300330033006600330099003300CC003300FF003300003333003333
310
33006633330099333300CC333300FF33330000663300336633006666330099663300CC663300FF66330000993300339933006699330099993300CC993300FF99330000CC330033CC330066CC330099CC3300CCCC3300FFCC330000FF330033FF330066FF330099FF3300CCFF3300FFFF330000006600330066006600660099
310
006600CC006600FF00660000336600333366006633660099336600CC336600FF33660000666600336666006666660099666600CC666600FF66660000996600339966006699660099996600CC996600FF99660000CC660033CC660066CC660099CC6600CCCC6600FFCC660000FF660033FF660066FF660099FF6600CCFF6600
310
FFFF660000009900330099006600990099009900CC009900FF00990000339900333399006633990099339900CC339900FF33990000669900336699006666990099669900CC669900FF66990000999900339999006699990099999900CC999900FF99990000CC990033CC990066CC990099CC9900CCCC9900FFCC990000FF99
310
0033FF990066FF990099FF9900CCFF9900FFFF99000000CC003300CC006600CC009900CC00CC00CC00FF00CC000033CC003333CC006633CC009933CC00CC33CC00FF33CC000066CC003366CC006666CC009966CC00CC66CC00FF66CC000099CC003399CC006699CC009999CC00CC99CC00FF99CC0000CCCC0033CCCC0066CC
310
CC0099CCCC00CCCCCC00FFCCCC0000FFCC0033FFCC0066FFCC0099FFCC00CCFFCC00FFFFCC000000FF003300FF006600FF009900FF00CC00FF00FF00FF000033FF003333FF006633FF009933FF00CC33FF00FF33FF000066FF003366FF006666FF009966FF00CC66FF00FF66FF000099FF003399FF006699FF009999FF00CC
310
99FF00FF99FF0000CCFF0033CCFF0066CCFF0099CCFF00CCCCFF00FFCCFF0000FFFF0033FFFF0066FFFF0099FFFF00CCFFFF00FFFFFF00000000000D0D0D001A1A1A00282828003535350043434300505050005D5D5D006B6B6B00787878008686860093939300A1A1A100AEAEAE00BBBBBB00C9C9C900D6D6D600E4E4E400
310
F1F1F100FFFFFF0000000000000000000000000000000000000000000000000000000000000000000000000000000000E2E2E2E2E2E2E2E2E2E2E2E2E2E2E2E2E2E2E2E2E2E2E2E2E2E2E2E2E2E2E2E2E2E2E2E2E2E2E2E2E2E2E2E2E2E2E2E2E2E2E2E2E2E2E2E2E2E2E2E2E2E2E2E2E2E2E2E2E2E2E2E2E2E2E2E2E2E2E2
310
E2E2E2E2E2E2E2E2E2E2E2E2E2E2E2E2E2E2E2E2E2E2E2E2E2E2E2E240E200000000000000000000000000000000000000000000000000000000000000000000000000000000000000000000000000000000000000000000000000000000000000000000000000000000000000000000000000000000000000000000000000
310
000000000000000000B8E20000000000000000000000000000000000000000000000000000000000000000000000000000000000000000000000000000000000000000000000000000000000000000000000000000000000000000000000000000000000000000000000000000000000000000000030E2E2E2E2E2E2E2E2E2
310
E2E2000000000000000000E2E2E2E2E2E2E2E2E2E2E2E2E2E2E2E200000000000000000000E2E2E2E2E2E2E2E2E2E2E2E2E2E2E2E200000000000000000000E2E2E2E2E2E2E2E2E2E2E2E2E2E2E2E2000000000000000000E2E2E2E2E2E2E2E2E2007EE200E200000000000000000000000000000000000000000000000000
310
0000000000000000000000000000000000000000000000000000000000000000000000000000000000000000000000000000000000000000000000000000000000000000000000000000000000E20000E200E20000000000000000000000000000000000000000000000000000000000000000000000000000000000000000
310
0000000000E2E2E20000000000000000000000000000000000000000000000000000000000000000000000000000000000000000000000000000E20001E200E200000000000000000000000000000000000000000000000000000000000000000000000000000000000000000000000000E2E2E20000000000000000000000
310
000000000000000000000000000000000000000000000000000000000000000000000000000000E20019E200E200000000000000000000000000000000000000000000000000000000000000000000000000000000000000000000000000000000000000000000000000000000000000000000000000000000000000000000
310
0000000000000000000000000000000000000000E20001E200E2000000000000000000000000000000000000000000000000000000000000000000000000000000000000000000000000E2E2E2E2E2000000000000000000000000000000000000000000000000000000000000000000000000000000000000000000000000
310
00E20000E200E2000000000000000000000000000000000000000000000000000000000000000000000000000000000000000000000000E2E2E2E2E200000000000000000000000000000000000000000000000000000000000000000000000000000000000000000000000000E20000E200E2000000000000000000000000
310
000000000000000000000000000000000000000000000000000000000000000000000000000000000000000000000000000000000000000000000000000000000000000000000000000000000000000000000000000000000000E20001E200E200000000000000000000000000000000000000000000000000000000000000
310
0000000000000000000000000000000000000000000000000000000000000000000000000000000000000000000000000000000000000000000000000000000000000000000000E20000E200000000000000000000000000000000000000000000000000000000000000000000000000000000000000000000000000000000
310
00000000000000000000000000000000000000000000000000000000000000000000000000000000000000000000000000000000000000E20000000000000000000000000000000000000000000000000000000000000000000000000000000000000000000000000000000000000000000000000000000000000000000000
310
000000000000000000000000000000000000000000000000000000000000000000000000E2000000000000000000000000000000000000000000000000000000000000000000000000000000000000000000000000000000000000000000000000000000000000000000000000000000000000000000000000000000000000
310
0000000000000000000000000000000000E20000000000000000000000000000000000000000000000000000000000000000000000000000000000000000000000000000000000000000000000000000000000000000000000000000000000000000000000000000000000000000000000000000000000000000000000E200
310
00000000000000000000000000000000000000000000000000000000000000000000000000000000000000000000000000000000000000000000000000000000000000000000000000000000000000000000000000000000000000000000000000000000000000000000E20000000000000000000000000000000000000000
310
000000000000000000000000000000000000000000000000000000000000000000000000000000000000000000000000000000000000000000000000000000000000000000000000000000000000000000000000000002E2000000000000000000000000000000000000000000000000000000000000000000000000000000
310
0000000000000000000000000000000000000000000000000000000000000000000000000000000000000000000000000000000000000000000000000000000000000002E200000000000000000000000000000000000000000000000000000000000000000000000000000000000000000000000000000000000000000000
310
000000000000000000000000000000000000000000000000000000000000000000000000000000000000000000000000FFE20000000000000000000000000000000000000000000000000000000000000000000000000000000000000000000000000000000000000000000000000000000000000000000000000000000000
310
000000000000000000000000000000000000000000000000000000000000E2000000000000000000000000000000000000000000000000000000000000000000000000000000000000000000000000000000000000000000000000000000000000000000000000000000000000000000000000000000000000000000000000
310
0000000000000000000099E200E2000000000000000000000000000000000000000000000000000000000000000000000000000000000000000000000000000000000000000000000000000000000000000000000000000000000000000000000000000000000000000000000000000000000000E20066E200E20000000000
310
00000000000000000000000000000000000000000000000000000000000000000000000000000000000000000000000000000000000000000000000000000000000000000000000000000000000000000000000000000000000000000000000000E20066E200E2000000000000000000000000000000000000000000000000
310
000000000000000000000000000000000000000000000000000000000000000000000000000000000000000000000000000000000000000000000000000000000000000000000000000000000000E20066E200E200000000000000000000000000000000000000000000000000000000000000000000000000000000000000
310
0000000000000000000000000000000000000000000000000000000000000000000000000000000000000000000000000000000000000000000000E20000E200E20000000000000000000000000000000000000000000000000000000000000000000000000000000000000000000000000000000000000000000000000000
310
00000000000000000000000000000000000000000000000000000000000000000000000000000000E20099E200E2000000000000000000000000000000000000000000000000000000000000000000000000000000000000000000000000000000000000000000000000000000000000000000000000000000000000000000
310
000000000000000000000000000000000000000000E20000E200E200000000000000000000000000000000000000000000E2E2E2E2E2E2E2E2E2E2E2E2E2E2E2E2E2E2E2E2E2E2E2E2E2E2E2E2E200E2E2E2E2E2E2E2E2E2E2E2E2E2E2E2E2E2E2E2E2E2E2E2E2E2E2E2E2E200000000000000000000000000000000000000
310
0000E200FFE200E2000000000000000000000000000000000000000000E2E20000E2E2E2E2E2E2E200000000000000000000000000000000E2E2E2E200000000E200000000000000E2E2E20000000000000000E2000000E2E2000000000000000000000000000000000000000000E20000E200E20000000000000000000000
310
0000000000000000000000E20000E2E2E2E2E200000000000000000000000000000000E2E2E2E2000000000000E20000000000000000E2E2E200000000000000E200000000E2000000000000000000000000000000000000000000E20000E200E200000000000000000000000000000000000000000000E200E2E2E2E2E2E2
310
E2E2E2E20000000000E2E2E2000000E2E2E2E200000000000000E200000000000000E2E2E2E200000000000000E200000000E2000000000000000000000000000000000000000000E20000E200E200000000000000000000000000000000000000000000E2000000E200000000000000E2E2E2E2E2E2E2E2E2E2E2E2E2E2E2
310
E2E2E2E2E2E2E2E2000000000000000000E20000000000000000E200000000E2000000000000000000000000000000000000000000E20000E200E200000000000000000000000000000000000000000000E2000000E2E2E2E2E2E2E2E2E2E2E2E2E2E2E2E2000000000000E2E2E2E2E2E2E2E2E2E2E2E2E2E2E2E2E2E2E200
310
00000000000000E200000000E2000000000000000000000000000000000000000000E2000FE200E200000000000000000000000000000000000000000000E2000000E20000000000E20000000000E2E2E2E2E2E2E2E2E2E2E2E2E20000000000E2000000000000000000E20000000000000000E200000000E2000000000000
310
000000000000000000000000000000E20000E200E200000000000000000000000000000000000000000000E2000000E20000000000E20000000000E2E2E2E2E2E20000E2E2E2E2E20000000000E2000000000000000000E20000000000000000E200000000E2000000000000000000000000000000000000000000E20000E2
310
00E200000000000000000000000000000000000000000000E2000000E20000000000E20000000000E2E2E200E2E20000E20000E2E20000000000E2000000000000000000E20000000000000000E200000000E2000000000000000000000000000000000000000000E20000E200E20000000000000000000000000000000000
310
0000000000E2000000E20000000000E20000000000E2E2E200E2E20000E20000E2E20000000000E2000000000000000000E20000000000000000E200000000E2000000000000000000000000000000000000000000E20000E200E200000000000000000000000000000000000000000000E2000000E20000000000E2000000
310
0000E2E2E200E2E20000E20000E2E20000000000E2000000000000000000E20000000000000000E200000000E2000000000000000000000000000000000000000000E2000FE2000000000000000000000000000000000000000000000000E2000000E20000000000E20000000000E2E2E200E2E20000E20000E2E200000000
310
00E2000000000000000000E20000000000000000E200000000E2000000000000000000000000000000000000000000000000E2000000000000000000000000000000000000000000000000E2000000E20000000000E20000000000E2E2E200E2E20000E20000E2E20000000000E2000000000000000000E200000000000000
310
00E200000000E20000000000000000000000000000000000000000000000F5E200000000000000000000000000000000000000000000E2E2E2E20000E20000000000E20000000000E2E2E200E2E20000E20000E2E20000000000E2000000000000000000E20000000000000000E200000000E2000000000000000000000000
310
000000000000000000000000E200000000000000000000000000000000000000000000E2E2E2E20000E20000000000E20000000000E2E2E200E2E20000E20000E2E20000000000E2000000000000000000E20000000000000000E200000000E2000000000000000000000000000000000000000000000000E2000000000000
310
00000000000000000000000000000000E2E2E2E20000E20000000000E20000000000E2E2E200E2E20000E20000E2E20000000000E2000000000000000000E20000000000000000E200000000E2000000000000000000000000000000000000000000000000E2000000000000000000000000000000000000000000000000E2
310
00E2E2E2E200000000E2E2E2E20000E2E2E200E2E20000E20000E2E200E2E2E200E200000000000000E2E2E2E200000000000000E200000000E2000000000000000000000000000000000000000000000000E2000000000000000000000000000000000000000000000000E20000E2E2E200000000E2E2E2E20000E2E2E200
310
E2E20000E20000E2E200E2E2E200E200000000000000E2E2E2E200000000000000E200000000E200000000000000000000000000000000000000000000000FE2000000000000000000000000000000000000000000000000E20000E2E2E2000000E2E2E2E2E2E2E2E2E2E200E2E20000E20000E2E2E2E2E2E2E2E2E2000000
310
000000E2E2E20000000000000000E200000000E2000000000000000000000000000000000000000000000000E2000000000000000000000000000000000000000000000000E20000E2E2E200000000E2E2E2E20000E2E2E200E2E20000E20000E2E200E2E2E200E20000000000000000E2E2E200000000000000E200000000
310
E2000000000000000000000000000000000000000000000000E200E200000000000000000000000000000000000000000000E2000000E20000000000E20000000000E2E2E200E2E20000E20000E2E20000000000E2000000000000000000E20000000000000000E200000000E2000000000000000000000000000000000000
310
000000E20000E200E200000000000000000000000000000000000000000000E2000000E20000000000E20000000000E2E2E200E2E20000E20000E2E20000000000E2000000000000000000E20000000000000000E200000000E2000000000000000000000000000000000000000000E20000E200E200000000000000000000
310
000000000000000000000000E2000000E20000000000E20000000000E2E2E200E2E20000E20000E2E20000000000E2000000000000000000E20000000000000000E200000000E2000000000000000000000000000000000000000000E200F5E200E200000000000000000000000000000000000000000000E2000000E20000
310
000000E20000000000E2E2E200E2E20000E20000E2E200000000E2E2000000000000000000E20000000000000000E200000000E2000000000000000000000000000000000000000000E20000E200E200000000000000000000000000000000000000000000E2000000E20000000000E20000000000E2E2E200E2E20000E200
310
00E2E2E2E2E2E2E2E200E2E2E2E2E2E20000E20000000000000000E200000000E2000000000000000000000000000000000000000000E20000E200E200000000000000000000000000000000000000000000E2000000E20000000000E20000000000E2E2E200E2E20000E20000E2E200000000E2E200E200000000E20000E2
310
0000000000000000E200000000E2000000000000000000000000000000000000000000E20000E200E200000000000000000000000000000000000000000000E2000000E20000000000E20000000000E2E2E200E2E20000E20000E2E200000000E2E2E2E200000000E2E200E20000000000000000E200000000E20000000000
310
00000000000000000000000000000000E20000E200E200000000000000000000000000000000000000000000E2000000E20000000000E20000000000E2E2E200E2E20000E20000E2E2000000000000E2E20000000000E200E20000000000000000E200000000E2000000000000000000000000000000000000000000E200F5
310
E200E200000000000000000000000000000000000000000000E2000000E20000000000E20000E2E200E2E2E200E2E20000E20000E2E2000000000000E2E20000000000E200E20000000000000000E200000000E2000000000000000000000000000000000000000000E20000E200E200000000000000000000000000000000
310
000000000000E2000000E20000000000E2E2E2E2E200E2E2E200E2E20000E20000E2E2E2E2E2E2E200E2E2E2E2E2E2E2E200E20000000000000000E200000000E2000000000000000000000000000000000000000000E200F5E200E200000000000000000000000000000000000000000000E2000000E20000000000E2E2E2
310
E2E2E2E2E2E200E2E20000E20000E2E200E2E200E2E2E200E2E200E2E2E200E20000000000000000E200000000E2000000000000000000000000000000000000000000E20000E200E2000000000000000000000000000000000000000000E2E2E2E2E2E2E2E2E2E2E2E2E2E2E2E2E200E2E200E2E20000E20000E2E2000000
310
E2E2E200000000E2E2E2E2E2E20000000000000000E200000000E2000000000000000000000000000000000000000000E20000E200E2000000000000000000000000000000000000000000000000000000000000000000E2E200E20000E2E200E2E20000E20000E2E200000000E2000000000000E2E2000000000000000000
310
0000E200000000E2000000000000000000000000000000000000000000E20000E200E2000000000000000000000000000000000000000000000000000000000000000000E2E2E2E2E2E2E2E2E2E2E2E2E2E2E2E2E2E2E2E2E2E2E2E2E2E2E2E2E2E2E20000000000000000000000E200000000E20000000000000000000000
310
00000000000000000000E20000E200E2000000000000000000000000000000000000000000000000000000000000000000000000000000000000000000000000000000000000000000000000000000000000000000000000000000E200000000E2000000000000000000000000000000000000000000E200F5E200E2000000
310
00000000000000000000000000000000000000000000000000000000000000000000000000000000000000000000000000000000E2E2E2E2E2E2E2E2E20000000000000000000000E200000000E2000000000000000000000000000000000000000000E20000E200E200000000000000000000000000000000000000000000
310
000000000000000000000000000000000000000000000000000000000000000000E2000000000000E2E20000E20000000000000000E200000000E2000000000000000000000000000000000000000000E20000E200000000000000000000000000000000000000000000000000000000000000000000000000000000000000
310
00000000000000000000000000E2E2E200000000E2E2E2E2E2E20000000000000000E200000000E2000000000000000000000000000000000000000000000000E2000000000000000000000000000000000000000000000000000000000000000000000000000000000000000000000000000000000000E2E200E2E2E200E2
310
E200E2E2E200E20000000000000000E200000000E2000000000000000000000000000000000000000000000000E200000000000000000000000000000000000000000000000000000000000000000000000000000000000000000000000000000000E2E2E2E2E2E200E2E2E2E2E2E2E2E2E2E20000000000000000E20000E2
310
E2E20000000000000000000000000000000000000000000000F5E200000000000000000000000000000000000000000000000000000000000000000000000000000000000000000000E2E2E2E2E2E2E2000000000000E2E20000000000E2E2E2E2E2E2E2E2E2E2E2E20000E2E2E20000000000000000000000000000000000
310
00000000000000E20000000000000000000000000000000000000000000000000000000000000000000000000000000000000000000000E2E2E2E2E2E2000000000000E2E20000000000E2E2E2E2E2E2E2E2E20000E20000E2E2E2000000000000000000000000000000000000000000000000E20000000000000000000000
310
0000000000000000000000000000000000000000000000000000000000000000000000000000000000E2E2E2E2E2E200E2E2E2E2E2E2E2E200E20000000000000000E20000E2E2E2000000000000000000000000000000000000000000000000E2000000000000000000000000000000000000000000000000000000000000
310
000000000000000000000000000000000000000000000000E2E200E2E2E200E2E200E2E2E200E20000000000000000E200000000E2000000000000000000000000000000000000000000000000E200000000000000000000000000000000000000000000000000000000000000000000000000000000000000000000000000
310
00000000000000E2E2E200000000E2E2E2E2E2E20000000000000000E200000000E20000000000000000000000000000000000000000000000F5E2000000000000000000000000000000000000000000000000000000000000000000000000000000000000000000000000000000000000000000E2000000000000E2E20000
310
E20000000000000000E200000000E2000000000000000000000000000000000000000000000000E2000000000000000000000000000000000000000000000000000000000000000000000000000000000000000000000000000000000000000000E2E2E2E2E2E2E2E2E20000000000000000000000E200000000E200000000
310
00000000000000000000000000000000000000F5E200E2000000000000000000000000000000000000000000000000000000000000000000000000000000000000000000000000000000000000000000000000000000000000000000000000000000E200000000E2000000000000000000000000000000000000000000E200
310
00E200E2000000000000000000000000000000000000000000000000000000000000000000E2E2E2E2E2E2E2E2E2E2E2E2E2E2E2E2E2E2E2E2E2E2E2E2E2E2E2E2E2E2E20000000000000000000000E200000000E2000000000000000000000000000000000000000000E20000E200E2000000000000000000000000000000
310
000000000000000000000000000000000000E2E200E20000E2E200E2E20000E20000E2E200000000E2000000000000E2E20000000000000000000000E200000000E2000000000000000000000000000000000000000000E2007FE200E2000000000000000000000000000000000000000000E2E2E2E2E2E2E2E2E2E2E2E2E2
310
E2E2E2E200E2E200E2E20000E20000E2E2000000E2E2E200000000E2E2E2E2E2E20000000000000000E200000000E2000000000000000000000000000000000000000000E20000E200E200000000000000000000000000000000000000000000E2000000E20000000000E2E2E2E2E2E2E2E2E200E2E20000E20000E2E200E2
310
E200E2E2E200E2E200E2E2E200E20000000000000000E200000000E2000000000000000000000000000000000000000000E200F5E200E200000000000000000000000000000000000000000000E2000000E20000000000E2E2E2E2E200E2E2E200E2E20000E20000E2E2E2E2E2E2E200E2E2E2E2E2E2E2E200E20000000000
310
000000E200000000E2000000000000000000000000000000000000000000E20000E200E200000000000000000000000000000000000000000000E2000000E20000000000E20000E2E200E2E2E200E2E20000E20000E2E2000000000000E2E20000000000E200E20000000000000000E200000000E200000000000000000000
310
0000000000000000000000E20000E200E200000000000000000000000000000000000000000000E2000000E20000000000E20000000000E2E2E200E2E20000E20000E2E2000000000000E2E20000000000E200E20000000000000000E200000000E2000000000000000000000000000000000000000000E20000E200E20000
310
0000000000000000000000000000000000000000E2000000E20000000000E20000000000E2E2E200E2E20000E20000E2E200000000E2E2E2E200000000E2E200E20000000000000000E200000000E2000000000000000000000000000000000000000000E20036E200E2000000000000000000000000000000000000000000
310
00E2000000E20000000000E20000000000E2E2E200E2E20000E20000E2E200000000E2E200E200000000E20000E20000000000000000E200000000E2000000000000000000000000000000000000000000E200F5E200E200000000000000000000000000000000000000000000E200E2E2E2E200000000E20000000000E2E2
310
E200E2E20000E20000E2E2E2E2E2E2E2E200E2E2E2E2E2E2E2E2E2E200000000000000E200000000E2000000000000000000000000000000000000000000E20000E200E20000000000000000000000000000000000000000E2E2E200E2E2E2E200000000E20000000000E2E2E200E2E20000E20000E2E200000000E2E20000
310
0000000000E2E2E2E200000000000000E200000000E2000000000000000000000000000000000000000000E200F5E200E20000000000000000000000000000000000000000E2E2E2E2E2E2E2E200000000E20000000000E2E2E200E2E20000E20000E2E20000000000E200000000000000E2E2E2E200000000000000E20000
310
0000E2000000000000000000000000000000000000000000E20000E200E20000000000000000000000000000000000000000E2E2E2E20000E20000000000E20000000000E2E2E200E2E20000E20000E2E20000000000E2000000000000000000E20000000000000000E200000000E200000000000000000000000000000000
310
0000000000E20000E200E200000000000000000000000000000000000000000000E2000000E20000000000E20000000000E2E2E200E2E20000E20000E2E20000000000E2000000000000000000E20000000000000000E200000000E2000000000000000000000000000000000000000000E200F5E200E20000000000000000
310
0000000000000000000000000000E2000000E20000000000E20000000000E2E2E200E2E20000E20000E2E20000000000E2000000000000000000E20000000000000000E200000000E2000000000000000000000000000000000000000000E20000E200E200000000000000000000000000000000000000000000E2000000E2
310
0000000000E20000000000E2E2E200E2E20000E20000E2E20000000000E2000000000000000000E20000000000000000E200000000E2000000000000000000000000000000000000000000E200F5E2000000000000000000000000000000000000000000000000E2000000E20000000000E20000000000E2E2E2E2E2E20000
310
E2E2E2E2E20000000000E2000000000000000000E20000000000000000E200000000E2000000000000000000000000000000000000000000000000E2000000000000000000000000000000000000000000000000E2000000E20000000000E20000000000E2E2E2E2E2E2E2E2E2E2E2E2E20000000000E20000000000000000
310
00E20000000000000000E200000000E2000000000000000000000000000000000000000000000000E2000000000000000000000000000000000000000000000000E2000000E2E2E2E2E2E2E2E2E2E2E2E2E2E2E2E2E2E200E2E2E2E2E2E2E2E2E2E2E2E2E2E2E2E2E2E2E2E2E2E20000000000000000E200000000E2000000
310
000000000000000000000000000000000000000000E2000000000000000000000000000000000000000000000000E2000000E20000000000E2E2E2E2E2E2E2E200E2E2E2E200E2E2E2E2E2E2E2E2E2E2E2000000000000000000E20000000000000000E200000000E200000000000000000000000000000000000000000000
310
0000E2000000000000000000000000000000000000000000000000E20000000000E2E2E2E2E2E200E20000000000E2E2E2E20000E2E2E2E20000000000E2000000000000000000000000000000000000E200000000E2000000000000000000000000000000000000000000000000E200000000000000000000000000000000
310
00000000000000E2E2E2E2E2E2E2E2000000E2E2E2E2E2E2E2E2E2E2E2E2E2E2E2E2E2E2E2E2E2E2E2E2E2E2E2E2E2E2E2E2E2E2E2E2E2E2E2E2E2E2E2E200000000E2000000000000000000000000000000000000000000000000E2000000000000000000000000000000000000000000000000000000000000E2E2E2E2E2
310
E200E2E2E2E20000000000000000000000000000000000E2000000000000000000000000000000000000E200000000E2000000000000000000000000000000000000000000000000E2000000000000000000000000000000000000000000000000000000000000E2E2E2E2E20000E2E2E2E200000000000000000000000000
310
00000000E2000000000000000000000000000000000000E200000000E2000000000000000000000000000000000000000000000000E2000000000000000000000000000000000000000000000000000000000000E2000000E2000000E2E2E2000000E2E2E2E200000000000000000000E200E2E2E2E2E2E2E2E2E2E2E2E2E2
310
E2E2E2E2E2E2E2E2E2E2000000000000000000000000000000000000000000000000E200E200000000000000000000000000000000000000000000000000000000E2000000E2E2E2E2E2E2E2E2E2E2E2E2E2E2E2E2E2E2E2E2E2E2E2E2E2000000000000000000000000000000000000E2E2E2E20000000000000000000000
310
000000000000000000000000E200F5E200E200000000000000000000000000000000000000000000000000000000E2E2E2E2E20000000000000000000000E2000000000000000000000000E20000000000000000000000000000000000E2E2E2E20000000000000000000000000000000000000000000000E20000E200E200
310
00000000000000000000000000000000000000000000000000000000000000000000000000000000000000000000000000000000000000000000000000000000000000000000000000000000E2E20000000000000000000000000000000000000000000000E200F5E200E20000000000000000000000000000000000000000
310
00000000000000000000000000000000000000000000000000000000000000000000000000000000000000000000000000000000000000000000000000000000000000000000000000000000000000000000E20000E200E2000000000000000000000000000000000000000000000000000000000000000000000000000000
310
000000000000000000000000000000000000000000000000000000000000000000000000000000000000000000000000000000000000000000000000000000E20000E200E200000000000000000000000000000000000000000000000000000000000000000000000000000000000000000000000000000000000000000000
310
0000000000000000000000000000000000000000000000000000000000000000000000000000000000000000E200F5E200E20000000000000000000000000000000000000000000000000000000000000000000000000000000000000000000000000000000000000000000000000000000000000000000000000000000000
310
00000000000000000000000000000000000000000000000000E20000E200E2000000000000000000000000000000000000000000000000000000000000000000000000000000000000000000000000000000000000000000000000000000000000000000000000000000000000000000000000000000000000000000000000
310
000000000000E20000E200E2000000000000000000000000000000000000000000000000000000000000000000000000000000000000000000000000000000000000000000000000000000000000000000000000000000000000000000000000000000000000000000000000000000000000E20000E200E200000000000000
310
0000000000000000000000000000000000000000000000000000000000000000000000000000000000000000000000000000000000000000000000000000000000000000000000000000000000000000000000000000000000000000000000E20000E200E20000000000000000000000000000000000000000000000000000
310
00000000000000000000000000000000000000000000000000000000000000000000000000000000000000000000000000000000000000000000000000000000000000000000000000000000E20000E200E2000000000000000000000000000000000000000000000000000000000000000000000000000000000000000000
310
000000000000000000000000000000000000000000000000000000000000000000000000000000000000000000000000000000000000000000E20000E200E200000000000000000000000000000000000000000000000000000000000000000000000000000000000000000000000000000000000000000000000000000000
310
0000000000000000000000000000000000000000000000000000000000000000000000000000E20000E200E20000000000000000000000000000000000000000000000000000000000000000000000000000000000000000000000000000000000000000000000000000000000000000000000000000000000000000000000
310
00000000000000000000000000000000000000E20000E200E2000000000000000000000000000000000000000000000000000000000000000000000000000000000000000000000000000000000000000000000000000000000000000000000000000000000000000000000000000000000000000000000000000000000000
310
E20000E200E2000000000000000000000000000000000000000000000000000000000000000000000000000000000000000000000000000000000000000000000000000000000000000000000000000000000000000000000000000000000000000000000000000000000000E20000E200E200000000E2E2E2E2E2E2E2E2E2
310
E2E2E2E2E2E2E2E2E2E2E2E2E2E2E2E2E2E2E2E2E2E2E2E2E2E2E2E2E2E2E2E2E2E2E2E2E2E2E2E2E2E2E2E2E2E2E2E2E2E2E2E2E2E2E2E2000000000000000000000000000000000000000000000000000000000000000000E20000E2000000000000E2E2E2E2E2E2E2E2E2E2E2E2E2E2E2E2E2E2E2E2E2E2E2E2E2E2E2E2
310
E2E2E2E2E2E2E2E2E2E2E2E2E2E2E2E2E2E2E2E2E2E2E2E2E2E2E2E2E2E2E2E2E2E2E2E2E2000000000000000000000000000000000000000000000000000000000000000000000000E2000000000000E2E2E2E2E2E2E2E2E2E2E2E2E2E2E2E2E2E2E2E2E2E2E2E2E2E2E2E2E2E2E2E2E2E2E2E2E2E2E2E2E2E2E2E2E2E2E2
310
E2E2E2E2E2E2E2E2E2E2E2E2E2E2E2E2E2E2000000000000000000000000000000000000000000000000000000000000000000000000E2000000000000E2E2E2E2E2E2E2E2E2E2E2E2E2E2E2E2E2E2E2E2E2E2E2E2E2E2E2E2E2E2E2E2E2E2E2E2E2E2E2E2E2E2E2E2E2E2E2E2E2E2E2E2E2E2E2E2E2E2E2E2E2E2E2E2E200
310
00000000000000000000000000000000000000000000000000000000000000000000F5E20000000000E2E2E2E2E2E2E2E2E2E2E2E2E2E2E2E2E2E2E2E2E2E2E2E2E2E2E2E2E2E2E2E2E2E2E2E2E2E2E2E2E2E2E2E2E2E2E2E2E2E2E2E2E2E2E2E2E2E2E2E2E2E2E2E2E2E2E2E2E2E2E2E2E2E2E2E2E2E2E2E2E2E2E2E2E2E2
310
E2E2E2E2E2E2E2E2E2E2E2E2E2000000E2000000000000E2E2E2E2E2E2E2E2E2E2E2E2E2E2E2E2E2E2E2E2E2E2E2E2E2E2E2E2E2E2E2E2E2E2E2000000000000000000000000000000000000000000000000000000000000000000000000000000000000000000000000000000000000000000000000000000000000E20000
310
00000000E2E2E2E2E2E2E2E2E2E2E2E2E2E2E2E2E2E2E2E2E2E2E2E2E2E2E2E2E2E2E2E2E2E2E20000000000000000000000000000000000000000000000000000000000000000000000000000000000000000000000000000000000000000000000000000000000F5E2000000000000E2E2E2E2E2E2E2E2E2E2E2E2E2E2E2
310
E2E2E2E2E2E2E2E2E2E2E2E2E2E2E2E2E2E2E2E2000000000000000000000000000000000000000000000000000000000000000000E2E2E2E2E2E2E2E2E2E2E2E2E2E2E2E2E2E2E2E2E2E2E2E2E2E2E2E2E200000000E2000000000000E2E2E2E2E2E2E2E2E2E2E2E2E2E2E2E2E2E2E2E2E2E2E2E2E2E2E2E2E2E2E2E2E2E2
310
E2000000000000000000000000000000000000000000000000000000000000000000E2000000000000000000000000000000000000000000000000000000E2000000F5E20000000000000000000000000000000000000000000000000000000000000000000000000000000000000000000000000000000000000000000000
310
000000000000000000000000000000E20000E5E5E5E5E500E5E5E5E5E5E5E5E5E5E000E50025E525E5E500E200000000E20000000000000000000000000000000000000000000000000000000000000000000000000000000000000000000000000000000000000000000000000000000000000000000000000000E200E500
310
0000000000000000000000000000000000000000000000E5E200000000E200E2000000000000000000000000000000000000000000000000000000000000000000000000000000000000000000000000000000000000000000000000000000000000000000000000E2E5E50000000000E50000000000000000000000000000
310
0000E50000E200E20000E200E2000000000000000000000000000000000000000000000000000000000000000000000000000000000000000000000000000000000000000000000000000000000000000000000000E2E5E50000000000E500000000000000000000000000000000E50000E200E20000E200E2000000000000
310
000000000000000000000000000000000000000000000000000000000000000000000000000000000000000000000000000000000000000000000000000000000000E2E5E50000E500000000000000000000E50000000000000000E00000E200E200F5E200E200000000000000000000000000000000000000000000000000
310
0000000000000000000000000000000000000000000000000000000000000000000000000000000000000000000000E2000000000000E0000000040000E500000004002000E500000000E4E200E20000E200E20000000000000000000000000000000000000000000000000000000000000000000000000000000000000000
310
00000000000000000000000000000000000000000000000000000000E20000000000000000C0C00000000000000000C0C000000000000000E200E20000E200E2000000000000000000000000000000000000000000000000000000000000000000000000000000000000000000000000000000000000000000000000000000
310
000000000000000000E2000000000000000000000000000000000000000000000000000000E200E20000E200E2000000000000000000000000000000000000000000000000000000000000000000000000000000000000000000000000000000000000000000000000000000000000000000000000E2000000000000000000
310
000000000000000000000000000000000000E200E20000E200E2000000000000000000000000000000000000000000000000000000000000000000000000000000000000000000000000000000000000000000000000000000000000000000000000E2E2E2E2E2E2E2E2E2E2E2E2E2E2E2E2E2E2E2E2E2E2E2E2E2E2E2E2E2
310
00E200F5E200E2E2E2E2E2E2E2E2E2000000000000000000E2E2E2E2E2E2E2E2E2E2E2E2E2E2E2E200000000000000000000E2E2E2E2E2E2E2E2E2E2E2E2E2E2E2E200000000000000000000E2E2E2E2E2E2E2E2E2E2E2E2E2E2E2E2000000000000000000E2E2E2E2E2E2E2E2E2E200E20000000000000000000000000000
310
00000000000000000000000000000000000000000000000000000000000000000000000000000000000000000000000000000000000000000000000000000000000000000000000000000000000000000000000000000000000000E2F5E2000000000000000000000000000000000000000000000000000000000000000000
310
0000000000000000000000000000000000000000000000000000000000000000000000000000000000000000000000000000000000000000000000000000000000000000000000000000E2E2E2E2E2E2E2E2E2E2E2E2E2E2E2E2E2E2E2E2E2E2E2E2E2E2E2E2E2E2E2E2E2E2E2E2E2E2E2E2E2E2E2E2E2E2E2E2E2E2E2E2E2
310
E2E2E2E2E2E2E2E2E2E2E2E2E2E2E2E2E2E2E2E2E2E2E2E2E2E2E2E2E2E2E2E2E2E2E2E2E2E2E2E2E2E2E2E2E2E2E2E2E2E2E2E2E2E200
  0
XRECORD
  5
35B
102
{ACAD_REACTORS
330
19
102
}
330
19
100
AcDbXrecord
280
     1
102
SHADEPLOT
 70
     0
102
SHADEPLOTRESLEVEL
 70
     2
102
SHADEPLOTCUSTOMDPI
 70
   300
  0
XRECORD
  5
1A
102
{ACAD_REACTORS
330
19
102
}
330
19
100
AcDbXrecord
280
     1
310
280000000001000075000000010008000000000000750000000000000000000000010000000000000000000000000000C8C8C8000000000000000000000000000000000000000000000000000000000000000000330000006600000099000000CC000000FF00000000330000333300006633000099330000CC330000FF3300
310
0000660000336600006666000099660000CC660000FF66000000990000339900006699000099990000CC990000FF99000000CC000033CC000066CC000099CC0000CCCC0000FFCC000000FF000033FF000066FF000099FF0000CCFF0000FFFF000000003300330033006600330099003300CC003300FF003300003333003333
310
33006633330099333300CC333300FF33330000663300336633006666330099663300CC663300FF66330000993300339933006699330099993300CC993300FF99330000CC330033CC330066CC330099CC3300CCCC3300FFCC330000FF330033FF330066FF330099FF3300CCFF3300FFFF330000006600330066006600660099
310
006600CC006600FF00660000336600333366006633660099336600CC336600FF33660000666600336666006666660099666600CC666600FF66660000996600339966006699660099996600CC996600FF99660000CC660033CC660066CC660099CC6600CCCC6600FFCC660000FF660033FF660066FF660099FF6600CCFF6600
310
FFFF660000009900330099006600990099009900CC009900FF00990000339900333399006633990099339900CC339900FF33990000669900336699006666990099669900CC669900FF66990000999900339999006699990099999900CC999900FF99990000CC990033CC990066CC990099CC9900CCCC9900FFCC990000FF99
310
0033FF990066FF990099FF9900CCFF9900FFFF99000000CC003300CC006600CC009900CC00CC00CC00FF00CC000033CC003333CC006633CC009933CC00CC33CC00FF33CC000066CC003366CC006666CC009966CC00CC66CC00FF66CC000099CC003399CC006699CC009999CC00CC99CC00FF99CC0000CCCC0033CCCC0066CC
310
CC0099CCCC00CCCCCC00FFCCCC0000FFCC0033FFCC0066FFCC0099FFCC00CCFFCC00FFFFCC000000FF003300FF006600FF009900FF00CC00FF00FF00FF000033FF003333FF006633FF009933FF00CC33FF00FF33FF000066FF003366FF006666FF009966FF00CC66FF00FF66FF000099FF003399FF006699FF009999FF00CC
310
99FF00FF99FF0000CCFF0033CCFF0066CCFF0099CCFF00CCCCFF00FFCCFF0000FFFF0033FFFF0066FFFF0099FFFF00CCFFFF00FFFFFF00000000000D0D0D001A1A1A00282828003535350043434300505050005D5D5D006B6B6B00787878008686860093939300A1A1A100AEAEAE00BBBBBB00C9C9C900D6D6D600E4E4E400
310
F1F1F100FFFFFF000000000000000000000000000000000000000000000000000000000000000000000000000000000000000000000000000000000000000000000000000000000000000000000000000000000000000000000000000000000000000000000000000000000000000000000000000000000000000000000000
310
00000000000000000000000000000000000000000000000000000000000000000000000000000000000000000000000000000000000000000000000000000000000000000000000000000000000000000000000000000000000000000000000000000000000000000000000000000000000000000000000000000000000000
310
00000000000000000000000000000000000000000000000000000000000000000000000000000000000000000000000000000000000000000000000000000000000000000000000000000000000000000000000000000000000000000000000000000000000000000000000000000000000000000000000000000000000000
310
00000000000000000000000000000000000000000000000000000000000000000000000000000000000000000000000000000000000000000000000000000000000000000000000000000000000000000000000000000000000000000000000000000000000000000000000000000000000000000000000000000000000000
310
00000000000000000000000000000000000000000000000000000000000000000000000000000000000000000000000000000000000000000000000000000000000000000000000000000000000000000000000000000000000000000000000000000000000000000000000000000000000000000000000000000000000000
310
00000000000000000000000000000000000000000000000000000000000000000000000000000000000000000000000000000000000000000000000000000000000000000000000000000000000000000000000000000000000000000000000000000000000000000000000000000000000000000000000000000000000000
310
00000000000000000000000000000000000000000000000000000000000000000000000000000000000000000000000000000000000000000000000000000000000000000000000000000000000000000000000000000000000000000000000000000000000000000000000000000000000000000000000000000000000000
310
00000000000000000000000000000000000000000000000000000000000000000000000000000000000000000000000000000000000000000000000000000000000000000000000000000000000000000000000000000000000000000000000000000000000000000000000000000000000000000000000000000000000000
310
00000000000000000000000000000000000000000000000000000000000000000000000000000000000000000000000000000000000000000000000000000000000000000000000000000000000000000000000000000000000000000000000000000000000000000000000000000000000000000000000000000000000000
310
00000000000000000000000000000000000000000000000000000000000000000000000000000000000000000000000000000000000000000000000000000000000000000000000000000000000000000000000000000000000000000000000000000000000000000000000000000000000000000000000000000000000000
310
00000000000000000000000000000000000000000000000000000000000000000000000000000000000000000000000000000000000000000000000000000000000000000000000000000000000000000000000000000000000000000000000000000000000000000000000000000000000000000000000000000000000000
310
00000000000000000000000000000000000000000000000000000000000000000000000000000000000000000000000000000000000000000000000000000000000000000000000000000000000000000000000000000000000000000000000000000000000000000000000000000000000000000000000000000000000000
310
00000000000000000000000000000000000000000000000000000000000000000000000000000000000000000000000000000000000000000000000000000000000000000000000000000000000000000000000000000000000000000000000000000000000000000000000000000000000000000000000000000000000000
310
00000000000000000000000000000000000000000000000000000000000000000000000000000000000000000000000000000000000000000000000000000000000000000000000000000000000000000000000000000000000000000000000000000000000000000000000000000000000000000000000000000000000000
310
00000000000000000000000000000000000000000000000000000000000000000000000000000000000000000000000000000000000000000000000000000000000000000000000000000000000000000000000000000000000000000000000000000000000000000000000000000000000000000000000000000000000000
310
00000000000000000000000000000000000000000000000000000000000000000000000000000000000000000000000000000000000000000000000000000000000000000000000000000000000000000000000000000000000000000000000000000000000000000000000000000000000000000000000000000000000000
310
00000000000000000000000000000000000000000000000000000000000000000000000000000000000000000000000000000000000000000000000000000000000000000000000000000000000000000000000000000000000000000000000000000000000000000000000000000000000000000000000000000000000000
310
00000000000000000000000000000000000000000000000000000000000000000000000000000000000000000000000000000000000000000000000000000000000000000000000000000000000000000000000000000000000000000000000000000000000000000000000000000000000000000000000000000000000000
310
00000000000000000000000000000000000000000000000000000000000000000000000000000000000000000000000000000000000000000000000000000000000000000000000000000000000000000000000000000000000000000000000000000000000000000000000000000000000000000000000000000000000000
310
00000000000000000000000000000000000000000000000000000000000000000000000000000000000000000000000000000000000000000000000000000000000000000000000000000000000000000000000000000000000000000000000000000000000000000000000000000000000000000000000000000000000000
310
00000000000000000000000000000000000000000000000000000000000000000000000000000000000000000000000000000000000000000000000000000000000000000000000000000000000000000000000000000000000000000000000000000000000000000000000000000000000000000000000000000000000000
310
00000000000000000000000000000000000000000000000000000000000000000000000000000000000000000000000000000000000000000000000000000000000000000000000000000000000000000000000000000000000000000000000000000000000000000000000000000000000000000000000000000000000000
310
00000000000000000000000000000000000000000000000000000000000000000000000000000000000000000000000000000000000000000000000000000000000000000000000000000000000000000000000000000000000000000000000000000000000000000000000000000000000000000000000000000000000000
310
00000000000000000000000000000000000000000000000000000000000000000000000000000000000000000000000000000000000000000000000000000000000000000000000000000000000000000000000000000000000000000000000000000000000000000000000000000000000000000000000000000000000000
310
00000000000000000000000000000000000000000000000000000000000000000000000000000000000000000000000000000000000000000000000000000000000000000000000000000000000000000000000000000000000000000000000000000000000000000000000000000000000000000000000000000000000000
310
00000000000000000000000000000000000000000000000000000000000000000000000000000000000000000000000000000000000000000000000000000000000000000000000000000000000000000000000000000000000000000000000000000000000000000000000000000000000000000000000000000000000000
310
00000000000000000000000000000000000000000000000000000000000000000000000000000000000000000000000000000000000000000000000000000000000000000000000000000000000000000000000000000000000000000000000000000000000000000000000000000000000000000000000000000000000000
310
00000000000000000000000000000000000000000000000000000000000000000000000000000000000000000000000000000000000000000000000000000000000000000000000000000000000000000000000000000000000000000000000000000000000000000000000000000000000000000000000000000000000000
310
00000000000000000000000000000000000000000000000000000000000000000000000000000000000000000000000000000000000000000000000000000000000000000000000000000000000000000000000000000000000000000000000000000000000000000000000000000000000000000000000000000000000000
310
00000000000000000000000000000000000000000000000000000000000000000000000000000000000000000000000000000000000000000000000000000000000000000000000000000000000000000000000000000000000000000000000000000000000000000000000000000000000000000000000000000000000000
310
00000000000000000000000000000000000000000000000000000000000000000000000000000000000000000000000000000000000000000000000000000000000000000000000000000000000000000000000000000000000000000000000000000000000000000000000000000000000000000000000000000000000000
310
00000000000000000000000000000000000000000000000000000000000000000000000000000000000000000000000000000000000000000000000000000000000000000000000000000000000000000000000000000000000000000000000000000000000000000000000000000000000000000000000000000000000000
310
00000000000000000000000000000000000000000000000000000000000000000000000000000000000000000000000000000000000000000000000000000000000000000000000000000000000000000000000000000000000000000000000000000000000000000000000000000000000000000000000000000000000000
310
00000000000000000000000000000000000000000000000000000000000000000000000000000000000000000000000000000000000000000000000000000000000000000000000000000000000000000000000000000000000000000000000000000000000000000000000000000000000000000000000000000000000000
310
00000000000000000000000000000000000000000000000000000000000000000000000000000000000000000000000000000000000000000000000000000000000000000000000000000000000000000000000000000000000000000000000000000000000000000000000000000000000000000000000000000000000000
310
00000000000000000000000000000000000000000000000000000000000000000000000000000000000000000000000000000000000000000000000000000000000000000000000000000000000000000000000000000000000000000000000000000000000000000000000000000000000000000000000000000000000000
310
00000000000000000000000000000000000000000000000000000000000000000000000000000000000000000000000000000000000000000000000000000000000000000000000000000000000000000000000000000000000000000000000000000000000000000000000000000000000000000000000000000000000000
310
00000000000000000000000000000000000000000000000000000000000000000000000000000000000000000000000000000000000000000000000000000000000000000000000000000000000000000000000000000000000000000000000000000000000000000000000000000000000000000000000000000000000000
310
00000000000000000000000000000000000000000000000000000000000000000000000000000000000000000000000000000000000000000000000000000000000000000000000000000000000000000000000000000000000000000000000000000000000000000000000000000000000000000000000000000000000000
310
00000000000000000000000000000000000000000000000000000000000000000000000000000000000000000000000000000000000000000000000000000000000000000000000000000000000000000000000000000000000000000000000000000000000000000000000000000000000000000000000000000000000000
310
00000000000000000000000000000000000000000000000000000000000000000000000000000000000000000000000000000000000000000000000000000000000000000000000000000000000000000000000000000000000000000000000000000000000000000000000000000000000000000000000000000000000000
310
00000000000000000000000000000000000000000000000000000000000000000000000000000000000000000000000000000000000000000000000000000000000000000000000000000000000000000000000000000000000000000000000000000000000000000000000000000000000000000000000000000000000000
310
00000000000000000000000000000000000000000000000000000000000000000000000000000000000000000000000000000000000000000000000000000000000000000000000000000000000000000000000000000000000000000000000000000000000000000000000000000000000000000000000000000000000000
310
00000000000000000000000000000000000000000000000000000000000000000000000000000000000000000000000000000000000000000000000000000000000000000000000000000000000000000000000000000000000000000000000000000000000000000000000000000000000000000000000000000000000000
310
00000000000000000000000000000000000000000000000000000000000000000000000000000000000000000000000000000000000000000000000000000000000000000000000000000000000000000000000000000000000000000000000000000000000000000000000000000000000000000000000000000000000000
310
00000000000000000000000000000000000000000000000000000000000000000000000000000000000000000000000000000000000000000000000000000000000000000000000000000000000000000000000000000000000000000000000000000000000000000000000000000000000000000000000000000000000000
310
00000000000000000000000000000000000000000000000000000000000000000000000000000000000000000000000000000000000000000000000000000000000000000000000000000000000000000000000000000000000000000000000000000000000000000000000000000000000000000000000000000000000000
310
00000000000000000000000000000000000000000000000000000000000000000000000000000000000000000000000000000000000000000000000000000000000000000000000000000000000000000000000000000000000000000000000000000000000000000000000000000000000000000000000000000000000000
310
00000000000000000000000000000000000000000000000000000000000000000000000000000000000000000000000000000000000000000000000000000000000000000000000000000000000000000000000000000000000000000000000000000000000000000000000000000000000000000000000000000000000000
310
00000000000000000000000000000000000000000000000000000000000000000000000000000000000000000000000000000000000000000000000000000000000000000000000000000000000000000000000000000000000000000000000000000000000000000000000000000000000000000000000000000000000000
310
00000000000000000000000000000000000000000000000000000000000000000000000000000000000000000000000000000000000000000000000000000000000000000000000000000000000000000000000000000000000000000000000000000000000000000000000000000000000000000000000000000000000000
310
00000000000000000000000000000000000000000000000000000000000000000000000000000000000000000000000000000000000000000000000000000000000000000000000000000000000000000000000000000000000000000000000000000000000000000000000000000000000000000000000000000000000000
310
00000000000000000000000000000000000000000000000000000000000000000000000000000000000000000000000000000000000000000000000000000000000000000000000000000000000000000000000000000000000000000000000000000000000000000000000000000000000000000000000000000000000000
310
00000000000000000000000000000000000000000000000000000000000000000000000000000000000000000000000000000000000000000000000000000000000000000000000000000000000000000000000000000000000000000000000000000000000000000000000000000000000000000000000000000000000000
310
00000000000000000000000000000000000000000000000000000000000000000000000000000000000000000000000000000000000000000000000000000000000000000000000000000000000000000000000000000000000000000000000000000000000000000000000000000000000000000000000000000000000000
310
00000000000000000000000000000000000000000000000000000000000000000000000000000000000000000000000000000000000000000000000000000000000000000000000000000000000000000000000000000000000000000000000000000000000000000000000000000000000000000000000000000000000000
310
00000000000000000000000000000000000000000000000000000000000000000000000000000000000000000000000000000000000000000000000000000000000000000000000000000000000000000000000000000000000000000000000000000000000000000000000000000000000000000000000000000000000000
310
00000000000000000000000000000000000000000000000000000000000000000000000000000000000000000000000000000000000000000000000000000000000000000000000000000000000000000000000000000000000000000000000000000000000000000000000000000000000000000000000000000000000000
310
00000000000000000000000000000000000000000000000000000000000000000000000000000000000000000000000000000000000000000000000000000000000000000000000000000000000000000000000000000000000000000000000000000000000000000000000000000000000000000000000000000000000000
310
00000000000000000000000000000000000000000000000000000000000000000000000000000000000000000000000000000000000000000000000000000000000000000000000000000000000000000000000000000000000000000000000000000000000000000000000000000000000000000000000000000000000000
310
00000000000000000000000000000000000000000000000000000000000000000000000000000000000000000000000000000000000000000000000000000000000000000000000000000000000000000000F50000000000000000000000000000000000000000000000000000000000000000000000000000000000000000
310
00000000000000000000000000000000000000000000000000000000000000000000000000000000000000000000000000000000000000000000000000000000000000000000000000000000000000000000000000000000000000000000000000000000000000000000000000000000000000000000000000000000000000
310
0000000000000000000000000000000000000000000000000000000000000000000000000000000000000000000000000000000000000000000000000000000000000000000000000000000000000000000000F5F5000000000000000000000000000000000000000000000000000000000000000000000000000000000000
310
00000000000000000000000000000000000000000000000000000000000000000000000000000000000000000000000000000000000000000000000000000000000000000000000000000000000000000000000000000000000000000000000000000000000000000000000000000000000000000000000000000000000000
310
000000000000000000000000000000000000000000000000000000000000000000000000000000000000000000000000000000000000000000000000000000000000000000000000000000000000000000000000F5F50000000000000000000000000000000000000000000000000000F5F5F5F5F5F5F5F5F5F5F5F5F5F5F5
310
F5F5F5F5F5F5F5F5F5F5F5F5F5F5F5F5F5F5F5F5F5F5F5F5F5F5F5F5F5F5F5F5F5F5F5F5F5F5F5F5F5F5F5F5F5F5F5F5F5F5F5F5F5F5F5F5F5F5F5F5F5F5F5F5F5F5F5F5F5F5F5F5F5F5F5F5F5F5F500000000000000000000000000000000F5F5F5F5F5F5F5F5F5F5F5F5F5F5F5F5F5F5F5F5F5F5F5F5F5F5F5F5F5F5F5F5
310
F5F5F5F5F5F5F5F5F5F5F5F5F5F5F5F5F5F5F5F5F5F5F5F5F5F5F5F5F5F5F5F5F5F5F5F5F5F5F5F5F5F5F5F5F5F5F5F5F5F5F5F5F5F5F5F5F5F5F5F5F5F5F5F5F5F5F5F5F5F5F5F5F5F5F5F5F5F5F5F5F5F5F5F5F5F5F5F5F5F5F5F5F5F5F5F5F5F5F5F5F5F5F5F5F5F5F5F5F5F5F5F5F5F500000000000000000000000000
310
00000000000000000000000000000000000000000000000000000000000000000000000000000000000000000000000000000000000000000000000000F50000000000000000000000000000000000F5F5F500000000000000000000000000F5F5000000000000000000000000000000000000000000000000000000000000
310
0000000000000000F50000000000000000000000000000000000000000000000000000000000000000000000000000000000000000000000000000000000000000000000000000000000000000000000000000000000F5F5F50000000000000000000000000000000000000000000000000000000000000000000000000000
310
000000000000000000000000000000000000000000000000000000000000000000000000000000000000000000000000000000000000000000000000000000F500000000000000000000000000000000F500F5F50000000000000000000000F5F5000000000000000000000000000000000000000000000000000000000000
310
00000000000000000000F500000000000000000000000000000000000000000000000000000000000000000000000000000000000000000000000000000000000000000000000000000000000000000000000000000000F5F500F5000000000000000000000000000000000000000000000000000000000000000000000000
310
0000000000000000000000000000000000000000000000000000000000000000000000000000000000000000000000000000000000000000000000000000000000F500000000000000000000000000000000F50000F5F5F500000000000000F5F5000000000000000000000000000000000000000000000000000000000000
310
000000000000000000000000F500000000000000000000000000000000000000000000000000000000000000000000000000000000000000000000000000000000000000000000000000000000000000000000000000000000000000F500000000000000000000000000000000000000000000000000000000000000000000
310
00000000000000000000000000000000000000000000000000000000000000000000000000000000000000000000000000000000000000000000000000000000000000F50000000000000000000000000000F5F5000000F5F5000000000000F5F5000000000000000000000000000000000000000000000000000000000000
310
0000000000000000000000000000F500000000000000000000000000000000000000000000000000000000000000000000000000000000000000000000000000000000000000000000000000000000000000000000000000000000000000F50000000000000000000000000000000000000000000000000000000000000000
310
000000000000000000000000000000000000000000000000000000000000000000000000000000000000000000000000000000000000000000000000000000000000000000F5000000000000000000000000F5F50000F5F5F500F5F5000000F5F5000000000000000000000000000000000000000000000000000000000000
310
00000000000000000000000000000000F500000000000000000000000000000000000000000000000000000000000000000000000000000000000000000000000000000000000000000000000000000000000000000000000000000000000000F5000000000000000000000000000000000000000000000000000000000000
310
0000000000000000000000000000000000000000000000000000000000000000000000000000000000000000000000000000000000000000000000000000000000000000000000F500000000000000000000F5F5000000F5F5000000F5F500F5F5000000000000000000000000000000000000000000000000000000000000
310
000000000000000000000000000000000000F500000000000000000000000000000000000000000000000000000000000000000000000000000000000000000000000000000000000000000000000000000000000000000000000000000000000000F500000000000000000000000000000000000000000000000000000000
310
00000000000000000000000000000000000000000000000000000000000000000000000000000000000000000000000000000000000000000000000000000000000000000000000000F50000000000000000F5F5000000F5F50000F5F50000F5F5000000000000000000000000000000000000000000000000000000000000
310
0000000000000000000000000000000000000000F500000000000000000000000000000000000000000000000000000000000000000000000000000000000000000000000000000000000000000000000000000000000000F5F5F5000000000000000000F50000000000000000F5F500000000000000000000000000000000
310
000000000000000000000000000000000000000000000000000000000000000000000000000000000000000000000000000000000000000000000000000000000000000000000000000000F5000000000000F5F5000000F5F50000F5F50000F5F5F5F500000000000000000000000000000000000000000000000000000000
310
00000000000000000000000000000000000000000000F500000000000000000000000000000000000000000000000000000000000000000000000000000000000000000000000000000000000000000000000000000000000000F5F5F500F5F50000F5F50000F5F5F5F5F5F5F5F500F5F50000000000000000000000000000
310
0000000000000000000000000000000000000000000000000000000000000000000000000000000000000000000000000000000000000000000000000000000000000000000000000000000000F500000000F5F5000000F5F50000F5F500000000000000000000000000000000000000000000000000000000000000000000
310
000000000000000000000000000000000000000000000000F500000000000000000000000000000000000000000000000000000000000000000000000000000000000000000000000000000000000000000000000000000000000000F5F50000F5F5F500F5F5F500F5F5F5F5F5F5F5F50000F5000000000000000000000000
310
00000000000000000000000000000000000000000000000000000000000000000000000000000000000000000000000000000000000000000000000000000000000000000000000000000000000000F50000F5F5000000F5F50000F5F500000000000000000000000000000000000000000000000000000000000000000000
310
0000000000000000000000000000000000000000000000000000F500000000000000000000000000000000000000000000000000000000000000000000000000000000000000000000000000000000000000000000000000000000000000F5F50000F500F5F5F500F5F5F5F5F5F5F5F5F5F50000F500000000000000000000
310
000000000000000000000000000000000000000000000000000000000000000000000000000000000000000000000000000000000000000000000000000000000000000000000000000000000000000000F5F5F5F5F500F5F50000F5F500000000000000000000000000000000000000000000000000000000000000000000
310
00000000000000000000000000000000000000000000000000000000F500000000000000000000000000000000000000000000000000000000000000000000000000000000000000000000000000000000000000000000000000000000000000F5F500000000F5000000F5F5F5F5F5F5F5F5F5F5F500F50000000000000000
310
000000000000000000000000000000000000000000000000000000000000000000000000000000000000000000000000000000000000000000000000000000000000000000000000000000000000000000F5F5F500F50000F50000F5F500000000000000000000000000000000000000000000000000000000000000000000
310
000000000000000000000000000000000000000000000000000000000000F500000000000000000000000000000000000000000000000000000000000000000000000000000000000000000000000000000000000000000000000000000000000000F5F5000000F5F50000F5F500F5F5F5F5F5F5F5F5F500F5000000000000
310
000000000000000000000000000000000000000000000000000000000000000000000000000000000000000000000000000000000000000000000000000000000000000000000000000000000000000000F5F5F5F5F500F5F500F5F5F500000000000000000000000000000000000000000000000000000000000000000000
310
0000000000000000000000000000000000000000000000000000000000000000F50000000000000000000000000000000000000000000000000000000000000000000000000000000000000000000000000000000000000000000000000000000000000000F5000000F5F5000000F500F5F5F5F5F5F5F5F5F50000F5000000
310
000000000000000000000000000000000000000000000000000000000000000000000000000000000000000000000000000000000000000000000000000000000000000000000000000000000000000000F500F5F500F5F5F500F5F500F5000000000000000000000000000000000000000000000000000000000000000000
310
00000000000000000000000000000000000000000000000000000000000000000000F50000000000000000000000000000000000000000000000000000000000000000000000000000000000000000000000000000000000000000000000000000000000000000F500000000F5F5000000F5F5F5F5F500F5F5F5000000F500
310
000000000000000000000000000000000000000000000000000000000000000000000000000000000000000000000000000000000000000000000000000000000000000000000000000000000000000000F5F5F5F50000F500F500F500F5000000000000000000000000000000000000000000000000000000000000000000
310
000000000000000000000000000000000000000000000000000000000000000000000000F50000000000000000000000000000000000000000000000000000000000000000000000000000000000000000000000000000000000000000000000000000000000000000F50000F5F5F5F5F5F5F5F50000000000000000000000
310
F5000000000000000000000000000000000000000000000000000000000000000000000000000000000000000000000000000000000000000000000000000000000000000000000000000000000000000000F5F5F50000F500F5F5F5F500000000000000000000000000000000000000000000000000000000000000000000
310
0000000000000000000000000000000000000000000000000000000000000000000000000000F50000000000000000000000000000000000000000000000000000000000000000000000000000000000000000000000000000000000000000000000000000000000000000F5F5F500F5F5F500F5F5F5000000000000000000
310
F5F5F500000000000000000000000000000000000000000000000000000000000000000000000000000000000000000000000000000000000000000000000000000000000000000000000000000000000000F5F5F5F500F5F5F5F5F5F5F5000000000000000000000000000000000000000000000000000000000000000000
310
00000000000000000000000000000000000000000000000000000000000000000000000000000000F50000000000000000000000000000000000000000000000000000000000000000000000000000000000000000000000000000000000000000000000000000000000000000F5F5F50000F5000000F50000000000000000
310
0000F5F5F5000000000000000000000000000000000000000000000000000000000000000000000000000000000000000000000000000000000000000000000000000000000000000000000000000000F500F5F500F500F5F5F5F5F5F50000F500000000000000000000000000000000000000000000000000000000000000
310
000000000000000000000000000000000000000000000000000000000000000000000000000000000000F5000000000000000000000000000000000000000000000000000000000000000000000000000000000000000000000000000000000000000000000000000000000000000000000000000000000000000000000000
310
0000000000000000000000000000000000000000000000000000F5F5F5F500000000000000000000000000000000000000000000000000000000000000000000000000000000000000000000000000000000F5F500F500F5F500F5F5F500000000F50000000000000000000000000000000000000000000000000000000000
310
0000000000000000000000000000000000000000000000000000000000000000000000000000000000000000F500000000000000000000000000000000000000000000000000000000000000000000000000000000000000000000000000000000000000000000000000000000000000000000000000000000000000000000
310
00000000000000000000000000000000000000000000000000000000F500F5F5000000000000000000000000000000000000000000000000000000000000000000000000000000000000000000000000000000F50000F5F5F500F5F500F50000000000F5000000000000000000000000000000000000000000000000000000
310
00000000000000000000000000000000000000000000000000000000000000000000000000000000000000000000F50000000000000000000000000000000000000000000000000000000000000000000000000000000000000000000000000000000000000000000000000000000000F5F5F5000000000000F50000F5F500
310
00F5F5F5F500F5F500000000000000000000000000000000000000000000F500F5F500000000000000000000000000000000000000000000000000000000000000000000000000000000000000000000000000F5F500F5F5F500F5F500F500000000000000F500000000000000000000000000000000000000000000000000
310
000000000000000000000000000000000000000000000000000000000000000000000000000000000000000000000000F50000000000000000000000000000000000000000000000000000000000000000000000000000000000000000000000000000000000000000000000000000000000F5F5F50000000000F5F5F5F5F5
310
F5000000F5F5F500F5F5F5000000000000000000000000000000000000000000F500F5F500000000000000000000000000000000000000000000000000000000000000000000000000000000000000000000000000F5F5F5F5F5F5F50000000000000000000000F50000000000000000000000000000000000000000000000
310
0000000000000000000000000000000000000000000000000000000000000000000000000000000000000000000000000000F5000000000000000000000000000000000000000000000000000000000000000000000000000000000000000000000000000000000000000000000000000000000000F50000000000000000F5
310
F500F5F50000F5F50000F500F5000000000000000000000000000000000000000000F500F5F5000000000000000000000000000000000000000000000000000000000000000000000000000000000000000000000000F5F5F5F5F5F5F50000000000F5F5F5F5F5F5F5F5000000000000000000000000000000000000000000
310
00000000000000000000000000000000000000000000000000000000000000000000000000000000000000000000000000000000F5000000000000000000000000000000000000000000000000000000000000000000000000000000000000000000000000000000000000000000000000000000000000F500000000000000
310
0000F500F5F50000F5F50000F500F5F50000000000000000000000000000000000000000F500F5F50000000000000000000000000000000000000000000000000000000000000000000000000000000000000000000000F5F50000000000000000000000F500F5F5F5F5F5F500000000000000000000000000000000000000
310
000000000000000000000000000000000000000000000000000000000000000000000000000000000000000000000000000000000000F5000000000000000000000000000000000000000000000000000000000000000000000000000000000000000000000000000000000000000000000000000000000000F50000000000
310
0000F5F5F500F5F50000F5F50000F5F5F5000000000000000000000000000000000000000000F500F5F5F5F5F5F5F5F5F5F5F5F5F5F5000000000000000000000000000000000000000000000000000000000000000000000000000000000000000000000000F500F500000000000000000000000000000000000000000000
310
0000000000000000000000000000000000000000000000000000000000000000000000000000000000000000000000000000000000000000F5000000000000000000000000000000000000000000000000000000000000000000000000000000000000000000000000000000000000000000000000000000000000F5F50000
310
00000000F5F5F50000F5F50000F5F500F5F5F50000F5F5F5000000000000000000000000000000F5F500F5000000000000000000000000F5000000000000000000000000000000000000000000000000000000000000000000000000000000000000000000000000F500F50000000000000000000000000000000000000000
310
00000000000000000000000000000000000000000000000000000000000000000000000000000000000000000000000000000000000000000000F5000000000000000000000000000000000000000000000000000000000000000000000000000000000000000000000000000000000000000000000000000000000000F5F5
310
000000000000F500000000F5F50000F5F50000F5000000F5F5F500000000000000000000000000F5F5F5F500F5F5F5F5F5F5F5F5F5F5F5F5F5F5000000000000000000000000000000000000000000000000000000000000000000000000000000000000000000000000F500F5000000000000000000000000000000000000
310
000000000000000000000000000000000000000000000000000000000000000000000000000000000000000000000000000000000000000000000000F50000000000000000000000000000000000000000000000000000000000000000000000000000000000000000000000000000000000000000000000000000000000F5
310
F5F5000000000000F50000000000F5F5F5F5F50000F5000000F5F5F5000000000000000000000000000000000000000000000000000000000000F5F5000000000000000000000000000000000000000000000000000000000000000000000000000000000000000000000000F500F500000000000000000000000000000000
310
00000000000000000000000000000000000000000000000000000000000000000000000000000000000000000000000000000000000000000000000000F5F500000000000000000000000000000000000000000000000000000000000000000000000000000000000000000000000000000000000000000000000000000000
310
0000F5F5000000000000F5F5F5000000F5F5F5F5F50000F5F5F500F5F5F500000000000000000000000000F5F5F5F5F5F5F5F5F5F5F5F5F5F5F5F5F5F5F5F5F5F5F5F5F5F5F5F5F5F5F5F5F5F5F5F5F5F5F5F5F5F5F5F5F5F5F5F5F5F5F5F5F5F5F5F5F5F5F5F5F5F5F5F5F5F5F5F5F5F5F5F5F5F5F5F5F5F5F5F5F5F5F5F5
310
F5F5F5F5F5F5F5F5F5F5F5F5F5F5F5F5F5F5F5F5F5F5F5F5F5F5F5F5F5F5F5F5F5F5F5F5F5F5F5F5F5F5F5F5F5F5F5F5F5F5F5F5F5F5F5F5F5F5F5F5F5F5F5F5000000000000000000000000000000000000000000000000000000000000000000000000000000000000000000000000000000000000000000000000000000
310
000000000000000000000000000000000000000000000000000000000000000000000000000000000000000000000000F500000000000000000000000000000000000000000000000000000000000000000000000000000000000000000000000000000000000000000000000000000000000000000000F500000000000000
310
0000000000000000F5F5F5F5F5F5F500000000000000000000000000000000000000000000000000000000000000000000000000000000000000000000000000000000000000000000000000000000000000000000000000000000000000000000000000000000000000000000000000000000000000000000000000000000
310
0000000000000000000000000000000000000000000000000000000000000000000000000000000000000000000000000000F500000000000000000000000000000000000000000000000000000000000000000000000000000000000000000000000000000000000000000000000000000000000000000000F50000000000
310
00000000000000000000F5F5F5F5F5F5F50000000000000000000000000000000000000000000000000000000000000000000000000000000000000000000000000000000000000000000000000000000000000000000000000000000000000000000000000000000000000000000000000000000000000000000000000000
310
000000000000000000000000000000000000000000F5000000000000000000000000000000000000000000000000000000000000F500000000000000000000000000000000000000000000000000000000000000000000000000000000000000000000000000000000000000000000000000000000000000000000F5000000
310
00000000000000000000000000F5F5F5F5F500000000000000000000000000000000000000000000000000000000000000000000000000000000000000000000000000000000000000000000000000000000000000000000000000000000000000000000000000000000000000000000000000000000000000000000000000
310
0000000000000000000000000000000000000000000000F5000000000000000000000000000000000000000000000000000000000000F500000000000000000000000000000000000000000000000000000000000000000000000000000000000000000000000000000000000000000000000000000000000000000000F500
310
000000000000000000000000000000F5F5F5F5F50000000000000000000000000000000000000000000000000000000000000000000000000000000000000000000000000000000000000000000000000000000000000000000000000000000000000000000000000000000000000000000000000000000000000000000000
310
00000000000000000000000000000000000000000000000000F5000000000000000000000000000000000000000000000000000000000000F500000000000000000000000000000000000000000000000000000000000000000000000000000000000000000000000000000000000000000000000000000000000000000000
310
F500000000000000000000000000000000F5F5F5F5F5000000000000000000000000000000000000000000000000000000000000000000000000000000000000000000000000000000000000000000000000000000000000000000000000000000000000000000000000000000000000000000000000000000000000000000
310
000000000000000000000000000000000000000000000000000000F5000000000000000000000000000000000000000000000000000000F5F5F5F5F5F5F5F5F5F5F5F5F5F5F5F5F5F5F50000000000000000000000000000000000000000000000000000000000000000000000000000000000000000000000000000000000
310
0000F500000000000000000000000000000000F5F5F5F5F500000000000000000000000000000000000000000000000000000000000000000000000000000000000000000000000000000000000000000000000000000000000000000000000000000000000000000000000000000000000000000000000000000000000000
310
0000000000000000000000000000000000000000000000000000000000F5000000000000000000000000000000000000000000000000000000F5F5F5F5F5F5F5F5F5F5F5F5F5F500000000F5000000000000000000000000000000000000000000000000000000000000000000000000000000000000000000000000000000
310
00000000F500000000000000000000000000000000F5F5F5F5F50000000000000000000000000000000000000000000000000000000000000000000000000000000000000000000000000000000000000000000000000000000000000000000000000000000000000000000000000000000000000000000000000000000000
310
00000000000000000000000000000000000000000000000000000000000000F500F500000000000000000000000000000000000000000000000000F5F5F5F5F5F5F5F5F5F5F5F5F5F500000000F500000000000000000000000000000000000000000000000000000000000000000000000000000000000000000000000000
310
000000000000F500000000000000000000000000000000F5F5F5F5F5000000000000000000000000000000000000000000000000000000000000000000000000000000000000000000000000000000000000000000000000000000000000000000000000000000000000000000000000000000000000000000000000000000
310
000000000000000000000000000000000000000000000000000000000000000000F5F50000000000000000000000000000000000000000000000000000F500F5F5F5F5F5F5F5F5F5F5F5F5F5F5F5F5F50000000000000000000000000000000000000000000000000000000000000000000000000000000000000000000000
310
0000000000000000F50000000000000000000000000000F5F5F5F5F5F5F5F5F5F5F5F5F5F5F5F5F5F5F5F5F5F5F5F5F5F5F5F5F5F5F5F5F5F5F5F5F5F5F5F5F5F5F5F5F5F5F5F5F5F5F5F5F5F5F5F5F5F5F5F5F5F5F5F5F5F5F5F5F5F5F5F5F5F5F5F5F5F5F5F5F5F5F5F5F5F5F5F5F5F5F5F5F5F5F5F5F5F5F5F5F5F5F5F5
310
F5F5F5F5F5F5F5F5F5F5F5F5F5F5F5F5F5F5F5F5F5F5F5F5F5F5F5F5F5F5F5F5F5F5F5F5F50000000000000000000000000000000000000000000000000000F5F5F5F5000000000000000000000000000000000000000000000000000000000000000000000000000000000000000000000000000000000000000000000000
310
00000000000000000000F50000000000000000000000000000F50000F5F5F500F5F500000000000000000000000000000000000000000000000000000000000000000000000000000000000000000000000000F5F5000000000000000000000000000000000000000000000000000000000000000000000000000000000000
310
0000000000000000000000000000000000000000000000000000000000000000000000F5F5F5000000000000000000000000000000000000000000000000000000F5F5F5F500000000000000000000000000000000000000000000000000000000000000000000000000000000000000000000000000000000000000000000
310
000000000000000000000000F50000000000000000000000000000F500F5F5F5F5F5F5000000000000000000000000000000000000000000000000000000000000000000000000000000000000000000000000000000F500000000000000000000000000000000000000000000000000000000000000000000000000000000
310
000000000000000000000000000000000000000000000000000000000000000000000000F5F5F5F5000000000000000000000000000000000000000000000000000000F5F5F5F50000000000000000000000000000000000000000000000000000000000000000000000000000000000000000000000000000000000000000
310
0000000000000000000000000000F50000000000000000000000000000F500F5000000F5F5000000000000000000000000000000000000000000000000000000000000000000000000000000000000000000000000000000F50000000000000000000000000000000000000000000000000000000000000000000000000000
310
000000000000000000000000000000000000000000000000000000000000000000000000000000F500F5000000000000000000000000000000000000000000000000000000F5F5F5F5000000000000000000000000000000000000000000000000000000000000000000000000000000000000000000000000000000000000
310
00000000000000000000000000000000F50000000000000000000000000000F500F5000000F5F5000000000000000000000000000000000000000000000000000000000000000000000000000000000000000000000000000000F5000000000000000000000000000000000000000000000000000000000000000000000000
310
00000000000000000000000000000000000000000000000000000000000000000000000000000000000000F5000000000000000000000000000000000000000000000000000000F500F5F500000000000000000000000000000000000000000000000000000000000000000000000000000000000000000000000000000000
310
000000000000000000000000000000000000F50000000000000000000000000000F500F5F5F5F5F5F5000000000000000000000000000000000000000000000000000000000000000000000000000000000000000000000000000000F500000000000000000000000000000000000000000000000000000000000000000000
310
000000000000000000000000000000000000000000000000000000000000000000000000000000000000000000F5000000000000000000000000000000000000000000000000000000F5F5F5F50000000000000000000000000000000000000000000000000000000000000000000000000000000000000000000000000000
310
0000000000000000000000000000000000000000F50000000000000000000000000000F5000000000000F5000000000000000000000000000000000000000000000000000000000000000000000000000000000000000000000000000000F50000000000000000000000000000000000000000000000000000000000000000
310
0000000000000000000000000000000000000000000000000000000000000000000000000000000000000000000000F5000000000000000000000000000000000000000000000000000000F5F5F5F5000000000000000000000000000000000000000000000000000000000000000000000000000000000000000000000000
310
00000000000000000000000000000000000000000000F50000000000000000000000000000F5F5F5F5000000F5000000000000000000000000000000000000000000000000000000000000000000000000000000000000000000000000000000F5000000000000000000000000000000000000000000000000000000000000
310
00000000000000000000000000000000000000000000000000000000000000000000000000000000000000000000000000F5000000000000000000000000000000000000000000000000000000F5F5F5F500000000000000000000000000000000000000000000000000000000000000000000000000000000000000000000
310
000000000000000000000000000000000000000000000000F5000000000000000000000000000000000000F5F500F5000000000000000000000000000000000000000000000000000000000000000000000000000000000000000000000000000000F500000000000000000000000000000000000000000000000000000000
310
000000000000000000000000000000000000000000000000000000000000000000000000000000000000000000000000000000F5000000000000000000000000000000000000000000000000000000F500F5F50000000000000000000000000000000000000000000000000000000000000000000000000000000000000000
310
0000000000000000000000000000000000000000000000000000F500000000000000000000000000000000000000F500F5000000000000000000000000000000000000000000000000000000000000000000000000000000000000000000000000000000F50000000000000000000000000000000000000000000000000000
310
0000000000000000000000000000000000000000000000000000000000000000000000000000000000000000000000000000000000F5000000000000000000000000000000000000000000000000000000F5F5F5F5000000000000000000000000000000000000000000000000000000000000000000000000000000000000
310
00000000000000000000000000000000000000000000000000000000F500000000000000000000000000000000000000F5F5F5000000000000000000000000000000000000000000000000000000000000000000000000000000000000000000000000000000F5000000000000000000000000000000000000000000000000
310
00000000000000000000000000000000000000000000000000000000000000000000000000000000000000000000000000000000000000F5000000000000000000000000000000000000000000000000000000F5F5F5F5F5F5F5F5F5F5F5F5F5F5F5F5F5F5F5F5F5F5F5F5F5F5F5F5F5F5F5F5F5F5F5F5F5F5F5F5F5F5F5F5
310
F5F5F5F5F5F5F5F5F5F5F5F5F5F5F5F5F5F5F5F5F5F5F5F5F5F5F5F5F5F5F50000000000000000000000000000000000000000F5F5000000000000000000000000000000000000000000000000000000000000000000000000000000000000000000000000000000F500000000000000000000000000000000000000000000
310
000000000000000000000000000000000000000000000000000000000000000000000000000000000000000000000000000000000000000000F500000000000000000000000000000000000000000000000000000000F500000000000000000000000000000000000000000000000000000000000000000000000000000000
310
0000000000000000000000000000000000000000000000000000000000000000000000000000000000000000000000000000000000F5F5000000000000000000000000000000000000000000000000000000000000000000000000000000000000000000000000000000F50000000000000000000000000000000000000000
310
0000000000000000000000000000000000000000000000000000000000000000000000000000000000000000000000000000000000000000000000F5000000000000000000000000000000000000000000000000000000F5000000000000000000000000000000000000000000000000000000000000000000000000000000
310
00000000000000000000000000000000000000000000000000000000000000000000000000000000000000000000000000000000000000F5F5000000000000000000000000000000000000000000000000000000000000000000000000000000000000000000000000000000F5000000000000000000000000000000000000
310
00000000000000000000000000000000000000000000000000000000000000000000000000000000000000000000000000000000000000000000000000F50000000000000000000000000000000000000000000000000000000000000000000000000000000000000000000000000000000000000000000000000000000000
310
000000000000000000000000000000000000000000000000000000000000000000000000000000000000000000000000000000000000000000F5F5000000000000000000000000000000000000000000000000000000000000000000000000000000000000000000000000000000F500000000000000000000000000000000
310
000000000000000000000000000000000000000000000000000000000000000000000000000000000000000000000000000000000000000000000000000000F5000000000000000000000000000000000000000000000000000000000000000000000000000000000000000000000000000000000000000000000000000000
310
0000000000000000000000000000000000000000000000000000000000000000000000000000000000000000000000000000000000000000000000F5F5000000000000000000000000000000000000000000000000000000000000000000000000000000000000000000000000000000F50000000000000000000000000000
310
0000000000000000000000000000000000000000000000000000000000000000000000000000000000000000000000000000000000000000000000000000000000F500000000000000000000000000000000000000000000000000000000000000000000000000000000000000000000000000000000000000000000000000
310
00000000000000000000000000000000000000000000000000000000000000000000000000000000000000000000000000000000000000000000000000F5F5000000000000000000000000000000000000000000000000000000000000000000000000000000000000000000000000000000F5000000000000000000000000
310
00000000000000000000000000000000000000000000000000000000000000000000000000000000000000000000000000000000000000000000000000000000000000F5000000000000000000000000000000000000000000000000000000F5F5F5F5F5F5F5F5F5F5F5F5F5F5F5F5F5F5F5F5F5F5F5F5F5F5F5F5F5F5F5F5
310
F5F5F500000000000000000000000000000000000000000000000000F5F5F5F5F5F5F5F5F5F5F5F5F5F5F5F5F5F5F5F5F5F5F5F5F5F5F5F5F5F5F5F5F5F5F5F5F5000000000000000000000000000000000000000000000000000000000000000000000000000000000000000000000000000000F500000000000000000000
310
000000000000000000000000000000000000000000000000000000000000000000000000000000000000000000000000000000000000000000000000000000000000000000F5000000000000000000000000000000000000000000000000000000000000F500000000F5000000000000000000000000000000000000000000
310
00F5F500F500000000000000000000000000000000000000000000000000F500F5F5000000000000000000000000000000000000000000F50000000000F5000000F5F5000000000000000000000000000000000000000000000000000000000000000000000000000000000000000000000000000000F50000000000000000
310
0000000000000000000000000000000000000000000000000000000000000000000000000000000000000000000000000000000000000000000000000000000000000000000000F5000000000000000000000000000000000000000000000000000000000000F500000000F500000000000000000000000000000000000000
310
000000F5F500F500000000000000000000000000000000000000000000000000F500F5F5000000000000000000000000000000000000000000F50000000000F5000000F5F5000000000000000000000000000000000000000000000000000000000000000000000000000000000000000000000000000000F5000000000000
310
00000000000000000000000000000000000000000000000000000000000000000000000000000000000000000000000000000000000000000000000000000000000000000000000000F5000000000000000000000000000000000000000000000000000000000000F500000000F50000000000000000000000000000000000
310
0000000000F5F500F500000000000000000000000000000000000000000000000000F500F5F5000000000000000000000000000000000000000000F50000000000F5000000F5F5000000000000000000000000000000000000000000000000000000000000000000000000000000000000000000000000000000F500000000
310
000000000000000000000000000000000000000000000000000000000000000000000000000000000000000000000000000000000000000000000000000000000000000000000000000000F5000000000000000000000000000000000000000000000000000000000000F500000000F5000000000000000000000000000000
310
00000000000000F5F500F500000000000000000000000000000000000000000000000000F500F5F5000000000000000000000000000000000000000000F50000000000F5000000F5F5000000000000000000000000000000000000000000000000000000000000000000000000000000000000000000000000000000F50000
310
0000000000000000000000000000000000000000000000000000000000000000000000000000000000000000000000000000000000000000000000000000000000000000000000000000000000F5000000000000000000000000000000000000000000000000000000000000F500000000F500000000000000000000000000
310
000000000000000000F5F500F500000000000000000000000000000000000000000000000000F500F5F5000000000000000000000000000000000000000000F50000000000F5000000F5F5000000000000000000000000000000000000000000000000000000000000000000000000000000000000000000000000000000F5
310
00000000000000000000000000000000000000000000000000000000000000000000000000000000000000000000000000000000000000000000000000000000000000000000000000000000000000F5000000000000000000000000000000000000000000000000000000000000F500000000F50000000000000000000000
310
0000000000000000000000F5F500F500000000000000000000000000000000000000000000000000F500F5F5000000000000000000000000000000000000000000F50000000000F5000000F5F50000000000000000000000000000000000000000000000000000000000000000000000000000000000000000000000000000
310
00F500000000000000000000000000000000000000000000000000000000000000000000000000000000000000000000000000000000000000000000000000000000000000000000000000000000000000F5000000000000000000000000000000000000000000000000000000000000F500000000F5000000000000000000
310
00000000000000000000000000F5F500F500000000000000000000000000000000000000000000000000F500F5F5000000000000000000000000000000000000000000F50000000000F5000000F5F5000000000000000000000000000000000000000000000000000000000000000000000000000000000000000000000000
310
000000F500000000000000000000000000000000000000000000000000000000000000000000000000000000000000000000000000000000000000000000000000000000000000000000000000000000000000F5000000000000000000000000000000000000000000000000000000000000F500000000F500000000000000
310
000000000000000000000000000000F5F500F500000000000000000000000000000000000000000000000000F500F5F5000000000000000000000000000000000000000000F50000000000F5000000F5F500000000000000000000000000000000000000000000000000000000000000000000000000000000000000000000
310
0000000000F500000000000000000000000000000000000000000000000000000000000000000000000000000000000000000000000000000000000000000000000000000000000000000000000000000000000000F5000000000000000000000000000000000000000000000000000000000000F500000000F50000000000
310
0000000000000000000000000000000000F5F500F500000000000000000000000000000000000000000000000000F500F5F5000000000000000000000000000000000000000000F50000000000F500000000F50000000000000000000000000000000000000000000000000000000000000000000000000000000000000000
310
00000000000000F500000000000000000000000000000000000000000000000000000000000000000000000000000000000000000000000000000000000000000000000000000000000000000000000000000000000000F5000000000000000000000000000000000000000000000000000000000000F50000000000000000
310
00000000000000000000000000000000000000F5F500F500000000000000000000000000000000000000000000000000F500F5F5000000000000000000000000000000000000000000000000000000F500000000F5000000000000000000000000000000000000000000000000000000000000000000000000000000000000
310
000000000000000000F500000000000000000000000000000000000000000000000000000000000000000000000000000000000000000000000000000000000000000000000000000000000000000000000000000000000000F5000000000000000000000000000000000000000000000000000000000000F500000000F500
310
000000000000000000000000000000000000000000F5F500F500000000000000000000000000000000000000000000000000F500F5F5000000000000000000000000000000000000000000F50000000000F500000000F500000000000000000000000000000000000000000000000000000000000000000000000000000000
310
0000000000000000000000F500000000000000000000000000000000000000000000000000000000000000000000000000000000000000000000000000000000000000000000000000000000000000000000000000000000000000F5000000000000000000000000000000000000000000000000000000000000F500000000
310
F500000000000000000000000000000000000000000000F5F500F500000000000000000000000000000000000000000000000000F500F5F5000000000000000000000000000000000000000000F50000000000F500000000F50000000000000000000000000000000000000000000000000000000000000000000000000000
310
00000000000000000000000000F500000000000000000000000000000000000000000000000000000000000000000000000000000000000000000000000000000000000000000000000000000000000000000000000000000000000000F5000000000000000000000000000000000000000000000000000000000000F50000
310
0000F500000000000000000000000000000000000000000000F5F500F500000000000000000000000000000000000000000000000000F500F5F5000000000000000000000000000000000000000000F50000000000F500000000F5000000000000000000000000000000000000000000000000000000000000000000000000
310
000000000000000000000000000000F500000000000000000000000000000000000000000000000000000000000000000000000000000000000000000000000000000000000000000000000000000000000000000000000000000000000000F5000000000000000000000000000000000000000000000000000000000000F5
310
00000000F500000000000000000000000000000000000000000000F5F500F500000000000000000000000000000000000000000000000000F500F5F5000000000000000000000000000000000000000000F50000000000F500000000F500000000000000000000000000000000000000000000000000000000000000000000
310
0000000000000000000000000000000000F500000000000000000000000000000000000000000000000000000000000000000000000000000000000000000000000000000000000000000000000000000000000000000000000000000000000000F50000000000000000000000000000000000000000000000000000000000
310
00F500000000F500000000000000000000000000000000000000000000F5F500F500000000000000000000000000000000000000000000000000F500F5F5000000000000000000000000000000000000000000F50000000000F500000000F50000000000000000000000000000000000000000000000000000000000000000
310
00000000000000000000000000000000000000F500000000000000000000000000000000000000000000000000000000000000000000000000000000000000000000000000000000000000000000000000000000000000000000000000000000000000F5000000000000000000000000000000000000000000000000000000
310
000000F500000000F500000000000000000000000000000000000000000000F5F500F500000000000000000000000000000000000000000000000000F500F5F5000000000000000000000000000000000000000000F50000000000F500000000F5000000000000000000000000000000000000000000000000000000000000
310
000000000000000000000000000000000000000000F500000000000000000000000000000000000000000000000000000000000000000000000000000000000000000000000000000000000000000000000000000000000000000000000000000000000000F500000000000000000000000000000000000000000000000000
310
0000000000F500000000F500000000000000000000000000000000000000000000F5F500F500000000000000000000000000000000000000000000000000F500F5F5000000000000000000000000000000000000000000F50000000000F500000000F500000000000000000000000000000000000000000000000000000000
310
0000000000000000000000000000000000000000000000F500000000000000000000000000000000000000000000000000000000000000000000000000000000000000000000000000000000000000000000000000000000000000000000000000000000000000F50000000000000000000000000000000000000000000000
310
00000000000000F500000000F500000000000000000000000000000000000000000000F5F500F500000000000000000000000000000000000000000000000000F500F5F5000000000000000000000000000000000000000000F50000000000F500000000F50000000000000000000000000000000000000000000000000000
310
00000000000000000000000000000000000000000000000000F500000000000000000000000000000000000000000000000000000000000000000000000000000000000000000000000000000000000000000000000000000000000000000000000000000000000000F5000000000000000000000000000000000000000000
310
000000000000000000F500000000F500000000000000000000000000000000000000000000F5F500F500000000000000000000000000000000000000000000000000F500F5F5000000000000000000000000000000000000000000F50000000000F500000000F5000000000000000000000000000000000000000000000000
310
000000000000000000000000000000000000000000000000000000F500000000000000000000000000000000000000000000000000000000000000000000000000000000000000000000000000000000000000000000000000000000000000000000000000000000000000F500000000000000000000000000000000000000
310
0000000000000000000000F500000000F500000000000000000000000000000000000000000000F5F500F500000000000000000000000000000000000000000000000000F500F5F5000000000000000000000000000000000000000000F50000000000F500000000F500000000000000000000000000000000000000000000
310
0000000000000000000000000000000000000000000000000000000000F500000000000000000000000000000000000000000000000000000000000000000000000000000000000000000000000000000000000000000000000000000000000000000000000000000000000000F50000000000000000000000000000000000
310
00000000000000000000000000F5000000000000000000000000000000000000000000000000000000F5F500F500000000000000000000000000000000000000000000000000F500F5F5000000000000000000000000000000000000000000000000000000F500000000F50000000000000000000000000000000000000000
310
00000000000000000000000000000000000000000000000000000000000000F500000000000000000000000000000000000000000000000000000000000000000000000000000000000000000000000000000000000000000000000000000000000000000000000000000000000000F5000000000000000000000000000000
310
000000000000000000000000000000F500000000F500000000000000000000000000000000000000000000F5F500F500000000000000000000000000000000000000000000000000F500F5F5000000000000000000000000000000000000000000F50000000000F500000000F5000000000000000000000000000000000000
310
000000000000000000000000000000000000000000000000000000000000000000F500000000000000000000000000000000000000000000000000000000000000000000000000000000000000000000000000000000000000000000000000000000000000000000000000000000000000F500000000000000000000000000
310
0000000000000000000000000000000000F500000000F500000000000000000000000000000000000000000000F5F500F500000000000000000000000000000000000000000000000000F500F5F5000000000000000000000000000000000000000000F50000000000F500000000F500000000000000000000000000000000
310
0000000000000000000000000000000000000000000000000000000000000000000000F500000000000000000000000000000000000000000000000000000000000000000000000000000000000000000000000000000000000000000000000000000000000000000000000000000000000000F50000000000000000000000
310
00000000000000000000000000000000000000F500000000F500000000000000000000000000000000000000000000F5F500F500000000000000000000000000000000000000000000000000F500F5F5000000000000000000000000000000000000000000F50000000000F500000000F50000000000000000000000000000
310
00000000000000000000000000000000000000000000000000000000000000000000000000F500000000000000000000000000000000000000000000000000000000000000000000000000000000000000000000000000000000000000000000000000000000000000000000000000000000000000F5000000000000000000
310
000000000000000000000000000000000000000000F500000000F500000000000000000000000000000000000000000000F5F500F500000000000000000000000000000000000000000000000000F500F5F5000000000000000000000000000000000000000000F50000000000F500000000F5000000000000000000000000
310
000000000000000000000000000000000000000000000000000000000000000000000000000000F500000000000000000000000000000000000000000000000000000000000000000000000000000000000000000000000000000000000000000000000000000000000000000000000000000000000000F500000000000000
310
0000000000000000000000000000000000000000000000F5000000000000000000000000000000000000000000000000000000F5F500F500000000000000000000000000000000000000000000000000F500F5F5000000000000000000000000000000000000000000000000000000F500000000F500000000000000000000
310
0000000000000000000000000000000000000000000000000000000000000000000000000000000000F500000000000000000000000000000000000000000000000000000000000000000000000000000000000000000000000000000000000000000000000000000000000000000000000000000000000000F50000000000
310
00000000000000000000000000000000000000000000000000F500000000F500000000000000000000000000000000000000000000F5F500F500000000000000000000000000000000000000000000000000F500F5F5000000000000000000000000000000000000000000F50000000000F500000000F50000000000000000
310
00000000000000000000000000000000000000000000000000000000000000000000000000000000000000F500000000000000000000000000000000000000000000000000000000000000000000000000000000000000000000000000000000000000000000000000000000000000000000000000000000000000F5000000
310
000000000000000000000000000000000000000000000000000000F500000000F500000000000000000000000000000000000000000000F5F500F500000000000000000000000000000000000000000000000000F500F5F5000000000000000000000000000000000000000000F50000000000F500000000F5000000000000
310
000000000000000000000000000000000000000000000000000000000000000000000000000000000000000000F500000000000000000000000000000000000000000000000000000000000000000000000000000000000000000000000000000000000000000000000000000000000000000000000000000000000000F500
310
0000000000000000000000000000000000000000000000000000000000F500000000F500000000000000000000000000000000000000000000F5F500F500000000000000000000000000000000000000000000000000F500F5F5000000000000000000000000000000000000000000F50000000000F500000000F500000000
310
0000000000000000000000000000000000000000000000000000000000000000000000000000000000000000000000F500000000000000000000000000000000000000000000000000000000000000000000000000000000000000000000000000000000000000000000000000000000000000000000000000000000000000
310
F5000000000000000000000000000000000000000000000000000000
  0
XRECORD
  5
360
102
{ACAD_REACTORS
330
49
102
}
330
49
100
AcDbXrecord
280
     1
102
MATERIAL
148
0.0
149
0.0
149
0.0
 93
        0
 94
      127
282
     0
 72
     0
 77
     0
171
     0
175
     0
179
     0
273
     0
  0
XRECORD
  5
4A
102
{ACAD_REACTORS
330
49
102
}
330
49
100
AcDbXrecord
280
     1
270
     1
271
     1
  0
XRECORD
  5
4B
102
{ACAD_REACTORS
330
49
102
}
330
49
100
AcDbXrecord
280
     1
270
     1
271
     1
  0
XRECORD
  5
4C
102
{ACAD_REACTORS
330
49
102
}
330
49
100
AcDbXrecord
280
     1
270
     1
271
     1
  0
XRECORD
  5
4D
102
{ACAD_REACTORS
330
49
102
}
330
49
100
AcDbXrecord
280
     1
270
     1
271
     1
  0
XRECORD
  5
4E
102
{ACAD_REACTORS
330
49
102
}
330
49
100
AcDbXrecord
280
     1
270
     1
271
     1
  0
XRECORD
  5
4F
102
{ACAD_REACTORS
330
49
102
}
330
49
100
AcDbXrecord
280
     1
270
     1
271
     1
  0
XRECORD
  5
35F
102
{ACAD_REACTORS
330
41
102
}
330
41
100
AcDbXrecord
280
     1
102
MATERIAL
148
0.0
149
0.0
149
0.0
 93
        0
 94
      127
282
     0
 72
     0
 77
     0
171
     0
175
     0
179
     0
273
     0
  0
XRECORD
  5
42
102
{ACAD_REACTORS
330
41
102
}
330
41
100
AcDbXrecord
280
     1
270
     1
271
     1
  0
XRECORD
  5
43
102
{ACAD_REACTORS
330
41
102
}
330
41
100
AcDbXrecord
280
     1
270
     1
271
     1
  0
XRECORD
  5
44
102
{ACAD_REACTORS
330
41
102
}
330
41
100
AcDbXrecord
280
     1
270
     1
271
     1
  0
XRECORD
  5
45
102
{ACAD_REACTORS
330
41
102
}
330
41
100
AcDbXrecord
280
     1
270
     1
271
     1
  0
XRECORD
  5
46
102
{ACAD_REACTORS
330
41
102
}
330
41
100
AcDbXrecord
280
     1
270
     1
271
     1
  0
XRECORD
  5
47
102
{ACAD_REACTORS
330
41
102
}
330
41
100
AcDbXrecord
280
     1
270
     1
271
     1
  0
XRECORD
  5
35A
102
{ACAD_REACTORS
330
E
102
}
330
E
100
AcDbXrecord
280
     1
102
MATERIAL
148
0.0
149
0.0
149
0.0
 93
        0
 94
      127
282
     0
 72
     0
 77
     0
171
     0
175
     0
179
     0
273
     0
  0
XRECORD
  5
F
102
{ACAD_REACTORS
330
E
102
}
330
E
100
AcDbXrecord
280
     1
270
     1
271
     1
  0
XRECORD
  5
10
102
{ACAD_REACTORS
330
E
102
}
330
E
100
AcDbXrecord
280
     1
270
     1
271
     1
  0
XRECORD
  5
11
102
{ACAD_REACTORS
330
E
102
}
330
E
100
AcDbXrecord
280
     1
270
     1
271
     1
  0
XRECORD
  5
12
102
{ACAD_REACTORS
330
E
102
}
330
E
100
AcDbXrecord
280
     1
270
     1
271
     1
  0
XRECORD
  5
13
102
{ACAD_REACTORS
330
E
102
}
330
E
100
AcDbXrecord
280
     1
270
     1
271
     1
  0
XRECORD
  5
14
102
{ACAD_REACTORS
330
E
102
}
330
E
100
AcDbXrecord
280
     1
270
     1
271
     1
  0
CELLSTYLEMAP
  5
358
102
{ACAD_REACTORS
330
56
102
}
330
56
100
AcDbCellStyleMap
 90
        3
300
CELLSTYLE
  1
TABLEFORMAT_BEGIN
 90
        5
170
     1
 91
        0
 92
    32768
 62
   257
 93
        1
300
CONTENTFORMAT
  1
CONTENTFORMAT_BEGIN
 90
        0
 91
        0
 92
        4
 93
        0
300

 40
0.0
140
1.0
 94
        5
 62
     0
340
26
144
0.25
309
CONTENTFORMAT_END
171
     1
301
MARGIN
  1
CELLMARGIN_BEGIN
 40
0.06
 40
0.06
 40
0.06
 40
0.06
 40
0.18
 40
0.18
309
CELLMARGIN_END
 94
        6
 95
        1
302
GRIDFORMAT
  1
GRIDFORMAT_BEGIN
 90
        0
 91
        1
 62
     0
 92
       -2
340
0
 93
        0
 40
0.045
309
GRIDFORMAT_END
 95
        2
302
GRIDFORMAT
  1
GRIDFORMAT_BEGIN
 90
        0
 91
        1
 62
     0
 92
       -2
340
0
 93
        0
 40
0.045
309
GRIDFORMAT_END
 95
        4
302
GRIDFORMAT
  1
GRIDFORMAT_BEGIN
 90
        0
 91
        1
 62
     0
 92
       -2
340
0
 93
        0
 40
0.045
309
GRIDFORMAT_END
 95
        8
302
GRIDFORMAT
  1
GRIDFORMAT_BEGIN
 90
        0
 91
        1
 62
     0
 92
       -2
340
0
 93
        0
 40
0.045
309
GRIDFORMAT_END
 95
       16
302
GRIDFORMAT
  1
GRIDFORMAT_BEGIN
 90
        0
 91
        1
 62
     0
 92
       -2
340
0
 93
        0
 40
0.045
309
GRIDFORMAT_END
 95
       32
302
GRIDFORMAT
  1
GRIDFORMAT_BEGIN
 90
        0
 91
        1
 62
     0
 92
       -2
340
0
 93
        0
 40
0.045
309
GRIDFORMAT_END
309
TABLEFORMAT_END
  1
CELLSTYLE_BEGIN
 90
        1
 91
        1
300
_TITLE
309
CELLSTYLE_END
300
CELLSTYLE
  1
TABLEFORMAT_BEGIN
 90
        5
170
     1
 91
        0
 92
        0
 62
   257
 93
        1
300
CONTENTFORMAT
  1
CONTENTFORMAT_BEGIN
 90
        0
 91
        0
 92
        4
 93
        0
300

 40
0.0
140
1.0
 94
        5
 62
     0
340
26
144
0.18
309
CONTENTFORMAT_END
171
     1
301
MARGIN
  1
CELLMARGIN_BEGIN
 40
0.06
 40
0.06
 40
0.06
 40
0.06
 40
0.18
 40
0.18
309
CELLMARGIN_END
 94
        6
 95
        1
302
GRIDFORMAT
  1
GRIDFORMAT_BEGIN
 90
        0
 91
        1
 62
     0
 92
       -2
340
0
 93
        0
 40
0.045
309
GRIDFORMAT_END
 95
        2
302
GRIDFORMAT
  1
GRIDFORMAT_BEGIN
 90
        0
 91
        1
 62
     0
 92
       -2
340
0
 93
        0
 40
0.045
309
GRIDFORMAT_END
 95
        4
302
GRIDFORMAT
  1
GRIDFORMAT_BEGIN
 90
        0
 91
        1
 62
     0
 92
       -2
340
0
 93
        0
 40
0.045
309
GRIDFORMAT_END
 95
        8
302
GRIDFORMAT
  1
GRIDFORMAT_BEGIN
 90
        0
 91
        1
 62
     0
 92
       -2
340
0
 93
        0
 40
0.045
309
GRIDFORMAT_END
 95
       16
302
GRIDFORMAT
  1
GRIDFORMAT_BEGIN
 90
        0
 91
        1
 62
     0
 92
       -2
340
0
 93
        0
 40
0.045
309
GRIDFORMAT_END
 95
       32
302
GRIDFORMAT
  1
GRIDFORMAT_BEGIN
 90
        0
 91
        1
 62
     0
 92
       -2
340
0
 93
        0
 40
0.045
309
GRIDFORMAT_END
309
TABLEFORMAT_END
  1
CELLSTYLE_BEGIN
 90
        2
 91
        1
300
_HEADER
309
CELLSTYLE_END
300
CELLSTYLE
  1
TABLEFORMAT_BEGIN
 90
        5
170
     1
 91
        0
 92
        0
 62
   257
 93
        1
300
CONTENTFORMAT
  1
CONTENTFORMAT_BEGIN
 90
        0
 91
        0
 92
        4
 93
        0
300

 40
0.0
140
1.0
 94
        2
 62
     0
340
26
144
0.18
309
CONTENTFORMAT_END
171
     1
301
MARGIN
  1
CELLMARGIN_BEGIN
 40
0.06
 40
0.06
 40
0.06
 40
0.06
 40
0.18
 40
0.18
309
CELLMARGIN_END
 94
        6
 95
        1
302
GRIDFORMAT
  1
GRIDFORMAT_BEGIN
 90
        0
 91
        1
 62
     0
 92
       -2
340
0
 93
        0
 40
0.045
309
GRIDFORMAT_END
 95
        2
302
GRIDFORMAT
  1
GRIDFORMAT_BEGIN
 90
        0
 91
        1
 62
     0
 92
       -2
340
0
 93
        0
 40
0.045
309
GRIDFORMAT_END
 95
        4
302
GRIDFORMAT
  1
GRIDFORMAT_BEGIN
 90
        0
 91
        1
 62
     0
 92
       -2
340
0
 93
        0
 40
0.045
309
GRIDFORMAT_END
 95
        8
302
GRIDFORMAT
  1
GRIDFORMAT_BEGIN
 90
        0
 91
        1
 62
     0
 92
       -2
340
0
 93
        0
 40
0.045
309
GRIDFORMAT_END
 95
       16
302
GRIDFORMAT
  1
GRIDFORMAT_BEGIN
 90
        0
 91
        1
 62
     0
 92
       -2
340
0
 93
        0
 40
0.045
309
GRIDFORMAT_END
 95
       32
302
GRIDFORMAT
  1
GRIDFORMAT_BEGIN
 90
        0
 91
        1
 62
     0
 92
       -2
340
0
 93
        0
 40
0.045
309
GRIDFORMAT_END
309
TABLEFORMAT_END
  1
CELLSTYLE_BEGIN
 90
        3
 91
        2
300
_DATA
309
CELLSTYLE_END
  0
XRECORD
  5
361
102
{ACAD_REACTORS
330
56
102
}
330
56
100
AcDbXrecord
280
     1
102
ACAD_ROUNDTRIP_PRE2007_TABLESTYLE
 90
        4
 91
        0
  1

 92
        4
 93
        0
  2

 94
        4
 95
        0
  3

  0
XRECORD
  5
35E
102
{ACAD_REACTORS
330
35D
102
}
330
35D
100
AcDbXrecord
280
     1
102
RTVSPropertyOp0
 70
     1
102
RTVSPropertyOp1
 70
     1
102
RTVSPropertyOp2
 70
     1
102
RTVSPropertyOp3
 70
     1
102
RTVSPropertyOp4
 70
     1
102
RTVSPropertyOp5
 70
     1
102
RTVSPropertyOp6
 70
     1
102
RTVSPropertyOp7
 70
     1
102
RTVSPropertyOp8
 70
     1
102
RTVSPropertyOp9
 70
     1
102
RTVSPropertyOp10
 70
     1
102
RTVSPropertyOp11
 70
     1
102
RTVSPropertyOp12
 70
     1
102
RTVSPropertyOp13
 70
     1
102
RTVSPropertyOp14
 70
     1
102
RTVSPropertyOp15
 70
     1
102
RTVSPropertyOp16
 70
     1
102
RTVSPropertyOp17
 70
     1
102
RTVSPropertyOp18
 70
     1
102
RTVSPropertyOp19
 70
     1
102
RTVSPropertyOp20
 70
     1
102
RTVSPropertyOp21
 70
     1
102
RTVSPropertyOp22
 70
     1
102
RTVSPropertyOp23
 70
     1
102
RTVSPropertyOp24
 70
     1
102
RTVSPropertyOp25
 70
     1
102
RTVSPropertyOp26
 70
     1
102
RTVSPropertyOp27
 70
     1
102
RTVSPropertyOp28
 70
     1
102
RTVSPropertyOp29
 70
     1
102
RTVSPropertyOp30
 70
     1
102
RTVSPropertyOp31
 70
     1
102
RTVSPropertyOp32
 70
     1
  0
XRECORD
  5
363
102
{ACAD_REACTORS
330
362
102
}
330
362
100
AcDbXrecord
280
     1
102
RTVSPropertyOp0
 70
     1
102
RTVSPropertyOp1
 70
     1
102
RTVSPropertyOp2
 70
     1
102
RTVSPropertyOp3
 70
     1
102
RTVSPropertyOp4
 70
     1
102
RTVSPropertyOp5
 70
     1
102
RTVSPropertyOp6
 70
     1
102
RTVSPropertyOp7
 70
     1
102
RTVSPropertyOp8
 70
     1
102
RTVSPropertyOp9
 70
     1
102
RTVSPropertyOp10
 70
     1
102
RTVSPropertyOp11
 70
     1
102
RTVSPropertyOp12
 70
     1
102
RTVSPropertyOp13
 70
     1
102
RTVSPropertyOp14
 70
     1
102
RTVSPropertyOp15
 70
     1
102
RTVSPropertyOp16
 70
     1
102
RTVSPropertyOp17
 70
     1
102
RTVSPropertyOp18
 70
     1
102
RTVSPropertyOp19
 70
     1
102
RTVSPropertyOp20
 70
     1
102
RTVSPropertyOp21
 70
     1
102
RTVSPropertyOp22
 70
     1
102
RTVSPropertyOp23
 70
     1
102
RTVSPropertyOp24
 70
     1
102
RTVSPropertyOp25
 70
     1
102
RTVSPropertyOp26
 70
     1
102
RTVSPropertyOp27
 70
     1
102
RTVSPropertyOp28
 70
     1
102
RTVSPropertyOp29
 70
     1
102
RTVSPropertyOp30
 70
     1
102
RTVSPropertyOp31
 70
     1
102
RTVSPropertyOp32
 70
     1
  0
XRECORD
  5
365
102
{ACAD_REACTORS
330
364
102
}
330
364
100
AcDbXrecord
280
     1
102
RTVSPropertyOp0
 70
     1
102
RTVSPropertyOp1
 70
     1
102
RTVSPropertyOp2
 70
     1
102
RTVSPropertyOp3
 70
     1
102
RTVSPropertyOp4
 70
     1
102
RTVSPropertyOp5
 70
     1
102
RTVSPropertyOp6
 70
     1
102
RTVSPropertyOp7
 70
     1
102
RTVSPropertyOp8
 70
     1
102
RTVSPropertyOp9
 70
     1
102
RTVSPropertyOp10
 70
     1
102
RTVSPropertyOp11
 70
     1
102
RTVSPropertyOp12
 70
     1
102
RTVSPropertyOp13
 70
     1
102
RTVSPropertyOp14
 70
     1
102
RTVSPropertyOp15
 70
     1
102
RTVSPropertyOp16
 70
     1
102
RTVSPropertyOp17
 70
     1
102
RTVSPropertyOp18
 70
     1
102
RTVSPropertyOp19
 70
     1
102
RTVSPropertyOp20
 70
     1
102
RTVSPropertyOp21
 70
     1
102
RTVSPropertyOp22
 70
     1
102
RTVSPropertyOp23
 70
     1
102
RTVSPropertyOp24
 70
     1
102
RTVSPropertyOp25
 70
     1
102
RTVSPropertyOp26
 70
     1
102
RTVSPropertyOp27
 70
     1
102
RTVSPropertyOp28
 70
     1
102
RTVSPropertyOp29
 70
     1
102
RTVSPropertyOp30
 70
     1
102
RTVSPropertyOp31
 70
     1
102
RTVSPropertyOp32
 70
     1
  0
ENDSEC
  0
EOF
