  0
SECTION
  2
HEADER
  9
$ACADVER
  1
AC1015
  9
$ACADMAINTVER
 70
    18
  9
$DWGCODEPAGE
  3
ANSI_1252
  9
$INSBASE
 10
10.62959838604456
 20
25.99068132702082
 30
0.0
  9
$EXTMIN
 10
2.878548260741126
 20
12.20806462086259
 30
0.0
  9
$EXTMAX
 10
18.30993425043996
 20
36.53669778378667
 30
0.0
  9
$LIMMIN
 10
0.0
 20
0.0
  9
$LIMMAX
 10
10000.0
 20
10000.0
  9
$ORTHOMODE
 70
     1
  9
$REGENMODE
 70
     1
  9
$FILLMODE
 70
     1
  9
$QTEXTMODE
 70
     0
  9
$MIRRTEXT
 70
     0
  9
$LTSCALE
 40
0.5
  9
$ATTMODE
 70
     1
  9
$TEXTSIZE
 40
3.0
  9
$TRACEWID
 40
0.05
  9
$TEXTSTYLE
  7
Standard
  9
$CLAYER
  8
0
  9
$CELTYPE
  6
ByLayer
  9
$CECOLOR
 62
   256
  9
$CELTSCALE
 40
1.0
  9
$DISPSILH
 70
     0
  9
$DIMSCALE
 40
0.0
  9
$DIMASZ
 40
0.156
  9
$DIMEXO
 40
0.04
  9
$DIMDLI
 40
0.38
  9
$DIMRND
 40
0.0
  9
$DIMDLE
 40
0.0
  9
$DIMEXE
 40
0.03
  9
$DIMTP
 40
0.0
  9
$DIMTM
 40
0.0
  9
$DIMTXT
 40
0.3125
  9
$DIMCEN
 40
0.0
  9
$DIMTSZ
 40
0.0
  9
$DIMTOL
 70
     0
  9
$DIMLIM
 70
     0
  9
$DIMTIH
 70
     1
  9
$DIMTOH
 70
     1
  9
$DIMSE1
 70
     0
  9
$DIMSE2
 70
     0
  9
$DIMTAD
 70
     0
  9
$DIMZIN
 70
     0
  9
$DIMBLK
  1
ArchTick
  9
$DIMASO
 70
     1
  9
$DIMSHO
 70
     1
  9
$DIMPOST
  1
\X
  9
$DIMAPOST
  1
mm
  9
$DIMALT
 70
     1
  9
$DIMALTD
 70
     0
  9
$DIMALTF
 40
25.4
  9
$DIMLFAC
 40
1.0
  9
$DIMTOFL
 70
     0
  9
$DIMTVP
 40
0.0
  9
$DIMTIX
 70
     0
  9
$DIMSOXD
 70
     0
  9
$DIMSAH
 70
     0
  9
$DIMBLK1
  1

  9
$DIMBLK2
  1

  9
$DIMSTYLE
  2
Knife
  9
$DIMCLRD
 70
     0
  9
$DIMCLRE
 70
     0
  9
$DIMCLRT
 70
     0
  9
$DIMTFAC
 40
1.0
  9
$DIMGAP
 40
0.04
  9
$DIMJUST
 70
     0
  9
$DIMSD1
 70
     0
  9
$DIMSD2
 70
     0
  9
$DIMTOLJ
 70
     1
  9
$DIMTZIN
 70
     0
  9
$DIMALTZ
 70
     0
  9
$DIMALTTZ
 70
     0
  9
$DIMUPT
 70
     0
  9
$DIMDEC
 70
     5
  9
$DIMTDEC
 70
     5
  9
$DIMALTU
 70
     2
  9
$DIMALTTD
 70
     0
  9
$DIMTXSTY
  7
Standard
  9
$DIMAUNIT
 70
     0
  9
$DIMADEC
 70
     1
  9
$DIMALTRND
 40
0.0
  9
$DIMAZIN
 70
     0
  9
$DIMDSEP
 70
    46
  9
$DIMATFIT
 70
     3
  9
$DIMFRAC
 70
     2
  9
$DIMLDRBLK
  1

  9
$DIMLUNIT
 70
     4
  9
$DIMLWD
 70
    -2
  9
$DIMLWE
 70
    -2
  9
$DIMTMOVE
 70
     0
  9
$LUNITS
 70
     2
  9
$LUPREC
 70
     4
  9
$SKETCHINC
 40
0.1
  9
$FILLETRAD
 40
0.0
  9
$AUNITS
 70
     0
  9
$AUPREC
 70
     0
  9
$MENU
  1
.
  9
$ELEVATION
 40
0.0
  9
$PELEVATION
 40
0.0
  9
$THICKNESS
 40
0.0
  9
$LIMCHECK
 70
     0
  9
$CHAMFERA
 40
0.0
  9
$CHAMFERB
 40
0.0
  9
$CHAMFERC
 40
0.0
  9
$CHAMFERD
 40
0.0
  9
$SKPOLY
 70
     0
  9
$TDCREATE
 40
2454538.540644179
  9
$TDUCREATE
 40
2454538.665644178
  9
$TDUPDATE
 40
2456112.382224572
  9
$TDUUPDATE
 40
2456112.507224572
  9
$TDINDWG
 40
0.0770809144
  9
$TDUSRTIMER
 40
0.0770809144
  9
$USRTIMER
 70
     1
  9
$ANGBASE
 50
0.0
  9
$ANGDIR
 70
     0
  9
$PDMODE
 70
     3
  9
$PDSIZE
 40
0.0
  9
$PLINEWID
 40
0.0
  9
$SPLFRAME
 70
     0
  9
$SPLINETYPE
 70
     6
  9
$SPLINESEGS
 70
    12
  9
$HANDSEED
  5
3B7
  9
$SURFTAB1
 70
     6
  9
$SURFTAB2
 70
     6
  9
$SURFTYPE
 70
     6
  9
$SURFU
 70
     6
  9
$SURFV
 70
     6
  9
$UCSBASE
  2

  9
$UCSNAME
  2

  9
$UCSORG
 10
0.0
 20
0.0
 30
0.0
  9
$UCSXDIR
 10
1.0
 20
0.0
 30
0.0
  9
$UCSYDIR
 10
0.0
 20
1.0
 30
0.0
  9
$UCSORTHOREF
  2

  9
$UCSORTHOVIEW
 70
     0
  9
$UCSORGTOP
 10
0.0
 20
0.0
 30
0.0
  9
$UCSORGBOTTOM
 10
0.0
 20
0.0
 30
0.0
  9
$UCSORGLEFT
 10
0.0
 20
0.0
 30
0.0
  9
$UCSORGRIGHT
 10
0.0
 20
0.0
 30
0.0
  9
$UCSORGFRONT
 10
0.0
 20
0.0
 30
0.0
  9
$UCSORGBACK
 10
0.0
 20
0.0
 30
0.0
  9
$PUCSBASE
  2

  9
$PUCSNAME
  2

  9
$PUCSORG
 10
0.0
 20
0.0
 30
0.0
  9
$PUCSXDIR
 10
1.0
 20
0.0
 30
0.0
  9
$PUCSYDIR
 10
0.0
 20
1.0
 30
0.0
  9
$PUCSORTHOREF
  2

  9
$PUCSORTHOVIEW
 70
     0
  9
$PUCSORGTOP
 10
0.0
 20
0.0
 30
0.0
  9
$PUCSORGBOTTOM
 10
0.0
 20
0.0
 30
0.0
  9
$PUCSORGLEFT
 10
0.0
 20
0.0
 30
0.0
  9
$PUCSORGRIGHT
 10
0.0
 20
0.0
 30
0.0
  9
$PUCSORGFRONT
 10
0.0
 20
0.0
 30
0.0
  9
$PUCSORGBACK
 10
0.0
 20
0.0
 30
0.0
  9
$USERI1
 70
     0
  9
$USERI2
 70
     0
  9
$USERI3
 70
     0
  9
$USERI4
 70
     0
  9
$USERI5
 70
     0
  9
$USERR1
 40
0.0
  9
$USERR2
 40
0.0
  9
$USERR3
 40
0.0
  9
$USERR4
 40
0.0
  9
$USERR5
 40
0.0
  9
$WORLDVIEW
 70
     1
  9
$SHADEDGE
 70
     3
  9
$SHADEDIF
 70
    70
  9
$TILEMODE
 70
     1
  9
$MAXACTVP
 70
    64
  9
$PINSBASE
 10
0.0
 20
0.0
 30
0.0
  9
$PLIMCHECK
 70
     0
  9
$PEXTMIN
 10
0.0000000075458644
 20
0.0000000082145277
 30
0.0
  9
$PEXTMAX
 10
8.454000007545857
 20
10.67400000821453
 30
0.0
  9
$PLIMMIN
 10
-0.0398223909650601
 20
-0.1631195330737204
  9
$PLIMMAX
 10
8.460177368739049
 20
10.83688022663039
  9
$UNITMODE
 70
     0
  9
$VISRETAIN
 70
     1
  9
$PLINEGEN
 70
     0
  9
$PSLTSCALE
 70
     1
  9
$TREEDEPTH
 70
  3020
  9
$CMLSTYLE
  2
Standard
  9
$CMLJUST
 70
     0
  9
$CMLSCALE
 40
1.0
  9
$PROXYGRAPHICS
 70
     1
  9
$MEASUREMENT
 70
     0
  9
$CELWEIGHT
370
    -1
  9
$ENDCAPS
280
     0
  9
$JOINSTYLE
280
     0
  9
$LWDISPLAY
290
     0
  9
$INSUNITS
 70
     1
  9
$HYPERLINKBASE
  1

  9
$STYLESHEET
  1

  9
$XEDIT
290
     1
  9
$CEPSNTYPE
380
     0
  9
$PSTYLEMODE
290
     1
  9
$FINGERPRINTGUID
  2
{8216A416-A625-4BDF-81AD-6475B82B33CF}
  9
$VERSIONGUID
  2
{909F0655-695A-41AB-B836-30A00AE9A18F}
  9
$EXTNAMES
290
     1
  9
$PSVPSCALE
 40
0.0
  9
$OLESTARTUP
290
     0
  0
ENDSEC
  0
SECTION
  2
CLASSES
  0
CLASS
  1
ACDBDICTIONARYWDFLT
  2
AcDbDictionaryWithDefault
  3
ObjectDBX Classes
 90
        0
280
     0
281
     0
  0
CLASS
  1
ACDBPLACEHOLDER
  2
AcDbPlaceHolder
  3
ObjectDBX Classes
 90
        0
280
     0
281
     0
  0
CLASS
  1
LAYOUT
  2
AcDbLayout
  3
ObjectDBX Classes
 90
        0
280
     0
281
     0
  0
CLASS
  1
DICTIONARYVAR
  2
AcDbDictionaryVar
  3
ObjectDBX Classes
 90
        0
280
     0
281
     0
  0
CLASS
  1
TABLESTYLE
  2
AcDbTableStyle
  3
ObjectDBX Classes
 90
     4095
280
     0
281
     0
  0
CLASS
  1
SORTENTSTABLE
  2
AcDbSortentsTable
  3
ObjectDBX Classes
 90
        0
280
     0
281
     0
  0
CLASS
  1
DIMASSOC
  2
AcDbDimAssoc
  3
"AcDbDimAssoc|Product Desc:     AcDim ARX App For Dimension|Company:          Autodesk, Inc.|WEB Address:      www.autodesk.com"
 90
        0
280
     0
281
     0
  0
CLASS
  1
MATERIAL
  2
AcDbMaterial
  3
ObjectDBX Classes
 90
     1153
280
     0
281
     0
  0
CLASS
  1
VISUALSTYLE
  2
AcDbVisualStyle
  3
ObjectDBX Classes
 90
     4095
280
     0
281
     0
  0
CLASS
  1
SCALE
  2
AcDbScale
  3
ObjectDBX Classes
 90
     1153
280
     0
281
     0
  0
CLASS
  1
MLEADERSTYLE
  2
AcDbMLeaderStyle
  3
ACDB_MLEADERSTYLE_CLASS
 90
    36863
280
     0
281
     0
  0
CLASS
  1
CELLSTYLEMAP
  2
AcDbCellStyleMap
  3
ObjectDBX Classes
 90
     1152
280
     0
281
     0
  0
ENDSEC
  0
SECTION
  2
TABLES
  0
TABLE
  2
VPORT
  5
2E
102
{ACAD_XDICTIONARY
360
33
102
}
330
0
100
AcDbSymbolTable
 70
     1
  0
VPORT
  5
2F
330
2E
100
AcDbSymbolTableRecord
100
AcDbViewportTableRecord
  2
*Active
 70
     0
 10
0.0
 20
0.0
 11
1.0
 21
1.0
 12
17.1411090794311
 22
23.95879992720435
 13
0.0
 23
0.0
 14
0.5
 24
0.5
 15
0.5
 25
0.5
 16
0.0
 26
0.0
 36
1.0
 17
0.0
 27
0.0
 37
0.0
 40
29.52712755918354
 41
2.183284457478005
 42
50.0
 43
0.0
 44
0.0
 50
0.0
 51
0.0
 71
     0
 72
  5000
 73
     1
 74
     3
 75
     0
 76
     0
 77
     0
 78
     0
281
     0
 65
     1
110
0.0
120
0.0
130
0.0
111
1.0
121
0.0
131
0.0
112
0.0
122
1.0
132
0.0
 79
     0
146
0.0
1001
ACAD_NAV_VCDISPLAY
1070
     3
  0
ENDTAB
  0
TABLE
  2
LTYPE
  5
29
330
0
100
AcDbSymbolTable
 70
     2
  0
LTYPE
  5
2A
330
29
100
AcDbSymbolTableRecord
100
AcDbLinetypeTableRecord
  2
ByBlock
 70
     0
  3

 72
    65
 73
     0
 40
0.0
  0
LTYPE
  5
2B
330
29
100
AcDbSymbolTableRecord
100
AcDbLinetypeTableRecord
  2
ByLayer
 70
     0
  3

 72
    65
 73
     0
 40
0.0
  0
LTYPE
  5
15
330
29
100
AcDbSymbolTableRecord
100
AcDbLinetypeTableRecord
  2
Continuous
 70
     0
  3
Solid line
 72
    65
 73
     0
 40
0.0
  0
LTYPE
  5
6B
330
29
100
AcDbSymbolTableRecord
100
AcDbLinetypeTableRecord
  2
HIDDEN
 70
     0
  3
Hidden __ __ __ __ __ __ __ __ __ __ __ __ __ _
 72
    65
 73
     2
 40
0.375
 49
0.25
 74
     0
 49
-0.125
 74
     0
  0
ENDTAB
  0
TABLE
  2
LAYER
  5
22
102
{ACAD_XDICTIONARY
360
23
102
}
330
0
100
AcDbSymbolTable
 70
     3
  0
LAYER
  5
6
102
{ACAD_XDICTIONARY
360
7
102
}
330
22
100
AcDbSymbolTableRecord
100
AcDbLayerTableRecord
  2
0
 70
     0
 62
     7
  6
Continuous
370
    18
390
9
  0
LAYER
  5
E7
330
22
100
AcDbSymbolTableRecord
100
AcDbLayerTableRecord
  2
Defpoints
 70
     0
 62
     7
  6
Continuous
290
     0
370
    18
390
9
  0
LAYER
  5
70
102
{ACAD_XDICTIONARY
360
71
102
}
330
22
100
AcDbSymbolTableRecord
100
AcDbLayerTableRecord
  2
0010010007
 70
     0
 62
     7
  6
Continuous
370
    18
390
9
  0
ENDTAB
  0
TABLE
  2
STYLE
  5
25
330
0
100
AcDbSymbolTable
 70
     2
  0
STYLE
  5
26
330
25
100
AcDbSymbolTableRecord
100
AcDbTextStyleTableRecord
  2
Standard
 70
     0
 40
0.0
 41
0.55
 50
5.0
 71
     0
 42
3.0
  3
lc______.ttf
  4

1001
ACAD
1000
Letter Gothic
1071
       50
  0
STYLE
  5
17A
330
25
100
AcDbSymbolTableRecord
100
AcDbTextStyleTableRecord
  2
DIMTXT
 70
     0
 40
0.0
 41
0.6
 50
5.0
 71
     0
 42
0.2
  3
lc______.ttf
  4

1001
ACAD
1000
Letter Gothic
1071
       50
  0
ENDTAB
  0
TABLE
  2
VIEW
  5
2C
330
0
100
AcDbSymbolTable
 70
     0
  0
ENDTAB
  0
TABLE
  2
UCS
  5
2D
330
0
100
AcDbSymbolTable
 70
     0
  0
ENDTAB
  0
TABLE
  2
APPID
  5
34
330
0
100
AcDbSymbolTable
 70
     5
  0
APPID
  5
27
330
34
100
AcDbSymbolTableRecord
100
AcDbRegAppTableRecord
  2
ACAD
 70
     0
  0
APPID
  5
1B
330
34
100
AcDbSymbolTableRecord
100
AcDbRegAppTableRecord
  2
ACAD_PSEXT
 70
     0
  0
APPID
  5
32
330
34
100
AcDbSymbolTableRecord
100
AcDbRegAppTableRecord
  2
ACAD_NAV_VCDISPLAY
 70
     0
  0
APPID
  5
C5
330
34
100
AcDbSymbolTableRecord
100
AcDbRegAppTableRecord
  2
GradientColor1ACI
 70
     0
  0
APPID
  5
C6
330
34
100
AcDbSymbolTableRecord
100
AcDbRegAppTableRecord
  2
GradientColor2ACI
 70
     0
  0
ENDTAB
  0
TABLE
  2
DIMSTYLE
  5
35
330
0
100
AcDbSymbolTable
 70
     2
100
AcDbDimStyleTable
 71
     2
340
36
340
3B
  0
DIMSTYLE
105
3B
330
35
100
AcDbSymbolTableRecord
100
AcDbDimStyleTableRecord
  2
Standard
 70
     0
  3
"
 40
0.0
 41
0.095
 42
0.04
 44
0.04
140
0.125
141
0.0
147
0.04
179
     1
271
     6
272
     6
276
     2
277
     5
340
26
  0
DIMSTYLE
105
36
102
{ACAD_REACTORS
330
D9
330
EB
330
FB
330
127
330
138
330
149
330
159
330
16B
330
1CE
330
1E2
330
1F3
330
202
330
213
330
224
330
327
102
}
330
35
100
AcDbSymbolTableRecord
100
AcDbDimStyleTableRecord
  2
Knife
 70
     0
  3
\X
  4
mm
 40
0.0
 41
0.156
 42
0.04
 44
0.03
140
0.3125
141
0.0
147
0.04
170
     1
171
     0
179
     1
271
     5
272
     5
274
     0
276
     2
277
     4
340
26
342
37
  0
ENDTAB
  0
TABLE
  2
BLOCK_RECORD
  5
1
330
0
100
AcDbSymbolTable
 70
    24
  0
BLOCK_RECORD
  5
2
102
{ACAD_XDICTIONARY
360
3
102
}
330
1
100
AcDbSymbolTableRecord
100
AcDbBlockTableRecord
  2
*Model_Space
340
17
  0
BLOCK_RECORD
  5
1C
330
1
100
AcDbSymbolTableRecord
100
AcDbBlockTableRecord
  2
*Paper_Space
340
1F
  0
BLOCK_RECORD
  5
37
330
1
100
AcDbSymbolTableRecord
100
AcDbBlockTableRecord
  2
_ArchTick
340
0
102
{BLKREFS
331
331
331
332
331
E2
331
E3
331
F4
331
F5
331
103
331
104
331
130
331
131
331
141
331
142
331
151
331
152
331
161
331
162
331
172
331
173
331
1D8
331
1D9
331
1EA
331
1EB
331
1FA
331
1FB
331
20B
331
20C
331
21C
331
21D
331
22D
331
22E
102
}
  0
BLOCK_RECORD
  5
17F
330
1
100
AcDbSymbolTableRecord
100
AcDbBlockTableRecord
  2
11HINGE
340
0
102
{BLKREFS
331
2C1
331
326
331
17E
102
}
  0
BLOCK_RECORD
  5
6D
330
1
100
AcDbSymbolTableRecord
100
AcDbBlockTableRecord
  2
93OBW
340
0
102
{BLKREFS
331
2C4
331
33B
331
10B
331
1B3
331
237
331
6C
102
}
  0
BLOCK_RECORD
  5
99
330
1
100
AcDbSymbolTableRecord
100
AcDbBlockTableRecord
  2
86NPF141
340
0
102
{BLKREFS
331
2C5
331
33C
331
98
331
10C
331
1B4
331
238
102
}
  0
BLOCK_RECORD
  5
25D
330
1
100
AcDbSymbolTableRecord
100
AcDbBlockTableRecord
  2
11SCREEN
340
0
102
{BLKREFS
331
25C
331
2E9
331
360
102
}
  0
BLOCK_RECORD
  5
B3
330
1
100
AcDbSymbolTableRecord
100
AcDbBlockTableRecord
  2
*U5
340
0
102
{BLKREFS
331
B2
331
10F
331
1B7
102
}
  0
BLOCK_RECORD
  5
DC
330
1
100
AcDbSymbolTableRecord
100
AcDbBlockTableRecord
  2
*D6
340
0
  0
BLOCK_RECORD
  5
EE
330
1
100
AcDbSymbolTableRecord
100
AcDbBlockTableRecord
  2
*D7
340
0
  0
BLOCK_RECORD
  5
FC
330
1
100
AcDbSymbolTableRecord
100
AcDbBlockTableRecord
  2
*D8
340
0
  0
BLOCK_RECORD
  5
12A
330
1
100
AcDbSymbolTableRecord
100
AcDbBlockTableRecord
  2
*D9
340
0
  0
BLOCK_RECORD
  5
13B
330
1
100
AcDbSymbolTableRecord
100
AcDbBlockTableRecord
  2
*D10
340
0
  0
BLOCK_RECORD
  5
14A
330
1
100
AcDbSymbolTableRecord
100
AcDbBlockTableRecord
  2
*D11
340
0
  0
BLOCK_RECORD
  5
15A
330
1
100
AcDbSymbolTableRecord
100
AcDbBlockTableRecord
  2
*D12
340
0
  0
BLOCK_RECORD
  5
16C
330
1
100
AcDbSymbolTableRecord
100
AcDbBlockTableRecord
  2
*D13
340
0
  0
BLOCK_RECORD
  5
1D1
330
1
100
AcDbSymbolTableRecord
100
AcDbBlockTableRecord
  2
*D14
340
0
  0
BLOCK_RECORD
  5
1E3
330
1
100
AcDbSymbolTableRecord
100
AcDbBlockTableRecord
  2
*D15
340
0
  0
BLOCK_RECORD
  5
1F4
330
1
100
AcDbSymbolTableRecord
100
AcDbBlockTableRecord
  2
*D16
340
0
  0
BLOCK_RECORD
  5
205
330
1
100
AcDbSymbolTableRecord
100
AcDbBlockTableRecord
  2
*D17
340
0
  0
BLOCK_RECORD
  5
216
330
1
100
AcDbSymbolTableRecord
100
AcDbBlockTableRecord
  2
*D18
340
0
  0
BLOCK_RECORD
  5
227
330
1
100
AcDbSymbolTableRecord
100
AcDbBlockTableRecord
  2
*D19
340
0
  0
BLOCK_RECORD
  5
23C
330
1
100
AcDbSymbolTableRecord
100
AcDbBlockTableRecord
  2
*U20
340
0
102
{BLKREFS
331
23B
102
}
  0
BLOCK_RECORD
  5
2C9
330
1
100
AcDbSymbolTableRecord
100
AcDbBlockTableRecord
  2
*U21
340
0
102
{BLKREFS
331
2C8
102
}
  0
BLOCK_RECORD
  5
32A
330
1
100
AcDbSymbolTableRecord
100
AcDbBlockTableRecord
  2
*D22
340
0
  0
BLOCK_RECORD
  5
340
330
1
100
AcDbSymbolTableRecord
100
AcDbBlockTableRecord
  2
*U23
340
0
102
{BLKREFS
331
33F
102
}
  0
ENDTAB
  0
ENDSEC
  0
SECTION
  2
BLOCKS
  0
BLOCK
  5
5
330
2
100
AcDbEntity
  8
0
100
AcDbBlockBegin
  2
*Model_Space
 70
     0
 10
0.0
 20
0.0
 30
0.0
  3
*Model_Space
  1

  0
ENDBLK
  5
16
330
2
100
AcDbEntity
  8
0
100
AcDbBlockEnd
  0
BLOCK
  5
1D
330
1C
100
AcDbEntity
 67
     1
  8
0
100
AcDbBlockBegin
  2
*Paper_Space
 70
     0
 10
0.0
 20
0.0
 30
0.0
  3
*Paper_Space
  1

  0
ENDBLK
  5
1E
330
1C
100
AcDbEntity
 67
     1
  8
0
100
AcDbBlockEnd
  0
BLOCK
  5
38
330
37
100
AcDbEntity
  8
0
100
AcDbBlockBegin
  2
_ArchTick
 70
     0
 10
0.0
 20
0.0
 30
0.0
  3
_ArchTick
  1

  0
LWPOLYLINE
  5
39
330
37
100
AcDbEntity
  8
0
  6
ByBlock
 62
     0
100
AcDbPolyline
 90
        2
 70
     0
 43
0.15
 10
-0.5
 20
-0.5
 10
0.5
 20
0.5
  0
ENDBLK
  5
3A
330
37
100
AcDbEntity
  8
0
100
AcDbBlockEnd
  0
BLOCK
  5
180
330
17F
100
AcDbEntity
  8
0
100
AcDbBlockBegin
  2
11HINGE
 70
     0
 10
0.0
 20
0.0
 30
0.0
  3
11HINGE
  1

  0
LINE
  5
181
330
17F
100
AcDbEntity
  8
0010010007
100
AcDbLine
 10
0.219000000000001
 20
0.187
 30
0.0
 11
0.219000000000001
 21
0.156000000000001
 31
0.0
  0
LINE
  5
182
330
17F
100
AcDbEntity
  8
0010010007
100
AcDbLine
 10
0.0320000000000036
 20
0.7180000000000011
 30
0.0
 11
0.0010000000000048
 21
0.7180000000000011
 31
0.0
  0
LINE
  5
183
330
17F
100
AcDbEntity
  8
0010010007
100
AcDbLine
 10
0.0010000000000048
 20
0.7180000000000011
 30
0.0
 11
0.251000000000005
 21
0.7180000000000011
 31
0.0
  0
LINE
  5
184
330
17F
100
AcDbEntity
  8
0010010007
100
AcDbLine
 10
0.251000000000005
 20
0.218000000000001
 30
0.0
 11
0.189000000000007
 21
0.218000000000001
 31
0.0
  0
LINE
  5
185
330
17F
100
AcDbEntity
  8
0010010007
100
AcDbLine
 10
0.189000000000007
 20
0.218000000000001
 30
0.0
 11
0.189000000000007
 21
0.156000000000001
 31
0.0
  0
LINE
  5
186
330
17F
100
AcDbEntity
  8
0010010007
100
AcDbLine
 10
0.189000000000007
 20
0.156000000000001
 30
0.0
 11
0.345000000000006
 21
0.156000000000001
 31
0.0
  0
LINE
  5
187
330
17F
100
AcDbEntity
  8
0010010007
100
AcDbLine
 10
0.0640000000000072
 20
0.0310000000000006
 30
0.0
 11
0.189000000000007
 21
0.0310000000000006
 31
0.0
  0
LINE
  5
188
330
17F
100
AcDbEntity
  8
0010010007
100
AcDbLine
 10
0.0320000000000036
 20
0.7180000000000011
 30
0.0
 11
0.0320000000000036
 21
0.656000000000001
 31
0.0
  0
LINE
  5
189
330
17F
100
AcDbEntity
  8
0010010007
100
AcDbLine
 10
0.0320000000000036
 20
0.656000000000001
 30
0.0
 11
0.0630000000000024
 21
0.656000000000001
 31
0.0
  0
LINE
  5
18A
330
17F
100
AcDbEntity
  8
0010010007
100
AcDbLine
 10
0.0630000000000024
 20
0.656000000000001
 30
0.0
 11
0.0630000000000024
 21
0.281000000000001
 31
0.0
  0
LINE
  5
18B
330
17F
100
AcDbEntity
  8
0010010007
100
AcDbLine
 10
0.0630000000000024
 20
0.281000000000001
 30
0.0
 11
0.0630000000000024
 21
0.4060000000000012
 31
0.0
  0
LINE
  5
18C
330
17F
100
AcDbEntity
  8
0010010007
100
AcDbLine
 10
0.0630000000000024
 20
0.281000000000001
 30
0.0
 11
0.0630000000000024
 21
0.156000000000001
 31
0.0
  0
LINE
  5
18D
330
17F
100
AcDbEntity
  8
0010010007
100
AcDbLine
 10
0.0630000000000024
 20
0.156000000000001
 30
0.0
 11
0.0320000000000036
 21
0.156000000000001
 31
0.0
  0
LINE
  5
18E
330
17F
100
AcDbEntity
  8
0010010007
100
AcDbLine
 10
0.0320000000000036
 20
0.156000000000001
 30
0.0
 11
0.0320000000000036
 21
0.0940000000000003
 31
0.0
  0
LINE
  5
18F
330
17F
100
AcDbEntity
  8
0010010007
100
AcDbLine
 10
0.0320000000000036
 20
0.0940000000000003
 30
0.0
 11
0.0630000000000024
 21
0.0940000000000003
 31
0.0
  0
LINE
  5
190
330
17F
100
AcDbEntity
  8
0010010007
100
AcDbLine
 10
0.0630000000000024
 20
0.0940000000000003
 30
0.0
 11
0.0630000000000024
 21
0.032
 31
0.0
  0
LINE
  5
191
330
17F
100
AcDbEntity
  8
0010010007
100
AcDbLine
 10
0.4380000000000022
 20
0.7180000000000011
 30
0.0
 11
0.4380000000000022
 21
0.218000000000001
 31
0.0
  0
LINE
  5
192
330
17F
100
AcDbEntity
  8
0010010007
100
AcDbLine
 10
0.360000000000007
 20
0.218000000000001
 30
0.0
 11
0.360000000000007
 21
0.7180000000000011
 31
0.0
  0
LINE
  5
193
330
17F
100
AcDbEntity
  8
0010010007
100
AcDbLine
 10
0.0
 20
0.718
 30
0.0
 11
0.0
 21
0.0309999999999997
 31
0.0
  0
ARC
  5
194
330
17F
100
AcDbEntity
  8
0010010007
100
AcDbCircle
 10
0.0309999999999988
 20
0.0309999999999997
 30
0.0
 40
0.031
100
AcDbArc
 50
180.0
 51
270.0
  0
LINE
  5
195
330
17F
100
AcDbEntity
  8
0010010007
100
AcDbLine
 10
0.344000000000001
 20
0.156000000000001
 30
0.0
 11
0.344000000000001
 21
0.0620000000000003
 31
0.0
  0
ARC
  5
196
330
17F
100
AcDbEntity
  8
0010010007
100
AcDbCircle
 10
0.313000000000002
 20
0.0620000000000003
 30
0.0
 40
0.031
100
AcDbArc
 50
270.0
 51
0.0
  0
ARC
  5
197
330
17F
100
AcDbEntity
  8
0010010007
100
AcDbCircle
 10
0.344000000000001
 20
0.0309999999999997
 30
0.0
 40
0.031
100
AcDbArc
 50
270.0
 51
0.0
  0
LINE
  5
198
330
17F
100
AcDbEntity
  8
0010010007
100
AcDbLine
 10
0.0309999999999988
 20
0.0
 30
0.0
 11
0.344000000000001
 21
0.0
 31
0.0
  0
LINE
  5
199
330
17F
100
AcDbEntity
  8
0010010007
100
AcDbLine
 10
0.219000000000001
 20
0.187
 30
0.0
 11
0.344000000000001
 21
0.187
 31
0.0
  0
ARC
  5
19A
330
17F
100
AcDbEntity
  8
0010010007
100
AcDbCircle
 10
0.344000000000001
 20
0.156000000000001
 30
0.0
 40
0.031
100
AcDbArc
 50
0.0
 51
90.0
  0
LINE
  5
19B
330
17F
100
AcDbEntity
  8
0010010007
100
AcDbLine
 10
0.375
 20
0.0309999999999997
 30
0.0
 11
0.375
 21
0.156000000000001
 31
0.0
  0
LINE
  5
19C
330
17F
100
AcDbEntity
  8
0010010007
100
AcDbLine
 10
0.219000000000001
 20
0.156000000000001
 30
0.0
 11
0.314000000000007
 21
0.156000000000001
 31
0.0
  0
ARC
  5
19D
330
17F
100
AcDbEntity
  8
0010010007
100
AcDbCircle
 10
0.314000000000007
 20
0.125000000000001
 30
0.0
 40
0.031
100
AcDbArc
 50
0.0
 51
90.0
  0
LINE
  5
19E
330
17F
100
AcDbEntity
  8
0010010007
100
AcDbLine
 10
0.345000000000006
 20
0.0310000000000006
 30
0.0
 11
0.345000000000006
 21
0.125000000000001
 31
0.0
  0
ARC
  5
19F
330
17F
100
AcDbEntity
  8
0010010007
100
AcDbCircle
 10
0.282000000000004
 20
0.6870000000000011
 30
0.0
 40
0.031
100
AcDbArc
 50
90.0
 51
180.0
  0
LINE
  5
1A0
330
17F
100
AcDbEntity
  8
0010010007
100
AcDbLine
 10
0.251000000000005
 20
0.7180000000000011
 30
0.0
 11
0.298000000000009
 21
0.7180000000000011
 31
0.0
  0
ARC
  5
1A1
330
17F
100
AcDbEntity
  8
0010010007
100
AcDbCircle
 10
0.298000000000009
 20
0.6870000000000011
 30
0.0
 40
0.031
100
AcDbArc
 50
0.0
 51
90.0
  0
LINE
  5
1A2
330
17F
100
AcDbEntity
  8
0010010007
100
AcDbLine
 10
0.251000000000005
 20
0.6870000000000011
 30
0.0
 11
0.251000000000005
 21
0.249000000000001
 31
0.0
  0
ARC
  5
1A3
330
17F
100
AcDbEntity
  8
0010010007
100
AcDbCircle
 10
0.282000000000004
 20
0.249000000000001
 30
0.0
 40
0.031
100
AcDbArc
 50
180.0
 51
270.0
  0
LINE
  5
1A4
330
17F
100
AcDbEntity
  8
0010010007
100
AcDbLine
 10
0.329000000000008
 20
0.6870000000000011
 30
0.0
 11
0.329000000000008
 21
0.249000000000001
 31
0.0
  0
ARC
  5
1A5
330
17F
100
AcDbEntity
  8
0010010007
100
AcDbCircle
 10
0.298000000000009
 20
0.249000000000001
 30
0.0
 40
0.031
100
AcDbArc
 50
270.0
 51
0.0
  0
LINE
  5
1A6
330
17F
100
AcDbEntity
  8
0010010007
100
AcDbLine
 10
0.282000000000004
 20
0.218000000000001
 30
0.0
 11
0.298000000000009
 21
0.218000000000001
 31
0.0
  0
LINE
  5
1A7
330
17F
100
AcDbEntity
  8
0010010007
100
AcDbLine
 10
0.360000000000007
 20
0.7180000000000011
 30
0.0
 11
0.4380000000000022
 21
0.7180000000000011
 31
0.0
  0
LINE
  5
1A8
330
17F
100
AcDbEntity
  8
0010010007
100
AcDbLine
 10
0.4380000000000022
 20
0.218000000000001
 30
0.0
 11
0.360000000000007
 21
0.218000000000001
 31
0.0
  0
LINE
  5
1A9
330
17F
100
AcDbEntity
  8
0010010007
100
AcDbLine
 10
0.329000000000008
 20
0.586952854598391
 30
0.0
 11
0.360000000000007
 21
0.586952854598391
 31
0.0
  0
LINE
  5
1AA
330
17F
100
AcDbEntity
  8
0010010007
100
AcDbLine
 10
0.328125
 20
0.358625
 30
0.0
 11
0.360000000000007
 21
0.358625
 31
0.0
  0
ARC
  5
1AB
330
17F
100
AcDbEntity
  8
0010010007
100
AcDbCircle
 10
0.0630000000000024
 20
0.0620000000000003
 30
0.0
 40
0.031
100
AcDbArc
 50
180.0
 51
269.9999919723101
  0
LINE
  5
1AC
330
17F
100
AcDbEntity
  8
0010010007
100
AcDbLine
 10
0.0320000000000036
 20
0.7180000000000011
 30
0.0
 11
0.0320000000000036
 21
0.0620000000000003
 31
0.0
  0
ARC
  5
1AD
330
17F
100
AcDbEntity
  8
0010010007
100
AcDbCircle
 10
0.0630000000000024
 20
0.0620000000000003
 30
0.0
 40
0.031
100
AcDbArc
 50
180.0
 51
270.0
  0
LINE
  5
1AE
330
17F
100
AcDbEntity
  8
0010010007
100
AcDbLine
 10
0.345000000000006
 20
0.0310000000000006
 30
0.0
 11
0.0630000000000024
 21
0.0310000000000006
 31
0.0
  0
LINE
  5
1AF
330
17F
100
AcDbEntity
  8
0010010007
100
AcDbLine
 10
0.0621464456240588
 20
0.0310000000000006
 30
0.0
 11
0.313000000000002
 21
0.0310000000000006
 31
0.0
  0
LINE
  5
1B0
330
17F
100
AcDbEntity
  8
0010010007
100
AcDbLine
 10
0.251000000000005
 20
0.218000000000001
 30
0.0
 11
0.28125
 21
0.218000000000001
 31
0.0
  0
ENDBLK
  5
1B1
330
17F
100
AcDbEntity
  8
0
100
AcDbBlockEnd
  0
BLOCK
  5
6E
330
6D
100
AcDbEntity
  8
0
100
AcDbBlockBegin
  2
93OBW
 70
     0
 10
0.0
 20
0.0
 30
0.0
  3
93OBW
  1

  0
ARC
  5
6F
330
6D
100
AcDbEntity
  8
0010010007
100
AcDbCircle
 10
0.398000000000001
 20
0.318999999999997
 30
0.0
 40
0.015
100
AcDbArc
 50
0.0
 51
90.0
  0
LINE
  5
73
330
6D
100
AcDbEntity
  8
0010010007
100
AcDbLine
 10
0.4130000000000022
 20
0.318999999999996
 30
0.0
 11
0.4130000000000022
 21
0.316
 31
0.0
  0
ARC
  5
74
330
6D
100
AcDbEntity
  8
0010010007
100
AcDbCircle
 10
0.40200000000001
 20
0.323000000000002
 30
0.0
 40
0.031
100
AcDbArc
 50
359.9999999999988
 51
90.0
  0
LINE
  5
75
330
6D
100
AcDbEntity
  8
0010010007
100
AcDbLine
 10
0.0300000000000011
 20
0.250000000000004
 30
0.0
 11
0.138017246507628
 21
0.250000000000004
 31
0.0
  0
LINE
  5
76
330
6D
100
AcDbEntity
  8
0010010007
100
AcDbLine
 10
0.0800000000000072
 20
0.0573205080756924
 30
0.0
 11
0.050000000000006
 21
0.0400000000000027
 31
0.0
  0
LINE
  5
77
330
6D
100
AcDbEntity
  8
0010010007
100
AcDbLine
 10
0.080000000000009
 20
0.127320508075694
 30
0.0
 11
0.0500000000000078
 21
0.110000000000004
 31
0.0
  0
LINE
  5
78
330
6D
100
AcDbEntity
  8
0010010007
100
AcDbLine
 10
0.0
 20
0.126695508075692
 30
0.0
 11
0.0300000000000011
 21
0.109375000000002
 31
0.0
  0
LINE
  5
79
330
6D
100
AcDbEntity
  8
0010010007
100
AcDbLine
 10
0.0
 20
0.0573205080756907
 30
0.0
 11
0.0300000000000011
 21
0.0400000000000009
 31
0.0
  0
LINE
  5
7A
330
6D
100
AcDbEntity
  8
0010010007
100
AcDbLine
 10
0.0
 20
0.0742242240651549
 30
0.0
 11
0.0300000000000029
 21
0.0569037159894652
 31
0.0
  0
LINE
  5
7B
330
6D
100
AcDbEntity
  8
0010010007
100
AcDbLine
 10
0.0
 20
0.143261682032593
 30
0.0
 11
0.0300000000000011
 21
0.125941173956903
 31
0.0
  0
LINE
  5
7C
330
6D
100
AcDbEntity
  8
0010010007
100
AcDbLine
 10
0.0800000000000072
 20
0.0747715805396574
 30
0.0
 11
0.050000000000006
 21
0.0574510724639676
 31
0.0
  0
LINE
  5
7D
330
6D
100
AcDbEntity
  8
0010010007
100
AcDbLine
 10
0.0800000000000072
 20
0.143990944821956
 30
0.0
 11
0.050000000000006
 21
0.126670436746268
 31
0.0
  0
LINE
  5
7E
330
6D
100
AcDbEntity
  8
0010010007
100
AcDbLine
 10
0.0
 20
0.143261682032593
 30
0.0
 11
0.0
 21
0.12669550807569
 31
0.0
  0
LINE
  5
7F
330
6D
100
AcDbEntity
  8
0010010007
100
AcDbLine
 10
0.0
 20
0.0573205080756907
 30
0.0
 11
0.0
 21
0.0742242240651532
 31
0.0
  0
LINE
  5
80
330
6D
100
AcDbEntity
  8
0010010007
100
AcDbLine
 10
0.0800000000000072
 20
0.0573205080756924
 30
0.0
 11
0.0800000000000072
 21
0.0747715805396556
 31
0.0
  0
LINE
  5
81
330
6D
100
AcDbEntity
  8
0010010007
100
AcDbLine
 10
0.0800000000000072
 20
0.143990944821956
 30
0.0
 11
0.0800000000000072
 21
0.127320508075691
 31
0.0
  0
LINE
  5
82
330
6D
100
AcDbEntity
  8
0010010007
100
AcDbLine
 10
0.0300000000000011
 20
0.250000000000004
 30
0.0
 11
0.0300000000000011
 21
0.125941173956907
 31
0.0
  0
LINE
  5
83
330
6D
100
AcDbEntity
  8
0010010007
100
AcDbLine
 10
0.0500000000000043
 20
0.126670436746266
 30
0.0
 11
0.0500000000000043
 21
0.23
 31
0.0
  0
LINE
  5
84
330
6D
100
AcDbEntity
  8
0010010007
100
AcDbLine
 10
0.0300000000000011
 20
0.109375
 30
0.0
 11
0.0300000000000011
 21
0.0569037159894617
 31
0.0
  0
LINE
  5
85
330
6D
100
AcDbEntity
  8
0010010007
100
AcDbLine
 10
0.0500000000000043
 20
0.110000000000001
 30
0.0
 11
0.0500000000000043
 21
0.0574510724639659
 31
0.0
  0
LINE
  5
86
330
6D
100
AcDbEntity
  8
0010010007
100
AcDbLine
 10
0.0500000000000078
 20
0.0400000000000027
 30
0.0
 11
0.0500000000000078
 21
0.0
 31
0.0
  0
LINE
  5
87
330
6D
100
AcDbEntity
  8
0010010007
100
AcDbLine
 10
0.0500000000000078
 20
0.0
 30
0.0
 11
0.0300000000000047
 21
0.0
 31
0.0
  0
LINE
  5
88
330
6D
100
AcDbEntity
  8
0010010007
100
AcDbLine
 10
0.0300000000000011
 20
0.0399999999999992
 30
0.0
 11
0.0300000000000011
 21
0.0
 31
0.0
  0
ARC
  5
89
330
6D
100
AcDbEntity
  8
0010010007
100
AcDbCircle
 10
0.171000000000011
 20
0.264999999999998
 30
0.0
 40
0.015
100
AcDbArc
 50
180.0
 51
270.0
  0
LINE
  5
8A
330
6D
100
AcDbEntity
  8
0010010007
100
AcDbLine
 10
0.4130000000000022
 20
0.319000004130271
 30
0.0
 11
0.4130000000000022
 21
0.264999999999999
 31
0.0
  0
ARC
  5
8B
330
6D
100
AcDbEntity
  8
0010010007
100
AcDbCircle
 10
0.398000000000003
 20
0.2650000000000019
 30
0.0
 40
0.015
100
AcDbArc
 50
270.0
 51
0.0
  0
LINE
  5
8C
330
6D
100
AcDbEntity
  8
0010010007
100
AcDbLine
 10
0.397999999999999
 20
0.25
 30
0.0
 11
0.17100000000001
 21
0.25
 31
0.0
  0
LINE
  5
8D
330
6D
100
AcDbEntity
  8
0010010007
100
AcDbLine
 10
0.4330000000000072
 20
0.323000000000003
 30
0.0
 11
0.4330000000000072
 21
0.261000000000005
 31
0.0
  0
ARC
  5
8E
330
6D
100
AcDbEntity
  8
0010010007
100
AcDbCircle
 10
0.402000000000006
 20
0.261000000000001
 30
0.0
 40
0.031
100
AcDbArc
 50
270.0
 51
359.9999999999988
  0
ARC
  5
8F
330
6D
100
AcDbEntity
  8
0010010007
100
AcDbCircle
 10
0.167000000000008
 20
0.260999999999999
 30
0.0
 40
0.031
100
AcDbArc
 50
180.0
 51
200.783559595846
  0
LINE
  5
90
330
6D
100
AcDbEntity
  8
0010010007
100
AcDbLine
 10
0.402000000000008
 20
0.230000000000003
 30
0.0
 11
0.050000000000006
 21
0.230000000000005
 31
0.0
  0
LINE
  5
91
330
6D
100
AcDbEntity
  8
0010010007
100
AcDbLine
 10
0.40200000000001
 20
0.354000000000002
 30
0.0
 11
0.167000000000009
 21
0.354000000000002
 31
0.0
  0
ARC
  5
92
330
6D
100
AcDbEntity
  8
0010010007
100
AcDbCircle
 10
0.167000000000008
 20
0.323000000000002
 30
0.0
 40
0.031
100
AcDbArc
 50
90.0
 51
180.0
  0
LINE
  5
93
330
6D
100
AcDbEntity
  8
0010010007
100
AcDbLine
 10
0.136000000000009
 20
0.323000000000002
 30
0.0
 11
0.136000000000009
 21
0.261
 31
0.0
  0
LINE
  5
94
330
6D
100
AcDbEntity
  8
0010010007
100
AcDbLine
 10
0.398000000000001
 20
0.333999999999997
 30
0.0
 11
0.171000000000011
 21
0.333999999999997
 31
0.0
  0
ARC
  5
95
330
6D
100
AcDbEntity
  8
0010010007
100
AcDbCircle
 10
0.171000000000011
 20
0.318999999999997
 30
0.0
 40
0.015
100
AcDbArc
 50
90.0
 51
180.0
  0
LINE
  5
96
330
6D
100
AcDbEntity
  8
0010010007
100
AcDbLine
 10
0.156000000000013
 20
0.318999999999997
 30
0.0
 11
0.156000000000013
 21
0.265000000000003
 31
0.0
  0
ENDBLK
  5
97
330
6D
100
AcDbEntity
  8
0
100
AcDbBlockEnd
  0
BLOCK
  5
9A
330
99
100
AcDbEntity
  8
0
100
AcDbBlockBegin
  2
86NPF141
 70
     0
 10
0.0
 20
0.0
 30
0.0
  3
86NPF141
  1

  0
LINE
  5
9B
330
99
100
AcDbEntity
  8
0010010007
100
AcDbLine
 10
0.292234549170809
 20
0.292592286238269
 30
0.0
 11
0.0905816224003475
 21
0.292592286238268
 31
0.0
  0
LINE
  5
9C
330
99
100
AcDbEntity
  8
0010010007
100
AcDbLine
 10
0.292234549170809
 20
0.292592286238269
 30
0.0
 11
0.292234549170809
 21
0.0429999999999993
 31
0.0
  0
LINE
  5
9D
330
99
100
AcDbEntity
  8
0010010007
100
AcDbLine
 10
0.38175
 20
0.0916250000000005
 30
0.0
 11
0.38175
 21
0.0429999999999993
 31
0.0
  0
LINE
  5
9E
330
99
100
AcDbEntity
  8
0010010007
100
AcDbLine
 10
0.0629975848402324
 20
0.292592286238268
 30
0.0
 11
0.11998804152432
 21
0.232592286238267
 31
0.0
  0
LINE
  5
9F
330
99
100
AcDbEntity
  8
0010010007
100
AcDbLine
 10
0.0
 20
0.3125922862382669
 30
0.0
 11
0.292234549170809
 21
0.312592286238268
 31
0.0
  0
LINE
  5
A0
330
99
100
AcDbEntity
  8
0010010007
100
AcDbLine
 10
0.312234549170809
 20
0.374592286238269
 30
0.0
 11
0.312234549170809
 21
0.0429999999999993
 31
0.0
  0
LINE
  5
A1
330
99
100
AcDbEntity
  8
0010010007
100
AcDbLine
 10
0.3617500000000011
 20
0.100259966132592
 30
0.0
 11
0.3617500000000011
 21
0.046649781204545
 31
0.0
  0
LINE
  5
A2
330
99
100
AcDbEntity
  8
0010010007
100
AcDbLine
 10
0.312234549170809
 20
0.374592286238269
 30
0.0
 11
0.292234549170809
 21
0.374592286238269
 31
0.0
  0
LINE
  5
A3
330
99
100
AcDbEntity
  8
0010010007
100
AcDbLine
 10
0.0905816224003475
 20
0.292592286238268
 30
0.0
 11
0.147572079084434
 21
0.232592286238267
 31
0.0
  0
LINE
  5
A4
330
99
100
AcDbEntity
  8
0010010007
100
AcDbLine
 10
0.0
 20
0.3125922862382669
 30
0.0
 11
0.0
 21
0.292592286238268
 31
0.0
  0
ARC
  5
A5
330
99
100
AcDbEntity
  8
0010010007
100
AcDbCircle
 10
0.483527566184302
 20
0.246
 30
0.0
 40
0.046
100
AcDbArc
 50
312.198599646998
 51
81.43726286549343
  0
LINE
  5
A6
330
99
100
AcDbEntity
  8
0010010007
100
AcDbLine
 10
0.5144258804155121
 20
0.211922233382023
 30
0.0
 11
0.38175
 21
0.0916250000000005
 31
0.0
  0
LINE
  5
A7
330
99
100
AcDbEntity
  8
0010010007
100
AcDbLine
 10
0.3617500000000011
 20
0.100259966132592
 30
0.0
 11
0.5018334986466062
 21
0.227536716524801
 31
0.0
  0
ARC
  5
A8
330
99
100
AcDbEntity
  8
0010010007
100
AcDbCircle
 10
0.483527566184302
 20
0.246
 30
0.0
 40
0.0259999999999999
100
AcDbArc
 50
323.4673418504359
 51
85.7257390740707
  0
LINE
  5
A9
330
99
100
AcDbEntity
  8
0010010007
100
AcDbLine
 10
0.0
 20
0.292592286238268
 30
0.0
 11
0.0629975848402324
 21
0.292592286238268
 31
0.0
  0
LINE
  5
AA
330
99
100
AcDbEntity
  8
0010010007
100
AcDbLine
 10
0.292234549170809
 20
0.374592286238269
 30
0.0
 11
0.292234549170809
 21
0.312592286238268
 31
0.0
  0
LINE
  5
AB
330
99
100
AcDbEntity
  8
0010010007
100
AcDbLine
 10
0.4903766103545081
 20
0.2914872574899241
 30
0.0
 11
0.4854653657418579
 21
0.271927686608619
 31
0.0
  0
ARC
  5
AC
330
99
100
AcDbEntity
  8
0010010007
100
AcDbCircle
 10
0.336992274585405
 20
0.0448248906022721
 30
0.0
 40
0.0248248906022726
100
AcDbArc
 50
184.215645088867
 51
355.784354911133
  0
ARC
  5
AD
330
99
100
AcDbEntity
  8
0010010007
100
AcDbCircle
 10
0.336992274585405
 20
0.0447936509800968
 30
0.0
 40
0.044793650980097
100
AcDbArc
 50
182.294881348948
 51
357.705118651052
  0
LINE
  5
AE
330
99
100
AcDbEntity
  8
0010010007
100
AcDbLine
 10
0.11998804152432
 20
0.232592286238267
 30
0.0
 11
0.147572079084434
 21
0.232592286238267
 31
0.0
  0
ENDBLK
  5
AF
330
99
100
AcDbEntity
  8
0
100
AcDbBlockEnd
  0
BLOCK
  5
25E
330
25D
100
AcDbEntity
  8
0
100
AcDbBlockBegin
  2
11SCREEN
 70
     0
 10
0.0
 20
0.0
 30
0.0
  3
11SCREEN
  1

  0
LINE
  5
25F
330
25D
100
AcDbEntity
  8
0010010007
100
AcDbLine
 10
0.59375
 20
0.109375
 30
0.0
 11
0.625
 21
0.109375
 31
0.0
  0
LINE
  5
260
330
25D
100
AcDbEntity
  8
0010010007
100
AcDbLine
 10
0.625
 20
0.109375
 30
0.0
 11
0.625
 21
0.265625000000001
 31
0.0
  0
LINE
  5
261
330
25D
100
AcDbEntity
  8
0010010007
100
AcDbLine
 10
0.625
 20
0.109375
 30
0.0
 11
0.59375
 21
0.109375
 31
0.0
  0
LINE
  5
262
330
25D
100
AcDbEntity
  8
0010010007
100
AcDbLine
 10
0.59375
 20
0.109375
 30
0.0
 11
0.59375
 21
0.203125
 31
0.0
  0
LINE
  5
263
330
25D
100
AcDbEntity
  8
0010010007
100
AcDbLine
 10
0.59375
 20
0.203125
 30
0.0
 11
0.5625
 21
0.203125
 31
0.0
  0
ARC
  5
264
330
25D
100
AcDbEntity
  8
0010010007
100
AcDbCircle
 10
0.0313999999999979
 20
0.4061
 30
0.0
 40
0.0314
100
AcDbArc
 50
90.0
 51
180.0
  0
ARC
  5
265
330
25D
100
AcDbEntity
  8
0010010007
100
AcDbCircle
 10
0.0626499999999979
 20
0.37485
 30
0.0
 40
0.0314
100
AcDbArc
 50
90.0
 51
180.0
  0
LINE
  5
266
330
25D
100
AcDbEntity
  8
0010010007
100
AcDbLine
 10
0.0313999999999979
 20
0.4375
 30
0.0
 11
0.6248500000000023
 21
0.4375
 31
0.0
  0
ARC
  5
267
330
25D
100
AcDbEntity
  8
0010010007
100
AcDbCircle
 10
0.6248500000000023
 20
0.4061
 30
0.0
 40
0.0314
100
AcDbArc
 50
359.9999999999989
 51
90.0
  0
LINE
  5
268
330
25D
100
AcDbEntity
  8
0010010007
100
AcDbLine
 10
0.0626499999999979
 20
0.40625
 30
0.0
 11
0.5936000000000023
 21
0.40625
 31
0.0
  0
ARC
  5
269
330
25D
100
AcDbEntity
  8
0010010007
100
AcDbCircle
 10
0.5936000000000023
 20
0.37485
 30
0.0
 40
0.0314
100
AcDbArc
 50
359.9999999999989
 51
90.0
  0
LINE
  5
26A
330
25D
100
AcDbEntity
  8
0010010007
100
AcDbLine
 10
0.5625
 20
0.203125
 30
0.0
 11
0.5625
 21
0.109525
 31
0.0
  0
ARC
  5
26B
330
25D
100
AcDbEntity
  8
0010010007
100
AcDbCircle
 10
0.5938999999999979
 20
0.109525
 30
0.0
 40
0.0314
100
AcDbArc
 50
180.0
 51
270.0
  0
LINE
  5
26C
330
25D
100
AcDbEntity
  8
0010010007
100
AcDbLine
 10
0.5938999999999979
 20
0.078125
 30
0.0
 11
0.6248500000000023
 21
0.078125
 31
0.0
  0
ARC
  5
26D
330
25D
100
AcDbEntity
  8
0010010007
100
AcDbCircle
 10
0.6248500000000023
 20
0.109525
 30
0.0
 40
0.0314
100
AcDbArc
 50
270.0
 51
359.9999999999989
  0
LINE
  5
26E
330
25D
100
AcDbEntity
  8
0010010007
100
AcDbLine
 10
0.65625
 20
0.4061
 30
0.0
 11
0.65625
 21
0.109525
 31
0.0
  0
ARC
  5
26F
330
25D
100
AcDbEntity
  8
0010010007
100
AcDbCircle
 10
0.5936000000000023
 20
0.234225
 30
0.0
 40
0.0314
100
AcDbArc
 50
359.9999999999989
 51
90.0
  0
LINE
  5
270
330
25D
100
AcDbEntity
  8
0010010007
100
AcDbLine
 10
0.625
 20
0.109375000000002
 30
0.0
 11
0.625
 21
0.234225
 31
0.0
  0
LINE
  5
271
330
25D
100
AcDbEntity
  8
0010010007
100
AcDbLine
 10
0.5936000000000023
 20
0.265625
 30
0.0
 11
0.500149999999998
 21
0.265625
 31
0.0
  0
ARC
  5
272
330
25D
100
AcDbEntity
  8
0010010007
100
AcDbCircle
 10
0.500149999999998
 20
0.234225
 30
0.0
 40
0.0314
100
AcDbArc
 50
90.0
 51
180.0
  0
ARC
  5
273
330
25D
100
AcDbEntity
  8
0010010007
100
AcDbCircle
 10
0.531399999999998
 20
0.202975
 30
0.0
 40
0.0314
100
AcDbArc
 50
90.0
 51
180.0
  0
LINE
  5
274
330
25D
100
AcDbEntity
  8
0010010007
100
AcDbLine
 10
0.531399999999998
 20
0.234375
 30
0.0
 11
0.5623500000000023
 21
0.234375
 31
0.0
  0
ARC
  5
275
330
25D
100
AcDbEntity
  8
0010010007
100
AcDbCircle
 10
0.5623500000000023
 20
0.202975
 30
0.0
 40
0.0314
100
AcDbArc
 50
359.9999999999989
 51
90.0
  0
LINE
  5
276
330
25D
100
AcDbEntity
  8
0010010007
100
AcDbLine
 10
0.59375
 20
0.109375000000001
 30
0.0
 11
0.59375
 21
0.202975
 31
0.0
  0
ARC
  5
277
330
25D
100
AcDbEntity
  8
0010010007
100
AcDbCircle
 10
0.4373500000000022
 20
0.0626500000000001
 30
0.0
 40
0.0314
100
AcDbArc
 50
270.0
 51
359.9999999999989
  0
LINE
  5
278
330
25D
100
AcDbEntity
  8
0010010007
100
AcDbLine
 10
0.46875
 20
0.234225
 30
0.0
 11
0.46875
 21
0.0626499999999997
 31
0.0
  0
ARC
  5
279
330
25D
100
AcDbEntity
  8
0010010007
100
AcDbCircle
 10
0.4686000000000022
 20
0.0314000000000001
 30
0.0
 40
0.0314
100
AcDbArc
 50
270.0
 51
359.9999999999989
  0
LINE
  5
27A
330
25D
100
AcDbEntity
  8
0010010007
100
AcDbLine
 10
0.5
 20
0.202975
 30
0.0
 11
0.5
 21
0.0313999999999997
 31
0.0
  0
LINE
  5
27B
330
25D
100
AcDbEntity
  8
0010010007
100
AcDbLine
 10
0.03125
 20
0.37485
 30
0.0
 11
0.03125
 21
0.0626500000000001
 31
0.0
  0
ARC
  5
27C
330
25D
100
AcDbEntity
  8
0010010007
100
AcDbCircle
 10
0.0626499999999979
 20
0.0626500000000001
 30
0.0
 40
0.0314
100
AcDbArc
 50
180.0
 51
270.0
  0
LINE
  5
27D
330
25D
100
AcDbEntity
  8
0010010007
100
AcDbLine
 10
0.4373500000000022
 20
0.03125
 30
0.0
 11
0.0626499999999979
 21
0.03125
 31
0.0
  0
LINE
  5
27E
330
25D
100
AcDbEntity
  8
0010010007
100
AcDbLine
 10
0.0
 20
0.4061
 30
0.0
 11
0.0
 21
0.0314000000000001
 31
0.0
  0
ARC
  5
27F
330
25D
100
AcDbEntity
  8
0010010007
100
AcDbCircle
 10
0.0313999999999979
 20
0.0314000000000001
 30
0.0
 40
0.0314
100
AcDbArc
 50
180.0
 51
270.0
  0
LINE
  5
280
330
25D
100
AcDbEntity
  8
0010010007
100
AcDbLine
 10
0.4686000000000022
 20
0.0
 30
0.0
 11
0.0313999999999979
 21
0.0
 31
0.0
  0
LINE
  5
281
330
25D
100
AcDbEntity
  8
0010010007
100
AcDbLine
 10
0.625
 20
0.203125
 30
0.0
 11
0.625
 21
0.375
 31
0.0
  0
LINE
  5
282
330
25D
100
AcDbEntity
  8
0010010007
100
AcDbLine
 10
0.5
 20
0.15625
 30
0.0
 11
0.578125
 21
0.21875
 31
0.0
  0
LINE
  5
283
330
25D
100
AcDbEntity
  8
0010010007
100
AcDbLine
 10
0.515625
 20
0.234375
 30
0.0
 11
0.546875
 21
0.1875
 31
0.0
  0
ENDBLK
  5
284
330
25D
100
AcDbEntity
  8
0
100
AcDbBlockEnd
  0
BLOCK
  5
B4
330
B3
100
AcDbEntity
  8
0
100
AcDbBlockBegin
  2
*U5
 70
     1
 10
0.0
 20
0.0
 30
0.0
  3
*U5
  1

  0
SOLID
  5
B5
330
B3
100
AcDbEntity
  8
0
  6
Continuous
100
AcDbTrace
 10
1.881186878287215
 20
3.346448750095686
 30
0.0
 11
1.881186878287214
 21
3.286225296794519
 31
0.0
 12
1.90951442518562
 22
3.286225296794519
 32
0.0
 13
1.90951442518562
 23
3.286225296794519
 33
0.0
  0
SOLID
  5
B6
330
B3
100
AcDbEntity
  8
0
  6
Continuous
100
AcDbTrace
 10
1.881186878287214
 20
3.286225296794519
 30
0.0
 11
1.881186878287213
 21
3.219672203396846
 31
0.0
 12
1.90951442518562
 22
3.219672203396846
 32
0.0
 13
1.90951442518562
 23
3.219672203396846
 33
0.0
  0
SOLID
  5
B7
330
B3
100
AcDbEntity
  8
0
  6
Continuous
100
AcDbTrace
 10
-1.881186878287214
 20
3.286225296794519
 30
0.0
 11
-1.90951442518562
 21
3.286225296794519
 31
0.0
 12
-1.90951442518562
 22
3.219672203396846
 32
0.0
 13
-1.90951442518562
 23
3.219672203396846
 33
0.0
210
0.0
220
0.0
230
-1.0
  0
SOLID
  5
B8
330
B3
100
AcDbEntity
  8
0
  6
Continuous
100
AcDbTrace
 10
-1.881186878287213
 20
3.219672203396846
 30
0.0
 11
-1.90951442518562
 21
3.219672203396846
 31
0.0
 12
-1.881186878287213
 22
3.15944875009568
 32
0.0
 13
-1.881186878287213
 23
3.15944875009568
 33
0.0
210
0.0
220
0.0
230
-1.0
  0
LINE
  5
B9
330
B3
100
AcDbEntity
  8
0
  6
Continuous
100
AcDbLine
 10
1.881186878287215
 20
3.346448750095686
 30
0.0
 11
1.881186878287214
 21
3.286225296794519
 31
0.0
  0
LINE
  5
BA
330
B3
100
AcDbEntity
  8
0
  6
Continuous
100
AcDbLine
 10
1.90951442518562
 20
3.286225296794519
 30
0.0
 11
1.881186878287215
 21
3.346448750095686
 31
0.0
  0
LINE
  5
BB
330
B3
100
AcDbEntity
  8
0
  6
Continuous
100
AcDbLine
 10
1.881186878287214
 20
3.286225296794519
 30
0.0
 11
1.881186878287213
 21
3.219672203396846
 31
0.0
  0
LINE
  5
BC
330
B3
100
AcDbEntity
  8
0
  6
Continuous
100
AcDbLine
 10
1.90951442518562
 20
3.286225296794519
 30
0.0
 11
1.90951442518562
 21
3.219672203396846
 31
0.0
  0
LINE
  5
BD
330
B3
100
AcDbEntity
  8
0
  6
Continuous
100
AcDbLine
 10
1.90951442518562
 20
3.219672203396846
 30
0.0
 11
1.881186878287213
 21
3.15944875009568
 31
0.0
  0
LINE
  5
BE
330
B3
100
AcDbEntity
  8
0
  6
Continuous
100
AcDbLine
 10
1.881186878287213
 20
3.15944875009568
 30
0.0
 11
1.881186878287213
 21
3.219672203396846
 31
0.0
  0
ENDBLK
  5
BF
330
B3
100
AcDbEntity
  8
0
100
AcDbBlockEnd
  0
BLOCK
  5
DD
330
DC
100
AcDbEntity
  8
0
100
AcDbBlockBegin
  2
*D6
 70
     1
 10
0.0
 20
0.0
 30
0.0
  3
*D6
  1

  0
LINE
  5
DE
330
DC
100
AcDbEntity
  8
0
 62
     0
370
    -2
100
AcDbLine
 10
5.010671216033415
 20
34.17753769882531
 30
0.0
 11
5.010671216033415
 21
34.98701367727858
 31
0.0
  0
LINE
  5
DF
330
DC
100
AcDbEntity
  8
0
 62
     0
370
    -2
100
AcDbLine
 10
6.635671216033415
 20
34.17753769882531
 30
0.0
 11
6.635671216033415
 21
34.98701367727858
 31
0.0
  0
LINE
  5
E0
330
DC
100
AcDbEntity
  8
0
 62
     0
370
    -2
100
AcDbLine
 10
5.010671216033415
 20
34.95701367727858
 30
0.0
 11
5.380232958015457
 21
34.95701367727858
 31
0.0
  0
LINE
  5
E1
330
DC
100
AcDbEntity
  8
0
 62
     0
370
    -2
100
AcDbLine
 10
6.635671216033415
 20
34.95701367727858
 30
0.0
 11
6.266109474051373
 21
34.95701367727858
 31
0.0
  0
INSERT
  5
E2
330
DC
100
AcDbEntity
  8
0
 62
     0
370
    -2
100
AcDbBlockReference
  2
_ArchTick
 10
5.010671216033415
 20
34.95701367727858
 30
0.0
 41
0.156
 42
0.156
 43
0.156
 50
180.0
  0
INSERT
  5
E3
330
DC
100
AcDbEntity
  8
0
 62
     0
370
    -2
100
AcDbBlockReference
  2
_ArchTick
 10
6.635671216033415
 20
34.95701367727858
 30
0.0
 41
0.156
 42
0.156
 43
0.156
  0
MTEXT
  5
E4
330
DC
100
AcDbEntity
  8
0
 62
     0
100
AcDbMText
 10
5.823171216033415
 20
35.15935816281994
 30
0.0
 40
0.3125
 41
0.0
 71
     5
 72
     1
  1
\A1;1 5/8"
 73
     1
 44
1.0
1001
ACAD
1000
MTEXTBEGIN
1070
    73
1070
     1
1070
    44
1040
1.0
1070
    74
1070
     0
1000
MTEXTEND
  0
MTEXT
  5
E5
330
DC
100
AcDbEntity
  8
0
 62
     0
100
AcDbMText
 10
5.823171216033415
 20
34.73712127647159
 30
0.0
 40
0.3125
 41
0.0
 71
     5
 72
     1
  1
\A1;[41mm]
 73
     1
 44
1.0
1001
ACAD
1000
MTEXTBEGIN
1070
    73
1070
     1
1070
    44
1040
1.0
1070
    74
1070
     0
1000
MTEXTEND
  0
POINT
  5
E6
330
DC
100
AcDbEntity
  8
Defpoints
 62
     0
100
AcDbPoint
 10
5.010671216033415
 20
34.13753769882531
 30
0.0
  0
POINT
  5
E8
330
DC
100
AcDbEntity
  8
Defpoints
 62
     0
100
AcDbPoint
 10
6.635671216033415
 20
34.13753769882531
 30
0.0
  0
POINT
  5
E9
330
DC
100
AcDbEntity
  8
Defpoints
 62
     0
100
AcDbPoint
 10
6.635671216033415
 20
34.95701367727858
 30
0.0
  0
ENDBLK
  5
EA
330
DC
100
AcDbEntity
  8
0
100
AcDbBlockEnd
  0
BLOCK
  5
EF
330
EE
100
AcDbEntity
  8
0
100
AcDbBlockBegin
  2
*D7
 70
     1
 10
0.0
 20
0.0
 30
0.0
  3
*D7
  1

  0
LINE
  5
F0
330
EE
100
AcDbEntity
  8
0
 62
     0
370
    -2
100
AcDbLine
 10
5.260671216032989
 20
29.81374396251182
 30
0.0
 11
5.260671216032989
 21
29.28177318154054
 31
0.0
  0
LINE
  5
F1
330
EE
100
AcDbEntity
  8
0
 62
     0
370
    -2
100
AcDbLine
 10
6.385671216032989
 20
29.81374396251182
 30
0.0
 11
6.385671216032989
 21
29.28177318154054
 31
0.0
  0
LINE
  5
F2
330
EE
100
AcDbEntity
  8
0
 62
     0
370
    -2
100
AcDbLine
 10
5.260671216032989
 20
29.31177318154054
 30
0.0
 11
6.385671216032989
 21
29.31177318154054
 31
0.0
  0
LINE
  5
F3
330
EE
100
AcDbEntity
  8
0
 62
     0
370
    -2
100
AcDbLine
 10
6.385671216032989
 20
29.31177318154054
 30
0.0
 11
6.541671216032988
 21
29.31177318154054
 31
0.0
  0
INSERT
  5
F4
330
EE
100
AcDbEntity
  8
0
 62
     0
370
    -2
100
AcDbBlockReference
  2
_ArchTick
 10
5.260671216032989
 20
29.31177318154054
 30
0.0
 41
0.156
 42
0.156
 43
0.156
 50
180.0
  0
INSERT
  5
F5
330
EE
100
AcDbEntity
  8
0
 62
     0
370
    -2
100
AcDbBlockReference
  2
_ArchTick
 10
6.385671216032989
 20
29.31177318154054
 30
0.0
 41
0.156
 42
0.156
 43
0.156
  0
MTEXT
  5
F6
330
EE
100
AcDbEntity
  8
0
 62
     0
100
AcDbMText
 10
7.072196669181286
 20
29.31177318154054
 30
0.0
 40
0.3125
 41
0.0
 71
     5
 72
     1
  1
\A1;1 1/8"\P [29mm]
 73
     1
 44
1.0
1001
ACAD
1000
MTEXTBEGIN
1070
    73
1070
     1
1070
    44
1040
1.0
1070
    74
1070
     0
1000
MTEXTEND
  0
POINT
  5
F7
330
EE
100
AcDbEntity
  8
Defpoints
 62
     0
100
AcDbPoint
 10
5.260671216032989
 20
29.85374396251181
 30
0.0
  0
POINT
  5
F8
330
EE
100
AcDbEntity
  8
Defpoints
 62
     0
100
AcDbPoint
 10
6.385671216032989
 20
29.85374396251181
 30
0.0
  0
POINT
  5
F9
330
EE
100
AcDbEntity
  8
Defpoints
 62
     0
100
AcDbPoint
 10
6.385671216032989
 20
29.31177318154054
 30
0.0
  0
ENDBLK
  5
FA
330
EE
100
AcDbEntity
  8
0
100
AcDbBlockEnd
  0
BLOCK
  5
FD
330
FC
100
AcDbEntity
  8
0
100
AcDbBlockBegin
  2
*D8
 70
     1
 10
0.0
 20
0.0
 30
0.0
  3
*D8
  1

  0
LINE
  5
FE
330
FC
100
AcDbEntity
  8
0
 62
     0
370
    -2
100
AcDbLine
 10
5.143171216032945
 20
30.29124396251182
 30
0.0
 11
4.990069176308894
 21
30.29124396251182
 31
0.0
  0
LINE
  5
FF
330
FC
100
AcDbEntity
  8
0
 62
     0
370
    -2
100
AcDbLine
 10
5.283171216032989
 20
29.79124396251182
 30
0.0
 11
4.990069176308893
 21
29.79124396251182
 31
0.0
  0
LINE
  5
100
330
FC
100
AcDbEntity
  8
0
 62
     0
370
    -2
100
AcDbLine
 10
5.020069176308894
 20
30.29124396251182
 30
0.0
 11
5.020069176308894
 21
29.79124396251182
 31
0.0
  0
LINE
  5
101
330
FC
100
AcDbEntity
  8
0
 62
     0
370
    -2
100
AcDbLine
 10
5.020069176308894
 20
29.79124396251182
 30
0.0
 11
5.020069176308894
 21
29.47924396251181
 31
0.0
  0
LINE
  5
102
330
FC
100
AcDbEntity
  8
0
 62
     0
370
    -2
100
AcDbLine
 10
5.020069176308894
 20
29.47924396251181
 30
0.0
 11
4.864069176308894
 21
29.47924396251181
 31
0.0
  0
INSERT
  5
103
330
FC
100
AcDbEntity
  8
0
 62
     0
370
    -2
100
AcDbBlockReference
  2
_ArchTick
 10
5.020069176308894
 20
30.29124396251182
 30
0.0
 41
0.156
 42
0.156
 43
0.156
 50
90.0
  0
INSERT
  5
104
330
FC
100
AcDbEntity
  8
0
 62
     0
370
    -2
100
AcDbBlockReference
  2
_ArchTick
 10
5.020069176308894
 20
29.79124396251182
 30
0.0
 41
0.156
 42
0.156
 43
0.156
 50
270.0
  0
MTEXT
  5
105
330
FC
100
AcDbEntity
  8
0
 62
     0
100
AcDbMText
 10
4.333543723160592
 20
29.47924396251181
 30
0.0
 40
0.3125
 41
0.0
 71
     5
 72
     1
  1
\A1;1/2"\P [13mm]
 73
     1
 44
1.0
1001
ACAD
1000
MTEXTBEGIN
1070
    73
1070
     1
1070
    44
1040
1.0
1070
    74
1070
     0
1000
MTEXTEND
  0
POINT
  5
106
330
FC
100
AcDbEntity
  8
Defpoints
 62
     0
100
AcDbPoint
 10
5.183171216032945
 20
30.29124396251182
 30
0.0
  0
POINT
  5
107
330
FC
100
AcDbEntity
  8
Defpoints
 62
     0
100
AcDbPoint
 10
5.323171216032989
 20
29.79124396251182
 30
0.0
  0
POINT
  5
108
330
FC
100
AcDbEntity
  8
Defpoints
 62
     0
100
AcDbPoint
 10
5.020069176308894
 20
29.79124396251182
 30
0.0
  0
ENDBLK
  5
109
330
FC
100
AcDbEntity
  8
0
100
AcDbBlockEnd
  0
BLOCK
  5
12B
330
12A
100
AcDbEntity
  8
0
100
AcDbBlockBegin
  2
*D9
 70
     1
 10
0.0
 20
0.0
 30
0.0
  3
*D9
  1

  0
LINE
  5
12C
330
12A
100
AcDbEntity
  8
0
 62
     0
370
    -2
100
AcDbLine
 10
13.93273193070792
 20
34.17753769882531
 30
0.0
 11
13.93273193070792
 21
36.08505773671202
 31
0.0
  0
LINE
  5
12D
330
12A
100
AcDbEntity
  8
0
 62
     0
370
    -2
100
AcDbLine
 10
16.24523193070792
 20
34.17753769882531
 30
0.0
 11
16.24523193070792
 21
36.08505773671202
 31
0.0
  0
LINE
  5
12E
330
12A
100
AcDbEntity
  8
0
 62
     0
370
    -2
100
AcDbLine
 10
13.93273193070792
 20
36.05505773671202
 30
0.0
 11
14.57108675439809
 21
36.05505773671202
 31
0.0
  0
LINE
  5
12F
330
12A
100
AcDbEntity
  8
0
 62
     0
370
    -2
100
AcDbLine
 10
16.24523193070792
 20
36.05505773671202
 30
0.0
 11
15.60687710701774
 21
36.05505773671202
 31
0.0
  0
INSERT
  5
130
330
12A
100
AcDbEntity
  8
0
 62
     0
370
    -2
100
AcDbBlockReference
  2
_ArchTick
 10
13.93273193070792
 20
36.05505773671202
 30
0.0
 41
0.156
 42
0.156
 43
0.156
 50
180.0
  0
INSERT
  5
131
330
12A
100
AcDbEntity
  8
0
 62
     0
370
    -2
100
AcDbBlockReference
  2
_ArchTick
 10
16.24523193070792
 20
36.05505773671202
 30
0.0
 41
0.156
 42
0.156
 43
0.156
  0
MTEXT
  5
132
330
12A
100
AcDbEntity
  8
0
 62
     0
100
AcDbMText
 10
15.08898193070791
 20
36.25740222225338
 30
0.0
 40
0.3125
 41
0.0
 71
     5
 72
     1
  1
\A1;2 5/16"
 73
     1
 44
1.0
1001
ACAD
1000
MTEXTBEGIN
1070
    73
1070
     1
1070
    44
1040
1.0
1070
    74
1070
     0
1000
MTEXTEND
  0
MTEXT
  5
133
330
12A
100
AcDbEntity
  8
0
 62
     0
100
AcDbMText
 10
15.08898193070791
 20
35.83516533590503
 30
0.0
 40
0.3125
 41
0.0
 71
     5
 72
     1
  1
\A1;[59mm]
 73
     1
 44
1.0
1001
ACAD
1000
MTEXTBEGIN
1070
    73
1070
     1
1070
    44
1040
1.0
1070
    74
1070
     0
1000
MTEXTEND
  0
POINT
  5
134
330
12A
100
AcDbEntity
  8
Defpoints
 62
     0
100
AcDbPoint
 10
13.93273193070792
 20
34.13753769882531
 30
0.0
  0
POINT
  5
135
330
12A
100
AcDbEntity
  8
Defpoints
 62
     0
100
AcDbPoint
 10
16.24523193070792
 20
34.13753769882531
 30
0.0
  0
POINT
  5
136
330
12A
100
AcDbEntity
  8
Defpoints
 62
     0
100
AcDbPoint
 10
16.24523193070792
 20
36.05505773671202
 30
0.0
  0
ENDBLK
  5
137
330
12A
100
AcDbEntity
  8
0
100
AcDbBlockEnd
  0
BLOCK
  5
13C
330
13B
100
AcDbEntity
  8
0
100
AcDbBlockBegin
  2
*D10
 70
     1
 10
0.0
 20
0.0
 30
0.0
  3
*D10
  1

  0
LINE
  5
13D
330
13B
100
AcDbEntity
  8
0
 62
     0
370
    -2
100
AcDbLine
 10
14.18273193070749
 20
29.81374396251182
 30
0.0
 11
14.18273193070749
 21
28.96733987001743
 31
0.0
  0
LINE
  5
13E
330
13B
100
AcDbEntity
  8
0
 62
     0
370
    -2
100
AcDbLine
 10
15.99523193070749
 20
29.81374396251182
 30
0.0
 11
15.99523193070749
 21
28.96733987001743
 31
0.0
  0
LINE
  5
13F
330
13B
100
AcDbEntity
  8
0
 62
     0
370
    -2
100
AcDbLine
 10
14.18273193070749
 20
28.99733987001743
 30
0.0
 11
14.50398962090742
 21
28.99733987001743
 31
0.0
  0
LINE
  5
140
330
13B
100
AcDbEntity
  8
0
 62
     0
370
    -2
100
AcDbLine
 10
15.99523193070749
 20
28.99733987001743
 30
0.0
 11
15.67397424050756
 21
28.99733987001743
 31
0.0
  0
INSERT
  5
141
330
13B
100
AcDbEntity
  8
0
 62
     0
370
    -2
100
AcDbBlockReference
  2
_ArchTick
 10
14.18273193070749
 20
28.99733987001743
 30
0.0
 41
0.156
 42
0.156
 43
0.156
 50
180.0
  0
INSERT
  5
142
330
13B
100
AcDbEntity
  8
0
 62
     0
370
    -2
100
AcDbBlockReference
  2
_ArchTick
 10
15.99523193070749
 20
28.99733987001743
 30
0.0
 41
0.156
 42
0.156
 43
0.156
  0
MTEXT
  5
143
330
13B
100
AcDbEntity
  8
0
 62
     0
100
AcDbMText
 10
15.08898193070749
 20
29.19968435555878
 30
0.0
 40
0.3125
 41
0.0
 71
     5
 72
     1
  1
\A1;1 13/16"
 73
     1
 44
1.0
1001
ACAD
1000
MTEXTBEGIN
1070
    73
1070
     1
1070
    44
1040
1.0
1070
    74
1070
     0
1000
MTEXTEND
  0
MTEXT
  5
144
330
13B
100
AcDbEntity
  8
0
 62
     0
100
AcDbMText
 10
15.08898193070749
 20
28.77744746921043
 30
0.0
 40
0.3125
 41
0.0
 71
     5
 72
     1
  1
\A1;[46mm]
 73
     1
 44
1.0
1001
ACAD
1000
MTEXTBEGIN
1070
    73
1070
     1
1070
    44
1040
1.0
1070
    74
1070
     0
1000
MTEXTEND
  0
POINT
  5
145
330
13B
100
AcDbEntity
  8
Defpoints
 62
     0
100
AcDbPoint
 10
14.18273193070749
 20
29.85374396251181
 30
0.0
  0
POINT
  5
146
330
13B
100
AcDbEntity
  8
Defpoints
 62
     0
100
AcDbPoint
 10
15.99523193070749
 20
29.85374396251181
 30
0.0
  0
POINT
  5
147
330
13B
100
AcDbEntity
  8
Defpoints
 62
     0
100
AcDbPoint
 10
15.99523193070749
 20
28.99733987001743
 30
0.0
  0
ENDBLK
  5
148
330
13B
100
AcDbEntity
  8
0
100
AcDbBlockEnd
  0
BLOCK
  5
14B
330
14A
100
AcDbEntity
  8
0
100
AcDbBlockBegin
  2
*D11
 70
     1
 10
0.0
 20
0.0
 30
0.0
  3
*D11
  1

  0
LINE
  5
14C
330
14A
100
AcDbEntity
  8
0
 62
     0
370
    -2
100
AcDbLine
 10
14.06523193070745
 20
30.29124396251182
 30
0.0
 11
13.92203830182633
 21
30.29124396251182
 31
0.0
  0
LINE
  5
14D
330
14A
100
AcDbEntity
  8
0
 62
     0
370
    -2
100
AcDbLine
 10
14.20523193070749
 20
29.79124396251182
 30
0.0
 11
13.92203830182633
 21
29.79124396251182
 31
0.0
  0
LINE
  5
14E
330
14A
100
AcDbEntity
  8
0
 62
     0
370
    -2
100
AcDbLine
 10
13.95203830182633
 20
30.29124396251182
 30
0.0
 11
13.95203830182633
 21
29.79124396251182
 31
0.0
  0
LINE
  5
14F
330
14A
100
AcDbEntity
  8
0
 62
     0
370
    -2
100
AcDbLine
 10
13.95203830182633
 20
29.79124396251182
 30
0.0
 11
13.95203830182633
 21
29.63524396251182
 31
0.0
  0
LINE
  5
150
330
14A
100
AcDbEntity
  8
0
 62
     0
370
    -2
100
AcDbLine
 10
13.95203830182633
 20
29.63524396251182
 30
0.0
 11
13.79603830182633
 21
29.63524396251182
 31
0.0
  0
INSERT
  5
151
330
14A
100
AcDbEntity
  8
0
 62
     0
370
    -2
100
AcDbBlockReference
  2
_ArchTick
 10
13.95203830182633
 20
30.29124396251182
 30
0.0
 41
0.156
 42
0.156
 43
0.156
 50
90.0
  0
INSERT
  5
152
330
14A
100
AcDbEntity
  8
0
 62
     0
370
    -2
100
AcDbBlockReference
  2
_ArchTick
 10
13.95203830182633
 20
29.79124396251182
 30
0.0
 41
0.156
 42
0.156
 43
0.156
 50
270.0
  0
MTEXT
  5
153
330
14A
100
AcDbEntity
  8
0
 62
     0
100
AcDbMText
 10
13.35580601871053
 20
29.83758844805318
 30
0.0
 40
0.3125
 41
0.0
 71
     5
 72
     1
  1
\A1;1/2"
 73
     1
 44
1.0
1001
ACAD
1000
MTEXTBEGIN
1070
    73
1070
     1
1070
    44
1040
1.0
1070
    74
1070
     0
1000
MTEXTEND
  0
MTEXT
  5
154
330
14A
100
AcDbEntity
  8
0
 62
     0
100
AcDbMText
 10
13.35580601871053
 20
29.41535156170483
 30
0.0
 40
0.3125
 41
0.0
 71
     5
 72
     1
  1
\A1;[13mm]
 73
     1
 44
1.0
1001
ACAD
1000
MTEXTBEGIN
1070
    73
1070
     1
1070
    44
1040
1.0
1070
    74
1070
     0
1000
MTEXTEND
  0
POINT
  5
155
330
14A
100
AcDbEntity
  8
Defpoints
 62
     0
100
AcDbPoint
 10
14.10523193070745
 20
30.29124396251182
 30
0.0
  0
POINT
  5
156
330
14A
100
AcDbEntity
  8
Defpoints
 62
     0
100
AcDbPoint
 10
14.24523193070749
 20
29.79124396251182
 30
0.0
  0
POINT
  5
157
330
14A
100
AcDbEntity
  8
Defpoints
 62
     0
100
AcDbPoint
 10
13.95203830182633
 20
29.79124396251182
 30
0.0
  0
ENDBLK
  5
158
330
14A
100
AcDbEntity
  8
0
100
AcDbBlockEnd
  0
BLOCK
  5
15B
330
15A
100
AcDbEntity
  8
0
100
AcDbBlockBegin
  2
*D12
 70
     1
 10
0.0
 20
0.0
 30
0.0
  3
*D12
  1

  0
LINE
  5
15C
330
15A
100
AcDbEntity
  8
0
 62
     0
370
    -2
100
AcDbLine
 10
13.12860425641559
 20
34.04253769882506
 30
0.0
 11
12.88812986370571
 21
34.04253769882506
 31
0.0
  0
LINE
  5
15D
330
15A
100
AcDbEntity
  8
0
 62
     0
370
    -2
100
AcDbLine
 10
13.95473193070781
 20
34.19953769882521
 30
0.0
 11
12.88812986370571
 21
34.19953769882521
 31
0.0
  0
LINE
  5
15E
330
15A
100
AcDbEntity
  8
0
 62
     0
370
    -2
100
AcDbLine
 10
12.91812986370571
 20
34.19953769882521
 30
0.0
 11
12.91812986370571
 21
34.04253769882506
 31
0.0
  0
LINE
  5
15F
330
15A
100
AcDbEntity
  8
0
 62
     0
370
    -2
100
AcDbLine
 10
12.91812986370571
 20
34.04253769882506
 30
0.0
 11
12.91812986370571
 21
33.88653769882501
 31
0.0
  0
LINE
  5
160
330
15A
100
AcDbEntity
  8
0
 62
     0
370
    -2
100
AcDbLine
 10
12.91812986370571
 20
33.88653769882501
 30
0.0
 11
12.76212986370571
 21
33.88653769882501
 31
0.0
  0
INSERT
  5
161
330
15A
100
AcDbEntity
  8
0
 62
     0
370
    -2
100
AcDbBlockReference
  2
_ArchTick
 10
12.91812986370571
 20
34.19953769882521
 30
0.0
 41
0.156
 42
0.156
 43
0.156
 50
90.0
  0
INSERT
  5
162
330
15A
100
AcDbEntity
  8
0
 62
     0
370
    -2
100
AcDbBlockReference
  2
_ArchTick
 10
12.91812986370571
 20
34.04253769882506
 30
0.0
 41
0.156
 42
0.156
 43
0.156
 50
270.0
  0
MTEXT
  5
163
330
15A
100
AcDbEntity
  8
0
 62
     0
100
AcDbMText
 10
12.30263143644846
 20
33.88653769882501
 30
0.0
 40
0.3125
 41
0.0
 71
     5
 72
     1
  1
\A1;5/32"\P [4mm]
 73
     1
 44
1.0
1001
ACAD
1000
MTEXTBEGIN
1070
    73
1070
     1
1070
    44
1040
1.0
1070
    74
1070
     0
1000
MTEXTEND
  0
POINT
  5
164
330
15A
100
AcDbEntity
  8
Defpoints
 62
     0
100
AcDbPoint
 10
13.16860425641559
 20
34.04253769882506
 30
0.0
  0
POINT
  5
165
330
15A
100
AcDbEntity
  8
Defpoints
 62
     0
100
AcDbPoint
 10
13.99473193070781
 20
34.19953769882521
 30
0.0
  0
POINT
  5
166
330
15A
100
AcDbEntity
  8
Defpoints
 62
     0
100
AcDbPoint
 10
12.91812986370571
 20
34.19953769882521
 30
0.0
  0
ENDBLK
  5
167
330
15A
100
AcDbEntity
  8
0
100
AcDbBlockEnd
  0
BLOCK
  5
16D
330
16C
100
AcDbEntity
  8
0
100
AcDbBlockBegin
  2
*D13
 70
     1
 10
0.0
 20
0.0
 30
0.0
  3
*D13
  1

  0
LINE
  5
16E
330
16C
100
AcDbEntity
  8
0
 62
     0
370
    -2
100
AcDbLine
 10
15.43273193070743
 20
33.89374396251193
 30
0.0
 11
15.43273193070743
 21
35.15490970484643
 31
0.0
  0
LINE
  5
16F
330
16C
100
AcDbEntity
  8
0
 62
     0
370
    -2
100
AcDbLine
 10
14.74523193070746
 20
33.89374396251193
 30
0.0
 11
14.74523193070746
 21
35.15490970484643
 31
0.0
  0
LINE
  5
170
330
16C
100
AcDbEntity
  8
0
 62
     0
370
    -2
100
AcDbLine
 10
15.43273193070743
 20
35.12490970484643
 30
0.0
 11
14.74523193070746
 21
35.12490970484643
 31
0.0
  0
LINE
  5
171
330
16C
100
AcDbEntity
  8
0
 62
     0
370
    -2
100
AcDbLine
 10
14.74523193070746
 20
35.12490970484643
 30
0.0
 11
13.76275451592029
 21
35.12490970484643
 31
0.0
  0
INSERT
  5
172
330
16C
100
AcDbEntity
  8
0
 62
     0
370
    -2
100
AcDbBlockReference
  2
_ArchTick
 10
15.43273193070743
 20
35.12490970484643
 30
0.0
 41
0.156
 42
0.156
 43
0.156
  0
INSERT
  5
173
330
16C
100
AcDbEntity
  8
0
 62
     0
370
    -2
100
AcDbBlockReference
  2
_ArchTick
 10
14.74523193070746
 20
35.12490970484643
 30
0.0
 41
0.156
 42
0.156
 43
0.156
 50
180.0
  0
MTEXT
  5
174
330
16C
100
AcDbEntity
  8
0
 62
     0
100
AcDbMText
 10
13.23222906277199
 20
35.12490970484643
 30
0.0
 40
0.3125
 41
0.0
 71
     5
 72
     1
  1
\A1;11/16"\P [17mm]
 73
     1
 44
1.0
1001
ACAD
1000
MTEXTBEGIN
1070
    73
1070
     1
1070
    44
1040
1.0
1070
    74
1070
     0
1000
MTEXTEND
  0
POINT
  5
175
330
16C
100
AcDbEntity
  8
Defpoints
 62
     0
100
AcDbPoint
 10
15.43273193070743
 20
33.85374396251193
 30
0.0
  0
POINT
  5
176
330
16C
100
AcDbEntity
  8
Defpoints
 62
     0
100
AcDbPoint
 10
14.74523193070746
 20
33.85374396251193
 30
0.0
  0
POINT
  5
177
330
16C
100
AcDbEntity
  8
Defpoints
 62
     0
100
AcDbPoint
 10
14.74523193070746
 20
35.12490970484643
 30
0.0
  0
ENDBLK
  5
178
330
16C
100
AcDbEntity
  8
0
100
AcDbBlockEnd
  0
BLOCK
  5
1D2
330
1D1
100
AcDbEntity
  8
0
100
AcDbBlockBegin
  2
*D14
 70
     1
 10
0.0
 20
0.0
 30
0.0
  3
*D14
  1

  0
LINE
  5
1D3
330
1D1
100
AcDbEntity
  8
0
 62
     0
370
    -2
100
AcDbLine
 10
11.99857191330458
 20
16.7294120168664
 30
0.0
 11
10.26204646015622
 21
16.7294120168664
 31
0.0
  0
LINE
  5
1D4
330
1D1
100
AcDbEntity
  8
0
 62
     0
370
    -2
100
AcDbLine
 10
12.44857191330445
 20
16.2294120168664
 30
0.0
 11
10.26204646015622
 21
16.2294120168664
 31
0.0
  0
LINE
  5
1D5
330
1D1
100
AcDbEntity
  8
0
 62
     0
370
    -2
100
AcDbLine
 10
10.29204646015622
 20
16.2294120168664
 30
0.0
 11
10.29204646015622
 21
16.7294120168664
 31
0.0
  0
LINE
  5
1D6
330
1D1
100
AcDbEntity
  8
0
 62
     0
370
    -2
100
AcDbLine
 10
10.29204646015622
 20
16.7294120168664
 30
0.0
 11
10.29204646015622
 21
17.24169751148198
 31
0.0
  0
LINE
  5
1D7
330
1D1
100
AcDbEntity
  8
0
 62
     0
370
    -2
100
AcDbLine
 10
10.29204646015622
 20
17.24169751148198
 30
0.0
 11
10.44804646015622
 21
17.24169751148198
 31
0.0
  0
INSERT
  5
1D8
330
1D1
100
AcDbEntity
  8
0
 62
     0
370
    -2
100
AcDbBlockReference
  2
_ArchTick
 10
10.29204646015622
 20
16.2294120168664
 30
0.0
 41
0.156
 42
0.156
 43
0.156
 50
270.0
  0
INSERT
  5
1D9
330
1D1
100
AcDbEntity
  8
0
 62
     0
370
    -2
100
AcDbBlockReference
  2
_ArchTick
 10
10.29204646015622
 20
16.7294120168664
 30
0.0
 41
0.156
 42
0.156
 43
0.156
 50
90.0
  0
MTEXT
  5
1DA
330
1D1
100
AcDbEntity
  8
0
 62
     0
100
AcDbMText
 10
10.97857191330452
 20
17.24169751148199
 30
0.0
 40
0.3125
 41
0.0
 71
     5
 72
     1
  1
\A1;1/2"\P [13mm]
 73
     1
 44
1.0
1001
ACAD
1000
MTEXTBEGIN
1070
    73
1070
     1
1070
    44
1040
1.0
1070
    74
1070
     0
1000
MTEXTEND
  0
POINT
  5
1DB
330
1D1
100
AcDbEntity
  8
Defpoints
 62
     0
100
AcDbPoint
 10
12.03857191330458
 20
16.7294120168664
 30
0.0
  0
POINT
  5
1DC
330
1D1
100
AcDbEntity
  8
Defpoints
 62
     0
100
AcDbPoint
 10
12.48857191330445
 20
16.2294120168664
 30
0.0
  0
POINT
  5
1DD
330
1D1
100
AcDbEntity
  8
Defpoints
 62
     0
100
AcDbPoint
 10
10.29204646015622
 20
16.2294120168664
 30
0.0
  0
ENDBLK
  5
1DE
330
1D1
100
AcDbEntity
  8
0
100
AcDbBlockEnd
  0
BLOCK
  5
1E4
330
1E3
100
AcDbEntity
  8
0
100
AcDbBlockBegin
  2
*D15
 70
     1
 10
0.0
 20
0.0
 30
0.0
  3
*D15
  1

  0
LINE
  5
1E5
330
1E3
100
AcDbEntity
  8
0
 62
     0
370
    -2
100
AcDbLine
 10
11.96357191330467
 20
23.35491201686652
 30
0.0
 11
11.59098554419399
 21
23.35491201686652
 31
0.0
  0
LINE
  5
1E6
330
1E3
100
AcDbEntity
  8
0
 62
     0
370
    -2
100
AcDbLine
 10
12.44807191330613
 20
23.60491201686652
 30
0.0
 11
11.59098554419399
 21
23.60491201686652
 31
0.0
  0
LINE
  5
1E7
330
1E3
100
AcDbEntity
  8
0
 62
     0
370
    -2
100
AcDbLine
 10
11.62098554419399
 20
23.60491201686652
 30
0.0
 11
11.62098554419399
 21
23.35491201686652
 31
0.0
  0
LINE
  5
1E8
330
1E3
100
AcDbEntity
  8
0
 62
     0
370
    -2
100
AcDbLine
 10
11.62098554419399
 20
23.35491201686652
 30
0.0
 11
11.62098554419399
 21
22.86416434783606
 31
0.0
  0
LINE
  5
1E9
330
1E3
100
AcDbEntity
  8
0
 62
     0
370
    -2
100
AcDbLine
 10
11.62098554419399
 20
22.86416434783606
 30
0.0
 11
11.46498554419399
 21
22.86416434783606
 31
0.0
  0
INSERT
  5
1EA
330
1E3
100
AcDbEntity
  8
0
 62
     0
370
    -2
100
AcDbBlockReference
  2
_ArchTick
 10
11.62098554419399
 20
23.60491201686652
 30
0.0
 41
0.156
 42
0.156
 43
0.156
 50
90.0
  0
INSERT
  5
1EB
330
1E3
100
AcDbEntity
  8
0
 62
     0
370
    -2
100
AcDbBlockReference
  2
_ArchTick
 10
11.62098554419399
 20
23.35491201686652
 30
0.0
 41
0.156
 42
0.156
 43
0.156
 50
270.0
  0
MTEXT
  5
1EC
330
1E3
100
AcDbEntity
  8
0
 62
     0
100
AcDbMText
 10
11.00548711693675
 20
22.86416434783607
 30
0.0
 40
0.3125
 41
0.0
 71
     5
 72
     1
  1
\A1;1/4"\P [6mm]
 73
     1
 44
1.0
1001
ACAD
1000
MTEXTBEGIN
1070
    73
1070
     1
1070
    44
1040
1.0
1070
    74
1070
     0
1000
MTEXTEND
  0
POINT
  5
1ED
330
1E3
100
AcDbEntity
  8
Defpoints
 62
     0
100
AcDbPoint
 10
12.00357191330467
 20
23.35491201686652
 30
0.0
  0
POINT
  5
1EE
330
1E3
100
AcDbEntity
  8
Defpoints
 62
     0
100
AcDbPoint
 10
12.48807191330613
 20
23.60491201686652
 30
0.0
  0
POINT
  5
1EF
330
1E3
100
AcDbEntity
  8
Defpoints
 62
     0
100
AcDbPoint
 10
11.62098554419399
 20
23.60491201686652
 30
0.0
  0
ENDBLK
  5
1F0
330
1E3
100
AcDbEntity
  8
0
100
AcDbBlockEnd
  0
BLOCK
  5
1F5
330
1F4
100
AcDbEntity
  8
0
100
AcDbBlockBegin
  2
*D16
 70
     1
 10
0.0
 20
0.0
 30
0.0
  3
*D16
  1

  0
LINE
  5
1F6
330
1F4
100
AcDbEntity
  8
0
 62
     0
370
    -2
100
AcDbLine
 10
11.98857191330439
 20
19.80041201686647
 30
0.0
 11
11.98857191330439
 21
19.79503322453946
 31
0.0
  0
LINE
  5
1F7
330
1F4
100
AcDbEntity
  8
0
 62
     0
370
    -2
100
AcDbLine
 10
7.988571913304429
 20
19.80041201686647
 30
0.0
 11
7.988571913304429
 21
19.79503322453946
 31
0.0
  0
LINE
  5
1F8
330
1F4
100
AcDbEntity
  8
0
 62
     0
370
    -2
100
AcDbLine
 10
11.98857191330439
 20
19.76503322453946
 30
0.0
 11
10.49983122231126
 21
19.76503322453946
 31
0.0
  0
LINE
  5
1F9
330
1F4
100
AcDbEntity
  8
0
 62
     0
370
    -2
100
AcDbLine
 10
7.988571913304429
 20
19.76503322453946
 30
0.0
 11
9.477312604297564
 21
19.76503322453946
 31
0.0
  0
INSERT
  5
1FA
330
1F4
100
AcDbEntity
  8
0
 62
     0
370
    -2
100
AcDbBlockReference
  2
_ArchTick
 10
11.98857191330439
 20
19.76503322453946
 30
0.0
 41
0.156
 42
0.156
 43
0.156
  0
INSERT
  5
1FB
330
1F4
100
AcDbEntity
  8
0
 62
     0
370
    -2
100
AcDbBlockReference
  2
_ArchTick
 10
7.988571913304429
 20
19.76503322453946
 30
0.0
 41
0.156
 42
0.156
 43
0.156
 50
180.0
  0
MTEXT
  5
1FC
330
1F4
100
AcDbEntity
  8
0
 62
     0
100
AcDbMText
 10
9.988571913304413
 20
19.96433046731014
 30
0.0
 40
0.3125
 41
0.0
 71
     5
 72
     1
  1
\A1;4"
 73
     1
 44
1.0
1001
ACAD
1000
MTEXTBEGIN
1070
    73
1070
     1
1070
    44
1040
1.0
1070
    74
1070
     0
1000
MTEXTEND
  0
MTEXT
  5
1FD
330
1F4
100
AcDbEntity
  8
0
 62
     0
100
AcDbMText
 10
9.988571913304413
 20
19.54514082373246
 30
0.0
 40
0.3125
 41
0.0
 71
     5
 72
     1
  1
\A1;[102mm]
 73
     1
 44
1.0
1001
ACAD
1000
MTEXTBEGIN
1070
    73
1070
     1
1070
    44
1040
1.0
1070
    74
1070
     0
1000
MTEXTEND
  0
POINT
  5
1FE
330
1F4
100
AcDbEntity
  8
Defpoints
 62
     0
100
AcDbPoint
 10
11.98857191330439
 20
19.76041201686647
 30
0.0
  0
POINT
  5
1FF
330
1F4
100
AcDbEntity
  8
Defpoints
 62
     0
100
AcDbPoint
 10
7.988571913304429
 20
19.76041201686647
 30
0.0
  0
POINT
  5
200
330
1F4
100
AcDbEntity
  8
Defpoints
 62
     0
100
AcDbPoint
 10
7.988571913304429
 20
19.76503322453946
 30
0.0
  0
ENDBLK
  5
201
330
1F4
100
AcDbEntity
  8
0
100
AcDbBlockEnd
  0
BLOCK
  5
206
330
205
100
AcDbEntity
  8
0
100
AcDbBlockBegin
  2
*D17
 70
     1
 10
0.0
 20
0.0
 30
0.0
  3
*D17
  1

  0
LINE
  5
207
330
205
100
AcDbEntity
  8
0
 62
     0
370
    -2
100
AcDbLine
 10
5.519654367216549
 20
17.0335964203582
 30
0.0
 11
5.519654367216549
 21
14.32933208800344
 31
0.0
  0
LINE
  5
208
330
205
100
AcDbEntity
  8
0
 62
     0
370
    -2
100
AcDbLine
 10
14.45548945939204
 20
17.03376499628048
 30
0.0
 11
14.45548945939204
 21
14.32933208800344
 31
0.0
  0
LINE
  5
209
330
205
100
AcDbEntity
  8
0
 62
     0
370
    -2
100
AcDbLine
 10
5.519654367216549
 20
14.35933208800344
 30
0.0
 11
9.394912925706952
 21
14.35933208800344
 31
0.0
  0
LINE
  5
20A
330
205
100
AcDbEntity
  8
0
 62
     0
370
    -2
100
AcDbLine
 10
14.45548945939204
 20
14.35933208800344
 30
0.0
 11
10.58023090090164
 21
14.35933208800344
 31
0.0
  0
INSERT
  5
20B
330
205
100
AcDbEntity
  8
0
 62
     0
370
    -2
100
AcDbBlockReference
  2
_ArchTick
 10
5.519654367216549
 20
14.35933208800344
 30
0.0
 41
0.156
 42
0.156
 43
0.156
 50
180.0
  0
INSERT
  5
20C
330
205
100
AcDbEntity
  8
0
 62
     0
370
    -2
100
AcDbBlockReference
  2
_ArchTick
 10
14.45548945939204
 20
14.35933208800344
 30
0.0
 41
0.156
 42
0.156
 43
0.156
  0
MTEXT
  5
20D
330
205
100
AcDbEntity
  8
0
 62
     0
100
AcDbMText
 10
9.987571913304295
 20
14.5616765735448
 30
0.0
 40
0.3125
 41
0.0
 71
     5
 72
     1
  1
\A1;8 15/16"
 73
     1
 44
1.0
1001
ACAD
1000
MTEXTBEGIN
1070
    73
1070
     1
1070
    44
1040
1.0
1070
    74
1070
     0
1000
MTEXTEND
  0
MTEXT
  5
20E
330
205
100
AcDbEntity
  8
0
 62
     0
100
AcDbMText
 10
9.987571913304295
 20
14.13943968719645
 30
0.0
 40
0.3125
 41
0.0
 71
     5
 72
     1
  1
\A1;[227mm]
 73
     1
 44
1.0
1001
ACAD
1000
MTEXTBEGIN
1070
    73
1070
     1
1070
    44
1040
1.0
1070
    74
1070
     0
1000
MTEXTEND
  0
POINT
  5
20F
330
205
100
AcDbEntity
  8
Defpoints
 62
     0
100
AcDbPoint
 10
5.519654367216549
 20
17.0735964203582
 30
0.0
  0
POINT
  5
210
330
205
100
AcDbEntity
  8
Defpoints
 62
     0
100
AcDbPoint
 10
14.45548945939204
 20
17.07376499628048
 30
0.0
  0
POINT
  5
211
330
205
100
AcDbEntity
  8
Defpoints
 62
     0
100
AcDbPoint
 10
14.45548945939204
 20
14.35933208800344
 30
0.0
  0
ENDBLK
  5
212
330
205
100
AcDbEntity
  8
0
100
AcDbBlockEnd
  0
BLOCK
  5
217
330
216
100
AcDbEntity
  8
0
100
AcDbBlockBegin
  2
*D18
 70
     1
 10
0.0
 20
0.0
 30
0.0
  3
*D18
  1

  0
LINE
  5
218
330
216
100
AcDbEntity
  8
0
 62
     0
370
    -2
100
AcDbLine
 10
7.425071913304211
 20
23.58291201686844
 30
0.0
 11
7.425071913304211
 21
24.19071227620147
 31
0.0
  0
LINE
  5
219
330
216
100
AcDbEntity
  8
0
 62
     0
370
    -2
100
AcDbLine
 10
12.55007191330421
 20
23.58291201686844
 30
0.0
 11
12.55007191330421
 21
24.19071227620147
 31
0.0
  0
LINE
  5
21A
330
216
100
AcDbEntity
  8
0
 62
     0
370
    -2
100
AcDbLine
 10
7.425071913304211
 20
24.16071227620147
 30
0.0
 11
9.47631260429736
 21
24.16071227620147
 31
0.0
  0
LINE
  5
21B
330
216
100
AcDbEntity
  8
0
 62
     0
370
    -2
100
AcDbLine
 10
12.55007191330421
 20
24.16071227620147
 30
0.0
 11
10.49883122231106
 21
24.16071227620147
 31
0.0
  0
INSERT
  5
21C
330
216
100
AcDbEntity
  8
0
 62
     0
370
    -2
100
AcDbBlockReference
  2
_ArchTick
 10
7.425071913304211
 20
24.16071227620147
 30
0.0
 41
0.156
 42
0.156
 43
0.156
 50
180.0
  0
INSERT
  5
21D
330
216
100
AcDbEntity
  8
0
 62
     0
370
    -2
100
AcDbBlockReference
  2
_ArchTick
 10
12.55007191330421
 20
24.16071227620147
 30
0.0
 41
0.156
 42
0.156
 43
0.156
  0
MTEXT
  5
21E
330
216
100
AcDbEntity
  8
0
 62
     0
100
AcDbMText
 10
9.98757191330421
 20
24.36305676174282
 30
0.0
 40
0.3125
 41
0.0
 71
     5
 72
     1
  1
\A1;5 1/8"
 73
     1
 44
1.0
1001
ACAD
1000
MTEXTBEGIN
1070
    73
1070
     1
1070
    44
1040
1.0
1070
    74
1070
     0
1000
MTEXTEND
  0
MTEXT
  5
21F
330
216
100
AcDbEntity
  8
0
 62
     0
100
AcDbMText
 10
9.98757191330421
 20
23.94081987539447
 30
0.0
 40
0.3125
 41
0.0
 71
     5
 72
     1
  1
\A1;[130mm]
 73
     1
 44
1.0
1001
ACAD
1000
MTEXTBEGIN
1070
    73
1070
     1
1070
    44
1040
1.0
1070
    74
1070
     0
1000
MTEXTEND
  0
POINT
  5
220
330
216
100
AcDbEntity
  8
Defpoints
 62
     0
100
AcDbPoint
 10
7.425071913304211
 20
23.54291201686844
 30
0.0
  0
POINT
  5
221
330
216
100
AcDbEntity
  8
Defpoints
 62
     0
100
AcDbPoint
 10
12.55007191330421
 20
23.54291201686844
 30
0.0
  0
POINT
  5
222
330
216
100
AcDbEntity
  8
Defpoints
 62
     0
100
AcDbPoint
 10
12.55007191330421
 20
24.16071227620147
 30
0.0
  0
ENDBLK
  5
223
330
216
100
AcDbEntity
  8
0
100
AcDbBlockEnd
  0
BLOCK
  5
228
330
227
100
AcDbEntity
  8
0
100
AcDbBlockBegin
  2
*D19
 70
     1
 10
0.0
 20
0.0
 30
0.0
  3
*D19
  1

  0
LINE
  5
229
330
227
100
AcDbEntity
  8
0
 62
     0
370
    -2
100
AcDbLine
 10
7.426071913304458
 20
16.2519120168664
 30
0.0
 11
7.426071913304458
 21
15.59792857524425
 31
0.0
  0
LINE
  5
22A
330
227
100
AcDbEntity
  8
0
 62
     0
370
    -2
100
AcDbLine
 10
12.55107191330445
 20
16.2519120168664
 30
0.0
 11
12.55107191330445
 21
15.59792857524425
 31
0.0
  0
LINE
  5
22B
330
227
100
AcDbEntity
  8
0
 62
     0
370
    -2
100
AcDbLine
 10
7.426071913304458
 20
15.62792857524425
 30
0.0
 11
9.477312604297607
 21
15.62792857524425
 31
0.0
  0
LINE
  5
22C
330
227
100
AcDbEntity
  8
0
 62
     0
370
    -2
100
AcDbLine
 10
12.55107191330445
 20
15.62792857524425
 30
0.0
 11
10.4998312223113
 21
15.62792857524425
 31
0.0
  0
INSERT
  5
22D
330
227
100
AcDbEntity
  8
0
 62
     0
370
    -2
100
AcDbBlockReference
  2
_ArchTick
 10
7.426071913304458
 20
15.62792857524425
 30
0.0
 41
0.156
 42
0.156
 43
0.156
 50
180.0
  0
INSERT
  5
22E
330
227
100
AcDbEntity
  8
0
 62
     0
370
    -2
100
AcDbBlockReference
  2
_ArchTick
 10
12.55107191330445
 20
15.62792857524425
 30
0.0
 41
0.156
 42
0.156
 43
0.156
  0
MTEXT
  5
22F
330
227
100
AcDbEntity
  8
0
 62
     0
100
AcDbMText
 10
9.988571913304456
 20
15.83027306078561
 30
0.0
 40
0.3125
 41
0.0
 71
     5
 72
     1
  1
\A1;5 1/8"
 73
     1
 44
1.0
1001
ACAD
1000
MTEXTBEGIN
1070
    73
1070
     1
1070
    44
1040
1.0
1070
    74
1070
     0
1000
MTEXTEND
  0
MTEXT
  5
230
330
227
100
AcDbEntity
  8
0
 62
     0
100
AcDbMText
 10
9.988571913304456
 20
15.40803617443726
 30
0.0
 40
0.3125
 41
0.0
 71
     5
 72
     1
  1
\A1;[130mm]
 73
     1
 44
1.0
1001
ACAD
1000
MTEXTBEGIN
1070
    73
1070
     1
1070
    44
1040
1.0
1070
    74
1070
     0
1000
MTEXTEND
  0
POINT
  5
231
330
227
100
AcDbEntity
  8
Defpoints
 62
     0
100
AcDbPoint
 10
7.426071913304458
 20
16.2919120168664
 30
0.0
  0
POINT
  5
232
330
227
100
AcDbEntity
  8
Defpoints
 62
     0
100
AcDbPoint
 10
12.55107191330445
 20
16.2919120168664
 30
0.0
  0
POINT
  5
233
330
227
100
AcDbEntity
  8
Defpoints
 62
     0
100
AcDbPoint
 10
12.55107191330445
 20
15.62792857524425
 30
0.0
  0
ENDBLK
  5
234
330
227
100
AcDbEntity
  8
0
100
AcDbBlockEnd
  0
BLOCK
  5
23D
330
23C
100
AcDbEntity
  8
0
100
AcDbBlockBegin
  2
*U20
 70
     1
 10
0.0
 20
0.0
 30
0.0
  3
*U20
  1

  0
SOLID
  5
23E
330
23C
100
AcDbEntity
  8
0
  6
Continuous
100
AcDbTrace
 10
1.881186878287215
 20
3.346448750095686
 30
0.0
 11
1.881186878287214
 21
3.286225296794519
 31
0.0
 12
1.90951442518562
 22
3.286225296794519
 32
0.0
 13
1.90951442518562
 23
3.286225296794519
 33
0.0
  0
SOLID
  5
23F
330
23C
100
AcDbEntity
  8
0
  6
Continuous
100
AcDbTrace
 10
1.881186878287214
 20
3.286225296794519
 30
0.0
 11
1.881186878287213
 21
3.219672203396846
 31
0.0
 12
1.90951442518562
 22
3.219672203396846
 32
0.0
 13
1.90951442518562
 23
3.219672203396846
 33
0.0
  0
SOLID
  5
240
330
23C
100
AcDbEntity
  8
0
  6
Continuous
100
AcDbTrace
 10
-1.881186878287214
 20
3.286225296794519
 30
0.0
 11
-1.90951442518562
 21
3.286225296794519
 31
0.0
 12
-1.90951442518562
 22
3.219672203396846
 32
0.0
 13
-1.90951442518562
 23
3.219672203396846
 33
0.0
210
0.0
220
0.0
230
-1.0
  0
SOLID
  5
241
330
23C
100
AcDbEntity
  8
0
  6
Continuous
100
AcDbTrace
 10
-1.881186878287213
 20
3.219672203396846
 30
0.0
 11
-1.90951442518562
 21
3.219672203396846
 31
0.0
 12
-1.881186878287213
 22
3.15944875009568
 32
0.0
 13
-1.881186878287213
 23
3.15944875009568
 33
0.0
210
0.0
220
0.0
230
-1.0
  0
LINE
  5
242
330
23C
100
AcDbEntity
  8
0
  6
Continuous
100
AcDbLine
 10
1.881186878287215
 20
3.346448750095686
 30
0.0
 11
1.881186878287214
 21
3.286225296794519
 31
0.0
  0
LINE
  5
243
330
23C
100
AcDbEntity
  8
0
  6
Continuous
100
AcDbLine
 10
1.90951442518562
 20
3.286225296794519
 30
0.0
 11
1.881186878287215
 21
3.346448750095686
 31
0.0
  0
LINE
  5
244
330
23C
100
AcDbEntity
  8
0
  6
Continuous
100
AcDbLine
 10
1.881186878287214
 20
3.286225296794519
 30
0.0
 11
1.881186878287213
 21
3.219672203396846
 31
0.0
  0
LINE
  5
245
330
23C
100
AcDbEntity
  8
0
  6
Continuous
100
AcDbLine
 10
1.90951442518562
 20
3.286225296794519
 30
0.0
 11
1.90951442518562
 21
3.219672203396846
 31
0.0
  0
LINE
  5
246
330
23C
100
AcDbEntity
  8
0
  6
Continuous
100
AcDbLine
 10
1.90951442518562
 20
3.219672203396846
 30
0.0
 11
1.881186878287213
 21
3.15944875009568
 31
0.0
  0
LINE
  5
247
330
23C
100
AcDbEntity
  8
0
  6
Continuous
100
AcDbLine
 10
1.881186878287213
 20
3.15944875009568
 30
0.0
 11
1.881186878287213
 21
3.219672203396846
 31
0.0
  0
ENDBLK
  5
248
330
23C
100
AcDbEntity
  8
0
100
AcDbBlockEnd
  0
BLOCK
  5
2CA
330
2C9
100
AcDbEntity
  8
0
100
AcDbBlockBegin
  2
*U21
 70
     1
 10
0.0
 20
0.0
 30
0.0
  3
*U21
  1

  0
SOLID
  5
2CB
330
2C9
100
AcDbEntity
  8
0
  6
Continuous
100
AcDbTrace
 10
1.881186878287215
 20
3.346448750095686
 30
0.0
 11
1.881186878287214
 21
3.286225296794519
 31
0.0
 12
1.90951442518562
 22
3.286225296794519
 32
0.0
 13
1.90951442518562
 23
3.286225296794519
 33
0.0
  0
SOLID
  5
2CC
330
2C9
100
AcDbEntity
  8
0
  6
Continuous
100
AcDbTrace
 10
1.881186878287214
 20
3.286225296794519
 30
0.0
 11
1.881186878287213
 21
3.219672203396846
 31
0.0
 12
1.90951442518562
 22
3.219672203396846
 32
0.0
 13
1.90951442518562
 23
3.219672203396846
 33
0.0
  0
SOLID
  5
2CD
330
2C9
100
AcDbEntity
  8
0
  6
Continuous
100
AcDbTrace
 10
-1.881186878287214
 20
3.286225296794519
 30
0.0
 11
-1.90951442518562
 21
3.286225296794519
 31
0.0
 12
-1.90951442518562
 22
3.219672203396846
 32
0.0
 13
-1.90951442518562
 23
3.219672203396846
 33
0.0
210
0.0
220
0.0
230
-1.0
  0
SOLID
  5
2CE
330
2C9
100
AcDbEntity
  8
0
  6
Continuous
100
AcDbTrace
 10
-1.881186878287213
 20
3.219672203396846
 30
0.0
 11
-1.90951442518562
 21
3.219672203396846
 31
0.0
 12
-1.881186878287213
 22
3.15944875009568
 32
0.0
 13
-1.881186878287213
 23
3.15944875009568
 33
0.0
210
0.0
220
0.0
230
-1.0
  0
LINE
  5
2CF
330
2C9
100
AcDbEntity
  8
0
  6
Continuous
100
AcDbLine
 10
1.881186878287215
 20
3.346448750095686
 30
0.0
 11
1.881186878287214
 21
3.286225296794519
 31
0.0
  0
LINE
  5
2D0
330
2C9
100
AcDbEntity
  8
0
  6
Continuous
100
AcDbLine
 10
1.90951442518562
 20
3.286225296794519
 30
0.0
 11
1.881186878287215
 21
3.346448750095686
 31
0.0
  0
LINE
  5
2D1
330
2C9
100
AcDbEntity
  8
0
  6
Continuous
100
AcDbLine
 10
1.881186878287214
 20
3.286225296794519
 30
0.0
 11
1.881186878287213
 21
3.219672203396846
 31
0.0
  0
LINE
  5
2D2
330
2C9
100
AcDbEntity
  8
0
  6
Continuous
100
AcDbLine
 10
1.90951442518562
 20
3.286225296794519
 30
0.0
 11
1.90951442518562
 21
3.219672203396846
 31
0.0
  0
LINE
  5
2D3
330
2C9
100
AcDbEntity
  8
0
  6
Continuous
100
AcDbLine
 10
1.90951442518562
 20
3.219672203396846
 30
0.0
 11
1.881186878287213
 21
3.15944875009568
 31
0.0
  0
LINE
  5
2D4
330
2C9
100
AcDbEntity
  8
0
  6
Continuous
100
AcDbLine
 10
1.881186878287213
 20
3.15944875009568
 30
0.0
 11
1.881186878287213
 21
3.219672203396846
 31
0.0
  0
ENDBLK
  5
2D5
330
2C9
100
AcDbEntity
  8
0
100
AcDbBlockEnd
  0
BLOCK
  5
32B
330
32A
100
AcDbEntity
  8
0
100
AcDbBlockBegin
  2
*D22
 70
     1
 10
0.0
 20
0.0
 30
0.0
  3
*D22
  1

  0
LINE
  5
32C
330
32A
100
AcDbEntity
  8
0
 62
     0
370
    -2
100
AcDbLine
 10
5.032671216033313
 20
34.19953769882521
 30
0.0
 11
4.003402942499165
 21
34.19953769882521
 31
0.0
  0
LINE
  5
32D
330
32A
100
AcDbEntity
  8
0
 62
     0
370
    -2
100
AcDbLine
 10
4.20654354174109
 20
34.04253769882506
 30
0.0
 11
4.003402942499165
 21
34.04253769882506
 31
0.0
  0
LINE
  5
32E
330
32A
100
AcDbEntity
  8
0
 62
     0
370
    -2
100
AcDbLine
 10
4.033402942499165
 20
34.19953769882521
 30
0.0
 11
4.033402942499165
 21
34.04253769882506
 31
0.0
  0
LINE
  5
32F
330
32A
100
AcDbEntity
  8
0
 62
     0
370
    -2
100
AcDbLine
 10
4.033402942499165
 20
34.04253769882506
 30
0.0
 11
4.033402942499164
 21
33.88653769882506
 31
0.0
  0
LINE
  5
330
330
32A
100
AcDbEntity
  8
0
 62
     0
370
    -2
100
AcDbLine
 10
4.033402942499164
 20
33.88653769882506
 30
0.0
 11
3.877402942499164
 21
33.88653769882506
 31
0.0
  0
INSERT
  5
331
330
32A
100
AcDbEntity
  8
0
 62
     0
370
    -2
100
AcDbBlockReference
  2
_ArchTick
 10
4.033402942499165
 20
34.19953769882521
 30
0.0
 41
0.156
 42
0.156
 43
0.156
 50
90.0
  0
INSERT
  5
332
330
32A
100
AcDbEntity
  8
0
 62
     0
370
    -2
100
AcDbBlockReference
  2
_ArchTick
 10
4.033402942499165
 20
34.04253769882506
 30
0.0
 41
0.156
 42
0.156
 43
0.156
 50
270.0
  0
MTEXT
  5
333
330
32A
100
AcDbEntity
  8
0
 62
     0
100
AcDbMText
 10
3.501812717511096
 20
34.08888218436642
 30
0.0
 40
0.3125
 41
0.0
 71
     5
 72
     1
  1
\A1;5/32"
 73
     1
 44
1.0
1001
ACAD
1000
MTEXTBEGIN
1070
    73
1070
     1
1070
    44
1040
1.0
1070
    74
1070
     0
1000
MTEXTEND
  0
MTEXT
  5
334
330
32A
100
AcDbEntity
  8
0
 62
     0
100
AcDbMText
 10
3.501812717511096
 20
33.66664529801807
 30
0.0
 40
0.3125
 41
0.0
 71
     5
 72
     1
  1
\A1;[4mm]
 73
     1
 44
1.0
1001
ACAD
1000
MTEXTBEGIN
1070
    73
1070
     1
1070
    44
1040
1.0
1070
    74
1070
     0
1000
MTEXTEND
  0
POINT
  5
335
330
32A
100
AcDbEntity
  8
Defpoints
 62
     0
100
AcDbPoint
 10
5.072671216033313
 20
34.19953769882521
 30
0.0
  0
POINT
  5
336
330
32A
100
AcDbEntity
  8
Defpoints
 62
     0
100
AcDbPoint
 10
4.24654354174109
 20
34.04253769882506
 30
0.0
  0
POINT
  5
337
330
32A
100
AcDbEntity
  8
Defpoints
 62
     0
100
AcDbPoint
 10
4.033402942499165
 20
34.04253769882506
 30
0.0
  0
ENDBLK
  5
338
330
32A
100
AcDbEntity
  8
0
100
AcDbBlockEnd
  0
BLOCK
  5
341
330
340
100
AcDbEntity
  8
0
100
AcDbBlockBegin
  2
*U23
 70
     1
 10
0.0
 20
0.0
 30
0.0
  3
*U23
  1

  0
SOLID
  5
342
330
340
100
AcDbEntity
  8
0
  6
Continuous
100
AcDbTrace
 10
1.881186878287215
 20
3.346448750095686
 30
0.0
 11
1.881186878287214
 21
3.286225296794519
 31
0.0
 12
1.90951442518562
 22
3.286225296794519
 32
0.0
 13
1.90951442518562
 23
3.286225296794519
 33
0.0
  0
SOLID
  5
343
330
340
100
AcDbEntity
  8
0
  6
Continuous
100
AcDbTrace
 10
1.881186878287214
 20
3.286225296794519
 30
0.0
 11
1.881186878287213
 21
3.219672203396846
 31
0.0
 12
1.90951442518562
 22
3.219672203396846
 32
0.0
 13
1.90951442518562
 23
3.219672203396846
 33
0.0
  0
SOLID
  5
344
330
340
100
AcDbEntity
  8
0
  6
Continuous
100
AcDbTrace
 10
-1.881186878287214
 20
3.286225296794519
 30
0.0
 11
-1.90951442518562
 21
3.286225296794519
 31
0.0
 12
-1.90951442518562
 22
3.219672203396846
 32
0.0
 13
-1.90951442518562
 23
3.219672203396846
 33
0.0
210
0.0
220
0.0
230
-1.0
  0
SOLID
  5
345
330
340
100
AcDbEntity
  8
0
  6
Continuous
100
AcDbTrace
 10
-1.881186878287213
 20
3.219672203396846
 30
0.0
 11
-1.90951442518562
 21
3.219672203396846
 31
0.0
 12
-1.881186878287213
 22
3.15944875009568
 32
0.0
 13
-1.881186878287213
 23
3.15944875009568
 33
0.0
210
0.0
220
0.0
230
-1.0
  0
LINE
  5
346
330
340
100
AcDbEntity
  8
0
  6
Continuous
100
AcDbLine
 10
1.881186878287215
 20
3.346448750095686
 30
0.0
 11
1.881186878287214
 21
3.286225296794519
 31
0.0
  0
LINE
  5
347
330
340
100
AcDbEntity
  8
0
  6
Continuous
100
AcDbLine
 10
1.90951442518562
 20
3.286225296794519
 30
0.0
 11
1.881186878287215
 21
3.346448750095686
 31
0.0
  0
LINE
  5
348
330
340
100
AcDbEntity
  8
0
  6
Continuous
100
AcDbLine
 10
1.881186878287214
 20
3.286225296794519
 30
0.0
 11
1.881186878287213
 21
3.219672203396846
 31
0.0
  0
LINE
  5
349
330
340
100
AcDbEntity
  8
0
  6
Continuous
100
AcDbLine
 10
1.90951442518562
 20
3.286225296794519
 30
0.0
 11
1.90951442518562
 21
3.219672203396846
 31
0.0
  0
LINE
  5
34A
330
340
100
AcDbEntity
  8
0
  6
Continuous
100
AcDbLine
 10
1.90951442518562
 20
3.219672203396846
 30
0.0
 11
1.881186878287213
 21
3.15944875009568
 31
0.0
  0
LINE
  5
34B
330
340
100
AcDbEntity
  8
0
  6
Continuous
100
AcDbLine
 10
1.881186878287213
 20
3.15944875009568
 30
0.0
 11
1.881186878287213
 21
3.219672203396846
 31
0.0
  0
ENDBLK
  5
34C
330
340
100
AcDbEntity
  8
0
100
AcDbBlockEnd
  0
ENDSEC
  0
SECTION
  2
ENTITIES
  0
LINE
  5
6A
330
2
100
AcDbEntity
  8
0
  6
HIDDEN
100
AcDbLine
 10
2.878548260741126
 20
31.54344313428986
 30
0.0
 11
2.878548260741126
 21
30.71295313429006
 31
0.0
  0
INSERT
  5
6C
330
2
100
AcDbEntity
  8
0
100
AcDbBlockReference
  2
93OBW
 10
4.85217121603307
 20
32.27728810379524
 30
0.0
 41
-1.0
 42
-1.0
 43
2.0
  0
INSERT
  5
98
330
2
100
AcDbEntity
  8
0
100
AcDbBlockReference
  2
86NPF141
 10
4.624519120774294
 20
30.85731129725922
 30
0.0
 41
-1.0
 43
2.0
 50
180.0
  0
LINE
  5
B0
330
2
100
AcDbEntity
  8
0
100
AcDbLine
 10
5.152171216033053
 20
31.93761171021181
 30
0.0
 11
5.152171216033053
 21
31.20061171021182
 31
0.0
  0
LINE
  5
B1
330
2
100
AcDbEntity
  8
0
100
AcDbLine
 10
5.152171216033053
 20
31.21886171021181
 30
0.0
 11
5.152171216033053
 21
31.90586171021183
 31
0.0
  0
INSERT
  5
B2
330
2
100
AcDbEntity
  8
0
100
AcDbBlockReference
  2
*U5
 10
7.033358094320277
 20
28.96616296011611
 30
0.0
 41
-1.0
1001
ACAD
1002
{
1000
R14_HATCH_DATA
1000
3651
1011
6.033358094320277
1021
28.96616296011611
1031
0.0
1011
7.033358094320277
1021
29.96616296011611
1031
0.0
1011
7.033358094320277
1021
28.96616296011611
1031
1.0
1040
0.0
1010
0.0
1020
0.0
1030
1.0
1000
SOLID
1070
     1
1070
     0
1071
        1
1071
        1
1071
        2
1070
     1
1040
1.881186878287213
1040
3.15944875009568
1040
1.881186878287314
1040
3.346448750095556
1070
     2
1040
1.760589222037213
1040
3.252948750095684
1040
0.1525976562500021
1040
-0.65950076747307
1040
0.6595007674730821
1070
     0
1071
        0
1070
     0
1070
     1
1071
        1
1040
4.812561040009144
1040
6.499794521109716
1040
0.0
1002
}
  0
LWPOLYLINE
  5
C0
330
2
100
AcDbEntity
  8
0
100
AcDbPolyline
 90
       15
 70
     1
 43
0.0
 10
5.698171216032932
 20
30.72955309238144
 10
5.698171216032932
 20
30.97606207939579
 10
5.823171216032932
 20
30.97824396251183
 10
5.82317121603296
 20
32.66574396251183
 42
-0.9999999999999998
 10
5.82317121603296
 20
32.79074396251183
 10
5.82317121603296
 20
33.85374396251182
 10
5.15217121603294
 20
33.85374396251182
 10
5.15217121603294
 20
33.41674396251181
 10
5.245171216032957
 20
33.41512064147348
 10
5.245171216032957
 20
33.16836728355013
 10
5.15217121603294
 20
33.1667439625118
 10
5.15217121603294
 20
30.32224396251182
 42
0.4142135623730949
 10
5.183171216032945
 20
30.29124396251182
 10
5.773171216032949
 20
30.29124396251182
 10
5.773171216032949
 20
30.72824396251183
  0
LWPOLYLINE
  5
C1
102
{ACAD_REACTORS
330
329
102
}
330
2
100
AcDbEntity
  8
0
100
AcDbPolyline
 90
       20
 70
     1
 43
0.0
 10
5.23029621603294
 20
33.38052665837385
 10
5.15217121603294
 20
33.38736171021181
 10
5.15217121603294
 20
34.04253769882506
 10
4.24654354174109
 20
34.04253769882506
 42
0.4142135623730951
 10
4.215543541741084
 20
34.01153769882505
 10
4.215543541741055
 20
33.10889238418555
 10
4.026089166833941
 20
33.10558544577062
 42
0.4091108014277093
 10
3.965171216033041
 20
33.04359488867091
 10
3.965171216033041
 20
31.91861171021181
 10
4.090171216033041
 20
31.91861171021181
 10
4.215479861916435
 20
32.0439203560952
 10
4.772171216033058
 20
32.0439203560952
 10
4.772171216033058
 20
32.32492035609521
 10
4.852171216033042
 20
32.32492035609521
 10
4.852171216033042
 20
31.93861171021179
 10
5.152171216033053
 20
31.93861171021179
 10
5.152171216033053
 20
32.1256117102118
 42
-0.3422459893048229
 10
5.152171216033053
 20
32.31261171021181
 10
5.152171216033053
 20
33.16861171021181
 10
5.23029621603294
 20
33.16997538715931
  0
LWPOLYLINE
  5
C2
330
2
100
AcDbEntity
  8
0
100
AcDbPolyline
 90
        8
 70
     1
 43
0.0
 10
5.026753683518364
 20
31.2686117102118
 10
4.841753683518362
 20
31.2686117102118
 42
-0.4142135623730951
 10
4.716753683518362
 20
31.3936117102118
 10
4.716753683518362
 20
31.81361171021179
 42
-0.4142135623730951
 10
4.841753683518362
 20
31.93861171021179
 10
5.026753683518364
 20
31.93861171021179
 42
-0.4142135623730951
 10
5.151753683518364
 20
31.81361171021179
 10
5.151753683518364
 20
31.3936117102118
 42
-0.4142135623730951
  0
LWPOLYLINE
  5
C3
330
2
100
AcDbEntity
  8
0
100
AcDbPolyline
 90
       22
 70
     0
 43
0.0
 10
4.916896091491054
 20
30.62471901102096
 10
4.916896091491054
 20
31.21869313428986
 10
4.71475366994511
 20
31.21869313428986
 10
4.71475366994511
 20
31.90344313428987
 42
0.4142135623730951
 10
4.699753669945096
 20
31.91844313428986
 10
3.605366439814531
 20
31.91844313428986
 10
3.605366439814531
 20
31.82340418717159
 42
0.3899024490717824
 10
3.404193588487345
 20
31.63840418717159
 10
3.354586362716474
 20
31.63840418717159
 10
3.354586362716474
 20
31.54344313428986
 10
3.479586362716474
 20
31.54344313428986
 42
-0.6666666666666686
 10
3.667086362716474
 20
31.54344313428986
 10
3.916753669945109
 20
31.54344313428986
 10
3.916753669945137
 20
31.35735546466385
 42
-0.9946524064171082
 10
3.916753669945109
 20
31.17035546466385
 10
3.916753669945109
 20
30.29471901102097
 10
4.791753669945109
 20
30.29471901102095
 42
0.4142135623730951
 10
4.916753669945109
 20
30.41971901102098
 10
4.916753669945109
 20
30.54471901102095
 10
4.600253669945118
 20
30.54471901102095
 10
4.600253669945118
 20
30.62471901102096
 10
4.912753669945118
 20
30.62471901102096
  0
HATCH
  5
C4
330
2
100
AcDbEntity
  8
0
100
AcDbHatch
 10
0.0
 20
0.0
 30
0.0
210
0.0
220
0.0
230
1.0
  2
SOLID
 70
     1
 71
     0
 91
        1
 92
        7
 72
     1
 73
     1
 93
        2
 10
3.479253669945109
 20
30.71295313429009
 42
0.0
 10
3.66675366994508
 20
30.71295313429006
 42
-0.6666666666666311
 97
        0
 75
     1
 76
     1
 47
0.0010014887122476
 98
        1
 10
3.594158865989243
 20
30.66689305794317
1001
GradientColor1ACI
1070
     5
1001
GradientColor2ACI
1070
     2
1001
ACAD
1010
0.0
1020
0.0
1030
0.0
  0
LWPOLYLINE
  5
C7
330
2
100
AcDbEntity
  8
0
100
AcDbPolyline
 90
       11
 70
     1
 43
0.0
 10
3.66675366994508
 20
30.71295313429006
 10
3.916753669945109
 20
30.71295313429006
 10
3.91675366994508
 20
30.33895313429006
 10
3.635253669945086
 20
30.33895313429004
 42
-0.4142135623731695
 10
3.60425366994508
 20
30.36995313429005
 10
3.604253669945109
 20
30.41647790257652
 42
0.235730494161761
 10
3.591885368266275
 20
30.44125409715254
 10
3.366621971623942
 20
30.61065217142756
 42
-0.235730494161718
 10
3.35425366994508
 20
30.63542836600358
 10
3.35425366994508
 20
30.71295313429009
 10
3.479253669945109
 20
30.71295313429009
 42
0.6666666666666588
  0
LWPOLYLINE
  5
C8
330
2
100
AcDbEntity
  8
0
100
AcDbPolyline
 90
        4
 70
     0
 43
0.0
 10
2.878548260741126
 20
31.42507313428995
 10
3.80775366994473
 20
31.42507313428995
 10
3.80775366994473
 20
31.54344313428986
 10
2.878548260741126
 20
31.54344313428986
  0
LWPOLYLINE
  5
C9
330
2
100
AcDbEntity
  8
0
100
AcDbPolyline
 90
        4
 70
     0
 43
0.0
 10
2.878548260741126
 20
30.83132313428995
 10
3.80775366994473
 20
30.83132313428995
 10
3.80775366994473
 20
30.71295313429006
 10
2.878548260741126
 20
30.71295313429006
  0
LWPOLYLINE
  5
CA
330
2
100
AcDbEntity
  8
0
100
AcDbPolyline
 90
       14
 70
     1
 43
0.0
 10
3.597928928996196
 20
30.94069813428995
 42
0.3359746306540741
 10
3.577566169944446
 20
30.90819422454295
 10
3.601753669944599
 20
30.87232313429011
 42
-0.4142135623730951
 10
3.586128669944599
 20
30.85669813429011
 10
3.404503669944432
 20
30.85669813429011
 10
3.404503669944432
 20
31.39969813428978
 10
3.586128669944599
 20
31.39969813428978
 42
-0.414213562373094
 10
3.601753669944599
 20
31.38407313428978
 10
3.577566169944446
 20
31.34858534623162
 42
0.3208708054700532
 10
3.598291838076846
 20
31.31569813428995
 10
3.655128669945014
 20
31.31569813428995
 42
-0.4142135623730951
 10
3.670753669945014
 20
31.30007313428995
 10
3.670753669945014
 20
30.95632313428995
 42
-0.4142135623730951
 10
3.655128669945014
 20
30.94069813428995
  0
LWPOLYLINE
  5
CB
330
2
100
AcDbEntity
  8
0
100
AcDbPolyline
 90
       14
 70
     1
 43
0.0
 10
3.596710528851843
 20
30.94769813429046
 42
0.3593608004949541
 10
3.570806512971074
 20
30.90569824696648
 10
3.594554279689845
 20
30.87047929985418
 42
-0.3524310491054993
 10
3.586128669944599
 20
30.86369813428972
 10
3.404503669944432
 20
30.86369813428972
 10
3.404503669944432
 20
31.39269813429017
 10
3.586128669944599
 20
31.39269813429017
 42
-0.3518693664465323
 10
3.59455057730608
 20
31.38593380658857
 10
3.570747073126739
 20
31.35100941542258
 42
0.3446308864324803
 10
3.596985987128363
 20
31.30869813428943
 10
3.655128669945014
 20
31.30869813428943
 42
-0.4142135623730946
 10
3.663753669944497
 20
31.30007313428995
 10
3.663753669944497
 20
30.95632313428995
 42
-0.4142135623730946
 10
3.655128669945014
 20
30.94769813429046
  0
LWPOLYLINE
  5
CC
330
2
100
AcDbEntity
  8
0
100
AcDbPolyline
 90
       10
 70
     1
 43
0.0
 10
3.593191169944446
 20
30.97194813428995
 42
0.3584554666094669
 10
3.546316169944446
 20
30.90704428813659
 10
3.546316169944446
 20
30.88794813429011
 10
3.435753669944432
 20
30.88794813429011
 10
3.435753669944432
 20
31.36844813428978
 10
3.546316169944446
 20
31.36844813428978
 10
3.546316169944446
 20
31.3493519804433
 42
0.3467993108968364
 10
3.593191169944446
 20
31.28444813428995
 10
3.639503669945014
 20
31.28444813428995
 10
3.639503669945014
 20
30.97194813428995
  0
LWPOLYLINE
  5
CD
330
2
100
AcDbEntity
  8
0
100
AcDbPolyline
 90
        6
 70
     0
 43
0.0
 10
3.43275366994473
 20
30.85669813429011
 10
3.43275366994473
 20
30.84694813428995
 10
3.394753669944265
 20
30.84694813428995
 10
3.394753669944265
 20
31.40944813428995
 10
3.43275366994473
 20
31.40944813428995
 10
3.43275366994473
 20
31.39969813428978
  0
LINE
  5
CE
330
2
100
AcDbEntity
  8
0
100
AcDbLine
 10
3.586128669944599
 20
31.39969813428978
 30
0.0
 11
3.586128669944599
 21
31.42507313428995
 31
0.0
  0
LINE
  5
CF
330
2
100
AcDbEntity
  8
0
100
AcDbLine
 10
3.43275366994473
 20
31.39969813428978
 30
0.0
 11
3.43275366994473
 21
31.42507313428995
 31
0.0
  0
LINE
  5
D0
330
2
100
AcDbEntity
  8
0
100
AcDbLine
 10
3.586128669944599
 20
30.85669813429011
 30
0.0
 11
3.586128669944599
 21
30.83132313428995
 31
0.0
  0
LINE
  5
D1
330
2
100
AcDbEntity
  8
0
100
AcDbLine
 10
3.43275366994473
 20
30.85669813429011
 30
0.0
 11
3.43275366994473
 21
30.83132313428995
 31
0.0
  0
HATCH
  5
D2
330
2
100
AcDbEntity
  8
0
100
AcDbHatch
 10
0.0
 20
0.0
 30
0.0
210
0.0
220
0.0
230
1.0
  2
DOTS
 70
     0
 71
     0
 91
        2
 92
        7
 72
     0
 73
     1
 93
        4
 10
3.586128669944599
 20
30.85669813429011
 10
3.586128669944599
 20
30.83132313428995
 10
3.43275366994473
 20
30.83132313428995
 10
3.43275366994473
 20
30.85669813429011
 97
        0
 92
        7
 72
     0
 73
     1
 93
        4
 10
3.586128669944599
 20
31.42507313428995
 10
3.586128669944599
 20
31.39969813428978
 10
3.43275366994473
 20
31.39969813428978
 10
3.43275366994473
 20
31.42507313428995
 97
        0
 75
     0
 76
     1
 52
450.0
 41
0.1
 77
     0
 78
     1
 53
90.0
 43
-1.196289807649662
 44
24.73784338875338
 45
0.00625
 46
0.003125
 79
     2
 49
0.0
 49
-0.00625
 47
0.0006001443632006
 98
        2
 10
3.528543729896199
 20
30.84497784414269
 10
3.524942856097339
 20
31.4148627735385
  0
HATCH
  5
D3
330
2
100
AcDbEntity
  8
0
100
AcDbHatch
 10
0.0
 20
0.0
 30
0.0
210
0.0
220
0.0
230
1.0
  2
DASH
 70
     0
 71
     0
 91
        1
 92
        7
 72
     1
 73
     1
 93
       16
 10
3.670753669945014
 20
31.30007313428995
 42
0.4142135623730951
 10
3.655128669945014
 20
31.31569813428995
 42
0.0
 10
3.598291838076846
 20
31.31569813428995
 42
-0.3208708054700533
 10
3.577566169944446
 20
31.34858534623162
 42
0.0
 10
3.601753669944599
 20
31.38407313428978
 42
0.414213562373094
 10
3.586128669944599
 20
31.39969813428978
 42
0.0
 10
3.586128669944599
 20
31.42507313429085
 42
0.0
 10
3.807753669943821
 20
31.42507313428904
 42
0.0
 10
3.807753669943821
 20
30.83132313428995
 42
0.0
 10
3.586128669944599
 20
30.83132313428995
 42
0.0
 10
3.586128669944599
 20
30.85669813429011
 42
0.4142135623730951
 10
3.601753669944599
 20
30.87232313429011
 42
0.0
 10
3.577566169944446
 20
30.90819422454295
 42
-0.3359746306540741
 10
3.597928928996196
 20
30.94069813428995
 42
0.0
 10
3.655128669945014
 20
30.94069813428995
 42
0.4142135623730951
 10
3.670753669945014
 20
30.95632313428995
 42
0.0
 97
        0
 75
     0
 76
     1
 52
450.0
 41
0.1
 77
     0
 78
     1
 53
90.0
 43
-1.196289807649662
 44
24.73784338875338
 45
0.0125
 46
0.0125
 79
     2
 49
0.0125
 49
-0.0125
 47
0.0009600803746669
 98
        1
 10
3.721592942139039
 20
31.17721961437472
  0
HATCH
  5
D4
330
2
100
AcDbEntity
  8
0
100
AcDbHatch
 10
0.0
 20
0.0
 30
0.0
210
0.0
220
0.0
230
1.0
  2
SOLID
 70
     1
 71
     0
 91
        1
 92
        7
 72
     1
 73
     1
 93
        2
 10
3.479253669945109
 20
31.54344313428983
 42
0.0
 10
3.66675366994508
 20
31.54344313428986
 42
0.6666666666666311
 97
        0
 75
     1
 76
     1
 47
0.0010014887122476
 98
        1
 10
3.594158865989243
 20
31.58950321063675
1001
GradientColor1ACI
1070
     5
1001
GradientColor2ACI
1070
     2
1001
ACAD
1010
0.0
1020
0.0
1030
0.0
  0
LINE
  5
D5
330
2
100
AcDbEntity
  8
0
100
AcDbLine
 10
3.916753669945109
 20
30.71295313429006
 30
0.0
 11
3.80775366994473
 21
31.54344313428986
 31
0.0
  0
LWPOLYLINE
  5
D6
330
2
100
AcDbEntity
  8
0
100
AcDbPolyline
 90
        8
 70
     0
 43
0.0
 10
3.916753669945109
 20
30.71295313429006
 10
3.916753669945109
 20
31.54344313428986
 10
3.80775366994473
 20
31.54344313428986
 10
3.80775366994473
 20
30.71295313429006
 10
3.916753669945109
 20
30.71295313429006
 10
3.80775366994473
 20
31.54344313428986
 10
3.80775366994473
 20
30.71295313429006
 10
3.916753669945109
 20
31.54344313428986
  0
LWPOLYLINE
  5
D7
102
{ACAD_REACTORS
330
DB
330
329
102
}
330
2
100
AcDbEntity
  8
0
100
AcDbPolyline
 90
       10
 70
     1
 43
0.0
 10
6.635671216033415
 20
34.13753769882531
 10
6.635671216033415
 20
34.04253769882506
 10
6.463671216032935
 20
34.04253769882597
 10
6.463671216032935
 20
33.88628769882506
 10
5.182671216032986
 20
33.88628769882506
 10
5.182671216032986
 20
34.04253769882506
 10
5.010671216033415
 20
34.04253769882506
 10
5.010671216033415
 20
34.13753769882531
 42
-0.4142135623730951
 10
5.072671216033313
 20
34.19953769882521
 10
6.573671216032607
 20
34.19953769882521
 42
-0.4142135623730951
  0
LWPOLYLINE
  5
D8
102
{ACAD_REACTORS
330
ED
102
}
330
2
100
AcDbEntity
  8
0
100
AcDbPolyline
 90
       10
 70
     1
 43
0.0
 10
5.603353215665748
 20
30.24175215297741
 10
5.322671216033
 20
30.29124396251182
 10
5.260671216032989
 20
30.29124396251182
 10
5.260671216032989
 20
29.85374396251181
 42
0.4142135623730951
 10
5.323171216032989
 20
29.79124396251182
 10
6.323171216032989
 20
29.79124396251182
 42
0.4142135623730951
 10
6.385671216032989
 20
29.85374396251181
 10
6.385671216032989
 20
30.29124396251182
 10
6.323671216032977
 20
30.29124396251182
 10
6.042989216400115
 20
30.24175215297741
  0
DIMENSION
  5
D9
102
{ACAD_XDICTIONARY
360
DA
102
}
102
{ACAD_REACTORS
330
DB
102
}
330
2
100
AcDbEntity
  8
0
100
AcDbDimension
  2
*D6
 10
6.635671216033415
 20
34.95701367727858
 30
0.0
 11
5.823171216033415
 21
34.95701367727858
 31
0.0
 71
     5
 42
1.625
  3
Knife
100
AcDbAlignedDimension
 13
5.010671216033415
 23
34.13753769882531
 33
0.0
 14
6.635671216033415
 24
34.13753769882531
 34
0.0
 50
180.0
100
AcDbRotatedDimension
1001
ACAD
1000
DSTYLE
1002
{
1070
    40
1040
1.0
1002
}
  0
DIMENSION
  5
EB
102
{ACAD_XDICTIONARY
360
EC
102
}
102
{ACAD_REACTORS
330
ED
102
}
330
2
100
AcDbEntity
  8
0
100
AcDbDimension
  2
*D7
 10
6.385671216032989
 20
29.31177318154054
 30
0.0
 11
7.072196669181286
 21
29.31177318154054
 31
0.0
 70
   128
 71
     5
 42
1.125
  3
Knife
100
AcDbAlignedDimension
 13
5.260671216032989
 23
29.85374396251181
 33
0.0
 14
6.385671216032989
 24
29.85374396251181
 34
0.0
 50
180.0
100
AcDbRotatedDimension
1001
ACAD
1000
DSTYLE
1002
{
1070
    40
1040
1.0
1002
}
  0
DIMENSION
  5
FB
330
2
100
AcDbEntity
  8
0
100
AcDbDimension
  2
*D8
 10
5.020069176308894
 20
29.79124396251182
 30
0.0
 11
4.333543723160592
 21
29.47924396251181
 31
0.0
 70
   128
 71
     5
 42
0.5
  3
Knife
100
AcDbAlignedDimension
 13
5.183171216032945
 23
30.29124396251182
 33
0.0
 14
5.323171216032989
 24
29.79124396251182
 34
0.0
 50
90.0
100
AcDbRotatedDimension
1001
ACAD
1000
DSTYLE
1002
{
1070
    40
1040
1.0
1002
}
  0
LINE
  5
10A
330
2
100
AcDbEntity
  8
0
  6
HIDDEN
100
AcDbLine
 10
11.80060897541563
 20
31.54344313428986
 30
0.0
 11
11.80060897541563
 21
30.71295313429006
 31
0.0
  0
INSERT
  5
10B
330
2
100
AcDbEntity
  8
0
100
AcDbBlockReference
  2
93OBW
 10
13.77423193070757
 20
32.27728810379524
 30
0.0
 41
-1.0
 42
-1.0
 43
2.0
  0
INSERT
  5
10C
330
2
100
AcDbEntity
  8
0
100
AcDbBlockReference
  2
86NPF141
 10
13.54657983544879
 20
30.85731129725922
 30
0.0
 41
-1.0
 43
2.0
 50
180.0
  0
LINE
  5
10D
330
2
100
AcDbEntity
  8
0
100
AcDbLine
 10
14.07423193070755
 20
31.93761171021181
 30
0.0
 11
14.07423193070755
 21
31.20061171021182
 31
0.0
  0
LINE
  5
10E
330
2
100
AcDbEntity
  8
0
100
AcDbLine
 10
14.07423193070755
 20
31.21886171021181
 30
0.0
 11
14.07423193070755
 21
31.90586171021183
 31
0.0
  0
INSERT
  5
10F
330
2
100
AcDbEntity
  8
0
100
AcDbBlockReference
  2
*U5
 10
15.95541880899478
 20
28.96616296011611
 30
0.0
 41
-1.0
1001
ACAD
1002
{
1000
R14_HATCH_DATA
1000
3651
1011
14.95541880899478
1021
28.96616296011611
1031
0.0
1011
15.95541880899478
1021
29.96616296011611
1031
0.0
1011
15.95541880899478
1021
28.96616296011611
1031
1.0
1040
0.0
1010
0.0
1020
0.0
1030
1.0
1000
SOLID
1070
     1
1070
     0
1071
        1
1071
        1
1071
        2
1070
     1
1040
1.881186878287213
1040
3.15944875009568
1040
1.881186878287314
1040
3.346448750095556
1070
     2
1040
1.760589222037213
1040
3.252948750095684
1040
0.1525976562500021
1040
-0.65950076747307
1040
0.6595007674730821
1070
     0
1071
        0
1070
     0
1070
     1
1071
        1
1040
4.812561040009144
1040
6.499794521109716
1040
0.0
1002
}
  0
LWPOLYLINE
  5
110
330
2
100
AcDbEntity
  8
0
100
AcDbPolyline
 90
       15
 70
     1
 43
0.0
 10
14.62023193070743
 20
30.72955309238144
 10
14.62023193070743
 20
30.97606207939579
 10
14.74523193070743
 20
30.97824396251183
 10
14.74523193070746
 20
32.66574396251183
 42
-0.9999999999999998
 10
14.74523193070746
 20
32.79074396251183
 10
14.74523193070746
 20
33.85374396251182
 10
14.07423193070744
 20
33.85374396251182
 10
14.07423193070744
 20
33.41674396251181
 10
14.16723193070746
 20
33.41512064147348
 10
14.16723193070746
 20
33.16836728355013
 10
14.07423193070744
 20
33.1667439625118
 10
14.07423193070744
 20
30.32224396251182
 42
0.4142135623730949
 10
14.10523193070745
 20
30.29124396251182
 10
14.69523193070745
 20
30.29124396251182
 10
14.69523193070745
 20
30.72824396251183
  0
LWPOLYLINE
  5
111
330
2
100
AcDbEntity
  8
0
100
AcDbPolyline
 90
       20
 70
     1
 43
0.0
 10
14.15235693070744
 20
33.38052665837385
 10
14.07423193070744
 20
33.38736171021181
 10
14.07423193070744
 20
34.04253769882506
 10
13.16860425641559
 20
34.04253769882506
 42
0.4142135623730951
 10
13.13760425641558
 20
34.01153769882505
 10
13.13760425641556
 20
33.10889238418555
 10
12.94814988150844
 20
33.10558544577062
 42
0.4091108014277093
 10
12.88723193070754
 20
33.04359488867091
 10
12.88723193070754
 20
31.91861171021181
 10
13.01223193070754
 20
31.91861171021181
 10
13.13754057659094
 20
32.0439203560952
 10
13.69423193070756
 20
32.0439203560952
 10
13.69423193070756
 20
32.32492035609521
 10
13.77423193070754
 20
32.32492035609521
 10
13.77423193070754
 20
31.93861171021179
 10
14.07423193070755
 20
31.93861171021179
 10
14.07423193070755
 20
32.1256117102118
 42
-0.3422459893048229
 10
14.07423193070755
 20
32.31261171021181
 10
14.07423193070755
 20
33.16861171021181
 10
14.15235693070744
 20
33.16997538715931
  0
LWPOLYLINE
  5
112
330
2
100
AcDbEntity
  8
0
100
AcDbPolyline
 90
        8
 70
     1
 43
0.0
 10
13.94881439819287
 20
31.2686117102118
 10
13.76381439819286
 20
31.2686117102118
 42
-0.4142135623730951
 10
13.63881439819286
 20
31.3936117102118
 10
13.63881439819286
 20
31.81361171021179
 42
-0.4142135623730951
 10
13.76381439819286
 20
31.93861171021179
 10
13.94881439819287
 20
31.93861171021179
 42
-0.4142135623730951
 10
14.07381439819286
 20
31.81361171021179
 10
14.07381439819286
 20
31.3936117102118
 42
-0.4142135623730951
  0
LWPOLYLINE
  5
113
330
2
100
AcDbEntity
  8
0
100
AcDbPolyline
 90
       22
 70
     0
 43
0.0
 10
13.83895680616556
 20
30.62471901102096
 10
13.83895680616556
 20
31.21869313428986
 10
13.63681438461961
 20
31.21869313428986
 10
13.63681438461961
 20
31.90344313428987
 42
0.4142135623730951
 10
13.6218143846196
 20
31.91844313428986
 10
12.52742715448903
 20
31.91844313428986
 10
12.52742715448903
 20
31.82340418717159
 42
0.3899024490717824
 10
12.32625430316185
 20
31.63840418717159
 10
12.27664707739098
 20
31.63840418717159
 10
12.27664707739098
 20
31.54344313428986
 10
12.40164707739098
 20
31.54344313428986
 42
-0.6666666666666686
 10
12.58914707739098
 20
31.54344313428986
 10
12.83881438461961
 20
31.54344313428986
 10
12.83881438461964
 20
31.35735546466385
 42
-0.9946524064171082
 10
12.83881438461961
 20
31.17035546466385
 10
12.83881438461961
 20
30.29471901102097
 10
13.71381438461961
 20
30.29471901102095
 42
0.4142135623730951
 10
13.83881438461961
 20
30.41971901102098
 10
13.83881438461961
 20
30.54471901102095
 10
13.52231438461962
 20
30.54471901102095
 10
13.52231438461962
 20
30.62471901102096
 10
13.83481438461962
 20
30.62471901102096
  0
HATCH
  5
114
330
2
100
AcDbEntity
  8
0
100
AcDbHatch
 10
0.0
 20
0.0
 30
0.0
210
0.0
220
0.0
230
1.0
  2
SOLID
 70
     1
 71
     0
 91
        1
 92
        7
 72
     1
 73
     1
 93
        2
 10
12.40131438461961
 20
30.71295313429009
 42
0.0
 10
12.58881438461958
 20
30.71295313429006
 42
-0.6666666666666311
 97
        0
 75
     1
 76
     1
 47
0.0010014887122476
 98
        1
 10
12.51621958066374
 20
30.66689305794317
1001
GradientColor1ACI
1070
     5
1001
GradientColor2ACI
1070
     2
1001
ACAD
1010
0.0
1020
0.0
1030
0.0
  0
LWPOLYLINE
  5
115
330
2
100
AcDbEntity
  8
0
100
AcDbPolyline
 90
       11
 70
     1
 43
0.0
 10
12.58881438461958
 20
30.71295313429006
 10
12.83881438461961
 20
30.71295313429006
 10
12.83881438461958
 20
30.33895313429006
 10
12.55731438461959
 20
30.33895313429004
 42
-0.4142135623731695
 10
12.52631438461958
 20
30.36995313429005
 10
12.52631438461961
 20
30.41647790257652
 42
0.235730494161761
 10
12.51394608294078
 20
30.44125409715254
 10
12.28868268629844
 20
30.61065217142756
 42
-0.235730494161718
 10
12.27631438461958
 20
30.63542836600358
 10
12.27631438461958
 20
30.71295313429009
 10
12.40131438461961
 20
30.71295313429009
 42
0.6666666666666588
  0
LWPOLYLINE
  5
116
330
2
100
AcDbEntity
  8
0
100
AcDbPolyline
 90
        4
 70
     0
 43
0.0
 10
11.80060897541563
 20
31.42507313428995
 10
12.72981438461923
 20
31.42507313428995
 10
12.72981438461923
 20
31.54344313428986
 10
11.80060897541563
 20
31.54344313428986
  0
LWPOLYLINE
  5
117
330
2
100
AcDbEntity
  8
0
100
AcDbPolyline
 90
        4
 70
     0
 43
0.0
 10
11.80060897541563
 20
30.83132313428995
 10
12.72981438461923
 20
30.83132313428995
 10
12.72981438461923
 20
30.71295313429006
 10
11.80060897541563
 20
30.71295313429006
  0
LWPOLYLINE
  5
118
330
2
100
AcDbEntity
  8
0
100
AcDbPolyline
 90
       14
 70
     1
 43
0.0
 10
12.5199896436707
 20
30.94069813428995
 42
0.3359746306540741
 10
12.49962688461895
 20
30.90819422454295
 10
12.5238143846191
 20
30.87232313429011
 42
-0.4142135623730951
 10
12.5081893846191
 20
30.85669813429011
 10
12.32656438461893
 20
30.85669813429011
 10
12.32656438461893
 20
31.39969813428978
 10
12.5081893846191
 20
31.39969813428978
 42
-0.414213562373094
 10
12.5238143846191
 20
31.38407313428978
 10
12.49962688461895
 20
31.34858534623162
 42
0.3208708054700532
 10
12.52035255275135
 20
31.31569813428995
 10
12.57718938461952
 20
31.31569813428995
 42
-0.4142135623730951
 10
12.59281438461951
 20
31.30007313428995
 10
12.59281438461951
 20
30.95632313428995
 42
-0.4142135623730951
 10
12.57718938461952
 20
30.94069813428995
  0
LWPOLYLINE
  5
119
330
2
100
AcDbEntity
  8
0
100
AcDbPolyline
 90
       14
 70
     1
 43
0.0
 10
12.51877124352634
 20
30.94769813429046
 42
0.3593608004949541
 10
12.49286722764558
 20
30.90569824696648
 10
12.51661499436435
 20
30.87047929985418
 42
-0.3524310491054993
 10
12.5081893846191
 20
30.86369813428972
 10
12.32656438461893
 20
30.86369813428972
 10
12.32656438461893
 20
31.39269813429017
 10
12.5081893846191
 20
31.39269813429017
 42
-0.3518693664465323
 10
12.51661129198058
 20
31.38593380658857
 10
12.49280778780124
 20
31.35100941542258
 42
0.3446308864324803
 10
12.51904670180286
 20
31.30869813428943
 10
12.57718938461952
 20
31.30869813428943
 42
-0.4142135623730946
 10
12.585814384619
 20
31.30007313428995
 10
12.585814384619
 20
30.95632313428995
 42
-0.4142135623730946
 10
12.57718938461952
 20
30.94769813429046
  0
LWPOLYLINE
  5
11A
330
2
100
AcDbEntity
  8
0
100
AcDbPolyline
 90
       10
 70
     1
 43
0.0
 10
12.51525188461895
 20
30.97194813428995
 42
0.3584554666094669
 10
12.46837688461895
 20
30.90704428813659
 10
12.46837688461895
 20
30.88794813429011
 10
12.35781438461893
 20
30.88794813429011
 10
12.35781438461893
 20
31.36844813428978
 10
12.46837688461895
 20
31.36844813428978
 10
12.46837688461895
 20
31.3493519804433
 42
0.3467993108968364
 10
12.51525188461895
 20
31.28444813428995
 10
12.56156438461952
 20
31.28444813428995
 10
12.56156438461952
 20
30.97194813428995
  0
LWPOLYLINE
  5
11B
330
2
100
AcDbEntity
  8
0
100
AcDbPolyline
 90
        6
 70
     0
 43
0.0
 10
12.35481438461923
 20
30.85669813429011
 10
12.35481438461923
 20
30.84694813428995
 10
12.31681438461877
 20
30.84694813428995
 10
12.31681438461877
 20
31.40944813428995
 10
12.35481438461923
 20
31.40944813428995
 10
12.35481438461923
 20
31.39969813428978
  0
LINE
  5
11C
330
2
100
AcDbEntity
  8
0
100
AcDbLine
 10
12.5081893846191
 20
31.39969813428978
 30
0.0
 11
12.5081893846191
 21
31.42507313428995
 31
0.0
  0
LINE
  5
11D
330
2
100
AcDbEntity
  8
0
100
AcDbLine
 10
12.35481438461923
 20
31.39969813428978
 30
0.0
 11
12.35481438461923
 21
31.42507313428995
 31
0.0
  0
LINE
  5
11E
330
2
100
AcDbEntity
  8
0
100
AcDbLine
 10
12.5081893846191
 20
30.85669813429011
 30
0.0
 11
12.5081893846191
 21
30.83132313428995
 31
0.0
  0
LINE
  5
11F
330
2
100
AcDbEntity
  8
0
100
AcDbLine
 10
12.35481438461923
 20
30.85669813429011
 30
0.0
 11
12.35481438461923
 21
30.83132313428995
 31
0.0
  0
HATCH
  5
120
330
2
100
AcDbEntity
  8
0
100
AcDbHatch
 10
0.0
 20
0.0
 30
0.0
210
0.0
220
0.0
230
1.0
  2
DOTS
 70
     0
 71
     0
 91
        2
 92
        7
 72
     0
 73
     1
 93
        4
 10
12.5081893846191
 20
30.85669813429011
 10
12.5081893846191
 20
30.83132313428995
 10
12.35481438461923
 20
30.83132313428995
 10
12.35481438461923
 20
30.85669813429011
 97
        0
 92
        7
 72
     0
 73
     1
 93
        4
 10
12.5081893846191
 20
31.42507313428995
 10
12.5081893846191
 20
31.39969813428978
 10
12.35481438461923
 20
31.39969813428978
 10
12.35481438461923
 20
31.42507313428995
 97
        0
 75
     0
 76
     1
 52
450.0
 41
0.1
 77
     0
 78
     1
 53
90.0
 43
7.725770907024838
 44
24.73784338875338
 45
0.00625
 46
0.003125
 79
     2
 49
0.0
 49
-0.00625
 47
0.0006001443632006
 98
        2
 10
12.4506044445707
 20
30.84497784414269
 10
12.44700357077184
 20
31.4148627735385
  0
HATCH
  5
121
330
2
100
AcDbEntity
  8
0
100
AcDbHatch
 10
0.0
 20
0.0
 30
0.0
210
0.0
220
0.0
230
1.0
  2
DASH
 70
     0
 71
     0
 91
        1
 92
        7
 72
     1
 73
     1
 93
       16
 10
12.59281438461951
 20
31.30007313428995
 42
0.4142135623730951
 10
12.57718938461952
 20
31.31569813428995
 42
0.0
 10
12.52035255275135
 20
31.31569813428995
 42
-0.3208708054700533
 10
12.49962688461895
 20
31.34858534623162
 42
0.0
 10
12.5238143846191
 20
31.38407313428978
 42
0.414213562373094
 10
12.5081893846191
 20
31.39969813428978
 42
0.0
 10
12.5081893846191
 20
31.42507313429085
 42
0.0
 10
12.72981438461832
 20
31.42507313428904
 42
0.0
 10
12.72981438461832
 20
30.83132313428995
 42
0.0
 10
12.5081893846191
 20
30.83132313428995
 42
0.0
 10
12.5081893846191
 20
30.85669813429011
 42
0.4142135623730951
 10
12.5238143846191
 20
30.87232313429011
 42
0.0
 10
12.49962688461895
 20
30.90819422454295
 42
-0.3359746306540741
 10
12.5199896436707
 20
30.94069813428995
 42
0.0
 10
12.57718938461952
 20
30.94069813428995
 42
0.4142135623730951
 10
12.59281438461951
 20
30.95632313428995
 42
0.0
 97
        0
 75
     0
 76
     1
 52
450.0
 41
0.1
 77
     0
 78
     1
 53
90.0
 43
7.725770907024838
 44
24.73784338875338
 45
0.0125
 46
0.0125
 79
     2
 49
0.0125
 49
-0.0125
 47
0.0009600803746669
 98
        1
 10
12.64365365681354
 20
31.17721961437472
  0
HATCH
  5
122
330
2
100
AcDbEntity
  8
0
100
AcDbHatch
 10
0.0
 20
0.0
 30
0.0
210
0.0
220
0.0
230
1.0
  2
SOLID
 70
     1
 71
     0
 91
        1
 92
        7
 72
     1
 73
     1
 93
        2
 10
12.40131438461961
 20
31.54344313428983
 42
0.0
 10
12.58881438461958
 20
31.54344313428986
 42
0.6666666666666311
 97
        0
 75
     1
 76
     1
 47
0.0010014887122476
 98
        1
 10
12.51621958066374
 20
31.58950321063675
1001
GradientColor1ACI
1070
     5
1001
GradientColor2ACI
1070
     2
1001
ACAD
1010
0.0
1020
0.0
1030
0.0
  0
LINE
  5
123
330
2
100
AcDbEntity
  8
0
100
AcDbLine
 10
12.83881438461961
 20
30.71295313429006
 30
0.0
 11
12.72981438461923
 21
31.54344313428986
 31
0.0
  0
LWPOLYLINE
  5
124
330
2
100
AcDbEntity
  8
0
100
AcDbPolyline
 90
        8
 70
     0
 43
0.0
 10
12.83881438461961
 20
30.71295313429006
 10
12.83881438461961
 20
31.54344313428986
 10
12.72981438461923
 20
31.54344313428986
 10
12.72981438461923
 20
30.71295313429006
 10
12.83881438461961
 20
30.71295313429006
 10
12.72981438461923
 20
31.54344313428986
 10
12.72981438461923
 20
30.71295313429006
 10
12.83881438461961
 20
31.54344313428986
  0
LWPOLYLINE
  5
125
102
{ACAD_REACTORS
330
129
102
}
330
2
100
AcDbEntity
  8
0
100
AcDbPolyline
 90
       10
 70
     1
 43
0.0
 10
16.24523193070792
 20
34.13753769882531
 10
16.24523193070792
 20
34.04253769882506
 10
16.07323193070743
 20
34.04253769882597
 10
16.07323193070743
 20
33.88628769882506
 10
14.10473193070749
 20
33.88628769882506
 10
14.10473193070749
 20
34.04253769882506
 10
13.93273193070792
 20
34.04253769882506
 10
13.93273193070792
 20
34.13753769882531
 42
-0.4142135623730951
 10
13.99473193070781
 20
34.19953769882521
 10
16.18323193070711
 20
34.19953769882521
 42
-0.4142135623730951
  0
LWPOLYLINE
  5
126
102
{ACAD_REACTORS
330
13A
102
}
330
2
100
AcDbEntity
  8
0
100
AcDbPolyline
 90
       10
 70
     1
 43
0.0
 10
14.52541393034025
 20
30.24175215297741
 10
14.2447319307075
 20
30.29124396251182
 10
14.18273193070749
 20
30.29124396251182
 10
14.18273193070749
 20
29.85374396251181
 42
0.4142135623730951
 10
14.24523193070749
 20
29.79124396251182
 10
15.93273193070749
 20
29.79124396251182
 42
0.4142135623730951
 10
15.99523193070749
 20
29.85374396251181
 10
15.99523193070749
 20
30.29124396251182
 10
15.93323193070748
 20
30.29124396251182
 10
15.65254993107462
 20
30.24175215297741
  0
DIMENSION
  5
127
102
{ACAD_XDICTIONARY
360
128
102
}
102
{ACAD_REACTORS
330
129
102
}
330
2
100
AcDbEntity
  8
0
100
AcDbDimension
  2
*D9
 10
16.24523193070792
 20
36.05505773671202
 30
0.0
 11
15.08898193070791
 21
36.05505773671202
 31
0.0
 71
     5
 42
2.312499999999998
  3
Knife
100
AcDbAlignedDimension
 13
13.93273193070792
 23
34.13753769882531
 33
0.0
 14
16.24523193070792
 24
34.13753769882531
 34
0.0
 50
180.0
100
AcDbRotatedDimension
1001
ACAD
1000
DSTYLE
1002
{
1070
    40
1040
1.0
1002
}
  0
DIMENSION
  5
138
102
{ACAD_XDICTIONARY
360
139
102
}
102
{ACAD_REACTORS
330
13A
102
}
330
2
100
AcDbEntity
  8
0
100
AcDbDimension
  2
*D10
 10
15.99523193070749
 20
28.99733987001743
 30
0.0
 11
15.08898193070749
 21
28.99733987001743
 31
0.0
 71
     5
 42
1.812499999999998
  3
Knife
100
AcDbAlignedDimension
 13
14.18273193070749
 23
29.85374396251181
 33
0.0
 14
15.99523193070749
 24
29.85374396251181
 34
0.0
 50
180.0
100
AcDbRotatedDimension
1001
ACAD
1000
DSTYLE
1002
{
1070
    40
1040
1.0
1002
}
  0
DIMENSION
  5
149
330
2
100
AcDbEntity
  8
0
100
AcDbDimension
  2
*D11
 10
13.95203830182633
 20
29.79124396251182
 30
0.0
 11
13.35580601871053
 21
29.63524396251182
 31
0.0
 71
     5
 42
0.5
  3
Knife
100
AcDbAlignedDimension
 13
14.10523193070745
 23
30.29124396251182
 33
0.0
 14
14.24523193070749
 24
29.79124396251182
 34
0.0
 50
90.0
100
AcDbRotatedDimension
1001
ACAD
1000
DSTYLE
1002
{
1070
    40
1040
1.0
1002
}
  0
DIMENSION
  5
159
330
2
100
AcDbEntity
  8
0
100
AcDbDimension
  2
*D12
 10
12.91812986370571
 20
34.19953769882521
 30
0.0
 11
12.30263143644846
 21
33.88653769882501
 31
0.0
 70
   128
 71
     5
 42
0.1570000000001528
  3
Knife
100
AcDbAlignedDimension
 13
13.16860425641559
 23
34.04253769882506
 33
0.0
 14
13.99473193070781
 24
34.19953769882521
 34
0.0
 50
90.0
100
AcDbRotatedDimension
1001
ACAD
1000
DSTYLE
1002
{
1070
    40
1040
1.0
1002
}
  0
LWPOLYLINE
  5
168
330
2
100
AcDbEntity
  8
0
100
AcDbPolyline
 90
        4
 70
     1
 43
0.0
 10
15.43273193070743
 20
30.32249396251193
 10
15.43273193070743
 20
33.82249396251193
 10
14.74523193070743
 20
33.82249396251193
 10
14.74523193070743
 20
30.32249396251193
  0
LINE
  5
169
330
2
100
AcDbEntity
  8
0
100
AcDbLine
 10
14.74523193070743
 20
30.32249396251193
 30
0.0
 11
15.43273193070743
 21
33.82249396251193
 31
0.0
  0
LINE
  5
16A
330
2
100
AcDbEntity
  8
0
100
AcDbLine
 10
14.74523193070743
 20
33.82249396251193
 30
0.0
 11
15.43273193070743
 21
30.32249396251193
 31
0.0
  0
DIMENSION
  5
16B
330
2
100
AcDbEntity
  8
0
100
AcDbDimension
  2
*D13
 10
14.74523193070746
 20
35.12490970484643
 30
0.0
 11
13.23222906277199
 21
35.12490970484643
 31
0.0
 70
   128
 71
     5
 42
0.6874999999999716
  3
Knife
100
AcDbAlignedDimension
 13
15.43273193070743
 23
33.85374396251193
 33
0.0
 14
14.74523193070746
 24
33.85374396251193
 34
0.0
 50
180.0
100
AcDbRotatedDimension
1001
ACAD
1000
DSTYLE
1002
{
1070
    40
1040
1.0
1002
}
  0
TEXT
  5
179
330
2
100
AcDbEntity
  8
0
  6
Continuous
100
AcDbText
 10
4.758172689071727
 20
27.11123682218519
 30
0.0
 40
0.375
  1
3 9/16" JAMB
 41
0.6
 51
5.0
  7
DIMTXT
100
AcDbText
  0
TEXT
  5
17B
330
2
100
AcDbEntity
  8
0
  6
Continuous
100
AcDbText
 10
3.924859587138204
 20
27.7713262023976
 30
0.0
 40
0.375
  1
%%UTRANSOM / AWNING MULL
 41
0.6
 51
5.0
  7
DIMTXT
100
AcDbText
  0
TEXT
  5
17C
330
2
100
AcDbEntity
  8
0
  6
Continuous
100
AcDbText
 10
12.96596408300203
 20
27.71569223963418
 30
0.0
 40
0.375
  1
%%UTRANSOM / AWNING MULL
 41
0.6
 51
5.0
  7
DIMTXT
100
AcDbText
  0
TEXT
  5
17D
330
2
100
AcDbEntity
  8
0
  6
Continuous
100
AcDbText
 10
12.9602615989713
 20
26.91587206034439
 30
0.0
 40
0.375
  1
3 9/16" JAMB C/W FILLER
 41
0.6
 51
5.0
  7
DIMTXT
100
AcDbText
  0
INSERT
  5
17E
330
2
100
AcDbEntity
  8
0
100
AcDbBlockReference
  2
11HINGE
 10
12.65898945939166
 20
18.37460540023474
 30
0.0
 42
-1.0
 43
2.0
  0
LINE
  5
1B2
330
2
100
AcDbEntity
  8
0
  6
HIDDEN
100
AcDbLine
 10
5.043948958012595
 20
17.98161118864445
 30
0.0
 11
5.043948958012595
 21
17.15112118864465
 31
0.0
  0
INSERT
  5
1B3
330
2
100
AcDbEntity
  8
0
100
AcDbBlockReference
  2
93OBW
 10
7.017571913304539
 20
18.71545615814983
 30
0.0
 41
-1.0
 42
-1.0
 43
2.0
  0
INSERT
  5
1B4
330
2
100
AcDbEntity
  8
0
100
AcDbBlockReference
  2
86NPF141
 10
6.789919818045763
 20
17.2954793516138
 30
0.0
 41
-1.0
 43
2.0
 50
180.0
  0
LINE
  5
1B5
330
2
100
AcDbEntity
  8
0
100
AcDbLine
 10
7.317571913304522
 20
18.3757797645664
 30
0.0
 11
7.317571913304522
 21
17.6387797645664
 31
0.0
  0
LINE
  5
1B6
330
2
100
AcDbEntity
  8
0
100
AcDbLine
 10
7.317571913304522
 20
17.6570297645664
 30
0.0
 11
7.317571913304522
 21
18.34402976456641
 31
0.0
  0
INSERT
  5
1B7
330
2
100
AcDbEntity
  8
0
100
AcDbBlockReference
  2
*U5
 10
9.198758791591735
 20
15.4043310144707
 30
0.0
 41
-1.0
1001
ACAD
1002
{
1000
R14_HATCH_DATA
1000
3651
1011
4.886258791591739
1021
15.4043310144707
1031
0.0
1011
9.198758791591735
1021
16.4043310144707
1031
0.0
1011
9.198758791591735
1021
15.4043310144707
1031
1.0
1040
0.0
1010
0.0
1020
0.0
1030
1.0
1000
SOLID
1070
     1
1070
     0
1071
        1
1071
        1
1071
        2
1070
     1
1040
1.881186878287213
1040
3.15944875009568
1040
1.881186878287314
1040
3.346448750095556
1070
     2
1040
1.760589222037213
1040
3.252948750095684
1040
0.1525976562500021
1040
-0.65950076747307
1040
0.6595007674730821
1070
     0
1071
        0
1070
     0
1070
     1
1071
        1
1040
4.812561040009144
1040
6.499794521109716
1040
0.0
1002
}
  0
LWPOLYLINE
  5
1B8
330
2
100
AcDbEntity
  8
0
100
AcDbPolyline
 90
       15
 70
     1
 43
0.0
 10
7.863571913304401
 20
17.16772114673602
 10
7.863571913304401
 20
17.41423013375038
 10
7.988571913304401
 20
17.41641201686642
 10
7.988571913304429
 20
19.10391201686642
 42
-0.9999999999999998
 10
7.988571913304429
 20
19.22891201686642
 10
7.988571913304429
 20
20.29191201686641
 10
7.317571913304409
 20
20.29191201686641
 10
7.317571913304409
 20
19.85491201686639
 10
7.410571913304426
 20
19.85328869582807
 10
7.410571913304426
 20
19.60653533790472
 10
7.317571913304409
 20
19.60491201686639
 10
7.317571913304409
 20
16.76041201686641
 42
0.4142135623730949
 10
7.348571913304414
 20
16.7294120168664
 10
7.938571913304418
 20
16.7294120168664
 10
7.938571913304418
 20
17.16641201686641
  0
LWPOLYLINE
  5
1B9
330
2
100
AcDbEntity
  8
0
100
AcDbPolyline
 90
       20
 70
     1
 43
0.0
 10
7.395696913304409
 20
19.81869471272844
 10
7.317571913304409
 20
19.8255297645664
 10
7.317571913304409
 20
20.48070575317965
 10
6.411944239012559
 20
20.48070575317965
 42
0.4142135623730951
 10
6.380944239012553
 20
20.44970575317965
 10
6.380944239012524
 20
19.54706043854014
 10
6.19148986410541
 20
19.5437535001252
 42
0.4091108014277093
 10
6.13057191330451
 20
19.4817629430255
 10
6.13057191330451
 20
18.3567797645664
 10
6.25557191330451
 20
18.3567797645664
 10
6.380880559187904
 20
18.48208841044979
 10
6.937571913304527
 20
18.48208841044979
 10
6.937571913304527
 20
18.7630884104498
 10
7.017571913304511
 20
18.7630884104498
 10
7.017571913304511
 20
18.37677976456638
 10
7.317571913304522
 20
18.37677976456638
 10
7.317571913304522
 20
18.56377976456639
 42
-0.3422459893048229
 10
7.317571913304522
 20
18.7507797645664
 10
7.317571913304522
 20
19.6067797645664
 10
7.395696913304409
 20
19.6081434415139
  0
LWPOLYLINE
  5
1BA
330
2
100
AcDbEntity
  8
0
100
AcDbPolyline
 90
        8
 70
     1
 43
0.0
 10
7.192154380789833
 20
17.70677976456639
 10
7.007154380789831
 20
17.70677976456639
 42
-0.4142135623730951
 10
6.882154380789831
 20
17.83177976456639
 10
6.882154380789831
 20
18.25177976456638
 42
-0.4142135623730951
 10
7.007154380789831
 20
18.37677976456638
 10
7.192154380789833
 20
18.37677976456638
 42
-0.4142135623730951
 10
7.317154380789833
 20
18.25177976456638
 10
7.317154380789833
 20
17.83177976456639
 42
-0.4142135623730951
  0
LWPOLYLINE
  5
1BB
330
2
100
AcDbEntity
  8
0
100
AcDbPolyline
 90
       22
 70
     0
 43
0.0
 10
7.082296788762523
 20
17.06288706537555
 10
7.082296788762523
 20
17.65686118864445
 10
6.880154367216579
 20
17.65686118864445
 10
6.880154367216579
 20
18.34161118864446
 42
0.4142135623730951
 10
6.865154367216565
 20
18.35661118864445
 10
5.770767137086
 20
18.35661118864445
 10
5.770767137086
 20
18.26157224152618
 42
0.3899024490717824
 10
5.569594285758814
 20
18.07657224152618
 10
5.519987059987943
 20
18.07657224152618
 10
5.519987059987943
 20
17.98161118864445
 10
5.644987059987943
 20
17.98161118864445
 42
-0.6666666666666686
 10
5.832487059987943
 20
17.98161118864445
 10
6.082154367216578
 20
17.98161118864445
 10
6.082154367216606
 20
17.79552351901844
 42
-0.9946524064171082
 10
6.082154367216578
 20
17.60852351901843
 10
6.082154367216578
 20
16.73288706537556
 10
6.957154367216578
 20
16.73288706537553
 42
0.4142135623730951
 10
7.082154367216578
 20
16.85788706537556
 10
7.082154367216578
 20
16.98288706537553
 10
6.765654367216587
 20
16.98288706537553
 10
6.765654367216587
 20
17.06288706537555
 10
7.078154367216587
 20
17.06288706537555
  0
HATCH
  5
1BC
330
2
100
AcDbEntity
  8
0
100
AcDbHatch
 10
0.0
 20
0.0
 30
0.0
210
0.0
220
0.0
230
1.0
  2
SOLID
 70
     1
 71
     0
 91
        1
 92
        7
 72
     1
 73
     1
 93
        2
 10
5.644654367216578
 20
17.15112118864468
 42
0.0
 10
5.832154367216549
 20
17.15112118864465
 42
-0.6666666666666311
 97
        0
 75
     1
 76
     1
 47
0.0010014887122476
 98
        1
 10
5.759559563260712
 20
17.10506111229776
1001
GradientColor1ACI
1070
     5
1001
GradientColor2ACI
1070
     2
1001
ACAD
1010
0.0
1020
0.0
1030
0.0
  0
LWPOLYLINE
  5
1BD
102
{ACAD_REACTORS
330
204
102
}
330
2
100
AcDbEntity
  8
0
100
AcDbPolyline
 90
       11
 70
     1
 43
0.0
 10
5.832154367216549
 20
17.15112118864465
 10
6.082154367216578
 20
17.15112118864465
 10
6.082154367216549
 20
16.77712118864465
 10
5.800654367216555
 20
16.77712118864462
 42
-0.4142135623731695
 10
5.769654367216549
 20
16.80812118864463
 10
5.769654367216578
 20
16.85464595693111
 42
0.235730494161761
 10
5.757286065537744
 20
16.87942215150713
 10
5.532022668895411
 20
17.04882022578215
 42
-0.235730494161718
 10
5.519654367216549
 20
17.07359642035817
 10
5.519654367216549
 20
17.15112118864468
 10
5.644654367216578
 20
17.15112118864468
 42
0.6666666666666588
  0
LWPOLYLINE
  5
1BE
330
2
100
AcDbEntity
  8
0
100
AcDbPolyline
 90
        4
 70
     0
 43
0.0
 10
5.043948958012595
 20
17.86324118864454
 10
5.973154367216199
 20
17.86324118864454
 10
5.973154367216199
 20
17.98161118864445
 10
5.043948958012595
 20
17.98161118864445
  0
LWPOLYLINE
  5
1BF
330
2
100
AcDbEntity
  8
0
100
AcDbPolyline
 90
        4
 70
     0
 43
0.0
 10
5.043948958012595
 20
17.26949118864453
 10
5.973154367216199
 20
17.26949118864453
 10
5.973154367216199
 20
17.15112118864465
 10
5.043948958012595
 20
17.15112118864465
  0
LWPOLYLINE
  5
1C0
330
2
100
AcDbEntity
  8
0
100
AcDbPolyline
 90
       14
 70
     1
 43
0.0
 10
5.763329626267665
 20
17.37886618864453
 42
0.3359746306540741
 10
5.742966867215915
 20
17.34636227889754
 10
5.767154367216068
 20
17.3104911886447
 42
-0.4142135623730951
 10
5.751529367216068
 20
17.2948661886447
 10
5.569904367215901
 20
17.2948661886447
 10
5.569904367215901
 20
17.83786618864437
 10
5.751529367216068
 20
17.83786618864437
 42
-0.414213562373094
 10
5.767154367216068
 20
17.82224118864437
 10
5.742966867215915
 20
17.78675340058621
 42
0.3208708054700532
 10
5.763692535348315
 20
17.75386618864454
 10
5.820529367216483
 20
17.75386618864454
 42
-0.4142135623730951
 10
5.836154367216483
 20
17.73824118864453
 10
5.836154367216483
 20
17.39449118864454
 42
-0.4142135623730951
 10
5.820529367216483
 20
17.37886618864453
  0
LWPOLYLINE
  5
1C1
330
2
100
AcDbEntity
  8
0
100
AcDbPolyline
 90
       14
 70
     1
 43
0.0
 10
5.762111226123312
 20
17.38586618864505
 42
0.3593608004949541
 10
5.736207210242543
 20
17.34386630132107
 10
5.759954976961314
 20
17.30864735420877
 42
-0.3524310491054993
 10
5.751529367216068
 20
17.30186618864431
 10
5.569904367215901
 20
17.30186618864431
 10
5.569904367215901
 20
17.83086618864476
 10
5.751529367216068
 20
17.83086618864476
 42
-0.3518693664465323
 10
5.759951274577549
 20
17.82410186094316
 10
5.736147770398208
 20
17.78917746977717
 42
0.3446308864324803
 10
5.762386684399832
 20
17.74686618864402
 10
5.820529367216483
 20
17.74686618864402
 42
-0.4142135623730946
 10
5.829154367215966
 20
17.73824118864453
 10
5.829154367215966
 20
17.39449118864454
 42
-0.4142135623730946
 10
5.820529367216483
 20
17.38586618864505
  0
LWPOLYLINE
  5
1C2
330
2
100
AcDbEntity
  8
0
100
AcDbPolyline
 90
       10
 70
     1
 43
0.0
 10
5.758591867215915
 20
17.41011618864454
 42
0.3584554666094669
 10
5.711716867215915
 20
17.34521234249118
 10
5.711716867215915
 20
17.3261161886447
 10
5.601154367215901
 20
17.3261161886447
 10
5.601154367215901
 20
17.80661618864437
 10
5.711716867215915
 20
17.80661618864437
 10
5.711716867215915
 20
17.78752003479789
 42
0.3467993108968364
 10
5.758591867215915
 20
17.72261618864454
 10
5.804904367216483
 20
17.72261618864454
 10
5.804904367216483
 20
17.41011618864454
  0
LWPOLYLINE
  5
1C3
330
2
100
AcDbEntity
  8
0
100
AcDbPolyline
 90
        6
 70
     0
 43
0.0
 10
5.598154367216199
 20
17.2948661886447
 10
5.598154367216199
 20
17.28511618864454
 10
5.560154367215734
 20
17.28511618864454
 10
5.560154367215734
 20
17.84761618864453
 10
5.598154367216199
 20
17.84761618864453
 10
5.598154367216199
 20
17.83786618864437
  0
LINE
  5
1C4
330
2
100
AcDbEntity
  8
0
100
AcDbLine
 10
5.751529367216068
 20
17.83786618864437
 30
0.0
 11
5.751529367216068
 21
17.86324118864454
 31
0.0
  0
LINE
  5
1C5
330
2
100
AcDbEntity
  8
0
100
AcDbLine
 10
5.598154367216199
 20
17.83786618864437
 30
0.0
 11
5.598154367216199
 21
17.86324118864454
 31
0.0
  0
LINE
  5
1C6
330
2
100
AcDbEntity
  8
0
100
AcDbLine
 10
5.751529367216068
 20
17.2948661886447
 30
0.0
 11
5.751529367216068
 21
17.26949118864453
 31
0.0
  0
LINE
  5
1C7
330
2
100
AcDbEntity
  8
0
100
AcDbLine
 10
5.598154367216199
 20
17.2948661886447
 30
0.0
 11
5.598154367216199
 21
17.26949118864453
 31
0.0
  0
HATCH
  5
1C8
330
2
100
AcDbEntity
  8
0
100
AcDbHatch
 10
0.0
 20
0.0
 30
0.0
210
0.0
220
0.0
230
1.0
  2
DOTS
 70
     0
 71
     0
 91
        2
 92
        7
 72
     0
 73
     1
 93
        4
 10
5.751529367216068
 20
17.2948661886447
 10
5.751529367216068
 20
17.26949118864453
 10
5.598154367216199
 20
17.26949118864453
 10
5.598154367216199
 20
17.2948661886447
 97
        0
 92
        7
 72
     0
 73
     1
 93
        4
 10
5.751529367216068
 20
17.86324118864454
 10
5.751529367216068
 20
17.83786618864437
 10
5.598154367216199
 20
17.83786618864437
 10
5.598154367216199
 20
17.86324118864454
 97
        0
 75
     0
 76
     1
 52
450.0
 41
0.1
 77
     0
 78
     1
 53
90.0
 43
0.9691108896218025
 44
11.17601144310796
 45
0.00625
 46
0.003125
 79
     2
 49
0.0
 49
-0.00625
 47
0.0006001443632006
 98
        2
 10
5.693944427167668
 20
17.28314589849728
 10
5.690343553368808
 20
17.85303082789309
  0
HATCH
  5
1C9
330
2
100
AcDbEntity
  8
0
100
AcDbHatch
 10
0.0
 20
0.0
 30
0.0
210
0.0
220
0.0
230
1.0
  2
DASH
 70
     0
 71
     0
 91
        1
 92
        7
 72
     1
 73
     1
 93
       16
 10
5.836154367216483
 20
17.73824118864453
 42
0.4142135623730951
 10
5.820529367216483
 20
17.75386618864454
 42
0.0
 10
5.763692535348315
 20
17.75386618864454
 42
-0.3208708054700533
 10
5.742966867215915
 20
17.78675340058621
 42
0.0
 10
5.767154367216068
 20
17.82224118864437
 42
0.414213562373094
 10
5.751529367216068
 20
17.83786618864437
 42
0.0
 10
5.751529367216068
 20
17.86324118864544
 42
0.0
 10
5.97315436721529
 20
17.86324118864363
 42
0.0
 10
5.97315436721529
 20
17.26949118864453
 42
0.0
 10
5.751529367216068
 20
17.26949118864453
 42
0.0
 10
5.751529367216068
 20
17.2948661886447
 42
0.4142135623730951
 10
5.767154367216068
 20
17.3104911886447
 42
0.0
 10
5.742966867215915
 20
17.34636227889754
 42
-0.3359746306540741
 10
5.763329626267665
 20
17.37886618864453
 42
0.0
 10
5.820529367216483
 20
17.37886618864453
 42
0.4142135623730951
 10
5.836154367216483
 20
17.39449118864454
 42
0.0
 97
        0
 75
     0
 76
     1
 52
450.0
 41
0.1
 77
     0
 78
     1
 53
90.0
 43
0.9691108896218025
 44
11.17601144310796
 45
0.0125
 46
0.0125
 79
     2
 49
0.0125
 49
-0.0125
 47
0.0009600803746669
 98
        1
 10
5.886993639410508
 20
17.61538766872931
  0
HATCH
  5
1CA
330
2
100
AcDbEntity
  8
0
100
AcDbHatch
 10
0.0
 20
0.0
 30
0.0
210
0.0
220
0.0
230
1.0
  2
SOLID
 70
     1
 71
     0
 91
        1
 92
        7
 72
     1
 73
     1
 93
        2
 10
5.644654367216578
 20
17.98161118864442
 42
0.0
 10
5.832154367216549
 20
17.98161118864445
 42
0.6666666666666311
 97
        0
 75
     1
 76
     1
 47
0.0010014887122476
 98
        1
 10
5.759559563260712
 20
18.02767126499134
1001
GradientColor1ACI
1070
     5
1001
GradientColor2ACI
1070
     2
1001
ACAD
1010
0.0
1020
0.0
1030
0.0
  0
LINE
  5
1CB
330
2
100
AcDbEntity
  8
0
100
AcDbLine
 10
6.082154367216578
 20
17.15112118864465
 30
0.0
 11
5.973154367216199
 21
17.98161118864445
 31
0.0
  0
LWPOLYLINE
  5
1CC
330
2
100
AcDbEntity
  8
0
100
AcDbPolyline
 90
        8
 70
     0
 43
0.0
 10
6.082154367216578
 20
17.15112118864465
 10
6.082154367216578
 20
17.98161118864445
 10
5.973154367216199
 20
17.98161118864445
 10
5.973154367216199
 20
17.15112118864465
 10
6.082154367216578
 20
17.15112118864465
 10
5.973154367216199
 20
17.98161118864445
 10
5.973154367216199
 20
17.15112118864465
 10
6.082154367216578
 20
17.98161118864445
  0
LWPOLYLINE
  5
1CD
102
{ACAD_REACTORS
330
1D0
330
226
102
}
330
2
100
AcDbEntity
  8
0
100
AcDbPolyline
 90
       10
 70
     1
 43
0.0
 10
7.768753912937217
 20
16.679920207332
 10
7.488071913304469
 20
16.7294120168664
 10
7.426071913304458
 20
16.7294120168664
 10
7.426071913304458
 20
16.2919120168664
 42
0.4142135623730951
 10
7.488571913304458
 20
16.2294120168664
 10
12.48857191330445
 20
16.2294120168664
 42
0.4142135623730951
 10
12.55107191330445
 20
16.2919120168664
 10
12.55107191330445
 20
16.7294120168664
 10
12.48907191330444
 20
16.7294120168664
 10
12.20838991367158
 20
16.679920207332
  0
DIMENSION
  5
1CE
102
{ACAD_XDICTIONARY
360
1CF
102
}
102
{ACAD_REACTORS
330
1D0
102
}
330
2
100
AcDbEntity
  8
0
100
AcDbDimension
  2
*D14
 10
10.29204646015622
 20
16.2294120168664
 30
0.0
 11
10.97857191330452
 21
17.24169751148199
 31
0.0
 70
   128
 71
     5
 42
0.5
  3
Knife
100
AcDbAlignedDimension
 13
12.03857191330458
 23
16.7294120168664
 33
0.0
 14
12.48857191330445
 24
16.2294120168664
 34
0.0
 50
90.0
100
AcDbRotatedDimension
1001
ACAD
1000
DSTYLE
1002
{
1070
    40
1040
1.0
1002
}
  0
LWPOLYLINE
  5
1DF
330
2
100
AcDbEntity
  8
0
100
AcDbPolyline
 90
        8
 70
     1
 43
0.0
 10
12.0026361299093
 20
21.10391201686653
 10
12.25027171919395
 20
21.14757685264102
 10
12.00357191330467
 20
22.54668097668423
 10
12.00357191330467
 20
23.35491201686652
 10
12.64457191330466
 20
23.35491201686652
 42
-0.4142135623730951
 10
12.65957191330467
 20
23.33991201686652
 10
12.65957191330467
 20
20.29191201686652
 10
12.0026361299093
 20
20.29191201686652
  0
LWPOLYLINE
  5
1E0
330
2
100
AcDbEntity
  8
0
100
AcDbPolyline
 90
        8
 70
     1
 43
0.0
 10
7.974507696699522
 20
21.10391201686653
 10
7.72687210741488
 20
21.14757685264102
 10
7.973571913304159
 20
22.54668097668423
 10
7.973571913304159
 20
23.35491201686652
 10
7.332571913304168
 20
23.35491201686652
 42
0.4142135623730951
 10
7.317571913304153
 20
23.33991201686652
 10
7.317571913304153
 20
20.29191201686652
 10
7.974507696699522
 20
20.29191201686652
  0
LWPOLYLINE
  5
1E1
102
{ACAD_REACTORS
330
215
102
}
330
2
100
AcDbEntity
  8
0
100
AcDbPolyline
 90
       11
 70
     0
 43
0.0
 10
7.425071913304211
 20
23.35491201686652
 10
7.425071913304211
 20
23.54291201686844
 42
-0.4142135623730951
 10
7.48707191330229
 20
23.60491201686652
 10
12.48807191330613
 20
23.60491201686652
 42
-0.4142135623730951
 10
12.55007191330421
 20
23.54291201686844
 10
12.55007191330421
 20
23.35491201686652
 10
12.20707191330345
 20
23.35491201686652
 10
12.20707191330345
 20
23.41691201686824
 10
7.770071913305375
 20
23.41691201686824
 10
7.770071913305375
 20
23.35491201686652
 10
7.427071913304619
 20
23.35491201686652
  0
DIMENSION
  5
1E2
330
2
100
AcDbEntity
  8
0
100
AcDbDimension
  2
*D15
 10
11.62098554419399
 20
23.60491201686652
 30
0.0
 11
11.00548711693675
 21
22.86416434783607
 31
0.0
 70
   128
 71
     5
 42
0.25
  3
Knife
100
AcDbAlignedDimension
 13
12.00357191330467
 23
23.35491201686652
 33
0.0
 14
12.48807191330613
 24
23.60491201686652
 34
0.0
 50
90.0
100
AcDbRotatedDimension
1001
ACAD
1000
DSTYLE
1002
{
1070
    40
1040
1.0
1002
}
  0
TEXT
  5
1F1
330
2
100
AcDbEntity
  8
0
  6
Continuous
100
AcDbText
 10
7.81016085870759
 20
12.32684404251693
 30
0.0
 40
0.375
  1
6 9/16" JAMB C/W POCKET
 41
0.6
 51
5.0
  7
DIMTXT
100
AcDbText
  0
TEXT
  5
1F2
330
2
100
AcDbEntity
  8
0
  6
Continuous
100
AcDbText
 10
7.942516787691403
 20
12.98693342272934
 30
0.0
 40
0.375
  1
%%UTRANSOM / AWNING MULL
 41
0.6
 51
5.0
  7
DIMTXT
100
AcDbText
  0
DIMENSION
  5
1F3
330
2
100
AcDbEntity
  8
0
100
AcDbDimension
  2
*D16
 10
7.988571913304429
 20
19.76503322453946
 30
0.0
 11
9.988571913304413
 21
19.76503322453946
 31
0.0
 71
     5
 42
3.999999999999968
  3
Knife
100
AcDbAlignedDimension
 13
11.98857191330439
 23
19.76041201686647
 33
0.0
 14
7.988571913304429
 24
19.76041201686647
 34
0.0
 50
180.0
100
AcDbRotatedDimension
1001
ACAD
1000
DSTYLE
1002
{
1070
    40
1040
1.0
1002
}
  0
DIMENSION
  5
202
102
{ACAD_XDICTIONARY
360
203
102
}
102
{ACAD_REACTORS
330
204
102
}
330
2
100
AcDbEntity
  8
0
100
AcDbDimension
  2
*D17
 10
14.45548945939204
 20
14.35933208800344
 30
0.0
 11
9.987571913304295
 21
14.35933208800344
 31
0.0
 71
     5
 42
8.935835092175491
  3
Knife
100
AcDbAlignedDimension
 13
5.519654367216549
 23
17.0735964203582
 33
0.0
 14
14.45548945939204
 24
17.07376499628048
 34
0.0
 50
180.0
100
AcDbRotatedDimension
1001
ACAD
1000
DSTYLE
1002
{
1070
    40
1040
1.0
1002
}
  0
DIMENSION
  5
213
102
{ACAD_XDICTIONARY
360
214
102
}
102
{ACAD_REACTORS
330
215
102
}
330
2
100
AcDbEntity
  8
0
100
AcDbDimension
  2
*D18
 10
12.55007191330421
 20
24.16071227620147
 30
0.0
 11
9.98757191330421
 21
24.16071227620147
 31
0.0
 71
     5
 42
5.124999999999996
  3
Knife
100
AcDbAlignedDimension
 13
7.425071913304211
 23
23.54291201686844
 33
0.0
 14
12.55007191330421
 24
23.54291201686844
 34
0.0
 50
180.0
100
AcDbRotatedDimension
1001
ACAD
1000
DSTYLE
1002
{
1070
    40
1040
1.0
1002
}
  0
DIMENSION
  5
224
102
{ACAD_XDICTIONARY
360
225
102
}
102
{ACAD_REACTORS
330
226
102
}
330
2
100
AcDbEntity
  8
0
100
AcDbDimension
  2
*D19
 10
12.55107191330445
 20
15.62792857524425
 30
0.0
 11
9.988571913304456
 21
15.62792857524425
 31
0.0
 71
     5
 42
5.124999999999996
  3
Knife
100
AcDbAlignedDimension
 13
7.426071913304458
 23
16.2919120168664
 33
0.0
 14
12.55107191330445
 24
16.2919120168664
 34
0.0
 50
180.0
100
AcDbRotatedDimension
1001
ACAD
1000
DSTYLE
1002
{
1070
    40
1040
1.0
1002
}
  0
LINE
  5
235
330
2
100
AcDbEntity
  8
0
100
AcDbLine
 10
17.00935960499899
 20
34.04253769882455
 30
0.0
 11
18.30993425043996
 21
34.04253769882455
 31
0.0
  0
LINE
  5
236
330
2
100
AcDbEntity
  8
0
100
AcDbLine
 10
18.30993425043996
 20
34.04253769882455
 30
0.0
 11
18.30993425043996
 21
30.71295313429021
 31
0.0
  0
INSERT
  5
237
330
2
100
AcDbEntity
  8
0
100
AcDbBlockReference
  2
93OBW
 10
16.31560693070717
 20
32.27458026910192
 30
0.0
 42
-1.0
 43
2.0
  0
INSERT
  5
238
330
2
100
AcDbEntity
  8
0
100
AcDbBlockReference
  2
86NPF141
 10
16.63138402596613
 20
30.85731129725939
 30
0.0
 43
2.0
 50
180.0
  0
LINE
  5
239
330
2
100
AcDbEntity
  8
0
100
AcDbLine
 10
16.10373193070725
 20
31.93761171021144
 30
0.0
 11
16.10373193070725
 21
31.20061171021137
 31
0.0
  0
LINE
  5
23A
330
2
100
AcDbEntity
  8
0
100
AcDbLine
 10
16.10373193070725
 20
31.21886171021144
 30
0.0
 11
16.10373193070725
 21
31.90586171021134
 31
0.0
  0
INSERT
  5
23B
330
2
100
AcDbEntity
  8
0
100
AcDbBlockReference
  2
*U20
 10
14.22254505241997
 20
28.96616296011636
 30
0.0
1001
ACAD
1002
{
1000
R14_HATCH_DATA
1000
3651
1011
15.22254505241997
1021
28.96616296011636
1031
0.0
1011
14.22254505241997
1021
29.96616296011636
1031
0.0
1011
14.22254505241997
1021
28.96616296011636
1031
1.0
1040
0.0
1010
0.0
1020
0.0
1030
1.0
1000
SOLID
1070
     1
1070
     0
1071
        1
1071
        1
1071
        2
1070
     1
1040
1.881186878287213
1040
3.15944875009568
1040
1.881186878287314
1040
3.346448750095556
1070
     2
1040
1.760589222037213
1040
3.252948750095684
1040
0.1525976562500021
1040
-0.65950076747307
1040
0.6595007674730821
1070
     0
1071
        0
1070
     0
1070
     1
1071
        1
1040
4.812561040009144
1040
6.499794521109716
1040
0.0
1002
}
  0
LWPOLYLINE
  5
249
330
2
100
AcDbEntity
  8
0
100
AcDbPolyline
 90
       15
 70
     1
 43
0.0
 10
15.55773193070743
 20
30.72955309238152
 10
15.55773193070743
 20
30.97606207939537
 10
15.43273193070743
 20
30.97824396251183
 10
15.43273193070743
 20
32.66574396251183
 42
0.9999999999999998
 10
15.43273193070743
 20
32.79074396251183
 10
15.43273193070743
 20
33.85374396251193
 10
16.10373193070725
 20
33.85374396251193
 10
16.10373193070725
 20
33.41674396251112
 10
16.01073193070741
 20
33.41512064147302
 10
16.01073193070741
 20
33.16836728355013
 10
16.10373193070725
 20
33.16674396251112
 10
16.10373193070725
 20
30.32224396251188
 42
-0.4142135623730949
 10
16.0727319307073
 20
30.29124396251193
 10
15.48273193070716
 20
30.29124396251193
 10
15.48273193070716
 20
30.72824396251183
  0
LWPOLYLINE
  5
24A
330
2
100
AcDbEntity
  8
0
100
AcDbPolyline
 90
       22
 70
     0
 43
0.0
 10
16.33900705524937
 20
30.6247190110211
 10
16.33900705524937
 20
31.21869313428981
 10
16.54114947679525
 20
31.21869313428981
 10
16.54114947679525
 20
31.90344313428925
 42
-0.4142135623730951
 10
16.55614947679513
 20
31.91844313428958
 10
17.65053670692558
 20
31.91844313428958
 10
17.65053670692558
 20
31.82340418717142
 42
-0.3899024490717824
 10
17.85170955825268
 20
31.63840418717102
 10
17.90131678402375
 20
31.63840418717102
 10
17.90131678402375
 20
31.54344313428957
 10
17.77631678402375
 20
31.54344313428957
 42
0.6666666666666686
 10
17.58881678402375
 20
31.54344313428957
 10
17.33914947679503
 20
31.54344313428957
 10
17.33914947679503
 20
31.35735546466405
 42
0.9946524064171082
 10
17.33914947679503
 20
31.17035546466325
 10
17.33914947679503
 20
30.29471901102117
 10
16.46414947679503
 20
30.29471901102117
 42
-0.4142135623730951
 10
16.33914947679503
 20
30.41971901102118
 10
16.33914947679503
 20
30.54471901102117
 10
16.65564947679493
 20
30.54471901102117
 10
16.65564947679493
 20
30.6247190110211
 10
16.34314947679493
 20
30.6247190110211
  0
HATCH
  5
24B
330
2
100
AcDbEntity
  8
0
100
AcDbHatch
 10
0.0
 20
0.0
 30
0.0
210
0.0
220
0.0
230
1.0
  2
SOLID
 70
     1
 71
     0
 91
        1
 92
        7
 72
     1
 73
     1
 93
        2
 10
17.77664947679503
 20
30.71295313429021
 42
0.0
 10
17.58914947679503
 20
30.71295313429021
 42
0.6666666666666311
 97
        0
 75
     1
 76
     1
 47
0.0010014887122476
 98
        1
 10
17.66174428075081
 20
30.666893057943
1001
GradientColor1ACI
1070
     5
1001
GradientColor2ACI
1070
     2
1001
ACAD
1010
0.0
1020
0.0
1030
0.0
  0
LWPOLYLINE
  5
24C
330
2
100
AcDbEntity
  8
0
100
AcDbPolyline
 90
       11
 70
     1
 43
0.0
 10
17.58914947679503
 20
30.71295313429021
 10
17.33914947679503
 20
30.71295313429021
 10
17.33914947679503
 20
30.3389531342895
 10
17.62064947679508
 20
30.3389531342895
 42
0.4142135623731695
 10
17.65164947679503
 20
30.36995313428945
 10
17.65164947679503
 20
30.41647790257632
 42
-0.235730494161761
 10
17.66401777847412
 20
30.441254097152
 10
17.88928117511639
 20
30.61065217142771
 42
0.235730494161718
 10
17.90164947679503
 20
30.63542836600338
 10
17.90164947679503
 20
30.71295313429021
 10
17.77664947679503
 20
30.71295313429021
 42
-0.6666666666666588
  0
LWPOLYLINE
  5
24D
330
2
100
AcDbEntity
  8
0
100
AcDbPolyline
 90
        4
 70
     0
 43
0.0
 10
18.30993425043996
 20
31.42507313428943
 10
17.44814947679541
 20
31.42507313428943
 10
17.44814947679541
 20
31.54344313428957
 10
18.30993425043996
 20
31.54344313428957
  0
LWPOLYLINE
  5
24E
330
2
100
AcDbEntity
  8
0
100
AcDbPolyline
 90
        4
 70
     0
 43
0.0
 10
18.30993425043996
 20
30.83132313428944
 10
17.44814947679541
 20
30.83132313428944
 10
17.44814947679541
 20
30.71295313429021
 10
18.30993425043996
 20
30.71295313429021
  0
LWPOLYLINE
  5
24F
330
2
100
AcDbEntity
  8
0
100
AcDbPolyline
 90
       14
 70
     1
 43
0.0
 10
17.65797421774394
 20
30.94069813428943
 42
-0.3359746306540741
 10
17.67833697679569
 20
30.90819422454244
 10
17.65414947679554
 20
30.8723231342896
 42
0.4142135623730951
 10
17.66977447679554
 20
30.8566981342896
 10
17.8513994767957
 20
30.8566981342896
 10
17.8513994767957
 20
31.39969813428927
 10
17.66977447679554
 20
31.39969813428927
 42
0.414213562373094
 10
17.65414947679554
 20
31.38407313428927
 10
17.67833697679569
 20
31.34858534623111
 42
-0.3208708054700532
 10
17.65761130866329
 20
31.31569813428944
 10
17.60077447679512
 20
31.31569813428944
 42
0.4142135623730951
 10
17.58514947679512
 20
31.30007313428944
 10
17.58514947679512
 20
30.95632313428943
 42
0.4142135623730951
 10
17.60077447679512
 20
30.94069813428943
  0
LWPOLYLINE
  5
250
330
2
100
AcDbEntity
  8
0
100
AcDbPolyline
 90
       14
 70
     1
 43
0.0
 10
17.65919261788829
 20
30.94769813428995
 42
-0.3593608004949541
 10
17.68509663376906
 20
30.90569824696597
 10
17.66134886705029
 20
30.87047929985367
 42
0.3524310491054993
 10
17.66977447679554
 20
30.86369813428921
 10
17.8513994767957
 20
30.86369813428921
 10
17.8513994767957
 20
31.39269813428966
 10
17.66977447679554
 20
31.39269813428966
 42
0.3518693664465323
 10
17.66135256943406
 20
31.38593380658806
 10
17.6851560736134
 20
31.35100941542207
 42
-0.3446308864324803
 10
17.65891715961177
 20
31.30869813428892
 10
17.60077447679512
 20
31.30869813428892
 42
0.4142135623730946
 10
17.59214947679564
 20
31.30007313428944
 10
17.59214947679564
 20
30.95632313428943
 42
0.4142135623730946
 10
17.60077447679512
 20
30.94769813428995
  0
LWPOLYLINE
  5
251
330
2
100
AcDbEntity
  8
0
100
AcDbPolyline
 90
       10
 70
     1
 43
0.0
 10
17.66271197679569
 20
30.97194813428944
 42
-0.3584554666094669
 10
17.70958697679569
 20
30.90704428813608
 10
17.70958697679569
 20
30.8879481342896
 10
17.8201494767957
 20
30.8879481342896
 10
17.8201494767957
 20
31.36844813428927
 10
17.70958697679569
 20
31.36844813428927
 10
17.70958697679569
 20
31.34935198044279
 42
-0.3467993108968364
 10
17.66271197679569
 20
31.28444813428944
 10
17.61639947679512
 20
31.28444813428944
 10
17.61639947679512
 20
30.97194813428944
  0
LWPOLYLINE
  5
252
330
2
100
AcDbEntity
  8
0
100
AcDbPolyline
 90
        6
 70
     0
 43
0.0
 10
17.82314947679541
 20
30.8566981342896
 10
17.82314947679541
 20
30.84694813428944
 10
17.86114947679587
 20
30.84694813428944
 10
17.86114947679587
 20
31.40944813428943
 10
17.82314947679541
 20
31.40944813428943
 10
17.82314947679541
 20
31.39969813428927
  0
LINE
  5
253
330
2
100
AcDbEntity
  8
0
100
AcDbLine
 10
17.66977447679554
 20
31.39969813428927
 30
0.0
 11
17.66977447679554
 21
31.42507313428943
 31
0.0
  0
LINE
  5
254
330
2
100
AcDbEntity
  8
0
100
AcDbLine
 10
17.82314947679541
 20
31.39969813428927
 30
0.0
 11
17.82314947679541
 21
31.42507313428943
 31
0.0
  0
LINE
  5
255
330
2
100
AcDbEntity
  8
0
100
AcDbLine
 10
17.66977447679554
 20
30.8566981342896
 30
0.0
 11
17.66977447679554
 21
30.83132313428944
 31
0.0
  0
LINE
  5
256
330
2
100
AcDbEntity
  8
0
100
AcDbLine
 10
17.82314947679541
 20
30.8566981342896
 30
0.0
 11
17.82314947679541
 21
30.83132313428944
 31
0.0
  0
HATCH
  5
257
330
2
100
AcDbEntity
  8
0
100
AcDbHatch
 10
0.0
 20
0.0
 30
0.0
210
0.0
220
0.0
230
1.0
  2
DOTS
 70
     0
 71
     0
 91
        2
 92
        7
 72
     0
 73
     1
 93
        4
 10
17.66977447679554
 20
30.8566981342896
 10
17.66977447679554
 20
30.83132313428944
 10
17.82314947679541
 20
30.83132313428944
 10
17.82314947679541
 20
30.8566981342896
 97
        0
 92
        7
 72
     0
 73
     1
 93
        4
 10
17.66977447679554
 20
31.42507313428943
 10
17.66977447679554
 20
31.39969813428927
 10
17.82314947679541
 20
31.39969813428927
 10
17.82314947679541
 20
31.42507313428943
 97
        0
 75
     0
 76
     1
 52
450.0
 41
0.1
 77
     0
 78
     1
 53
90.0
 43
24.18664972161176
 44
24.73784338875287
 45
-0.00625
 46
0.003125
 79
     2
 49
0.0
 49
-0.00625
 47
0.0006001443632006
 98
        2
 10
17.72735941684394
 20
30.84497784414218
 10
17.7309602906428
 20
31.41486277353799
  0
HATCH
  5
258
330
2
100
AcDbEntity
  8
0
100
AcDbHatch
 10
0.0
 20
0.0
 30
0.0
210
0.0
220
0.0
230
1.0
  2
DASH
 70
     0
 71
     0
 91
        1
 92
        7
 72
     1
 73
     1
 93
       16
 10
17.58514947679512
 20
31.30007313428944
 42
-0.4142135623730951
 10
17.60077447679512
 20
31.31569813428944
 42
0.0
 10
17.65761130866329
 20
31.31569813428944
 42
0.3208708054700533
 10
17.67833697679569
 20
31.34858534623111
 42
0.0
 10
17.65414947679554
 20
31.38407313428927
 42
-0.414213562373094
 10
17.66977447679554
 20
31.39969813428927
 42
0.0
 10
17.66977447679554
 20
31.42507313429034
 42
0.0
 10
17.44814947679631
 20
31.42507313428853
 42
0.0
 10
17.44814947679631
 20
30.83132313428944
 42
0.0
 10
17.66977447679554
 20
30.83132313428944
 42
0.0
 10
17.66977447679554
 20
30.8566981342896
 42
-0.4142135623730951
 10
17.65414947679554
 20
30.8723231342896
 42
0.0
 10
17.67833697679569
 20
30.90819422454244
 42
0.3359746306540741
 10
17.65797421774394
 20
30.94069813428943
 42
0.0
 10
17.60077447679512
 20
30.94069813428943
 42
-0.4142135623730951
 10
17.58514947679512
 20
30.95632313428943
 42
0.0
 97
        0
 75
     0
 76
     1
 52
450.0
 41
0.1
 77
     0
 78
     1
 53
90.0
 43
24.18664972161176
 44
24.73784338875287
 45
-0.0125
 46
0.0125
 79
     2
 49
0.0125
 49
-0.0125
 47
0.0009600803746669
 98
        1
 10
17.5343102046011
 20
31.17721961437421
  0
HATCH
  5
259
330
2
100
AcDbEntity
  8
0
100
AcDbHatch
 10
0.0
 20
0.0
 30
0.0
210
0.0
220
0.0
230
1.0
  2
SOLID
 70
     1
 71
     0
 91
        1
 92
        7
 72
     1
 73
     1
 93
        2
 10
17.77664947679503
 20
31.54344313428957
 42
0.0
 10
17.58914947679503
 20
31.54344313428957
 42
-0.6666666666666311
 97
        0
 75
     1
 76
     1
 47
0.0010014887122476
 98
        1
 10
17.66174428075081
 20
31.58950321063678
1001
GradientColor1ACI
1070
     5
1001
GradientColor2ACI
1070
     2
1001
ACAD
1010
0.0
1020
0.0
1030
0.0
  0
LINE
  5
25A
330
2
100
AcDbEntity
  8
0
100
AcDbLine
 10
17.33914947679503
 20
30.71295313429021
 30
0.0
 11
17.44814947679541
 21
31.54344313428957
 31
0.0
  0
LWPOLYLINE
  5
25B
330
2
100
AcDbEntity
  8
0
100
AcDbPolyline
 90
        8
 70
     0
 43
0.0
 10
17.33914947679503
 20
30.71295313429021
 10
17.33914947679503
 20
31.54344313428957
 10
17.44814947679541
 20
31.54344313428957
 10
17.44814947679541
 20
30.71295313429021
 10
17.33914947679503
 20
30.71295313429021
 10
17.44814947679541
 20
31.54344313428957
 10
17.44814947679541
 20
30.71295313429021
 10
17.33914947679503
 20
31.54344313428957
  0
INSERT
  5
25C
330
2
100
AcDbEntity
  8
0
100
AcDbBlockReference
  2
11SCREEN
 10
17.10190339936551
 20
33.10816826490229
 30
0.0
 43
2.0
  0
LINE
  5
285
330
2
100
AcDbEntity
  8
0
100
AcDbLine
 10
17.73175339936577
 20
33.54566826490229
 30
0.0
 11
18.30993425043996
 21
33.54566826490229
 31
0.0
  0
LINE
  5
286
330
2
100
AcDbEntity
  8
0
100
AcDbLine
 10
17.57550339936577
 20
33.10816826490229
 30
0.0
 11
18.30993425043996
 21
33.10816826490229
 31
0.0
  0
LWPOLYLINE
  5
287
330
2
100
AcDbEntity
  8
0
100
AcDbPolyline
 90
       22
 70
     1
 43
0.0
 10
16.02560693070725
 20
33.3799217764312
 10
16.02560693070725
 20
33.17058026910165
 10
16.10360693070723
 20
33.17058026910165
 10
16.10360693070723
 20
32.31258026910147
 42
-0.3422459893048229
 10
16.10360693070723
 20
32.12558026910158
 10
16.10360693070723
 20
31.93858026910168
 10
16.31560693070722
 20
31.93858026910168
 10
16.31560693070722
 20
32.3255802691023
 10
16.39560693070714
 20
32.3255802691023
 10
16.39560693070714
 20
32.04458026910145
 10
16.57260693070728
 20
32.04458026910145
 10
16.57260693070728
 20
32.81558026910209
 10
16.47260693070737
 20
32.81558026910209
 10
16.47260693070737
 20
32.90558026910223
 10
16.57260693070728
 20
32.90558026910223
 10
16.57260693070728
 20
33.35790743278851
 10
16.49260693070735
 20
33.35790743278851
 10
16.49260693070735
 20
33.48290743278851
 10
16.57260693070728
 20
33.48290743278851
 10
16.57260693070728
 20
33.73340743278861
 10
16.10360693070723
 20
33.73340743278861
 10
16.10360693070723
 20
33.38805538650688
  0
LWPOLYLINE
  5
288
330
2
100
AcDbEntity
  8
0
100
AcDbPolyline
 90
       15
 70
     0
 43
0.0
 10
16.57260850852461
 20
32.93661123195618
 10
16.57260850852461
 20
33.76103722056944
 10
16.57260850852461
 20
32.93661123195618
 10
17.09260850852459
 20
32.93661123195618
 10
17.09260850852459
 20
31.99121005688214
 10
17.16760850852441
 20
31.91621005688232
 10
17.29260850852441
 20
31.91621005688232
 10
17.29260850852441
 20
33.04261943839394
 42
0.4142135623730951
 10
17.23060850852451
 20
33.10461943839384
 10
17.04223618281619
 20
33.10461943839384
 10
17.04223618281619
 20
33.97953722056938
 42
0.4142135623730982
 10
16.9802361828163
 20
34.04153722056928
 10
16.10410850852466
 20
34.04153722056928
 10
16.10410850852466
 20
33.76103722056944
 10
16.57260850852461
 20
33.76103722056944
  0
LINE
  5
289
330
2
100
AcDbEntity
  8
0
100
AcDbLine
 10
17.01060693070738
 20
32.56543664467101
 30
0.0
 11
16.57260693070728
 21
32.56543664467101
 31
0.0
  0
LINE
  5
28A
330
2
100
AcDbEntity
  8
0
100
AcDbLine
 10
17.01060693070738
 20
32.22343664467046
 30
0.0
 11
16.57260693070728
 21
32.22343664467046
 31
0.0
  0
LINE
  5
28B
330
2
100
AcDbEntity
  8
0
100
AcDbLine
 10
16.85860693070734
 20
32.88493664467062
 30
0.0
 11
16.85860693070734
 21
31.07293664467072
 31
0.0
  0
LINE
  5
28C
330
2
100
AcDbEntity
  8
0
100
AcDbLine
 10
16.95160693070718
 20
32.88493664467062
 30
0.0
 11
16.95160693070718
 21
31.07293664467072
 31
0.0
  0
LINE
  5
28D
330
2
100
AcDbEntity
  8
0
100
AcDbLine
 10
16.95160693070718
 20
32.88493664467062
 30
0.0
 11
16.85860693070734
 21
32.88493664467062
 31
0.0
  0
LINE
  5
28E
330
2
100
AcDbEntity
  8
0
100
AcDbLine
 10
17.07260693070728
 20
32.17643664467089
 30
0.0
 11
17.07260693070728
 21
32.61243664467058
 31
0.0
  0
LINE
  5
28F
330
2
100
AcDbEntity
  8
0
100
AcDbLine
 10
17.01060693070738
 20
32.17643664467089
 30
0.0
 11
17.01060693070738
 21
32.61243664467058
 31
0.0
  0
LINE
  5
290
330
2
100
AcDbEntity
  8
0
100
AcDbLine
 10
17.07260693070728
 20
32.17643664467089
 30
0.0
 11
17.01060693070738
 21
32.17643664467089
 31
0.0
  0
LINE
  5
291
330
2
100
AcDbEntity
  8
0
100
AcDbLine
 10
17.07260693070728
 20
32.61243664467058
 30
0.0
 11
17.01060693070738
 21
32.61243664467058
 31
0.0
  0
LINE
  5
292
330
2
100
AcDbEntity
  8
0
100
AcDbLine
 10
16.89266761657362
 20
31.35509869709169
 30
0.0
 11
16.98566761657346
 21
31.48464339856984
 31
0.0
  0
LINE
  5
293
330
2
100
AcDbEntity
  8
0
100
AcDbLine
 10
16.89266761657362
 20
31.35509869709169
 30
0.0
 11
16.86166761657367
 21
31.38609869709164
 31
0.0
  0
LINE
  5
294
330
2
100
AcDbEntity
  8
0
100
AcDbLine
 10
16.92366761657356
 20
31.45364339856899
 30
0.0
 11
16.97039700727626
 21
31.45364339856899
 31
0.0
  0
LINE
  5
295
330
2
100
AcDbEntity
  8
0
100
AcDbLine
 10
16.89266761657362
 20
31.48464339856984
 30
0.0
 11
16.92366761657356
 21
31.45364339856899
 31
0.0
  0
LINE
  5
296
330
2
100
AcDbEntity
  8
0
100
AcDbLine
 10
16.79966761657331
 20
31.35509869709169
 30
0.0
 11
16.89266761657362
 21
31.48464339856984
 31
0.0
  0
LINE
  5
297
330
2
100
AcDbEntity
  8
0
100
AcDbLine
 10
16.86166761657367
 20
31.38609869709164
 30
0.0
 11
16.8146487089555
 21
31.38609869709164
 31
0.0
  0
LINE
  5
298
330
2
100
AcDbEntity
  8
0
100
AcDbLine
 10
16.79966761657331
 20
31.35509869709169
 30
0.0
 11
16.76866761657336
 21
31.38609869709164
 31
0.0
  0
LINE
  5
299
330
2
100
AcDbEntity
  8
0
100
AcDbLine
 10
16.83066761657326
 20
31.45364339856899
 30
0.0
 11
16.87739700727641
 21
31.45364339856899
 31
0.0
  0
LINE
  5
29A
330
2
100
AcDbEntity
  8
0
100
AcDbLine
 10
16.79966761657331
 20
31.48464339856984
 30
0.0
 11
16.83066761657326
 21
31.45364339856899
 31
0.0
  0
LINE
  5
29B
330
2
100
AcDbEntity
  8
0
100
AcDbLine
 10
16.77741275036058
 20
31.45364339856899
 30
0.0
 11
16.79966761657331
 21
31.48464339856984
 31
0.0
  0
LINE
  5
29C
330
2
100
AcDbEntity
  8
0
100
AcDbLine
 10
16.76866761657336
 20
31.38609869709164
 30
0.0
 11
16.72164870895565
 21
31.38609869709164
 31
0.0
  0
LINE
  5
29D
330
2
100
AcDbEntity
  8
0
100
AcDbLine
 10
16.73766761657342
 20
31.45364339856899
 30
0.0
 11
16.78439700727657
 21
31.45364339856899
 31
0.0
  0
LINE
  5
29E
330
2
100
AcDbEntity
  8
0
100
AcDbLine
 10
16.90095396895484
 20
31.38609869709164
 30
0.0
 11
16.64695396895448
 21
31.38609869709164
 31
0.0
  0
LINE
  5
29F
330
2
100
AcDbEntity
  8
0
100
AcDbLine
 10
16.64695396895448
 20
31.45364339856899
 30
0.0
 11
16.91668335965758
 21
31.45364339856899
 31
0.0
  0
LINE
  5
2A0
330
2
100
AcDbEntity
  8
0
100
AcDbLine
 10
16.95466761657351
 20
31.38609869709164
 30
0.0
 11
16.90792540833152
 21
31.38609869709164
 31
0.0
  0
LINE
  5
2A1
330
2
100
AcDbEntity
  8
0
100
AcDbLine
 10
16.98566761657346
 20
31.35509869709169
 30
0.0
 11
16.95466761657351
 21
31.38609869709164
 31
0.0
  0
LINE
  5
2A2
330
2
100
AcDbEntity
  8
0
100
AcDbLine
 10
16.98566761657346
 20
31.35509869709169
 30
0.0
 11
17.07866761657331
 21
31.48464339856984
 31
0.0
  0
LINE
  5
2A3
330
2
100
AcDbEntity
  8
0
100
AcDbLine
 10
17.01666761657341
 20
31.45364339856899
 30
0.0
 11
17.06274475684384
 21
31.45364339856899
 31
0.0
  0
LINE
  5
2A4
330
2
100
AcDbEntity
  8
0
100
AcDbLine
 10
16.98566761657346
 20
31.48464339856984
 30
0.0
 11
17.01666761657341
 21
31.45364339856899
 31
0.0
  0
LINE
  5
2A5
330
2
100
AcDbEntity
  8
0
100
AcDbLine
 10
16.54114947679525
 20
31.41987104783077
 30
0.0
 11
16.54114947679525
 21
31.54487104783077
 31
0.0
  0
LINE
  5
2A6
330
2
100
AcDbEntity
  8
0
100
AcDbLine
 10
16.54114947679525
 20
31.54487104783077
 30
0.0
 11
16.64695396895448
 21
31.45364339856899
 31
0.0
  0
LINE
  5
2A7
330
2
100
AcDbEntity
  8
0
100
AcDbLine
 10
16.54114947679525
 20
31.41987104783077
 30
0.0
 11
16.54114947679525
 21
31.29487104783077
 31
0.0
  0
LINE
  5
2A8
330
2
100
AcDbEntity
  8
0
100
AcDbLine
 10
16.54114947679525
 20
31.29487104783077
 30
0.0
 11
16.64695396895448
 21
31.38609869709164
 31
0.0
  0
LINE
  5
2A9
330
2
100
AcDbEntity
  8
0
100
AcDbLine
 10
16.67766761657347
 20
31.38609869709164
 30
0.0
 11
16.65564870895585
 21
31.38609869709164
 31
0.0
  0
LINE
  5
2AA
330
2
100
AcDbEntity
  8
0
100
AcDbLine
 10
16.67166761657361
 20
31.45364339856899
 30
0.0
 11
16.69339700727622
 21
31.45364339856899
 31
0.0
  0
LINE
  5
2AB
330
2
100
AcDbEntity
  8
0
100
AcDbLine
 10
17.05186923072759
 20
31.39116928535843
 30
0.0
 11
17.00512702248559
 21
31.39116928535843
 31
0.0
  0
LINE
  5
2AC
330
2
100
AcDbEntity
  8
0
100
AcDbLine
 10
17.08286923072754
 20
31.36016928535848
 30
0.0
 11
17.05186923072759
 21
31.39116928535843
 31
0.0
  0
LINE
  5
2AD
330
2
100
AcDbEntity
  8
0
100
AcDbLine
 10
17.08286923072754
 20
31.36016928535848
 30
0.0
 11
17.14997419472436
 21
31.45364339856899
 31
0.0
  0
LINE
  5
2AE
330
2
100
AcDbEntity
  8
0
100
AcDbLine
 10
17.10966761657372
 20
31.45364339856899
 30
0.0
 11
17.15574475684369
 21
31.45364339856899
 31
0.0
  0
LINE
  5
2AF
330
2
100
AcDbEntity
  8
0
100
AcDbLine
 10
17.07866761657331
 20
31.48464339856984
 30
0.0
 11
17.10966761657372
 21
31.45364339856899
 31
0.0
  0
LINE
  5
2B0
330
2
100
AcDbEntity
  8
0
100
AcDbLine
 10
17.10312409694077
 20
31.39116928535843
 30
0.0
 11
17.28686312441394
 21
31.41987104783077
 31
0.0
  0
LINE
  5
2B1
330
2
100
AcDbEntity
  8
0
100
AcDbLine
 10
17.14797419472441
 20
31.45364339856899
 30
0.0
 11
17.28686312441394
 21
31.41987104783077
 31
0.0
  0
LINE
  5
2B2
330
2
100
AcDbEntity
  8
0
100
AcDbLine
 10
16.85860693070734
 20
31.07293664467072
 30
0.0
 11
16.95160693070718
 21
31.07293664467072
 31
0.0
  0
LWPOLYLINE
  5
2B3
330
2
100
AcDbEntity
  8
0
100
AcDbPolyline
 90
        4
 70
     0
 43
0.02
 10
17.63550053180077
 20
33.31558506625008
 10
17.63550053180077
 20
33.22368529042835
 42
0.4142135623730951
 10
17.68200053180069
 20
33.17718529042797
 10
18.30993425043996
 20
33.17718529042797
  0
LWPOLYLINE
  5
2B4
330
2
100
AcDbEntity
  8
0
100
AcDbPolyline
 90
        2
 70
     1
 43
0.03125
 10
17.61987553180077
 20
33.31558506625008
 42
1.0
 10
17.65112553180077
 20
33.31558506625008
 42
1.0
  0
LINE
  5
2B5
330
2
100
AcDbEntity
  8
0
100
AcDbLine
 10
16.57248350852413
 20
34.04212792654873
 30
0.0
 11
16.57248350852413
 21
34.13512792654858
 31
0.0
  0
LINE
  5
2B6
330
2
100
AcDbEntity
  8
0
100
AcDbLine
 10
16.60448350852337
 20
34.16712792654873
 30
0.0
 11
16.91548350852307
 21
34.16712792654873
 31
0.0
  0
ARC
  5
2B7
330
2
100
AcDbEntity
  8
0
100
AcDbCircle
 10
16.60448350852337
 20
34.13512792654858
 30
0.0
 40
0.032
100
AcDbArc
 50
90.0
 51
180.0
  0
LINE
  5
2B8
330
2
100
AcDbEntity
  8
0
100
AcDbLine
 10
16.94748350852413
 20
34.13512792654858
 30
0.0
 11
16.94748350852413
 21
34.04212792654873
 31
0.0
  0
ARC
  5
2B9
330
2
100
AcDbEntity
  8
0
100
AcDbCircle
 10
16.91548350852307
 20
34.13512792654858
 30
0.0
 40
0.032
100
AcDbArc
 50
0.0
 51
90.0
  0
LINE
  5
2BA
330
2
100
AcDbEntity
  8
0
100
AcDbLine
 10
16.60448350852337
 20
34.16712792654873
 30
0.0
 11
16.60448350852337
 21
34.76212792654898
 31
0.0
  0
LINE
  5
2BB
330
2
100
AcDbEntity
  8
0
100
AcDbLine
 10
16.66648350852327
 20
34.82412792654888
 30
0.0
 11
16.96333509596868
 21
34.82412792654888
 31
0.0
  0
ARC
  5
2BC
330
2
100
AcDbEntity
  8
0
100
AcDbCircle
 10
16.66648350852327
 20
34.76212792654898
 30
0.0
 40
0.062
100
AcDbArc
 50
90.0
 51
180.0
  0
LINE
  5
2BD
330
2
100
AcDbEntity
  8
0
100
AcDbLine
 10
16.81213471794243
 20
34.16712792654873
 30
0.0
 11
16.81213471794243
 21
34.37914052611943
 31
0.0
  0
LINE
  5
2BE
330
2
100
AcDbEntity
  8
0
100
AcDbLine
 10
16.82116296508164
 20
34.41135843106115
 30
0.0
 11
17.00899313997459
 21
34.72018340345532
 31
0.0
  0
ARC
  5
2BF
330
2
100
AcDbEntity
  8
0
100
AcDbCircle
 10
16.87413471794232
 20
34.37914052611943
 30
0.0
 40
0.062
100
AcDbArc
 50
148.6916501890062
 51
180.0
  0
ARC
  5
2C0
330
2
100
AcDbEntity
  8
0
100
AcDbCircle
 10
16.96333509596868
 20
34.76212792654898
 30
0.0
 40
0.062
100
AcDbArc
 50
317.4273462976114
 51
90.0
  0
INSERT
  5
2C1
330
2
100
AcDbEntity
  8
0
100
AcDbBlockReference
  2
11HINGE
 10
16.10314947679525
 20
31.93643734588015
 30
0.0
 42
-1.0
 43
2.0
  0
LINE
  5
2C2
330
2
100
AcDbEntity
  8
0
100
AcDbLine
 10
7.39979889032449
 20
34.04253769882455
 30
0.0
 11
8.700373535765464
 21
34.04253769882455
 31
0.0
  0
LINE
  5
2C3
330
2
100
AcDbEntity
  8
0
100
AcDbLine
 10
8.700373535765464
 20
34.04253769882455
 30
0.0
 11
8.700373535765464
 21
30.71295313429021
 31
0.0
  0
INSERT
  5
2C4
330
2
100
AcDbEntity
  8
0
100
AcDbBlockReference
  2
93OBW
 10
6.706046216032674
 20
32.27458026910192
 30
0.0
 42
-1.0
 43
2.0
  0
INSERT
  5
2C5
330
2
100
AcDbEntity
  8
0
100
AcDbBlockReference
  2
86NPF141
 10
7.021823311291626
 20
30.85731129725939
 30
0.0
 43
2.0
 50
180.0
  0
LINE
  5
2C6
330
2
100
AcDbEntity
  8
0
100
AcDbLine
 10
6.494171216032754
 20
31.93761171021144
 30
0.0
 11
6.494171216032754
 21
31.20061171021137
 31
0.0
  0
LINE
  5
2C7
330
2
100
AcDbEntity
  8
0
100
AcDbLine
 10
6.494171216032754
 20
31.21886171021144
 30
0.0
 11
6.494171216032754
 21
31.90586171021134
 31
0.0
  0
INSERT
  5
2C8
330
2
100
AcDbEntity
  8
0
100
AcDbBlockReference
  2
*U21
 10
4.612984337745473
 20
28.96616296011636
 30
0.0
1001
ACAD
1002
{
1000
R14_HATCH_DATA
1000
3651
1011
5.612984337745473
1021
28.96616296011636
1031
0.0
1011
4.612984337745473
1021
29.96616296011636
1031
0.0
1011
4.612984337745473
1021
28.96616296011636
1031
1.0
1040
0.0
1010
0.0
1020
0.0
1030
1.0
1000
SOLID
1070
     1
1070
     0
1071
        1
1071
        1
1071
        2
1070
     1
1040
1.881186878287213
1040
3.15944875009568
1040
1.881186878287314
1040
3.346448750095556
1070
     2
1040
1.760589222037213
1040
3.252948750095684
1040
0.1525976562500021
1040
-0.65950076747307
1040
0.6595007674730821
1070
     0
1071
        0
1070
     0
1070
     1
1071
        1
1040
4.812561040009144
1040
6.499794521109716
1040
0.0
1002
}
  0
LWPOLYLINE
  5
2D6
330
2
100
AcDbEntity
  8
0
100
AcDbPolyline
 90
       15
 70
     1
 43
0.0
 10
5.948171216032932
 20
30.72955309238152
 10
5.948171216032932
 20
30.97606207939537
 10
5.823171216032932
 20
30.97824396251183
 10
5.823171216032932
 20
32.66574396251183
 42
0.9999999999999998
 10
5.823171216032932
 20
32.79074396251183
 10
5.823171216032932
 20
33.85374396251193
 10
6.494171216032754
 20
33.85374396251193
 10
6.494171216032754
 20
33.41674396251112
 10
6.401171216032906
 20
33.41512064147302
 10
6.401171216032906
 20
33.16836728355013
 10
6.494171216032754
 20
33.16674396251112
 10
6.494171216032754
 20
30.32224396251188
 42
-0.4142135623730949
 10
6.463171216032804
 20
30.29124396251193
 10
5.873171216032659
 20
30.29124396251193
 10
5.873171216032659
 20
30.72824396251183
  0
LWPOLYLINE
  5
2D7
330
2
100
AcDbEntity
  8
0
100
AcDbPolyline
 90
       22
 70
     0
 43
0.0
 10
6.729446340574867
 20
30.6247190110211
 10
6.729446340574867
 20
31.21869313428981
 10
6.931588762120753
 20
31.21869313428981
 10
6.931588762120753
 20
31.90344313428925
 42
-0.4142135623730951
 10
6.946588762120626
 20
31.91844313428958
 10
8.040975992251077
 20
31.91844313428958
 10
8.040975992251077
 20
31.82340418717142
 42
-0.3899024490717824
 10
8.242148843578178
 20
31.63840418717102
 10
8.291756069349247
 20
31.63840418717102
 10
8.291756069349247
 20
31.54344313428957
 10
8.166756069349247
 20
31.54344313428957
 42
0.6666666666666686
 10
7.979256069349247
 20
31.54344313428957
 10
7.729588762120528
 20
31.54344313428957
 10
7.729588762120528
 20
31.35735546466405
 42
0.9946524064171082
 10
7.729588762120528
 20
31.17035546466325
 10
7.729588762120528
 20
30.29471901102117
 10
6.854588762120528
 20
30.29471901102117
 42
-0.4142135623730951
 10
6.729588762120528
 20
30.41971901102118
 10
6.729588762120528
 20
30.54471901102117
 10
7.046088762120433
 20
30.54471901102117
 10
7.046088762120433
 20
30.6247190110211
 10
6.733588762120433
 20
30.6247190110211
  0
HATCH
  5
2D8
330
2
100
AcDbEntity
  8
0
100
AcDbHatch
 10
0.0
 20
0.0
 30
0.0
210
0.0
220
0.0
230
1.0
  2
SOLID
 70
     1
 71
     0
 91
        1
 92
        7
 72
     1
 73
     1
 93
        2
 10
8.167088762120528
 20
30.71295313429021
 42
0.0
 10
7.979588762120528
 20
30.71295313429021
 42
0.6666666666666311
 97
        0
 75
     1
 76
     1
 47
0.0010014887122476
 98
        1
 10
8.052183566076308
 20
30.666893057943
1001
GradientColor1ACI
1070
     5
1001
GradientColor2ACI
1070
     2
1001
ACAD
1010
0.0
1020
0.0
1030
0.0
  0
LWPOLYLINE
  5
2D9
330
2
100
AcDbEntity
  8
0
100
AcDbPolyline
 90
       11
 70
     1
 43
0.0
 10
7.979588762120528
 20
30.71295313429021
 10
7.729588762120528
 20
30.71295313429021
 10
7.729588762120528
 20
30.3389531342895
 10
8.011088762120579
 20
30.3389531342895
 42
0.4142135623731695
 10
8.042088762120528
 20
30.36995313428945
 10
8.042088762120528
 20
30.41647790257632
 42
-0.235730494161761
 10
8.054457063799617
 20
30.441254097152
 10
8.279720460441893
 20
30.61065217142771
 42
0.235730494161718
 10
8.292088762120528
 20
30.63542836600338
 10
8.292088762120528
 20
30.71295313429021
 10
8.167088762120528
 20
30.71295313429021
 42
-0.6666666666666588
  0
LWPOLYLINE
  5
2DA
330
2
100
AcDbEntity
  8
0
100
AcDbPolyline
 90
        4
 70
     0
 43
0.0
 10
8.700373535765464
 20
31.42507313428943
 10
7.838588762120906
 20
31.42507313428943
 10
7.838588762120906
 20
31.54344313428957
 10
8.700373535765464
 20
31.54344313428957
  0
LWPOLYLINE
  5
2DB
330
2
100
AcDbEntity
  8
0
100
AcDbPolyline
 90
        4
 70
     0
 43
0.0
 10
8.700373535765464
 20
30.83132313428944
 10
7.838588762120906
 20
30.83132313428944
 10
7.838588762120906
 20
30.71295313429021
 10
8.700373535765464
 20
30.71295313429021
  0
LWPOLYLINE
  5
2DC
330
2
100
AcDbEntity
  8
0
100
AcDbPolyline
 90
       14
 70
     1
 43
0.0
 10
8.04841350306944
 20
30.94069813428943
 42
-0.3359746306540741
 10
8.06877626212119
 20
30.90819422454244
 10
8.044588762121037
 20
30.8723231342896
 42
0.4142135623730951
 10
8.060213762121037
 20
30.8566981342896
 10
8.241838762121204
 20
30.8566981342896
 10
8.241838762121204
 20
31.39969813428927
 10
8.060213762121037
 20
31.39969813428927
 42
0.414213562373094
 10
8.044588762121037
 20
31.38407313428927
 10
8.06877626212119
 20
31.34858534623111
 42
-0.3208708054700532
 10
8.04805059398879
 20
31.31569813428944
 10
7.991213762120622
 20
31.31569813428944
 42
0.4142135623730951
 10
7.975588762120622
 20
31.30007313428944
 10
7.975588762120622
 20
30.95632313428943
 42
0.4142135623730951
 10
7.991213762120622
 20
30.94069813428943
  0
LWPOLYLINE
  5
2DD
330
2
100
AcDbEntity
  8
0
100
AcDbPolyline
 90
       14
 70
     1
 43
0.0
 10
8.049631903213793
 20
30.94769813428995
 42
-0.3593608004949541
 10
8.075535919094562
 20
30.90569824696597
 10
8.051788152375792
 20
30.87047929985367
 42
0.3524310491054993
 10
8.060213762121037
 20
30.86369813428921
 10
8.241838762121204
 20
30.86369813428921
 10
8.241838762121204
 20
31.39269813428966
 10
8.060213762121037
 20
31.39269813428966
 42
0.3518693664465323
 10
8.051791854759557
 20
31.38593380658806
 10
8.075595358938898
 20
31.35100941542207
 42
-0.3446308864324803
 10
8.049356444937274
 20
31.30869813428892
 10
7.991213762120622
 20
31.30869813428892
 42
0.4142135623730946
 10
7.982588762121139
 20
31.30007313428944
 10
7.982588762121139
 20
30.95632313428943
 42
0.4142135623730946
 10
7.991213762120622
 20
30.94769813428995
  0
LWPOLYLINE
  5
2DE
330
2
100
AcDbEntity
  8
0
100
AcDbPolyline
 90
       10
 70
     1
 43
0.0
 10
8.05315126212119
 20
30.97194813428944
 42
-0.3584554666094669
 10
8.10002626212119
 20
30.90704428813608
 10
8.10002626212119
 20
30.8879481342896
 10
8.210588762121204
 20
30.8879481342896
 10
8.210588762121204
 20
31.36844813428927
 10
8.10002626212119
 20
31.36844813428927
 10
8.10002626212119
 20
31.34935198044279
 42
-0.3467993108968364
 10
8.05315126212119
 20
31.28444813428944
 10
8.006838762120622
 20
31.28444813428944
 10
8.006838762120622
 20
30.97194813428944
  0
LWPOLYLINE
  5
2DF
330
2
100
AcDbEntity
  8
0
100
AcDbPolyline
 90
        6
 70
     0
 43
0.0
 10
8.213588762120906
 20
30.8566981342896
 10
8.213588762120906
 20
30.84694813428944
 10
8.251588762121372
 20
30.84694813428944
 10
8.251588762121372
 20
31.40944813428943
 10
8.213588762120906
 20
31.40944813428943
 10
8.213588762120906
 20
31.39969813428927
  0
LINE
  5
2E0
330
2
100
AcDbEntity
  8
0
100
AcDbLine
 10
8.060213762121037
 20
31.39969813428927
 30
0.0
 11
8.060213762121037
 21
31.42507313428943
 31
0.0
  0
LINE
  5
2E1
330
2
100
AcDbEntity
  8
0
100
AcDbLine
 10
8.213588762120906
 20
31.39969813428927
 30
0.0
 11
8.213588762120906
 21
31.42507313428943
 31
0.0
  0
LINE
  5
2E2
330
2
100
AcDbEntity
  8
0
100
AcDbLine
 10
8.060213762121037
 20
30.8566981342896
 30
0.0
 11
8.060213762121037
 21
30.83132313428944
 31
0.0
  0
LINE
  5
2E3
330
2
100
AcDbEntity
  8
0
100
AcDbLine
 10
8.213588762120906
 20
30.8566981342896
 30
0.0
 11
8.213588762120906
 21
30.83132313428944
 31
0.0
  0
HATCH
  5
2E4
330
2
100
AcDbEntity
  8
0
100
AcDbHatch
 10
0.0
 20
0.0
 30
0.0
210
0.0
220
0.0
230
1.0
  2
DOTS
 70
     0
 71
     0
 91
        2
 92
        7
 72
     0
 73
     1
 93
        4
 10
8.060213762121037
 20
30.8566981342896
 10
8.060213762121037
 20
30.83132313428944
 10
8.213588762120906
 20
30.83132313428944
 10
8.213588762120906
 20
30.8566981342896
 97
        0
 92
        7
 72
     0
 73
     1
 93
        4
 10
8.060213762121037
 20
31.42507313428943
 10
8.060213762121037
 20
31.39969813428927
 10
8.213588762120906
 20
31.39969813428927
 10
8.213588762120906
 20
31.42507313428943
 97
        0
 75
     0
 76
     1
 52
450.0
 41
0.1
 77
     0
 78
     1
 53
90.0
 43
14.57708900693726
 44
24.73784338875287
 45
-0.00625
 46
0.003125
 79
     2
 49
0.0
 49
-0.00625
 47
0.0006001443632006
 98
        2
 10
8.117798702169437
 20
30.84497784414218
 10
8.121399575968297
 20
31.41486277353799
  0
HATCH
  5
2E5
330
2
100
AcDbEntity
  8
0
100
AcDbHatch
 10
0.0
 20
0.0
 30
0.0
210
0.0
220
0.0
230
1.0
  2
DASH
 70
     0
 71
     0
 91
        1
 92
        7
 72
     1
 73
     1
 93
       16
 10
7.975588762120622
 20
31.30007313428944
 42
-0.4142135623730951
 10
7.991213762120622
 20
31.31569813428944
 42
0.0
 10
8.04805059398879
 20
31.31569813428944
 42
0.3208708054700533
 10
8.06877626212119
 20
31.34858534623111
 42
0.0
 10
8.044588762121037
 20
31.38407313428927
 42
-0.414213562373094
 10
8.060213762121037
 20
31.39969813428927
 42
0.0
 10
8.060213762121037
 20
31.42507313429034
 42
0.0
 10
7.838588762121815
 20
31.42507313428853
 42
0.0
 10
7.838588762121815
 20
30.83132313428944
 42
0.0
 10
8.060213762121037
 20
30.83132313428944
 42
0.0
 10
8.060213762121037
 20
30.8566981342896
 42
-0.4142135623730951
 10
8.044588762121037
 20
30.8723231342896
 42
0.0
 10
8.06877626212119
 20
30.90819422454244
 42
0.3359746306540741
 10
8.04841350306944
 20
30.94069813428943
 42
0.0
 10
7.991213762120622
 20
30.94069813428943
 42
-0.4142135623730951
 10
7.975588762120622
 20
30.95632313428943
 42
0.0
 97
        0
 75
     0
 76
     1
 52
450.0
 41
0.1
 77
     0
 78
     1
 53
90.0
 43
14.57708900693726
 44
24.73784338875287
 45
-0.0125
 46
0.0125
 79
     2
 49
0.0125
 49
-0.0125
 47
0.0009600803746669
 98
        1
 10
7.924749489926597
 20
31.17721961437421
  0
HATCH
  5
2E6
330
2
100
AcDbEntity
  8
0
100
AcDbHatch
 10
0.0
 20
0.0
 30
0.0
210
0.0
220
0.0
230
1.0
  2
SOLID
 70
     1
 71
     0
 91
        1
 92
        7
 72
     1
 73
     1
 93
        2
 10
8.167088762120528
 20
31.54344313428957
 42
0.0
 10
7.979588762120528
 20
31.54344313428957
 42
-0.6666666666666311
 97
        0
 75
     1
 76
     1
 47
0.0010014887122476
 98
        1
 10
8.052183566076308
 20
31.58950321063678
1001
GradientColor1ACI
1070
     5
1001
GradientColor2ACI
1070
     2
1001
ACAD
1010
0.0
1020
0.0
1030
0.0
  0
LINE
  5
2E7
330
2
100
AcDbEntity
  8
0
100
AcDbLine
 10
7.729588762120528
 20
30.71295313429021
 30
0.0
 11
7.838588762120906
 21
31.54344313428957
 31
0.0
  0
LWPOLYLINE
  5
2E8
330
2
100
AcDbEntity
  8
0
100
AcDbPolyline
 90
        8
 70
     0
 43
0.0
 10
7.729588762120528
 20
30.71295313429021
 10
7.729588762120528
 20
31.54344313428957
 10
7.838588762120906
 20
31.54344313428957
 10
7.838588762120906
 20
30.71295313429021
 10
7.729588762120528
 20
30.71295313429021
 10
7.838588762120906
 20
31.54344313428957
 10
7.838588762120906
 20
30.71295313429021
 10
7.729588762120528
 20
31.54344313428957
  0
INSERT
  5
2E9
330
2
100
AcDbEntity
  8
0
100
AcDbBlockReference
  2
11SCREEN
 10
7.49234268469101
 20
33.10816826490229
 30
0.0
 43
2.0
  0
LINE
  5
2EA
330
2
100
AcDbEntity
  8
0
100
AcDbLine
 10
8.12219268469127
 20
33.54566826490229
 30
0.0
 11
8.700373535765464
 21
33.54566826490229
 31
0.0
  0
LINE
  5
2EB
330
2
100
AcDbEntity
  8
0
100
AcDbLine
 10
7.96594268469127
 20
33.10816826490229
 30
0.0
 11
8.700373535765464
 21
33.10816826490229
 31
0.0
  0
LWPOLYLINE
  5
2EC
330
2
100
AcDbEntity
  8
0
100
AcDbPolyline
 90
       22
 70
     1
 43
0.0
 10
6.416046216032754
 20
33.3799217764312
 10
6.416046216032754
 20
33.17058026910165
 10
6.494046216032728
 20
33.17058026910165
 10
6.494046216032728
 20
32.31258026910147
 42
-0.3422459893048229
 10
6.494046216032728
 20
32.12558026910158
 10
6.494046216032728
 20
31.93858026910168
 10
6.706046216032717
 20
31.93858026910168
 10
6.706046216032717
 20
32.3255802691023
 10
6.786046216032644
 20
32.3255802691023
 10
6.786046216032644
 20
32.04458026910145
 10
6.963046216032779
 20
32.04458026910145
 10
6.963046216032779
 20
32.81558026910209
 10
6.86304621603287
 20
32.81558026910209
 10
6.86304621603287
 20
32.90558026910223
 10
6.963046216032779
 20
32.90558026910223
 10
6.963046216032779
 20
33.35790743278851
 10
6.883046216032852
 20
33.35790743278851
 10
6.883046216032852
 20
33.48290743278851
 10
6.963046216032779
 20
33.48290743278851
 10
6.963046216032779
 20
33.73340743278861
 10
6.494046216032728
 20
33.73340743278861
 10
6.494046216032728
 20
33.38805538650688
  0
LWPOLYLINE
  5
2ED
330
2
100
AcDbEntity
  8
0
100
AcDbPolyline
 90
       15
 70
     0
 43
0.0
 10
6.963047793850108
 20
32.93661123195618
 10
6.963047793850108
 20
33.76103722056944
 10
6.963047793850108
 20
32.93661123195618
 10
7.48304779385009
 20
32.93661123195618
 10
7.48304779385009
 20
31.99121005688214
 10
7.558047793849908
 20
31.91621005688232
 10
7.683047793849908
 20
31.91621005688232
 10
7.683047793849908
 20
33.04261943839394
 42
0.4142135623730951
 10
7.62104779385001
 20
33.10461943839384
 10
7.432675468141695
 20
33.10461943839384
 10
7.432675468141695
 20
33.97953722056938
 42
0.4142135623730982
 10
7.370675468141797
 20
34.04153722056928
 10
6.494547793850159
 20
34.04153722056928
 10
6.494547793850159
 20
33.76103722056944
 10
6.963047793850108
 20
33.76103722056944
  0
LINE
  5
2EE
330
2
100
AcDbEntity
  8
0
100
AcDbLine
 10
7.401046216032881
 20
32.56543664467101
 30
0.0
 11
6.963046216032779
 21
32.56543664467101
 31
0.0
  0
LINE
  5
2EF
330
2
100
AcDbEntity
  8
0
100
AcDbLine
 10
7.401046216032881
 20
32.22343664467046
 30
0.0
 11
6.963046216032779
 21
32.22343664467046
 31
0.0
  0
LINE
  5
2F0
330
2
100
AcDbEntity
  8
0
100
AcDbLine
 10
7.249046216032837
 20
32.88493664467062
 30
0.0
 11
7.249046216032837
 21
31.07293664467072
 31
0.0
  0
LINE
  5
2F1
330
2
100
AcDbEntity
  8
0
100
AcDbLine
 10
7.342046216032684
 20
32.88493664467062
 30
0.0
 11
7.342046216032684
 21
31.07293664467072
 31
0.0
  0
LINE
  5
2F2
330
2
100
AcDbEntity
  8
0
100
AcDbLine
 10
7.342046216032684
 20
32.88493664467062
 30
0.0
 11
7.249046216032837
 21
32.88493664467062
 31
0.0
  0
LINE
  5
2F3
330
2
100
AcDbEntity
  8
0
100
AcDbLine
 10
7.463046216032779
 20
32.17643664467089
 30
0.0
 11
7.463046216032779
 21
32.61243664467058
 31
0.0
  0
LINE
  5
2F4
330
2
100
AcDbEntity
  8
0
100
AcDbLine
 10
7.401046216032881
 20
32.17643664467089
 30
0.0
 11
7.401046216032881
 21
32.61243664467058
 31
0.0
  0
LINE
  5
2F5
330
2
100
AcDbEntity
  8
0
100
AcDbLine
 10
7.463046216032779
 20
32.17643664467089
 30
0.0
 11
7.401046216032881
 21
32.17643664467089
 31
0.0
  0
LINE
  5
2F6
330
2
100
AcDbEntity
  8
0
100
AcDbLine
 10
7.463046216032779
 20
32.61243664467058
 30
0.0
 11
7.401046216032881
 21
32.61243664467058
 31
0.0
  0
LINE
  5
2F7
330
2
100
AcDbEntity
  8
0
100
AcDbLine
 10
7.283106901899117
 20
31.35509869709169
 30
0.0
 11
7.376106901898964
 21
31.48464339856984
 31
0.0
  0
LINE
  5
2F8
330
2
100
AcDbEntity
  8
0
100
AcDbLine
 10
7.283106901899117
 20
31.35509869709169
 30
0.0
 11
7.252106901899168
 21
31.38609869709164
 31
0.0
  0
LINE
  5
2F9
330
2
100
AcDbEntity
  8
0
100
AcDbLine
 10
7.314106901899066
 20
31.45364339856899
 30
0.0
 11
7.36083629260176
 21
31.45364339856899
 31
0.0
  0
LINE
  5
2FA
330
2
100
AcDbEntity
  8
0
100
AcDbLine
 10
7.283106901899117
 20
31.48464339856984
 30
0.0
 11
7.314106901899066
 21
31.45364339856899
 31
0.0
  0
LINE
  5
2FB
330
2
100
AcDbEntity
  8
0
100
AcDbLine
 10
7.190106901898815
 20
31.35509869709169
 30
0.0
 11
7.283106901899117
 21
31.48464339856984
 31
0.0
  0
LINE
  5
2FC
330
2
100
AcDbEntity
  8
0
100
AcDbLine
 10
7.252106901899168
 20
31.38609869709164
 30
0.0
 11
7.205087994281001
 21
31.38609869709164
 31
0.0
  0
LINE
  5
2FD
330
2
100
AcDbEntity
  8
0
100
AcDbLine
 10
7.190106901898815
 20
31.35509869709169
 30
0.0
 11
7.159106901898866
 21
31.38609869709164
 31
0.0
  0
LINE
  5
2FE
330
2
100
AcDbEntity
  8
0
100
AcDbLine
 10
7.221106901898764
 20
31.45364339856899
 30
0.0
 11
7.267836292601913
 21
31.45364339856899
 31
0.0
  0
LINE
  5
2FF
330
2
100
AcDbEntity
  8
0
100
AcDbLine
 10
7.190106901898815
 20
31.48464339856984
 30
0.0
 11
7.221106901898764
 21
31.45364339856899
 31
0.0
  0
LINE
  5
300
330
2
100
AcDbEntity
  8
0
100
AcDbLine
 10
7.167852035686081
 20
31.45364339856899
 30
0.0
 11
7.190106901898815
 21
31.48464339856984
 31
0.0
  0
LINE
  5
301
330
2
100
AcDbEntity
  8
0
100
AcDbLine
 10
7.159106901898866
 20
31.38609869709164
 30
0.0
 11
7.112087994281154
 21
31.38609869709164
 31
0.0
  0
LINE
  5
302
330
2
100
AcDbEntity
  8
0
100
AcDbLine
 10
7.128106901898917
 20
31.45364339856899
 30
0.0
 11
7.174836292602066
 21
31.45364339856899
 31
0.0
  0
LINE
  5
303
330
2
100
AcDbEntity
  8
0
100
AcDbLine
 10
7.291393254280336
 20
31.38609869709164
 30
0.0
 11
7.037393254279976
 21
31.38609869709164
 31
0.0
  0
LINE
  5
304
330
2
100
AcDbEntity
  8
0
100
AcDbLine
 10
7.037393254279976
 20
31.45364339856899
 30
0.0
 11
7.307122644983081
 21
31.45364339856899
 31
0.0
  0
LINE
  5
305
330
2
100
AcDbEntity
  8
0
100
AcDbLine
 10
7.345106901899015
 20
31.38609869709164
 30
0.0
 11
7.298364693657021
 21
31.38609869709164
 31
0.0
  0
LINE
  5
306
330
2
100
AcDbEntity
  8
0
100
AcDbLine
 10
7.376106901898964
 20
31.35509869709169
 30
0.0
 11
7.345106901899015
 21
31.38609869709164
 31
0.0
  0
LINE
  5
307
330
2
100
AcDbEntity
  8
0
100
AcDbLine
 10
7.376106901898964
 20
31.35509869709169
 30
0.0
 11
7.469106901898811
 21
31.48464339856984
 31
0.0
  0
LINE
  5
308
330
2
100
AcDbEntity
  8
0
100
AcDbLine
 10
7.407106901898913
 20
31.45364339856899
 30
0.0
 11
7.45318404216934
 21
31.45364339856899
 31
0.0
  0
LINE
  5
309
330
2
100
AcDbEntity
  8
0
100
AcDbLine
 10
7.376106901898964
 20
31.48464339856984
 30
0.0
 11
7.407106901898913
 21
31.45364339856899
 31
0.0
  0
LINE
  5
30A
330
2
100
AcDbEntity
  8
0
100
AcDbLine
 10
6.931588762120753
 20
31.41987104783077
 30
0.0
 11
6.931588762120753
 21
31.54487104783077
 31
0.0
  0
LINE
  5
30B
330
2
100
AcDbEntity
  8
0
100
AcDbLine
 10
6.931588762120753
 20
31.54487104783077
 30
0.0
 11
7.037393254279976
 21
31.45364339856899
 31
0.0
  0
LINE
  5
30C
330
2
100
AcDbEntity
  8
0
100
AcDbLine
 10
6.931588762120753
 20
31.41987104783077
 30
0.0
 11
6.931588762120753
 21
31.29487104783077
 31
0.0
  0
LINE
  5
30D
330
2
100
AcDbEntity
  8
0
100
AcDbLine
 10
6.931588762120753
 20
31.29487104783077
 30
0.0
 11
7.037393254279976
 21
31.38609869709164
 31
0.0
  0
LINE
  5
30E
330
2
100
AcDbEntity
  8
0
100
AcDbLine
 10
7.068106901898971
 20
31.38609869709164
 30
0.0
 11
7.04608799428135
 21
31.38609869709164
 31
0.0
  0
LINE
  5
30F
330
2
100
AcDbEntity
  8
0
100
AcDbLine
 10
7.062106901899113
 20
31.45364339856899
 30
0.0
 11
7.083836292601716
 21
31.45364339856899
 31
0.0
  0
LINE
  5
310
330
2
100
AcDbEntity
  8
0
100
AcDbLine
 10
7.442308516053088
 20
31.39116928535843
 30
0.0
 11
7.395566307811094
 21
31.39116928535843
 31
0.0
  0
LINE
  5
311
330
2
100
AcDbEntity
  8
0
100
AcDbLine
 10
7.473308516053037
 20
31.36016928535848
 30
0.0
 11
7.442308516053088
 21
31.39116928535843
 31
0.0
  0
LINE
  5
312
330
2
100
AcDbEntity
  8
0
100
AcDbLine
 10
7.473308516053037
 20
31.36016928535848
 30
0.0
 11
7.540413480049863
 21
31.45364339856899
 31
0.0
  0
LINE
  5
313
330
2
100
AcDbEntity
  8
0
100
AcDbLine
 10
7.500106901899215
 20
31.45364339856899
 30
0.0
 11
7.546184042169187
 21
31.45364339856899
 31
0.0
  0
LINE
  5
314
330
2
100
AcDbEntity
  8
0
100
AcDbLine
 10
7.469106901898811
 20
31.48464339856984
 30
0.0
 11
7.500106901899215
 21
31.45364339856899
 31
0.0
  0
LINE
  5
315
330
2
100
AcDbEntity
  8
0
100
AcDbLine
 10
7.493563382266273
 20
31.39116928535843
 30
0.0
 11
7.677302409739439
 21
31.41987104783077
 31
0.0
  0
LINE
  5
316
330
2
100
AcDbEntity
  8
0
100
AcDbLine
 10
7.538413480049911
 20
31.45364339856899
 30
0.0
 11
7.677302409739439
 21
31.41987104783077
 31
0.0
  0
LINE
  5
317
330
2
100
AcDbEntity
  8
0
100
AcDbLine
 10
7.249046216032837
 20
31.07293664467072
 30
0.0
 11
7.342046216032684
 21
31.07293664467072
 31
0.0
  0
LWPOLYLINE
  5
318
330
2
100
AcDbEntity
  8
0
100
AcDbPolyline
 90
        4
 70
     0
 43
0.02
 10
8.025939817126271
 20
33.31558506625008
 10
8.025939817126271
 20
33.22368529042835
 42
0.4142135623730951
 10
8.072439817126195
 20
33.17718529042797
 10
8.700373535765464
 20
33.17718529042797
  0
LWPOLYLINE
  5
319
330
2
100
AcDbEntity
  8
0
100
AcDbPolyline
 90
        2
 70
     1
 43
0.03125
 10
8.010314817126271
 20
33.31558506625008
 42
1.0
 10
8.041564817126271
 20
33.31558506625008
 42
1.0
  0
LINE
  5
31A
330
2
100
AcDbEntity
  8
0
100
AcDbLine
 10
6.962922793849628
 20
34.04212792654873
 30
0.0
 11
6.962922793849628
 21
34.13512792654858
 31
0.0
  0
LINE
  5
31B
330
2
100
AcDbEntity
  8
0
100
AcDbLine
 10
6.994922793848871
 20
34.16712792654873
 30
0.0
 11
7.305922793848566
 21
34.16712792654873
 31
0.0
  0
ARC
  5
31C
330
2
100
AcDbEntity
  8
0
100
AcDbCircle
 10
6.994922793848871
 20
34.13512792654858
 30
0.0
 40
0.032
100
AcDbArc
 50
90.0
 51
180.0
  0
LINE
  5
31D
330
2
100
AcDbEntity
  8
0
100
AcDbLine
 10
7.337922793849628
 20
34.13512792654858
 30
0.0
 11
7.337922793849628
 21
34.04212792654873
 31
0.0
  0
ARC
  5
31E
330
2
100
AcDbEntity
  8
0
100
AcDbCircle
 10
7.305922793848566
 20
34.13512792654858
 30
0.0
 40
0.032
100
AcDbArc
 50
0.0
 51
90.0
  0
LINE
  5
31F
330
2
100
AcDbEntity
  8
0
100
AcDbLine
 10
6.994922793848871
 20
34.16712792654873
 30
0.0
 11
6.994922793848871
 21
34.76212792654898
 31
0.0
  0
LINE
  5
320
330
2
100
AcDbEntity
  8
0
100
AcDbLine
 10
7.056922793848769
 20
34.82412792654888
 30
0.0
 11
7.353774381294186
 21
34.82412792654888
 31
0.0
  0
ARC
  5
321
330
2
100
AcDbEntity
  8
0
100
AcDbCircle
 10
7.056922793848769
 20
34.76212792654898
 30
0.0
 40
0.062
100
AcDbArc
 50
90.0
 51
180.0
  0
LINE
  5
322
330
2
100
AcDbEntity
  8
0
100
AcDbLine
 10
7.202574003267926
 20
34.16712792654873
 30
0.0
 11
7.202574003267926
 21
34.37914052611943
 31
0.0
  0
LINE
  5
323
330
2
100
AcDbEntity
  8
0
100
AcDbLine
 10
7.211602250407139
 20
34.41135843106115
 30
0.0
 11
7.399432425300091
 21
34.72018340345532
 31
0.0
  0
ARC
  5
324
330
2
100
AcDbEntity
  8
0
100
AcDbCircle
 10
7.264574003267824
 20
34.37914052611943
 30
0.0
 40
0.062
100
AcDbArc
 50
148.6916501890062
 51
180.0
  0
ARC
  5
325
330
2
100
AcDbEntity
  8
0
100
AcDbCircle
 10
7.353774381294186
 20
34.76212792654898
 30
0.0
 40
0.062
100
AcDbArc
 50
317.4273462976114
 51
90.0
  0
INSERT
  5
326
330
2
100
AcDbEntity
  8
0
100
AcDbBlockReference
  2
11HINGE
 10
6.493588762120751
 20
31.93643734588015
 30
0.0
 42
-1.0
 43
2.0
  0
DIMENSION
  5
327
102
{ACAD_XDICTIONARY
360
328
102
}
102
{ACAD_REACTORS
330
329
102
}
330
2
100
AcDbEntity
  8
0
100
AcDbDimension
  2
*D22
 10
4.033402942499165
 20
34.04253769882506
 30
0.0
 11
3.501812717511096
 21
33.88653769882506
 31
0.0
 71
     5
 42
0.1570000000001528
  3
Knife
100
AcDbAlignedDimension
 13
5.072671216033313
 23
34.19953769882521
 33
0.0
 14
4.24654354174109
 24
34.04253769882506
 34
0.0
 50
90.0
100
AcDbRotatedDimension
1001
ACAD
1000
DSTYLE
1002
{
1070
    40
1040
1.0
1002
}
  0
LINE
  5
339
330
2
100
AcDbEntity
  8
0
100
AcDbLine
 10
13.56519958759641
 20
20.48070575317914
 30
0.0
 11
14.86577423303738
 21
20.48070575317914
 31
0.0
  0
LINE
  5
33A
330
2
100
AcDbEntity
  8
0
100
AcDbLine
 10
14.86577423303738
 20
20.48070575317914
 30
0.0
 11
14.86577423303738
 21
17.15112118864479
 31
0.0
  0
INSERT
  5
33B
330
2
100
AcDbEntity
  8
0
100
AcDbBlockReference
  2
93OBW
 10
12.87144691330459
 20
18.7127483234565
 30
0.0
 42
-1.0
 43
2.0
  0
INSERT
  5
33C
330
2
100
AcDbEntity
  8
0
100
AcDbBlockReference
  2
86NPF141
 10
13.18722400856354
 20
17.29547935161398
 30
0.0
 43
2.0
 50
180.0
  0
LINE
  5
33D
330
2
100
AcDbEntity
  8
0
100
AcDbLine
 10
12.65957191330467
 20
18.37577976456603
 30
0.0
 11
12.65957191330467
 21
17.63877976456595
 31
0.0
  0
LINE
  5
33E
330
2
100
AcDbEntity
  8
0
100
AcDbLine
 10
12.65957191330467
 20
17.65702976456603
 30
0.0
 11
12.65957191330467
 21
18.34402976456593
 31
0.0
  0
INSERT
  5
33F
330
2
100
AcDbEntity
  8
0
100
AcDbBlockReference
  2
*U23
 10
10.77838503501739
 20
15.40433101447095
 30
0.0
1001
ACAD
1002
{
1000
R14_HATCH_DATA
1000
3651
1011
11.77838503501739
1021
15.40433101447095
1031
0.0
1011
10.77838503501739
1021
16.40433101447095
1031
0.0
1011
10.77838503501739
1021
15.40433101447095
1031
1.0
1040
0.0
1010
0.0
1020
0.0
1030
1.0
1000
SOLID
1070
     1
1070
     0
1071
        1
1071
        1
1071
        2
1070
     1
1040
1.881186878287213
1040
3.15944875009568
1040
1.881186878287314
1040
3.346448750095556
1070
     2
1040
1.760589222037213
1040
3.252948750095684
1040
0.1525976562500021
1040
-0.65950076747307
1040
0.6595007674730821
1070
     0
1071
        0
1070
     0
1070
     1
1071
        1
1040
4.812561040009144
1040
6.499794521109716
1040
0.0
1002
}
  0
LWPOLYLINE
  5
34D
330
2
100
AcDbEntity
  8
0
100
AcDbPolyline
 90
       15
 70
     1
 43
0.0
 10
12.11357191330485
 20
17.16772114673611
 10
12.11357191330485
 20
17.41423013374995
 10
11.98857191330485
 20
17.41641201686642
 10
11.98857191330485
 20
19.10391201686642
 42
0.9999999999999998
 10
11.98857191330485
 20
19.22891201686642
 10
11.98857191330485
 20
20.29191201686652
 10
12.65957191330467
 20
20.29191201686652
 10
12.65957191330467
 20
19.85491201686571
 10
12.56657191330482
 20
19.85328869582761
 10
12.56657191330482
 20
19.60653533790472
 10
12.65957191330467
 20
19.60491201686571
 10
12.65957191330467
 20
16.76041201686647
 42
-0.4142135623730949
 10
12.62857191330472
 20
16.72941201686652
 10
12.03857191330458
 20
16.72941201686652
 10
12.03857191330458
 20
17.16641201686641
  0
LWPOLYLINE
  5
34E
330
2
100
AcDbEntity
  8
0
100
AcDbPolyline
 90
       22
 70
     0
 43
0.0
 10
12.89484703784679
 20
17.06288706537569
 10
12.89484703784679
 20
17.6568611886444
 10
13.09698945939267
 20
17.6568611886444
 10
13.09698945939267
 20
18.34161118864384
 42
-0.4142135623730951
 10
13.11198945939255
 20
18.35661118864416
 10
14.206376689523
 20
18.35661118864416
 10
14.206376689523
 20
18.26157224152601
 42
-0.3899024490717824
 10
14.4075495408501
 20
18.07657224152561
 10
14.45715676662117
 20
18.07657224152561
 10
14.45715676662117
 20
17.98161118864416
 10
14.33215676662117
 20
17.98161118864416
 42
0.6666666666666686
 10
14.14465676662117
 20
17.98161118864416
 10
13.89498945939245
 20
17.98161118864416
 10
13.89498945939245
 20
17.79552351901864
 42
0.9946524064171082
 10
13.89498945939245
 20
17.60852351901784
 10
13.89498945939245
 20
16.73288706537576
 10
13.01998945939245
 20
16.73288706537576
 42
-0.4142135623730951
 10
12.89498945939245
 20
16.85788706537576
 10
12.89498945939245
 20
16.98288706537576
 10
13.21148945939235
 20
16.98288706537576
 10
13.21148945939235
 20
17.06288706537569
 10
12.89898945939235
 20
17.06288706537569
  0
HATCH
  5
34F
330
2
100
AcDbEntity
  8
0
100
AcDbHatch
 10
0.0
 20
0.0
 30
0.0
210
0.0
220
0.0
230
1.0
  2
SOLID
 70
     1
 71
     0
 91
        1
 92
        7
 72
     1
 73
     1
 93
        2
 10
14.33248945939245
 20
17.15112118864479
 42
0.0
 10
14.14498945939245
 20
17.15112118864479
 42
0.6666666666666311
 97
        0
 75
     1
 76
     1
 47
0.0010014887122476
 98
        1
 10
14.21758426334823
 20
17.10506111229759
1001
GradientColor1ACI
1070
     5
1001
GradientColor2ACI
1070
     2
1001
ACAD
1010
0.0
1020
0.0
1030
0.0
  0
LWPOLYLINE
  5
350
330
2
100
AcDbEntity
  8
0
100
AcDbPolyline
 90
       11
 70
     1
 43
0.0
 10
14.14498945939245
 20
17.15112118864479
 10
13.89498945939245
 20
17.15112118864479
 10
13.89498945939245
 20
16.77712118864409
 10
14.1764894593925
 20
16.77712118864409
 42
0.4142135623731695
 10
14.20748945939245
 20
16.80812118864404
 10
14.20748945939245
 20
16.85464595693091
 42
-0.235730494161761
 10
14.21985776107154
 20
16.87942215150659
 10
14.44512115771381
 20
17.04882022578229
 42
0.235730494161718
 10
14.45748945939245
 20
17.07359642035797
 10
14.45748945939245
 20
17.15112118864479
 10
14.33248945939245
 20
17.15112118864479
 42
-0.6666666666666588
  0
LWPOLYLINE
  5
351
330
2
100
AcDbEntity
  8
0
100
AcDbPolyline
 90
        4
 70
     0
 43
0.0
 10
14.86577423303738
 20
17.86324118864402
 10
14.00398945939282
 20
17.86324118864402
 10
14.00398945939282
 20
17.98161118864416
 10
14.86577423303738
 20
17.98161118864416
  0
LWPOLYLINE
  5
352
330
2
100
AcDbEntity
  8
0
100
AcDbPolyline
 90
        4
 70
     0
 43
0.0
 10
14.86577423303738
 20
17.26949118864402
 10
14.00398945939282
 20
17.26949118864402
 10
14.00398945939282
 20
17.15112118864479
 10
14.86577423303738
 20
17.15112118864479
  0
LWPOLYLINE
  5
353
330
2
100
AcDbEntity
  8
0
100
AcDbPolyline
 90
       14
 70
     1
 43
0.0
 10
14.21381420034136
 20
17.37886618864402
 42
-0.3359746306540741
 10
14.23417695939311
 20
17.34636227889703
 10
14.20998945939295
 20
17.31049118864419
 42
0.4142135623730951
 10
14.22561445939296
 20
17.29486618864419
 10
14.40723945939312
 20
17.29486618864419
 10
14.40723945939312
 20
17.83786618864386
 10
14.22561445939296
 20
17.83786618864386
 42
0.414213562373094
 10
14.20998945939295
 20
17.82224118864386
 10
14.23417695939311
 20
17.78675340058569
 42
-0.3208708054700532
 10
14.21345129126071
 20
17.75386618864402
 10
14.15661445939254
 20
17.75386618864402
 42
0.4142135623730951
 10
14.14098945939254
 20
17.73824118864402
 10
14.14098945939254
 20
17.39449118864402
 42
0.4142135623730951
 10
14.15661445939254
 20
17.37886618864402
  0
LWPOLYLINE
  5
354
330
2
100
AcDbEntity
  8
0
100
AcDbPolyline
 90
       14
 70
     1
 43
0.0
 10
14.21503260048571
 20
17.38586618864454
 42
-0.3593608004949541
 10
14.24093661636648
 20
17.34386630132056
 10
14.21718884964771
 20
17.30864735420826
 42
0.3524310491054993
 10
14.22561445939296
 20
17.3018661886438
 10
14.40723945939312
 20
17.3018661886438
 10
14.40723945939312
 20
17.83086618864425
 10
14.22561445939296
 20
17.83086618864425
 42
0.3518693664465323
 10
14.21719255203148
 20
17.82410186094265
 10
14.24099605621082
 20
17.78917746977666
 42
-0.3446308864324803
 10
14.21475714220919
 20
17.74686618864351
 10
14.15661445939254
 20
17.74686618864351
 42
0.4142135623730946
 10
14.14798945939306
 20
17.73824118864402
 10
14.14798945939306
 20
17.39449118864402
 42
0.4142135623730946
 10
14.15661445939254
 20
17.38586618864454
  0
LWPOLYLINE
  5
355
330
2
100
AcDbEntity
  8
0
100
AcDbPolyline
 90
       10
 70
     1
 43
0.0
 10
14.21855195939311
 20
17.41011618864402
 42
-0.3584554666094669
 10
14.26542695939311
 20
17.34521234249067
 10
14.26542695939311
 20
17.32611618864419
 10
14.37598945939312
 20
17.32611618864419
 10
14.37598945939312
 20
17.80661618864385
 10
14.26542695939311
 20
17.80661618864385
 10
14.26542695939311
 20
17.78752003479738
 42
-0.3467993108968364
 10
14.21855195939311
 20
17.72261618864402
 10
14.17223945939254
 20
17.72261618864402
 10
14.17223945939254
 20
17.41011618864402
  0
LWPOLYLINE
  5
356
330
2
100
AcDbEntity
  8
0
100
AcDbPolyline
 90
        6
 70
     0
 43
0.0
 10
14.37898945939283
 20
17.29486618864419
 10
14.37898945939283
 20
17.28511618864402
 10
14.41698945939329
 20
17.28511618864402
 10
14.41698945939329
 20
17.84761618864402
 10
14.37898945939283
 20
17.84761618864402
 10
14.37898945939283
 20
17.83786618864386
  0
LINE
  5
357
330
2
100
AcDbEntity
  8
0
100
AcDbLine
 10
14.22561445939296
 20
17.83786618864386
 30
0.0
 11
14.22561445939296
 21
17.86324118864402
 31
0.0
  0
LINE
  5
358
330
2
100
AcDbEntity
  8
0
100
AcDbLine
 10
14.37898945939283
 20
17.83786618864386
 30
0.0
 11
14.37898945939283
 21
17.86324118864402
 31
0.0
  0
LINE
  5
359
330
2
100
AcDbEntity
  8
0
100
AcDbLine
 10
14.22561445939296
 20
17.29486618864419
 30
0.0
 11
14.22561445939296
 21
17.26949118864402
 31
0.0
  0
LINE
  5
35A
330
2
100
AcDbEntity
  8
0
100
AcDbLine
 10
14.37898945939283
 20
17.29486618864419
 30
0.0
 11
14.37898945939283
 21
17.26949118864402
 31
0.0
  0
HATCH
  5
35B
330
2
100
AcDbEntity
  8
0
100
AcDbHatch
 10
0.0
 20
0.0
 30
0.0
210
0.0
220
0.0
230
1.0
  2
DOTS
 70
     0
 71
     0
 91
        2
 92
        7
 72
     0
 73
     1
 93
        4
 10
14.22561445939296
 20
17.29486618864419
 10
14.22561445939296
 20
17.26949118864402
 10
14.37898945939283
 20
17.26949118864402
 10
14.37898945939283
 20
17.29486618864419
 97
        0
 92
        7
 72
     0
 73
     1
 93
        4
 10
14.22561445939296
 20
17.86324118864402
 10
14.22561445939296
 20
17.83786618864386
 10
14.37898945939283
 20
17.83786618864386
 10
14.37898945939283
 20
17.86324118864402
 97
        0
 75
     0
 76
     1
 52
450.0
 41
0.1
 77
     0
 78
     1
 53
90.0
 43
20.74248970420918
 44
11.17601144310745
 45
-0.00625
 46
0.003125
 79
     2
 49
0.0
 49
-0.00625
 47
0.0006001443632006
 98
        2
 10
14.28319939944136
 20
17.28314589849677
 10
14.28680027324022
 20
17.85303082789258
  0
HATCH
  5
35C
330
2
100
AcDbEntity
  8
0
100
AcDbHatch
 10
0.0
 20
0.0
 30
0.0
210
0.0
220
0.0
230
1.0
  2
DASH
 70
     0
 71
     0
 91
        1
 92
        7
 72
     1
 73
     1
 93
       16
 10
14.14098945939254
 20
17.73824118864402
 42
-0.4142135623730951
 10
14.15661445939254
 20
17.75386618864402
 42
0.0
 10
14.21345129126071
 20
17.75386618864402
 42
0.3208708054700533
 10
14.23417695939311
 20
17.78675340058569
 42
0.0
 10
14.20998945939295
 20
17.82224118864386
 42
-0.414213562373094
 10
14.22561445939296
 20
17.83786618864386
 42
0.0
 10
14.22561445939296
 20
17.86324118864493
 42
0.0
 10
14.00398945939373
 20
17.86324118864311
 42
0.0
 10
14.00398945939373
 20
17.26949118864402
 42
0.0
 10
14.22561445939296
 20
17.26949118864402
 42
0.0
 10
14.22561445939296
 20
17.29486618864419
 42
-0.4142135623730951
 10
14.20998945939295
 20
17.31049118864419
 42
0.0
 10
14.23417695939311
 20
17.34636227889703
 42
0.3359746306540741
 10
14.21381420034136
 20
17.37886618864402
 42
0.0
 10
14.15661445939254
 20
17.37886618864402
 42
-0.4142135623730951
 10
14.14098945939254
 20
17.39449118864402
 42
0.0
 97
        0
 75
     0
 76
     1
 52
450.0
 41
0.1
 77
     0
 78
     1
 53
90.0
 43
20.74248970420918
 44
11.17601144310745
 45
-0.0125
 46
0.0125
 79
     2
 49
0.0125
 49
-0.0125
 47
0.0009600803746669
 98
        1
 10
14.09015018719852
 20
17.6153876687288
  0
HATCH
  5
35D
330
2
100
AcDbEntity
  8
0
100
AcDbHatch
 10
0.0
 20
0.0
 30
0.0
210
0.0
220
0.0
230
1.0
  2
SOLID
 70
     1
 71
     0
 91
        1
 92
        7
 72
     1
 73
     1
 93
        2
 10
14.33248945939245
 20
17.98161118864416
 42
0.0
 10
14.14498945939245
 20
17.98161118864416
 42
-0.6666666666666311
 97
        0
 75
     1
 76
     1
 47
0.0010014887122476
 98
        1
 10
14.21758426334823
 20
18.02767126499137
1001
GradientColor1ACI
1070
     5
1001
GradientColor2ACI
1070
     2
1001
ACAD
1010
0.0
1020
0.0
1030
0.0
  0
LINE
  5
35E
330
2
100
AcDbEntity
  8
0
100
AcDbLine
 10
13.89498945939245
 20
17.15112118864479
 30
0.0
 11
14.00398945939282
 21
17.98161118864416
 31
0.0
  0
LWPOLYLINE
  5
35F
330
2
100
AcDbEntity
  8
0
100
AcDbPolyline
 90
        8
 70
     0
 43
0.0
 10
13.89498945939245
 20
17.15112118864479
 10
13.89498945939245
 20
17.98161118864416
 10
14.00398945939282
 20
17.98161118864416
 10
14.00398945939282
 20
17.15112118864479
 10
13.89498945939245
 20
17.15112118864479
 10
14.00398945939282
 20
17.98161118864416
 10
14.00398945939282
 20
17.15112118864479
 10
13.89498945939245
 20
17.98161118864416
  0
INSERT
  5
360
330
2
100
AcDbEntity
  8
0
100
AcDbBlockReference
  2
11SCREEN
 10
13.65774338196293
 20
19.54633631925688
 30
0.0
 43
2.0
  0
LINE
  5
361
330
2
100
AcDbEntity
  8
0
100
AcDbLine
 10
14.28759338196319
 20
19.98383631925688
 30
0.0
 11
14.86577423303738
 21
19.98383631925688
 31
0.0
  0
LINE
  5
362
330
2
100
AcDbEntity
  8
0
100
AcDbLine
 10
14.13134338196319
 20
19.54633631925688
 30
0.0
 11
14.86577423303738
 21
19.54633631925688
 31
0.0
  0
LWPOLYLINE
  5
363
330
2
100
AcDbEntity
  8
0
100
AcDbPolyline
 90
       22
 70
     1
 43
0.0
 10
12.58144691330467
 20
19.81808983078579
 10
12.58144691330467
 20
19.60874832345624
 10
12.65944691330465
 20
19.60874832345624
 10
12.65944691330465
 20
18.75074832345606
 42
-0.3422459893048229
 10
12.65944691330465
 20
18.56374832345617
 10
12.65944691330465
 20
18.37674832345627
 10
12.87144691330464
 20
18.37674832345627
 10
12.87144691330464
 20
18.76374832345689
 10
12.95144691330456
 20
18.76374832345689
 10
12.95144691330456
 20
18.48274832345603
 10
13.1284469133047
 20
18.48274832345603
 10
13.1284469133047
 20
19.25374832345667
 10
13.02844691330479
 20
19.25374832345667
 10
13.02844691330479
 20
19.34374832345682
 10
13.1284469133047
 20
19.34374832345682
 10
13.1284469133047
 20
19.7960754871431
 10
13.04844691330477
 20
19.7960754871431
 10
13.04844691330477
 20
19.9210754871431
 10
13.1284469133047
 20
19.9210754871431
 10
13.1284469133047
 20
20.1715754871432
 10
12.65944691330465
 20
20.1715754871432
 10
12.65944691330465
 20
19.82622344086147
  0
LWPOLYLINE
  5
364
330
2
100
AcDbEntity
  8
0
100
AcDbPolyline
 90
       15
 70
     0
 43
0.0
 10
13.12844849112203
 20
19.37477928631077
 10
13.12844849112203
 20
20.19920527492403
 10
13.12844849112203
 20
19.37477928631077
 10
13.64844849112201
 20
19.37477928631077
 10
13.64844849112201
 20
18.42937811123673
 10
13.72344849112183
 20
18.35437811123691
 10
13.84844849112183
 20
18.35437811123691
 10
13.84844849112183
 20
19.48078749274853
 42
0.4142135623730951
 10
13.78644849112193
 20
19.54278749274843
 10
13.59807616541361
 20
19.54278749274843
 10
13.59807616541361
 20
20.41770527492397
 42
0.4142135623730982
 10
13.53607616541372
 20
20.47970527492387
 10
12.65994849112208
 20
20.47970527492387
 10
12.65994849112208
 20
20.19920527492403
 10
13.12844849112203
 20
20.19920527492403
  0
LINE
  5
365
330
2
100
AcDbEntity
  8
0
100
AcDbLine
 10
13.5664469133048
 20
19.0036046990256
 30
0.0
 11
13.1284469133047
 21
19.0036046990256
 31
0.0
  0
LINE
  5
366
330
2
100
AcDbEntity
  8
0
100
AcDbLine
 10
13.5664469133048
 20
18.66160469902505
 30
0.0
 11
13.1284469133047
 21
18.66160469902505
 31
0.0
  0
LINE
  5
367
330
2
100
AcDbEntity
  8
0
100
AcDbLine
 10
13.41444691330476
 20
19.32310469902521
 30
0.0
 11
13.41444691330476
 21
17.51110469902531
 31
0.0
  0
LINE
  5
368
330
2
100
AcDbEntity
  8
0
100
AcDbLine
 10
13.5074469133046
 20
19.32310469902521
 30
0.0
 11
13.5074469133046
 21
17.51110469902531
 31
0.0
  0
LINE
  5
369
330
2
100
AcDbEntity
  8
0
100
AcDbLine
 10
13.5074469133046
 20
19.32310469902521
 30
0.0
 11
13.41444691330476
 21
19.32310469902521
 31
0.0
  0
LINE
  5
36A
330
2
100
AcDbEntity
  8
0
100
AcDbLine
 10
13.6284469133047
 20
18.61460469902548
 30
0.0
 11
13.6284469133047
 21
19.05060469902517
 31
0.0
  0
LINE
  5
36B
330
2
100
AcDbEntity
  8
0
100
AcDbLine
 10
13.5664469133048
 20
18.61460469902548
 30
0.0
 11
13.5664469133048
 21
19.05060469902517
 31
0.0
  0
LINE
  5
36C
330
2
100
AcDbEntity
  8
0
100
AcDbLine
 10
13.6284469133047
 20
18.61460469902548
 30
0.0
 11
13.5664469133048
 21
18.61460469902548
 31
0.0
  0
LINE
  5
36D
330
2
100
AcDbEntity
  8
0
100
AcDbLine
 10
13.6284469133047
 20
19.05060469902517
 30
0.0
 11
13.5664469133048
 21
19.05060469902517
 31
0.0
  0
LINE
  5
36E
330
2
100
AcDbEntity
  8
0
100
AcDbLine
 10
13.44850759917104
 20
17.79326675144628
 30
0.0
 11
13.54150759917088
 21
17.92281145292443
 31
0.0
  0
LINE
  5
36F
330
2
100
AcDbEntity
  8
0
100
AcDbLine
 10
13.44850759917104
 20
17.79326675144628
 30
0.0
 11
13.41750759917109
 21
17.82426675144623
 31
0.0
  0
LINE
  5
370
330
2
100
AcDbEntity
  8
0
100
AcDbLine
 10
13.47950759917099
 20
17.89181145292358
 30
0.0
 11
13.52623698987368
 21
17.89181145292358
 31
0.0
  0
LINE
  5
371
330
2
100
AcDbEntity
  8
0
100
AcDbLine
 10
13.44850759917104
 20
17.92281145292443
 30
0.0
 11
13.47950759917099
 21
17.89181145292358
 31
0.0
  0
LINE
  5
372
330
2
100
AcDbEntity
  8
0
100
AcDbLine
 10
13.35550759917073
 20
17.79326675144628
 30
0.0
 11
13.44850759917104
 21
17.92281145292443
 31
0.0
  0
LINE
  5
373
330
2
100
AcDbEntity
  8
0
100
AcDbLine
 10
13.41750759917109
 20
17.82426675144623
 30
0.0
 11
13.37048869155292
 21
17.82426675144623
 31
0.0
  0
LINE
  5
374
330
2
100
AcDbEntity
  8
0
100
AcDbLine
 10
13.35550759917073
 20
17.79326675144628
 30
0.0
 11
13.32450759917078
 21
17.82426675144623
 31
0.0
  0
LINE
  5
375
330
2
100
AcDbEntity
  8
0
100
AcDbLine
 10
13.38650759917068
 20
17.89181145292358
 30
0.0
 11
13.43323698987383
 21
17.89181145292358
 31
0.0
  0
LINE
  5
376
330
2
100
AcDbEntity
  8
0
100
AcDbLine
 10
13.35550759917073
 20
17.92281145292443
 30
0.0
 11
13.38650759917068
 21
17.89181145292358
 31
0.0
  0
LINE
  5
377
330
2
100
AcDbEntity
  8
0
100
AcDbLine
 10
13.333252732958
 20
17.89181145292358
 30
0.0
 11
13.35550759917073
 21
17.92281145292443
 31
0.0
  0
LINE
  5
378
330
2
100
AcDbEntity
  8
0
100
AcDbLine
 10
13.32450759917078
 20
17.82426675144623
 30
0.0
 11
13.27748869155307
 21
17.82426675144623
 31
0.0
  0
LINE
  5
379
330
2
100
AcDbEntity
  8
0
100
AcDbLine
 10
13.29350759917083
 20
17.89181145292358
 30
0.0
 11
13.34023698987399
 21
17.89181145292358
 31
0.0
  0
LINE
  5
37A
330
2
100
AcDbEntity
  8
0
100
AcDbLine
 10
13.45679395155225
 20
17.82426675144623
 30
0.0
 11
13.20279395155189
 21
17.82426675144623
 31
0.0
  0
LINE
  5
37B
330
2
100
AcDbEntity
  8
0
100
AcDbLine
 10
13.20279395155189
 20
17.89181145292358
 30
0.0
 11
13.472523342255
 21
17.89181145292358
 31
0.0
  0
LINE
  5
37C
330
2
100
AcDbEntity
  8
0
100
AcDbLine
 10
13.51050759917093
 20
17.82426675144623
 30
0.0
 11
13.46376539092894
 21
17.82426675144623
 31
0.0
  0
LINE
  5
37D
330
2
100
AcDbEntity
  8
0
100
AcDbLine
 10
13.54150759917088
 20
17.79326675144628
 30
0.0
 11
13.51050759917093
 21
17.82426675144623
 31
0.0
  0
LINE
  5
37E
330
2
100
AcDbEntity
  8
0
100
AcDbLine
 10
13.54150759917088
 20
17.79326675144628
 30
0.0
 11
13.63450759917073
 21
17.92281145292443
 31
0.0
  0
LINE
  5
37F
330
2
100
AcDbEntity
  8
0
100
AcDbLine
 10
13.57250759917083
 20
17.89181145292358
 30
0.0
 11
13.61858473944126
 21
17.89181145292358
 31
0.0
  0
LINE
  5
380
330
2
100
AcDbEntity
  8
0
100
AcDbLine
 10
13.54150759917088
 20
17.92281145292443
 30
0.0
 11
13.57250759917083
 21
17.89181145292358
 31
0.0
  0
LINE
  5
381
330
2
100
AcDbEntity
  8
0
100
AcDbLine
 10
13.09698945939267
 20
17.85803910218536
 30
0.0
 11
13.09698945939267
 21
17.98303910218536
 31
0.0
  0
LINE
  5
382
330
2
100
AcDbEntity
  8
0
100
AcDbLine
 10
13.09698945939267
 20
17.98303910218536
 30
0.0
 11
13.20279395155189
 21
17.89181145292358
 31
0.0
  0
LINE
  5
383
330
2
100
AcDbEntity
  8
0
100
AcDbLine
 10
13.09698945939267
 20
17.85803910218536
 30
0.0
 11
13.09698945939267
 21
17.73303910218536
 31
0.0
  0
LINE
  5
384
330
2
100
AcDbEntity
  8
0
100
AcDbLine
 10
13.09698945939267
 20
17.73303910218536
 30
0.0
 11
13.20279395155189
 21
17.82426675144623
 31
0.0
  0
LINE
  5
385
330
2
100
AcDbEntity
  8
0
100
AcDbLine
 10
13.23350759917089
 20
17.82426675144623
 30
0.0
 11
13.21148869155327
 21
17.82426675144623
 31
0.0
  0
LINE
  5
386
330
2
100
AcDbEntity
  8
0
100
AcDbLine
 10
13.22750759917103
 20
17.89181145292358
 30
0.0
 11
13.24923698987364
 21
17.89181145292358
 31
0.0
  0
LINE
  5
387
330
2
100
AcDbEntity
  8
0
100
AcDbLine
 10
13.60770921332501
 20
17.82933733971302
 30
0.0
 11
13.56096700508301
 21
17.82933733971302
 31
0.0
  0
LINE
  5
388
330
2
100
AcDbEntity
  8
0
100
AcDbLine
 10
13.63870921332496
 20
17.79833733971307
 30
0.0
 11
13.60770921332501
 21
17.82933733971302
 31
0.0
  0
LINE
  5
389
330
2
100
AcDbEntity
  8
0
100
AcDbLine
 10
13.63870921332496
 20
17.79833733971307
 30
0.0
 11
13.70581417732178
 21
17.89181145292358
 31
0.0
  0
LINE
  5
38A
330
2
100
AcDbEntity
  8
0
100
AcDbLine
 10
13.66550759917113
 20
17.89181145292358
 30
0.0
 11
13.71158473944111
 21
17.89181145292358
 31
0.0
  0
LINE
  5
38B
330
2
100
AcDbEntity
  8
0
100
AcDbLine
 10
13.63450759917073
 20
17.92281145292443
 30
0.0
 11
13.66550759917113
 21
17.89181145292358
 31
0.0
  0
LINE
  5
38C
330
2
100
AcDbEntity
  8
0
100
AcDbLine
 10
13.65896407953819
 20
17.82933733971302
 30
0.0
 11
13.84270310701136
 21
17.85803910218536
 31
0.0
  0
LINE
  5
38D
330
2
100
AcDbEntity
  8
0
100
AcDbLine
 10
13.70381417732183
 20
17.89181145292358
 30
0.0
 11
13.84270310701136
 21
17.85803910218536
 31
0.0
  0
LINE
  5
38E
330
2
100
AcDbEntity
  8
0
100
AcDbLine
 10
13.41444691330476
 20
17.51110469902531
 30
0.0
 11
13.5074469133046
 21
17.51110469902531
 31
0.0
  0
LWPOLYLINE
  5
38F
330
2
100
AcDbEntity
  8
0
100
AcDbPolyline
 90
        4
 70
     0
 43
0.02
 10
14.19134051439819
 20
19.75375312060467
 10
14.19134051439819
 20
19.66185334478294
 42
0.4142135623730951
 10
14.23784051439811
 20
19.61535334478256
 10
14.86577423303738
 20
19.61535334478256
  0
LWPOLYLINE
  5
390
330
2
100
AcDbEntity
  8
0
100
AcDbPolyline
 90
        2
 70
     1
 43
0.03125
 10
14.17571551439819
 20
19.75375312060467
 42
1.0
 10
14.20696551439819
 20
19.75375312060467
 42
1.0
  0
LINE
  5
391
330
2
100
AcDbEntity
  8
0
100
AcDbLine
 10
13.12832349112155
 20
20.48029598090332
 30
0.0
 11
13.12832349112155
 21
20.57329598090317
 31
0.0
  0
LINE
  5
392
330
2
100
AcDbEntity
  8
0
100
AcDbLine
 10
13.16032349112079
 20
20.60529598090332
 30
0.0
 11
13.47132349112049
 21
20.60529598090332
 31
0.0
  0
ARC
  5
393
330
2
100
AcDbEntity
  8
0
100
AcDbCircle
 10
13.16032349112079
 20
20.57329598090317
 30
0.0
 40
0.032
100
AcDbArc
 50
90.0
 51
180.0
  0
LINE
  5
394
330
2
100
AcDbEntity
  8
0
100
AcDbLine
 10
13.50332349112155
 20
20.57329598090317
 30
0.0
 11
13.50332349112155
 21
20.48029598090332
 31
0.0
  0
ARC
  5
395
330
2
100
AcDbEntity
  8
0
100
AcDbCircle
 10
13.47132349112049
 20
20.57329598090317
 30
0.0
 40
0.032
100
AcDbArc
 50
0.0
 51
90.0
  0
LINE
  5
396
330
2
100
AcDbEntity
  8
0
100
AcDbLine
 10
13.16032349112079
 20
20.60529598090332
 30
0.0
 11
13.16032349112079
 21
21.20029598090358
 31
0.0
  0
LINE
  5
397
330
2
100
AcDbEntity
  8
0
100
AcDbLine
 10
13.22232349112069
 20
21.26229598090347
 30
0.0
 11
13.51917507856611
 21
21.26229598090347
 31
0.0
  0
ARC
  5
398
330
2
100
AcDbEntity
  8
0
100
AcDbCircle
 10
13.22232349112069
 20
21.20029598090358
 30
0.0
 40
0.062
100
AcDbArc
 50
90.0
 51
180.0
  0
LINE
  5
399
330
2
100
AcDbEntity
  8
0
100
AcDbLine
 10
13.36797470053985
 20
20.60529598090332
 30
0.0
 11
13.36797470053985
 21
20.81730858047402
 31
0.0
  0
LINE
  5
39A
330
2
100
AcDbEntity
  8
0
100
AcDbLine
 10
13.37700294767906
 20
20.84952648541574
 30
0.0
 11
13.56483312257201
 21
21.15835145780991
 31
0.0
  0
ARC
  5
39B
330
2
100
AcDbEntity
  8
0
100
AcDbCircle
 10
13.42997470053974
 20
20.81730858047402
 30
0.0
 40
0.062
100
AcDbArc
 50
148.6916501890062
 51
180.0
  0
ARC
  5
39C
330
2
100
AcDbEntity
  8
0
100
AcDbCircle
 10
13.51917507856611
 20
21.20029598090358
 30
0.0
 40
0.062
100
AcDbArc
 50
317.4273462976114
 51
90.0
  0
ENDSEC
  0
SECTION
  2
OBJECTS
  0
DICTIONARY
  5
B
330
0
100
AcDbDictionary
281
     1
  3
ACAD_COLOR
350
50
  3
ACAD_GROUP
350
3D
  3
ACAD_LAYOUT
350
18
  3
ACAD_MATERIAL
350
D
  3
ACAD_MLEADERSTYLE
350
53
  3
ACAD_MLINESTYLE
350
3E
  3
ACAD_PLOTSETTINGS
350
3F
  3
ACAD_PLOTSTYLENAME
350
A
  3
ACAD_SCALELIST
350
51
  3
ACAD_TABLESTYLE
350
52
  3
ACAD_VISUALSTYLE
350
31
  3
ACDB_RECOMPOSE_DATA
350
3AA
  3
AcDbVariableDictionary
350
3A0
  0
DICTIONARY
  5
33
330
2E
100
AcDbDictionary
280
     1
281
     1
  0
DICTIONARY
  5
23
330
22
100
AcDbDictionary
280
     1
281
     1
  3
ACAD_LAYERSTATES
360
24
  0
DICTIONARY
  5
7
330
6
100
AcDbDictionary
280
     1
281
     1
  3
ADSK_XREC_LAYER_RECONCILED
360
8
  0
DICTIONARY
  5
71
330
70
100
AcDbDictionary
280
     1
281
     1
  3
ADSK_XREC_LAYER_RECONCILED
360
72
  0
DICTIONARY
  5
3
330
2
100
AcDbDictionary
280
     1
281
     1
  3
ACAD_SORTENTS
360
39D
  0
DICTIONARY
  5
DA
330
D9
100
AcDbDictionary
280
     1
281
     1
  3
ACAD_DIMASSOC
360
DB
  0
DICTIONARY
  5
EC
330
EB
100
AcDbDictionary
280
     1
281
     1
  3
ACAD_DIMASSOC
360
ED
  0
DICTIONARY
  5
128
330
127
100
AcDbDictionary
280
     1
281
     1
  3
ACAD_DIMASSOC
360
129
  0
DICTIONARY
  5
139
330
138
100
AcDbDictionary
280
     1
281
     1
  3
ACAD_DIMASSOC
360
13A
  0
DICTIONARY
  5
1CF
330
1CE
100
AcDbDictionary
280
     1
281
     1
  3
ACAD_DIMASSOC
360
1D0
  0
DICTIONARY
  5
203
330
202
100
AcDbDictionary
280
     1
281
     1
  3
ACAD_DIMASSOC
360
204
  0
DICTIONARY
  5
214
330
213
100
AcDbDictionary
280
     1
281
     1
  3
ACAD_DIMASSOC
360
215
  0
DICTIONARY
  5
225
330
224
100
AcDbDictionary
280
     1
281
     1
  3
ACAD_DIMASSOC
360
226
  0
DICTIONARY
  5
328
330
327
100
AcDbDictionary
280
     1
281
     1
  3
ACAD_DIMASSOC
360
329
  0
DICTIONARY
  5
50
102
{ACAD_REACTORS
330
B
102
}
330
B
100
AcDbDictionary
281
     1
  0
DICTIONARY
  5
3D
102
{ACAD_REACTORS
330
B
102
}
330
B
100
AcDbDictionary
281
     1
  0
DICTIONARY
  5
18
102
{ACAD_REACTORS
330
B
102
}
330
B
100
AcDbDictionary
281
     1
  3
Layout1
350
1F
  3
Model
350
17
  0
DICTIONARY
  5
D
102
{ACAD_REACTORS
330
B
102
}
330
B
100
AcDbDictionary
281
     1
  3
ByBlock
350
48
  3
ByLayer
350
40
  3
Global
350
C
  0
DICTIONARY
  5
53
102
{ACAD_REACTORS
330
B
102
}
330
B
100
AcDbDictionary
281
     1
  0
DICTIONARY
  5
3E
102
{ACAD_REACTORS
330
B
102
}
330
B
100
AcDbDictionary
281
     1
  3
Standard
350
54
  0
DICTIONARY
  5
3F
102
{ACAD_REACTORS
330
B
102
}
330
B
100
AcDbDictionary
281
     1
  0
ACDBDICTIONARYWDFLT
  5
A
102
{ACAD_REACTORS
330
B
102
}
330
B
100
AcDbDictionary
281
     1
  3
Normal
350
9
100
AcDbDictionaryWithDefault
340
9
  0
DICTIONARY
  5
51
102
{ACAD_REACTORS
330
B
102
}
330
B
100
AcDbDictionary
281
     1
  3
A0
350
59
  3
A1
350
5A
  3
A2
350
5B
  3
A3
350
5C
  3
A4
350
5D
  3
A5
350
5E
  3
A6
350
5F
  3
A7
350
60
  3
A8
350
61
  3
A9
350
62
  3
B0
350
63
  3
B1
350
64
  3
B2
350
65
  3
B3
350
66
  3
B4
350
67
  3
B5
350
68
  3
B6
350
69
  0
DICTIONARY
  5
52
102
{ACAD_REACTORS
330
B
102
}
330
B
100
AcDbDictionary
281
     1
  3
Standard
350
55
  0
DICTIONARY
  5
31
102
{ACAD_REACTORS
330
B
102
}
330
B
100
AcDbDictionary
281
     1
  3
2dWireframe
350
30
  3
Realistic
350
57
  3
Wireframe
350
58
  0
XRECORD
  5
3AA
102
{ACAD_REACTORS
330
B
102
}
330
B
100
AcDbXrecord
280
     1
 90
        1
330
55
  0
DICTIONARY
  5
3A0
102
{ACAD_REACTORS
330
B
102
}
330
B
100
AcDbDictionary
281
     1
  3
CANNOSCALE
350
3A3
  3
CMLEADERSTYLE
350
3A2
  3
CTABLESTYLE
350
3A1
  3
DIMASSOC
350
3A8
  3
HIDETEXT
350
3A6
  3
INDEXCTL
350
3A5
  3
SORTENTS
350
3A4
  3
XCLIPFRAME
350
3A7
  0
DICTIONARY
  5
24
102
{ACAD_REACTORS
330
23
102
}
330
23
100
AcDbDictionary
281
     1
  0
XRECORD
  5
8
102
{ACAD_REACTORS
330
7
102
}
330
7
100
AcDbXrecord
280
     1
290
     1
  0
XRECORD
  5
72
102
{ACAD_REACTORS
330
71
102
}
330
71
100
AcDbXrecord
280
     1
290
     1
  0
SORTENTSTABLE
  5
39D
102
{ACAD_REACTORS
330
3
102
}
330
3
100
AcDbSortentsTable
330
2
  0
DIMASSOC
  5
DB
102
{ACAD_REACTORS
330
DA
102
}
330
DA
100
AcDbDimAssoc
330
D9
 90
        3
 70
     0
 71
     0
  1
AcDbOsnapPointRef
 72
     1
331
D7
 73
     2
 91
        7
 40
1.0
 10
0.0
 20
0.0
 30
2.000000000000000E+50
 75
     0
  1
AcDbOsnapPointRef
 72
     1
331
D7
 73
     2
 91
       10
 40
4.712388980392024
 10
0.0
 20
0.0
 30
2.000000000000000E+50
 75
     0
  0
DIMASSOC
  5
ED
102
{ACAD_REACTORS
330
EC
102
}
330
EC
100
AcDbDimAssoc
330
EB
 90
        3
 70
     0
 71
     0
  1
AcDbOsnapPointRef
 72
     1
331
D8
 73
     2
 91
        3
 40
1.0
 10
0.0
 20
0.0
 30
2.000000000000000E+50
 75
     0
  1
AcDbOsnapPointRef
 72
    13
331
D8
 73
     2
 91
        7
 40
0.0
 10
0.0
 20
0.0
 30
2.000000000000000E+50
 75
     0
  0
DIMASSOC
  5
129
102
{ACAD_REACTORS
330
128
102
}
330
128
100
AcDbDimAssoc
330
127
 90
        3
 70
     0
 71
     0
  1
AcDbOsnapPointRef
 72
     1
331
125
 73
     2
 91
        7
 40
1.0
 10
0.0
 20
0.0
 30
2.000000000000000E+50
 75
     0
  1
AcDbOsnapPointRef
 72
     1
331
125
 73
     2
 91
       10
 40
4.712388980392024
 10
0.0
 20
0.0
 30
2.000000000000000E+50
 75
     0
  0
DIMASSOC
  5
13A
102
{ACAD_REACTORS
330
139
102
}
330
139
100
AcDbDimAssoc
330
138
 90
        3
 70
     0
 71
     0
  1
AcDbOsnapPointRef
 72
     1
331
126
 73
     2
 91
        3
 40
1.0
 10
0.0
 20
0.0
 30
2.000000000000000E+50
 75
     0
  1
AcDbOsnapPointRef
 72
    13
331
126
 73
     2
 91
        7
 40
0.0
 10
0.0
 20
0.0
 30
2.000000000000000E+50
 75
     0
  0
DIMASSOC
  5
1D0
102
{ACAD_REACTORS
330
1CF
102
}
330
1CF
100
AcDbDimAssoc
330
1CE
 90
        2
 70
     0
 71
     0
  1
AcDbOsnapPointRef
 72
     1
331
1CD
 73
     2
 91
        5
 40
1.0
 10
0.0
 20
0.0
 30
2.000000000000000E+50
 75
     0
  0
DIMASSOC
  5
204
102
{ACAD_REACTORS
330
203
102
}
330
203
100
AcDbDimAssoc
330
202
 90
        1
 70
     0
 71
     0
  1
AcDbOsnapPointRef
 72
     6
331
1BD
 73
     2
 91
        9
 40
0.0
 10
0.0
 20
0.0
 30
0.0
332
1BD
 74
     2
 92
        8
 75
     0
  0
DIMASSOC
  5
215
102
{ACAD_REACTORS
330
214
102
}
330
214
100
AcDbDimAssoc
330
213
 90
        3
 70
     0
 71
     0
  1
AcDbOsnapPointRef
 72
     1
331
1E1
 73
     2
 91
        1
 40
1.0
 10
0.0
 20
0.0
 30
2.000000000000000E+50
 75
     0
  1
AcDbOsnapPointRef
 72
     1
331
1E1
 73
     2
 91
        4
 40
4.712388980384689
 10
0.0
 20
0.0
 30
2.000000000000000E+50
 75
     0
  0
DIMASSOC
  5
226
102
{ACAD_REACTORS
330
225
102
}
330
225
100
AcDbDimAssoc
330
224
 90
        3
 70
     0
 71
     0
  1
AcDbOsnapPointRef
 72
     1
331
1CD
 73
     2
 91
        3
 40
1.0
 10
0.0
 20
0.0
 30
2.000000000000000E+50
 75
     0
  1
AcDbOsnapPointRef
 72
     6
331
1CD
 73
     2
 91
        7
 40
0.0
 10
0.0
 20
0.0
 30
0.0
332
1CD
 74
     2
 92
        6
 75
     0
  0
DIMASSOC
  5
329
102
{ACAD_REACTORS
330
328
102
}
330
328
100
AcDbDimAssoc
330
327
 90
        3
 70
     0
 71
     0
  1
AcDbOsnapPointRef
 72
     1
331
D7
 73
     2
 91
        8
 40
1.570796326794896
 10
0.0
 20
0.0
 30
2.000000000000000E+50
 75
     0
  1
AcDbOsnapPointRef
 72
     1
331
C1
 73
     2
 91
        3
 40
0.9999999999999998
 10
0.0
 20
0.0
 30
2.000000000000000E+50
 75
     0
  0
LAYOUT
  5
1F
102
{ACAD_XDICTIONARY
360
20
102
}
102
{ACAD_REACTORS
330
18
102
}
330
18
100
AcDbPlotSettings
  1

  2
Default Windows System Printer.pc3
  4
Letter
  6

 40
4.857749938964843
 41
4.857734680175781
 42
4.011077880859375
 43
4.857757568359375
 44
215.8999938964844
 45
279.3999938964844
 46
-3.856251541550562
 47
-0.730866326802785
 48
0.0
 49
0.0
140
0.0
141
0.0
142
1.0
143
1.0
 70
   660
 72
     0
 73
     0
 74
     1
  7

 75
    16
147
1.0
148
0.0099903330982436
149
0.0163677866995016
100
AcDbLayout
  1
Layout1
 70
     1
 71
     1
 10
-0.0398223909650601
 20
-0.1631195330737204
 11
8.460177368739049
 21
10.83688022663039
 12
0.0
 22
0.0
 32
0.0
 14
0.0000000075458644
 24
0.0000000082145277
 34
0.0
 15
8.454000007545857
 25
10.67400000821453
 35
0.0
146
0.0
 13
0.0
 23
0.0
 33
0.0
 16
1.0
 26
0.0
 36
0.0
 17
0.0
 27
1.0
 37
0.0
 76
     0
330
1C
1001
ACAD_PSEXT
1000
Default Windows System Printer.pc3
1000
HP LaserJet Professional M1212nf MFP
1000
USB001
1000

1070
     0
  0
LAYOUT
  5
17
102
{ACAD_XDICTIONARY
360
19
102
}
102
{ACAD_REACTORS
330
18
102
}
330
18
100
AcDbPlotSettings
  1

  2
hp LaserJet 1000
  4
Letter
  6

 40
5.111750125885009
 41
5.11176061630249
 42
5.111740112304687
 43
5.11175537109375
 44
215.8999938964844
 45
279.3999938964844
 46
-1737.727141600119
 47
-1443.590822120185
 48
0.0
 49
0.0
140
0.0
141
0.0
142
1.0
143
1.0
 70
 11956
 72
     0
 73
     1
 74
     1
  7
monochrome.ctb
 75
    16
147
1.0
148
-1178909.293504616
149
-716480.0773740626
100
AcDbLayout
  1
Model
 70
     1
 71
     0
 10
0.0
 20
0.0
 11
12.0
 21
9.0
 12
0.0
 22
0.0
 32
0.0
 14
0.0
 24
0.0
 34
0.0
 15
0.0
 25
0.0
 35
0.0
146
0.0
 13
0.0
 23
0.0
 33
0.0
 16
1.0
 26
0.0
 36
0.0
 17
0.0
 27
1.0
 37
0.0
 76
     0
330
2
331
2F
1001
ACAD_PSEXT
1000
hp LaserJet 1000
1000
hp LaserJet 1000
1000
USB001
1000

1070
     0
  0
MATERIAL
  5
48
102
{ACAD_XDICTIONARY
360
49
102
}
102
{ACAD_REACTORS
330
D
102
}
330
D
100
AcDbMaterial
  1
ByBlock
 72
     0
 43
0.0208333333333333
 43
0.0
 43
0.0
 43
0.0
 43
0.0
 43
0.0208333333333333
 43
0.0
 43
0.0
 43
0.0
 43
0.0
 43
1.0
 43
0.0
 43
0.0
 43
0.0
 43
0.0
 43
1.0
 77
     0
 47
0.0208333333333333
 47
0.0
 47
0.0
 47
0.0
 47
0.0
 47
0.0208333333333333
 47
0.0
 47
0.0
 47
0.0
 47
0.0
 47
1.0
 47
0.0
 47
0.0
 47
0.0
 47
0.0
 47
1.0
171
     0
 49
0.0208333333333333
 49
0.0
 49
0.0
 49
0.0
 49
0.0
 49
0.0208333333333333
 49
0.0
 49
0.0
 49
0.0
 49
0.0
 49
1.0
 49
0.0
 49
0.0
 49
0.0
 49
0.0
 49
1.0
175
     0
142
0.0208333333333333
142
0.0
142
0.0
142
0.0
142
0.0
142
0.0208333333333333
142
0.0
142
0.0
142
0.0
142
0.0
142
1.0
142
0.0
142
0.0
142
0.0
142
0.0
142
1.0
179
     0
144
0.0208333333333333
144
0.0
144
0.0
144
0.0
144
0.0
144
0.0208333333333333
144
0.0
144
0.0
144
0.0
144
0.0
144
1.0
144
0.0
144
0.0
144
0.0
144
0.0
144
1.0
147
0.0208333333333333
147
0.0
147
0.0
147
0.0
147
0.0
147
0.0208333333333333
147
0.0
147
0.0
147
0.0
147
0.0
147
1.0
147
0.0
147
0.0
147
0.0
147
0.0
147
1.0
  0
MATERIAL
  5
40
102
{ACAD_XDICTIONARY
360
41
102
}
102
{ACAD_REACTORS
330
D
102
}
330
D
100
AcDbMaterial
  1
ByLayer
 72
     0
 43
0.0208333333333333
 43
0.0
 43
0.0
 43
0.0
 43
0.0
 43
0.0208333333333333
 43
0.0
 43
0.0
 43
0.0
 43
0.0
 43
1.0
 43
0.0
 43
0.0
 43
0.0
 43
0.0
 43
1.0
 77
     0
 47
0.0208333333333333
 47
0.0
 47
0.0
 47
0.0
 47
0.0
 47
0.0208333333333333
 47
0.0
 47
0.0
 47
0.0
 47
0.0
 47
1.0
 47
0.0
 47
0.0
 47
0.0
 47
0.0
 47
1.0
171
     0
 49
0.0208333333333333
 49
0.0
 49
0.0
 49
0.0
 49
0.0
 49
0.0208333333333333
 49
0.0
 49
0.0
 49
0.0
 49
0.0
 49
1.0
 49
0.0
 49
0.0
 49
0.0
 49
0.0
 49
1.0
175
     0
142
0.0208333333333333
142
0.0
142
0.0
142
0.0
142
0.0
142
0.0208333333333333
142
0.0
142
0.0
142
0.0
142
0.0
142
1.0
142
0.0
142
0.0
142
0.0
142
0.0
142
1.0
179
     0
144
0.0208333333333333
144
0.0
144
0.0
144
0.0
144
0.0
144
0.0208333333333333
144
0.0
144
0.0
144
0.0
144
0.0
144
1.0
144
0.0
144
0.0
144
0.0
144
0.0
144
1.0
147
0.0208333333333333
147
0.0
147
0.0
147
0.0
147
0.0
147
0.0208333333333333
147
0.0
147
0.0
147
0.0
147
0.0
147
1.0
147
0.0
147
0.0
147
0.0
147
0.0
147
1.0
  0
MATERIAL
  5
C
102
{ACAD_XDICTIONARY
360
E
102
}
102
{ACAD_REACTORS
330
D
102
}
330
D
100
AcDbMaterial
  1
Global
 72
     0
 43
0.0208333333333333
 43
0.0
 43
0.0
 43
0.0
 43
0.0
 43
0.0208333333333333
 43
0.0
 43
0.0
 43
0.0
 43
0.0
 43
1.0
 43
0.0
 43
0.0
 43
0.0
 43
0.0
 43
1.0
 77
     0
 47
0.0208333333333333
 47
0.0
 47
0.0
 47
0.0
 47
0.0
 47
0.0208333333333333
 47
0.0
 47
0.0
 47
0.0
 47
0.0
 47
1.0
 47
0.0
 47
0.0
 47
0.0
 47
0.0
 47
1.0
171
     0
 49
0.0208333333333333
 49
0.0
 49
0.0
 49
0.0
 49
0.0
 49
0.0208333333333333
 49
0.0
 49
0.0
 49
0.0
 49
0.0
 49
1.0
 49
0.0
 49
0.0
 49
0.0
 49
0.0
 49
1.0
175
     0
142
0.0208333333333333
142
0.0
142
0.0
142
0.0
142
0.0
142
0.0208333333333333
142
0.0
142
0.0
142
0.0
142
0.0
142
1.0
142
0.0
142
0.0
142
0.0
142
0.0
142
1.0
179
     0
144
0.0208333333333333
144
0.0
144
0.0
144
0.0
144
0.0
144
0.0208333333333333
144
0.0
144
0.0
144
0.0
144
0.0
144
1.0
144
0.0
144
0.0
144
0.0
144
0.0
144
1.0
147
0.0208333333333333
147
0.0
147
0.0
147
0.0
147
0.0
147
0.0208333333333333
147
0.0
147
0.0
147
0.0
147
0.0
147
1.0
147
0.0
147
0.0
147
0.0
147
0.0
147
1.0
  0
MLINESTYLE
  5
54
102
{ACAD_REACTORS
330
3E
102
}
330
3E
100
AcDbMlineStyle
  2
STANDARD
 70
     0
  3

 62
   256
 51
90.0
 52
90.0
 71
     2
 49
0.5
 62
   256
  6
BYLAYER
 49
-0.5
 62
   256
  6
BYLAYER
  0
ACDBPLACEHOLDER
  5
9
102
{ACAD_REACTORS
330
A
102
}
330
A
  0
SCALE
  5
59
102
{ACAD_REACTORS
330
51
102
}
330
51
100
AcDbScale
 70
     0
300
1:1
140
1.0
141
1.0
290
     1
  0
SCALE
  5
5A
102
{ACAD_REACTORS
330
51
102
}
330
51
100
AcDbScale
 70
     0
300
1/128" = 1'-0"
140
0.0078125
141
12.0
290
     0
  0
SCALE
  5
5B
102
{ACAD_REACTORS
330
51
102
}
330
51
100
AcDbScale
 70
     0
300
1/64" = 1'-0"
140
0.015625
141
12.0
290
     0
  0
SCALE
  5
5C
102
{ACAD_REACTORS
330
51
102
}
330
51
100
AcDbScale
 70
     0
300
1/32" = 1'-0"
140
0.03125
141
12.0
290
     0
  0
SCALE
  5
5D
102
{ACAD_REACTORS
330
51
102
}
330
51
100
AcDbScale
 70
     0
300
1/16" = 1'-0"
140
0.0625
141
12.0
290
     0
  0
SCALE
  5
5E
102
{ACAD_REACTORS
330
51
102
}
330
51
100
AcDbScale
 70
     0
300
3/32" = 1'-0"
140
0.09375
141
12.0
290
     0
  0
SCALE
  5
5F
102
{ACAD_REACTORS
330
51
102
}
330
51
100
AcDbScale
 70
     0
300
1/8" = 1'-0"
140
0.125
141
12.0
290
     0
  0
SCALE
  5
60
102
{ACAD_REACTORS
330
51
102
}
330
51
100
AcDbScale
 70
     0
300
3/16" = 1'-0"
140
0.1875
141
12.0
290
     0
  0
SCALE
  5
61
102
{ACAD_REACTORS
330
51
102
}
330
51
100
AcDbScale
 70
     0
300
1/4" = 1'-0"
140
0.25
141
12.0
290
     0
  0
SCALE
  5
62
102
{ACAD_REACTORS
330
51
102
}
330
51
100
AcDbScale
 70
     0
300
3/8" = 1'-0"
140
0.375
141
12.0
290
     0
  0
SCALE
  5
63
102
{ACAD_REACTORS
330
51
102
}
330
51
100
AcDbScale
 70
     0
300
1/2" = 1'-0"
140
0.5
141
12.0
290
     0
  0
SCALE
  5
64
102
{ACAD_REACTORS
330
51
102
}
330
51
100
AcDbScale
 70
     0
300
3/4" = 1'-0"
140
0.75
141
12.0
290
     0
  0
SCALE
  5
65
102
{ACAD_REACTORS
330
51
102
}
330
51
100
AcDbScale
 70
     0
300
1" = 1'-0"
140
1.0
141
12.0
290
     0
  0
SCALE
  5
66
102
{ACAD_REACTORS
330
51
102
}
330
51
100
AcDbScale
 70
     0
300
1-1/2" = 1'-0"
140
1.5
141
12.0
290
     0
  0
SCALE
  5
67
102
{ACAD_REACTORS
330
51
102
}
330
51
100
AcDbScale
 70
     0
300
3" = 1'-0"
140
3.0
141
12.0
290
     0
  0
SCALE
  5
68
102
{ACAD_REACTORS
330
51
102
}
330
51
100
AcDbScale
 70
     0
300
6" = 1'-0"
140
6.0
141
12.0
290
     0
  0
SCALE
  5
69
102
{ACAD_REACTORS
330
51
102
}
330
51
100
AcDbScale
 70
     0
300
1'-0" = 1'-0"
140
12.0
141
12.0
290
     0
  0
TABLESTYLE
  5
55
102
{ACAD_XDICTIONARY
360
56
102
}
102
{ACAD_REACTORS
330
52
102
}
330
52
100
AcDbTableStyle
  3
Standard
 70
     0
 71
     0
 40
0.06
 41
0.06
280
     0
281
     0
  7
Standard
140
0.18
170
     2
 62
     0
 63
     7
283
     0
274
    -2
284
     1
 64
     0
275
    -2
285
     1
 65
     0
276
    -2
286
     1
 66
     0
277
    -2
287
     1
 67
     0
278
    -2
288
     1
 68
     0
279
    -2
289
     1
 69
     0
  7
Standard
140
0.25
170
     5
 62
     0
 63
     7
283
     0
274
    -2
284
     1
 64
     0
275
    -2
285
     1
 65
     0
276
    -2
286
     1
 66
     0
277
    -2
287
     1
 67
     0
278
    -2
288
     1
 68
     0
279
    -2
289
     1
 69
     0
  7
Standard
140
0.18
170
     5
 62
     0
 63
     7
283
     0
274
    -2
284
     1
 64
     0
275
    -2
285
     1
 65
     0
276
    -2
286
     1
 66
     0
277
    -2
287
     1
 67
     0
278
    -2
288
     1
 68
     0
279
    -2
289
     1
 69
     0
  0
VISUALSTYLE
  5
30
102
{ACAD_XDICTIONARY
360
3AE
102
}
102
{ACAD_REACTORS
330
31
102
}
330
31
100
AcDbVisualStyle
  2
2dWireframe
 70
     4
 71
     0
 72
     2
 73
     0
 90
        0
 40
-0.6
 41
-30.0
 62
     5
 63
     7
 74
     1
 91
        4
 64
     7
 65
   257
 75
     1
175
     1
 42
1.0
 92
        0
 66
   257
 43
1.0
 76
     1
 77
     6
 78
     2
 67
     7
 79
     5
170
     0
171
     0
290
     0
174
     0
 93
        1
 44
0.0
173
     0
291
     0
 45
0.0
1001
ACAD
1000
AcDbSavedByObjectVersion
1070
     0
  0
VISUALSTYLE
  5
57
102
{ACAD_XDICTIONARY
360
3B3
102
}
102
{ACAD_REACTORS
330
31
102
}
330
31
100
AcDbVisualStyle
  2
Realistic
 70
     8
 71
     2
 72
     2
 73
     0
 90
        2
 40
-0.6
 41
30.0
 62
     5
 63
     7
 74
     0
 91
        0
 64
     7
 65
   257
 75
     1
175
     1
 42
1.0
 92
        8
 66
   257
 43
1.0
 76
     1
 77
     6
 78
     2
 67
     7
 79
     3
170
     0
171
     0
290
     0
174
     0
 93
       13
 44
0.0
173
     0
291
     0
 45
0.0
1001
ACAD
1000
AcDbSavedByObjectVersion
1070
     0
  0
VISUALSTYLE
  5
58
102
{ACAD_XDICTIONARY
360
3B5
102
}
102
{ACAD_REACTORS
330
31
102
}
330
31
100
AcDbVisualStyle
  2
Wireframe
 70
     5
 71
     0
 72
     2
 73
     0
 90
        0
 40
-0.6
 41
-30.0
 62
     5
 63
     7
 74
     1
 91
        4
 64
     7
 65
   257
 75
     1
175
     1
 42
1.0
 92
        0
 66
   257
 43
1.0
 76
     1
 77
     6
 78
     2
 67
     7
 79
     3
170
     0
171
     0
290
     0
174
     0
 93
        1
 44
0.0
173
     0
291
     0
 45
0.0
1001
ACAD
1000
AcDbSavedByObjectVersion
1070
     0
  0
DICTIONARYVAR
  5
3A3
102
{ACAD_REACTORS
330
3A0
102
}
330
3A0
100
DictionaryVariables
280
     0
  1
1:1
  0
DICTIONARYVAR
  5
3A2
102
{ACAD_REACTORS
330
3A0
102
}
330
3A0
100
DictionaryVariables
280
     0
  1
STANDARD
  0
DICTIONARYVAR
  5
3A1
102
{ACAD_REACTORS
330
3A0
102
}
330
3A0
100
DictionaryVariables
280
     0
  1
STANDARD
  0
DICTIONARYVAR
  5
3A8
102
{ACAD_REACTORS
330
3A0
102
}
330
3A0
100
DictionaryVariables
280
     0
  1
2
  0
DICTIONARYVAR
  5
3A6
102
{ACAD_REACTORS
330
3A0
102
}
330
3A0
100
DictionaryVariables
280
     0
  1
1
  0
DICTIONARYVAR
  5
3A5
102
{ACAD_REACTORS
330
3A0
102
}
330
3A0
100
DictionaryVariables
280
     0
  1
0
  0
DICTIONARYVAR
  5
3A4
102
{ACAD_REACTORS
330
3A0
102
}
330
3A0
100
DictionaryVariables
280
     0
  1
127
  0
DICTIONARYVAR
  5
3A7
102
{ACAD_REACTORS
330
3A0
102
}
330
3A0
100
DictionaryVariables
280
     0
  1
0
  0
DICTIONARY
  5
20
330
1F
100
AcDbDictionary
280
     1
281
     1
  3
ACAD_XREC_ROUNDTRIP
360
3AD
  3
ADSK_XREC_LAYOUTTHUMBNAIL
360
21
  0
DICTIONARY
  5
19
330
17
100
AcDbDictionary
280
     1
281
     1
  3
ACAD_XREC_ROUNDTRIP
360
3AC
  3
ADSK_XREC_LAYOUTTHUMBNAIL
360
1A
  0
DICTIONARY
  5
49
330
48
100
AcDbDictionary
280
     1
281
     1
  3
ACAD_XREC_ROUNDTRIP
360
3B1
  3
BUMPTILE
360
4A
  3
DIFFUSETILE
360
4B
  3
OPACITYTILE
360
4C
  3
REFLECTIONTILE
360
4D
  3
REFRACTIONTILE
360
4E
  3
SPECULARTILE
360
4F
  0
DICTIONARY
  5
41
330
40
100
AcDbDictionary
280
     1
281
     1
  3
ACAD_XREC_ROUNDTRIP
360
3B0
  3
BUMPTILE
360
42
  3
DIFFUSETILE
360
43
  3
OPACITYTILE
360
44
  3
REFLECTIONTILE
360
45
  3
REFRACTIONTILE
360
46
  3
SPECULARTILE
360
47
  0
DICTIONARY
  5
E
330
C
100
AcDbDictionary
280
     1
281
     1
  3
ACAD_XREC_ROUNDTRIP
360
3AB
  3
BUMPTILE
360
F
  3
DIFFUSETILE
360
10
  3
OPACITYTILE
360
11
  3
REFLECTIONTILE
360
12
  3
REFRACTIONTILE
360
13
  3
SPECULARTILE
360
14
  0
DICTIONARY
  5
56
330
55
100
AcDbDictionary
280
     1
281
     1
  3
ACAD_ROUNDTRIP_2008_TABLESTYLE_CELLSTYLEMAP
360
3A9
  3
ACAD_XREC_ROUNDTRIP
360
3B2
  0
DICTIONARY
  5
3AE
330
30
100
AcDbDictionary
280
     1
281
     1
  3
ACAD_XREC_ROUNDTRIP
360
3AF
  0
DICTIONARY
  5
3B3
330
57
100
AcDbDictionary
280
     1
281
     1
  3
ACAD_XREC_ROUNDTRIP
360
3B4
  0
DICTIONARY
  5
3B5
330
58
100
AcDbDictionary
280
     1
281
     1
  3
ACAD_XREC_ROUNDTRIP
360
3B6
  0
XRECORD
  5
3AD
102
{ACAD_REACTORS
330
20
102
}
330
20
100
AcDbXrecord
280
     1
102
SHADEPLOT
 70
     1
102
SHADEPLOTRESLEVEL
 70
     4
102
SHADEPLOTCUSTOMDPI
 70
   300
  0
XRECORD
  5
21
102
{ACAD_REACTORS
330
20
102
}
330
20
100
AcDbXrecord
280
     1
310
280000006B0000008C0000000100080000000000103B000000000000000000000001000000000000FFFFFF0000000000C8C8C8000000000000000000000000000000000000000000000000000000000000000000330000006600000099000000CC000000FF00000000330000333300006633000099330000CC330000FF3300
310
0000660000336600006666000099660000CC660000FF66000000990000339900006699000099990000CC990000FF99000000CC000033CC000066CC000099CC0000CCCC0000FFCC000000FF000033FF000066FF000099FF0000CCFF0000FFFF000000003300330033006600330099003300CC003300FF003300003333003333
310
33006633330099333300CC333300FF33330000663300336633006666330099663300CC663300FF66330000993300339933006699330099993300CC993300FF99330000CC330033CC330066CC330099CC3300CCCC3300FFCC330000FF330033FF330066FF330099FF3300CCFF3300FFFF330000006600330066006600660099
310
006600CC006600FF00660000336600333366006633660099336600CC336600FF33660000666600336666006666660099666600CC666600FF66660000996600339966006699660099996600CC996600FF99660000CC660033CC660066CC660099CC6600CCCC6600FFCC660000FF660033FF660066FF660099FF6600CCFF6600
310
FFFF660000009900330099006600990099009900CC009900FF00990000339900333399006633990099339900CC339900FF33990000669900336699006666990099669900CC669900FF66990000999900339999006699990099999900CC999900FF99990000CC990033CC990066CC990099CC9900CCCC9900FFCC990000FF99
310
0033FF990066FF990099FF9900CCFF9900FFFF99000000CC003300CC006600CC009900CC00CC00CC00FF00CC000033CC003333CC006633CC009933CC00CC33CC00FF33CC000066CC003366CC006666CC009966CC00CC66CC00FF66CC000099CC003399CC006699CC009999CC00CC99CC00FF99CC0000CCCC0033CCCC0066CC
310
CC0099CCCC00CCCCCC00FFCCCC0000FFCC0033FFCC0066FFCC0099FFCC00CCFFCC00FFFFCC000000FF003300FF006600FF009900FF00CC00FF00FF00FF000033FF003333FF006633FF009933FF00CC33FF00FF33FF000066FF003366FF006666FF009966FF00CC66FF00FF66FF000099FF003399FF006699FF009999FF00CC
310
99FF00FF99FF0000CCFF0033CCFF0066CCFF0099CCFF00CCCCFF00FFCCFF0000FFFF0033FFFF0066FFFF0099FFFF00CCFFFF00FFFFFF00000000000D0D0D001A1A1A00282828003535350043434300505050005D5D5D006B6B6B00787878008686860093939300A1A1A100AEAEAE00BBBBBB00C9C9C900D6D6D600E4E4E400
310
F1F1F100FFFFFF0000000000000000000000000000000000000000000000000000000000000000000000000000000000E2E2E2E2E2E2E2E2E2E2E2E2E2E2E2E2E2E2E2E2E2E2E2E2E2E2E2E2E2E2E2E2E2E2E2E2E2E2E2E2E2E2E2E2E2E2E2E2E2E2E2E2E2E2E2E2E2E2E2E2E2E2E2E2E2E2E2E2E2E2E2E2E2E2E2E2E2E2E2
310
E2E2E2E2E2E2E2E2E2E2E2E2E2E2E2E2E2E2E2E2E2E2E2E2E2E2E2E200E200000000000000000000000000000000000000000000000000000000000000000000000000000000000000000000000000000000000000000000000000000000000000000000000000000000000000000000000000000000000000000000000000
310
00000000000000000000E20000000000000000000000000000000000000000000000000000000000000000000000000000000000000000000000000000000000000000000000000000000000000000000000000000000000000000000000000000000000000000000000000000000000000000000000E2E2E2E2E2E2E2E2E2
310
E2E2000000000000000000E2E2E2E2E2E2E2E2E2E2E2E2E2E2E2E200000000000000000000E2E2E2E2E2E2E2E2E2E2E2E2E2E2E2E200000000000000000000E2E2E2E2E2E2E2E2E2E2E2E2E2E2E2E2000000000000000000E2E2E2E2E2E2E2E2E20000E200E200000000000000000000000000000000000000000000000000
310
0000000000000000000000000000000000000000000000000000000000000000000000000000000000000000000000000000000000000000000000000000000000000000000000000000000000E20000E200E20000000000000000000000000000000000000000000000000000000000000000000000000000000000000000
310
0000000000E2E2E20000000000000000000000000000000000000000000000000000000000000000000000000000000000000000000000000000E20000E200E200000000000000000000000000000000000000000000000000000000000000000000000000000000000000000000000000E2E2E20000000000000000000000
310
000000000000000000000000000000000000000000000000000000000000000000000000000000E20000E200E200000000000000000000000000000000000000000000000000000000000000000000000000000000000000000000000000000000000000000000000000000000000000000000000000000000000000000000
310
0000000000000000000000000000000000000000E20000E200E2000000000000000000000000000000000000000000000000000000000000000000000000000000000000000000000000E2E2E2E2E2E20000000000000000000000000000000000000000000000000000000000000000000000000000000000000000000000
310
00E20000E200E2000000000000000000000000000000000000000000000000000000000000000000000000000000000000000000000000E2E2E2E2E2E2000000000000000000000000000000000000000000000000000000000000000000000000000000000000000000000000E20000E200E2000000000000000000000000
310
000000000000000000000000000000000000000000000000000000000000000000000000000000000000000000000000000000000000000000000000000000000000000000000000000000000000000000000000000000000000E20000E200E200000000000000000000000000000000000000000000000000000000000000
310
0000000000000000000000000000000000000000000000000000000000000000000000000000000000000000000000000000000000000000000000000000000000000000000000E20000E200000000000000000000000000000000000000000000000000000000000000000000000000000000000000000000000000000000
310
00000000000000000000000000000000000000000000000000000000000000000000000000000000000000000000000000000000000000E20000000000000000000000000000000000000000000000000000000000000000000000000000000000000000000000000000000000000000000000000000000000000000000000
310
000000000000000000000000000000000000000000000000000000000000000000000000E20000000000000000000000000000000000000000000000000000000000000000000000000000000000000000E2E2E2E2E2E2E2E2E2E2E2E2E2E2E2E2E20000000000000000000000000000000000000000000000000000000000
310
0000000000000000000000000000000000E20000000000000000000000000000000000000000000000000000000000000000000000000000000000000000E2E2E2E2E2E2E2E2E2E2E2E2E2E2E2E2E200000000000000000000000000000000000000000000000000000000000000000000000000000000000000000000E200
310
00000000000000000000000000000000000000000000000000000000000000000000000000000000000000E2E2E2E2E2E2E2E2E2E2E2E2E2E2E2E2E2E20000000000000000000000000000000000000000000000000000000000000000000000000000000000000000E2E20000000000000000000000000000000000000000
310
000000000000000000000000000000000000000000000000E2E2E2E2E2E2E2E2E2E2E2E2E2E2E2E2E2000000000000000000000000000000000000000000000000000000000000000000000000000000000000000000E2E2000000000000000000000000000000000000000000000000000000000000000000000000000000
310
0000000000E2E2E2E2E2E2E2E2E2E2E2E2E2E2E2E2E2000000000000000000000000000000000000000000000000000000000000000000000000000000000000000000E2E200000000000000000000000000000000000000000000000000000000000000000000000000000000000000000000000000000000000000000000
310
000000000000000000000000000000000000000000000000000000000000000000000000000000000000000000000000E2E20000000000000000000000000000000000000000000000000000000000000000000000000000000000000000000000000000000000000000000000000000000000000000000000000000000000
310
0000000000000000000000000000000000000000000000000000000000E2E2000000000000000000000000000000000000000000000000000000000000000000000000000000000000000000000000000000E2E2E2E20000000000000000000000000000000000000000000000000000000000000000000000000000000000
310
0000000000000000000000E200E200000000000000000000000000000000000000000000000000000000000000000000000000000000000000000000000000E2E2E2E200000000000000000000000000000000000000000000000000000000000000000000000000000000000000000000000000E20000E200E20000000000
310
000000000000000000000000000000000000000000000000000000E2E2E2E2E2E2E2E2E2E2E2E2E2E2E2E2E2E2E2E2E2E2E2E2E2E2E2E2E2E2E2E2E2E2E2E2E2E2E200000000000000000000000000000000000000000000000000000000000000E20000E200E2000000000000000000000000000000000000000000000000
310
0000000000000000E200000000000000000000000000000000E2E2E2E200000000000000000000000000000000E20000000000000000000000000000000000000000000000000000000000000000E20000E200E20000000000000000000000000000000000000000000000000000000000000000E200000000000000000000
310
0000000000000000000000000000000000000000000000000000E20000000000000000000000000000000000000000000000000000000000000000E20000E200E20000000000000000000000000000000000000000000000000000000000000000E200000000000000000000000000000000E2E2E2E2000000000000000000
310
00000000000000E20000000000000000000000000000000000000000000000000000000000000000E20000E200E20000000000000000000000000000000000000000000000000000000000000000E200000000000000000000000000000000E2E2E2E200000000000000000000000000000000E20000000000000000000000
310
000000000000000000000000000000000000000000E20000E200E20000000000000000000000000000000000000000000000000000000000000000E200000000000000E2E2E2E2E2E2E2E2E2E2E2E2E2E2E2E2E2E2E2E2E2E200000000000000E2000000000000000000000000000000000000000000000000000000000000
310
0000E20000E200E20000000000000000000000000000000000000000000000000000000000000000E200000000000000E20000000000000000E2E2E2E20000000000000000E2E2000000000000E20000000000000000000000000000000000000000000000000000000000000000E20000E200E20000000000000000000000
310
000000000000000000000000000000000000000000E200000000000000E20000000000000000000000E20000000000000000E200000000000000E20000000000000000000000000000000000000000000000000000000000000000E200E2E200E2000000000000000000000000000000000000000000000000000000000000
310
0000E200000000000000E2E2E2E2E2E2E2E2E2E2E2E2E2E2E2E2E2E2E2E2E2E200000000000000E20000000000000000000000000000000000000000000000000000000000000000E200E2E200E20000000000000000000000000000000000000000000000000000000000000000E200000000000000E20000000000000000
310
000000E20000000000000000E200000000000000E20000000000000000000000000000000000000000000000000000000000000000E200E2E200E20000000000000000000000000000000000000000000000000000000000000000E2E2E2E2E2E2E2E2E2E2E2E2E2E2E2E2E2E2E2E2E2E2E2E2E2E2E2E2E2E2E2E2E2E2E2E2
310
E2E20000000000000000000000000000000000000000000000000000000000000000E20000E200E20000000000000000000000000000000000000000000000000000000000000000E2E2E20000E2E2E2E200E2000000000000000000E2E2E2E2E20000E20000E2E2E20000E2E2E20000000000000000000000000000000000
310
000000000000000000000000000000E20000E200E2000000000000000000000000000000000000000000000000000000000000E2E2E2E2E200000000E2E200E2000000000000000000E2E2E2E2000000E2E200E2E2000000E2E2E2E2E2000000000000000000000000000000000000000000000000000000000000E200E2E2
310
00E2000000000000000000000000000000000000000000000000000000000000E200E2E2E200000000E2E200E20000000000000000000000E2E2000000E2E200E2E200E200E2E2E200E2000000000000000000000000000000000000000000000000000000000000E20000E200E20000000000000000000000000000000000
310
00000000000000000000000000E200E2E2E2E20000E2E2E200E200000000000000000000000000000000E20000E2E2E2E2E2E2E2E200E2000000000000000000000000000000000000000000000000000000000000E200C7E200E2000000000000000000000000000000000000000000000000000000000000E2E2E2E2E200
310
0000E200E200E200000000000000000000000000000000E20000E2E2E2E2E2E2E2E2E2E2000000000000000000000000000000000000000000000000000000000000E20000E200000000000000000000000000000000000000000000000000000000000000000000E2E200000000E200E200E2000000000000000000000000
310
00000000E20000E2E2E2E20000E2E200E2000000000000000000000000000000000000000000000000000000000000000000E20000000000000000000000000000000000000000000000000000000000000000000000E2E2E2E2E2E2E2E200E200000000000000000000000000000000E20000E2E2E2E2E2E2E20000E20000
310
000000000000000000000000000000000000000000000000000000000000F9E200000000000000000000000000000000000000000000000000000000000000000000000000E20000E2E2E200E200000000000000000000000000000000E20000E2E2E2E2E2E2000000E2000000000000000000000000000000000000000000
310
00000000000000000000006CE200000000000000000000000000000000000000000000000000000000000000000000000000E200000000E200E200000000000000000000000000000000E20000E200E2E2E2E2000000E2000000000000000000000000000000000000000000000000000000000000000000E2000000000000
310
00000000000000000000000000000000000000000000000000000000000000E200000000E200E200000000000000000000000000000000E20000E200E2E2E2E2000000E200000000000000000000000000000000000000000000000000000000000000007EE200000000000000000000000000000000000000000000000000
310
000000000000000000000000E200000000E200E2000000000000E2E2E2E2000000000000E20000E2E2E2E2E2E2000000E200000000000000000000000000000000000000000000000000000000000000004BE200000000000000000000000000000000000000000000000000000000000000000000000000E2E2000000E200
310
E2000000000000E2E2E2E2000000000000E20000E200E200E2E2E2E2E2E200000000000000000000000000000000000000000000000000000000000000003EE20000000000000000000000000000000000000000000000000000000000000000000000000000E2000000E200E2E2E2E2E2E2E2E2E20000E2E2E2E2E2E2E200
310
00E200E200E2E2E2E200E2000000000000000000000000000000000000000000000000000000000000000000E20000000000000000000000000000000000000000000000000000000000000000000000000000E2000000E200E200000000000000E20000000000000000E20000E2E2E200E2E2E2E2E2E20000000000000000
310
00000000000000000000000000000000000000000000000000E200E2000000000000000000000000000000000000000000000000000000000000000000000000E2000000E2E2E200000000000000000000000000000000E2E2E2E2000000E200000000E2000000000000000000000000000000000000000000000000000000
310
000000E20000E200E2000000000000000000000000000000000000000000000000000000000000000000000000E2E2E2E2E200E200000000000000000000000000000000E20000E2E2E2E2E2E2E2E2E2E2000000000000000000000000000000000000000000000000000000000000E20000E200E200000000000000000000
310
000000000000000000000000000000000000000000000000000000000000E200E200000000000000000000000000000000E20000E200E2E2000000000000000000000000000000000000000000000000000000000000000000000000E20000E200E20000000000000000000000000000000000000000000000000000000000
310
0000000000000000000000E2E2E200000000000000000000000000000000E2E200E200E200E20000000000000000000000000000000000000000000000000000000000000000000000E200C0E200E200000000000000000000000000000000000000000000000000000000000000000000000000000000E2E2000000000000
310
000000000000000000000000E200E200E2E2E20000000000000000000000000000000000000000000000000000000000000000000000E20000E200E200000000000000000000000000000000000000000000000000000000000000000000000000000000E2E2000000000000000000000000000000000000E200E200000000
310
0000000000000000000000000000000000000000000000000000000000000000000000E20000E200E200000000000000000000000000000000000000000000000000000000000000000000000000000000E2E2000000000000000000000000000000000000E200E20000000000000000000000000000000000000000000000
310
00000000000000000000000000000000E2003FE200E200000000000000000000000000000000000000000000000000000000000000000000000000000000E200E200000000000000000000000000000000E20000E2000000000000000000000000000000000000000000000000000000000000000000000000000000E20000
310
E200E200000000000000000000000000000000000000000000000000000000000000000000000000000000E200E200000000000000000000000000000000E20000E2000000000000000000000000000000000000000000000000000000000000000000000000000000E20000E200E200000000000000000000000000000000
310
000000000000000000000000000000000000000000000000E200E200000000000000000000E2E2E2E20000E20000E2000000000000000000000000000000000000000000000000000000000000000000000000000000E20000E200E20000000000000000000000000000000000000000000000000000000000000000000000
310
0000000000E200E200000000000000000000E2E2E2E20000E20000E2000000000000000000000000000000000000000000000000000000000000000000000000000000E20000E200E200000000000000000000000000000000000000000000000000000000000000000000000000000000E200E20000000000000000000000
310
E2E200E2E2E20000E2000000000000000000000000000000000000000000000000000000000000000000000000000000E20000E200E200000000000000000000000000000000000000000000000000000000000000000000000000000000E200E20000000000000000000000E2E20000E2E20000E200000000000000000000
310
0000000000000000000000000000000000000000000000000000000000E20079E200E200000000000000000000000000000000000000000000000000000000000000000000000000000000E2E2E2E2E2E2E2E2E2E2E2E2E2E2E2E2E2E2E2E2E2E2E20000000000000000000000000000000000000000000000000000000000
310
00000000000000000000E200D6E200E200000000000000000000000000000000000000000000000000000000000000000000000000000000E2E2E2E2E2E2E2E2E2E2E2E2E2E2E2E2E2E2E2E2E2E200000000000000000000000000000000000000000000000000000000000000000000000000000000E20000E200E2000000
310
00000000000000000000000000000000000000000000000000000000000000000000000000E20000000000000000E2E2E2E20000000000000000E200000000000000000000000000000000000000000000000000000000000000000000000000000000E20049E200E200000000000000000000000000000000000000000000
310
000000000000000000000000000000000000E2E2E2E2E2E2E2E2E2E2E2E200E2E2E2E2E2E2E2E2E2E2000000000000000000000000000000000000000000000000000000000000000000000000000000E20000E2000000000000000000000000000000000000000000000000000000000000000000000000000000000000E2
310
0000000000000000E2E2E2E2000000000000000000E2000000000000000000000000000000000000000000000000000000000000000000000000000000000000E20000000000000000000000000000000000000000000000000000000000000000000000000000000000000000000000000000000000000000000000000000
310
00000000000000000000000000000000000000000000000000000000000000000000000000000000000000008BE2000000000000000000000000000000000000000000000000000000000000000000000000000000000000000000000000000000000000000000000000000000000000000000000000000000000000000000
310
0000000000000000000000000000000000000000000000000000E200000000000000000000000000000000000000000000000000000000000000000000000000000000000000000000000000000000000000000000000000000000000000000000000000000000000000000000000000000000000000000000000000000000
310
00000000000000E20000000000000000000000000000000000000000000000000000000000000000000000000000000000000000000000000000000000000000000000000000000000000000000000000000000000000000000000000000000000000000000000000000000000000000000000E20000000000000000000000
310
000000000000000000000000000000000000000000000000000000000000000000000000000000000000000000000000000000000000000000000000000000000000000000000000000000000000000000000000000000000000000000000000E2000000000000000000000000000000000000000000000000000000000000
310
00000000000000000000000000000000000000000000000000000000000000000000000000000000000000000000000000000000000000000000000000000000000000000000000000000000F0E200000000000000000000000000000000000000000000000000000000000000000000000000000000000000000000000000
310
00000000000000000000000000000000000000000000000000000000000000000000000000000000000000000000000000000000000000000000E20000000000000000000000000000000000000000000000000000000000000000000000000000000000000000000000000000000000000000000000000000000000000000
310
00000000000000000000000000000000000000000000000000000000000000000000000000005EE2000000000000000000000000000000000000000000000000000000000000000000000000000000000000000000000000000000000000000000000000000000000000000000000000000000000000000000000000000000
310
0000000000000000000000000000000000000000E200E2000000000000000000000000000000000000000000000000000000000000000000000000000000000000000000000000000000000000000000000000000000E2E2E2E2E2E2E2E2E2E2E2E2E2E2E2E2E2E2000000000000000000000000000000000000000000E200
310
00E200E20000000000000000000000000000000000000000000000000000000000E2E2E2E2E2E2E2E2E200000000000000000000000000000000000000000000000000E2E2E2E2E2E2E2E2E2E2E2E2E2E2E2E2E2E2000000000000000000000000000000000000000000E20000E200E2000000000000000000000000000000
310
0000000000000000000000000000E2E2E2E2E2E2E2E2E200000000000000000000000000000000000000000000000000E2E2E2E2E2E2E2E2E2E2E2E2E2E2E2E2E2E2000000000000000000000000000000000000000000E20000E200E20000000000000000000000000000000000000000000000000000000000E2E2E2E2E2
310
E2E2E2E200000000000000000000000000000000000000000000000000000000000000000000000000000000000000000000000000000000000000000000000000000000E20000E200E200000000000000000000000000000000000000000000000000E2E2E2E2E2E2E2E2E2E2E2E2E2E2E2E2E2E200000000000000000000
310
00000000000000000000E2E2E2E2E2E2E2E2E2E2E2E2E2E2E2E2E200000000000000000000000000000000000000000000E20042E200E20000000000000000000000000000000000000000000000000000E2E2E2E2E2E2E2E2E2E2E2E2E2E2E2E2000000000000000000000000000000000000000000E2E2E2E2E2E2E2E2E2
310
E2E2E2E2E2E2E2E200000000000000000000000000000000000000000000E2000AE200E200000000000000000000000000000000000000000000000000000000000000000000000000000000000000000000000000000000000000000000000000000000000000000000000000000000000000000000000000000000000000
310
0000000000000000000000E20000E200E2000000000000000000000000000000000000000000000000000000000000000000000000000000000000000000000000000000000000000000000000000000000000000000000000000000000000000000000000000000000000000000000000000000000000E20000E200E20000
310
0000000000000000000000000000000000000000000000000000000000000000000000000000000000000000000000000000000000000000000000000000000000000000E2E2E2E200000000000000000000000000000000000000000000000000000000E20000E200E2000000000000000000000000000000000000000000
310
00000000E2E2E2E200000000000000E2E2E2E2E2000000000000000000000000000000000000000000000000000000E2E2E2E2E2E2E2E2E200000000000000000000000000000000000000000000000000E20001E200E200000000000000000000000000000000000000000000000000E2E2E2E20000E2000000E200E2E2E2
310
E200000000000000000000000000000000000000000000E2E2E20000E2E2E2E2E2E2E200E200000000000000000000000000000000000000000000000000E2005FE200E200000000000000000000000000000000000000000000000000E2E2E2E2E2E2E2E2E2E2E2E2E2E2E200000000000000000000000000000000000000
310
00000000E2E2E2E200E200000000000000E200000000000000000000000000000000000000000000000000E20001E200E20000000000000000000000000000000000000000000000000000E2E20000E2E200000000E2E2E2E2000000000000000000000000000000000000000000000000E2E200E2E200000000000000E200
310
000000000000000000000000000000000000000000000000E20049E200E20000000000000000000000000000000000000000000000000000E2E20000E2E2E2E2E2E2E2000000000000000000000000000000000000000000000000000000E2E200E2E2E2E2E2E2E2E2E2E20000000000000000000000000000000000000000
310
0000000000E200C8E200E2000000000000000000000000000000000000000000000000000000000000E2E200000000E2000000000000000000000000000000000000000000000000000000000000E2E200000000000000E200000000000000000000000000000000000000000000000000E2003FE200E20000000000000000
310
00000000000000000000000000000000E2E2E2E2E2E2E2E2E2E2E2E2E2E2E2E2E2E2E2E20000000000000000000000000000000000E2E2E2E2E2E2E2E2E2E2E2E2E2E2E2E2E2E2E2E2E2E2E2000000000000000000000000000000000000E20000E200E20000000000000000000000000000000000000000000000E2E2E200
310
00E2E2E2E200E2E200E2E2E20000E200E2E2000000000000000000000000000000E2E200E20000E2E2E200E2E200E2E200E2E2E2E200E200E2E20000000000000000000000000000000000E20000E20000000000000000000000000000000000000000000000E2E2E2E2E200000000E2E200E2E200E2E2000000E2E2E2E2E2
310
000000000000000000000000E2E2E2E2E2E2000000E2E200E2E200E2E200E2E2000000E2E2E2E2E200000000000000000000000000000000000025E20000000000000000000000000000000000000000000000E200E2E2E200000000E2E200E2E200E2E200E2E2E2E2E2E2E2000000000000000000000000E200E2E2E2E200
310
0000E2E200E2E200E2E200E2E200E2E2E2E2E2E2E200000000000000000000000000000000000000E20000000000000000000000000000000000000000000000E200E2E2E2E20000E2E2E200E20000E2E2E2E2E2E2E2E2E2E2000000000000000000000000E200E2E2E2E20000E2E2E20000E2E2E20000E2E2E2E2E2E2E2E2
310
E2E200000000000000000000000000000000000000E20000000000000000000000000000000000000000000000E2E2E2E2E2000000E200E200E20000E2E2E2E2E2E2E2E2E2E2000000000000000000000000E2E2E2E2E2E20000E200E20000E2E2E20000E2E2E2E2E2E2E2E2E2E20000000000000000000000000000000000
310
0000E200000000000000000000000000000000000000000000000000E2E200000000E200E200E20000E2E2E2E2E20000E2E2E20000000000000000000000000000E2E200000000E200E20000E2E2E20000E2E2E2E2E20000E2E2E200000000000000000000000000000000000000E200000000000000000000000000000000
310
00000000000000000000E2E2E2E2E2E2E2E200E20000E2E2E2E2E2E2E2E200E2000000000000000000000000000000E2E2E2E2E2E2E2E20000E2E2E20000E2E2E2E2E2E2E2E200E200000000000000000000000000000000000013E200000000000000000000000000000000000000000000000000000000E20000E2E2E200
310
E20000E2E2E2E2E2E2000000E20000000000000000000000000000000000E20000E2E2E20000E2E2E20000E2E2E2E2E2E2000000E20000000000000000000000000000000000003FE200000000000000000000000000000000000000000000000000000000E200000000E200E20000E200E2E2E2E2000000E2000000000000
310
0000000000000000000000E200000000E20000E2E2E20000E200E2E2E2E2000000E200000000000000000000000000000000000000E200000000000000000000000000000000000000000000000000000000E200000000E200E2E200E200E2E2E2E2000000E20000000000000000000000000000000000E200000000E200E2
310
E2E2E2E200E200E2E2E2E2000000E200000000000000000000000000000000000000E200E20000000000000000000000000000000000000000000000000000E200000000E200E20000E200E2E2E2E2000000E20000000000000000000000000000000000E200000000E20000E2E2E20000E200E2E2E2E2000000E200000000
310
000000000000000000000000E20000E200E20000000000000000000000000000000000000000000000000000E2E2000000E200E20000E200E200E2E2E2E2E2E20000000000000000000000000000000000E2E2000000E20000E200E20000E200E200E2E2E2E2E2E200000000000000000000000000000000E20018E200E200
310
000000000000000000000000000000000000000000E2E2E20000E2000000E200E20000E200E200E2E2E2E200E200000000000000000000000000E2E2E20000E2000000E20000E200E20000E200E200E2E2E2E200E200000000000000000000000000000000E20000E200E20000000000000000000000000000000000000000
310
0000E2E2E20000E2000000E200E20000E2E2E200E2E2E2E2E2E200000000000000000000000000E2E2E20000E2000000E20000E200E20000E2E2E200E2E2E2E2E2E200000000000000000000000000000000E20000E200E200000000000000000000000000000000000000000000E2E2E2E2E2E2000000E2E2E2E2E2E20000
310
00E200000000E200000000000000000000000000E2E2E2E2E2E2000000E2E2E2E2E2E2E2E2E2000000E200000000E200000000000000000000000000000000E20000E200E200000000000000000000000000000000000000000000E2E2E200E2E2E2E2E2E2E2E2E2E2E2E2E2E2E2E2E2E2E2E2000000000000000000000000
310
00E2E2E200E2E2E2E2E2E2E2E2E2E2E2E2E2E2E2E2E2E2E2E2E2E2E200000000000000000000000000000000E20000E200E20000000000000000000000000000000000000000000000000000E2000000E2000000000000E2E2E20000000000000000000000000000000000000000000000E2000000E2000000E200E2000000
310
E2E2E200000000000000000000000000000000000000000000E200F0E200E2000000000000000000000000000000000000000000000000000000000000E200E2E2E20000E2E200E2000000000000000000000000000000000000000000E2E2E2E200E2000000E200E2000000E2E200E2000000000000000000000000000000
310
000000000000E20000E200E2000000000000000000000000000000000000000000000000000000000000E200E2E2E200E2E2E2E2E2000000000000000000000000000000000000000000E2E2E2E2E2E2000000E200E2000000E2E2E2E2000000000000000000000000000000000000000000E2006EE200E200000000000000
310
0000000000000000000000000000000000000000000000E2E2E2E2E2E2E2E2000000000000000000000000000000000000000000000000E2E2E2E200E2E2E2E2E2E2E2000000E2000000000000000000000000000000000000000000000000E20000E200E20000000000000000000000000000000000000000000000000000
310
000000000000E2E2E2000000000000000000000000000000000000000000000000000000E2E2E2E200E2000000E20000E20000E2000000000000000000000000000000000000000000000000E20000E200E2000000000000000000000000000000000000000000000000000000000000000000000000000000000000000000
310
000000000000000000000000000000000000E2E2E200E20000E2E2E2E2000000E2000000000000000000000000000000000000000000000000E20000E200E200000000000000000000000000000000000000000000000000000000000000000000000000000000000000000000000000000000000000000000000000000000
310
000000E20000E2E2E2E2000000E2000000000000000000000000000000000000000000000000E20000E200E200000000000000000000000000000000000000000000000000000000000000000000000000000000000000000000000000000000000000000000000000000000000000E2E2E2E2E2E2E2E2E2E2E20000000000
310
00000000000000000000000000000000000000E20000E200E200000000000000000000000000000000000000000000000000000000000000000000000000000000000000000000000000000000000000000000000000000000000000000000E2E2E2E200000000000000000000000000000000000000000000000000000000
310
E20065E200E2000000000000000000000000000000000000000000000000000000000000000000000000000000000000000000000000000000000000000000000000000000000000000000000000000000000000000000000000000000000000000000000000000000000000E20000E200E200000000E2E2E2E2E2E2E2E2E2
310
E2E2E20000000000000000000000000000000000000000000000000000000000000000000000000000000000000000000000000000000000000000000000000000000000000000000000000000000000000000000000000000E20000E2000000000000E2E2E2E2E2E2E2E2E2E2E2E200000000000000000000000000000000
310
00000000000000000000000000000000000000000000000000000000000000000000000000000000000000000000000000000000000000000000000000000000000000000000000000E2000000000000E2E2E2E2E2E2E2E2E2E2E2E20000000000000000000000000000000000000000000000000000000000000000000000
310
000000000000000000000000000000000000000000000000000000000000000000000000000000000000000000000000000000000000E2000000000000E2E2E2E2E2E2E2E2E2E2E2E2000000000000000000000000000000000000000000000000000000000000000000000000000000000000000000000000000000000000
310
0000000000000000000000000000000000000000000000000000000000000000000000E2000000000000E2E2E2E2E2E2E2E2E2E2E2E2E2E2E2E2E2E2E2E2E2E2E2E2E2E2E2E2E2E2E2E2E2E2E2E2E2E2E2E2E2E2E2E2E2E2E2E2E2E2E2E2E2E2E2E2E2E2E2E2E2E2E2E2E2E2E2E2E2E2E2E2E2E2E2E2E2E2E2E2E2E2E2E2E2
310
E2E2E2E2E2E2E2E2E2E2E2E2E200004BE2000000000000E2E2E2E2E2E2E2E2E2E2E2E2E2E2E2E2E2E2E2E2E2E2E2E2E2E2E2E2E2E2E2E20000000000000000000000000000000000000000000000000000000000000000000000000000000000000000000000000000000000000000000000000000000000000000FDE20000
310
00000000E2E2E2E2E2E2E2E2E2E2E2E2E2E2E2E2E2E2E2E2E2E2E2E2E2E2E2E2E2E2E2E20000000000000000000000000000000000000000000000000000000000000000000000000000000000000000000000000000000000000000000000000000000000000000FFE2000000000000E2E2E2E2E2E2E2E2E2E2E2E2E2E2E2
310
E2E2E2E2E2E2E2E2E2E2E2E2E2E2E2E2E2000000000000000000000000000000000000000000000000000000000000000000000000E2E2E2E2E2E2E2E2E2E2E2E2E2E2E2E2E2E2E2E2E2E2E2E2E2E2E2E2E2E2000026E2000000000000E2E2E2E2E2E2E2E2E2E2E2E2E2E2E2E2E2E2E2E2E2E2E2E2E2E2E2E2E2E2E2E20000
310
00000000000000000000000000000000000000000000000000000000000000000000E200000000000000000000000000000000000000000000000000000000E2000000E20000000000000000000000000000000000000000000000000000000000000000000000000000000000000000000000000000000000000000000000
310
000000000000000000000000000000E20000E5E5E5E5E50000E5E5E5E5E5E5E5E5E500002000E5E525E5E500E2000000E20000000000000000000000000000000000000000000000000000000000000000000000000000000000000000000000000000000000000000000000000000000000000000000000000000E200E500
310
000000000000000000000000000000000000000000000000E5E2000040E200E2000000000000000000000000000000000000000000000000000000000000000000000000000000000000000000000000000000000000000000000000000000000000000000000000E2E5E500E5000000E500000000000000000000E50000E5
310
000000E50000E2E20000E200E2000000000000000000000000000000000000000000000000000000000000000000000000000000000000000000000000000000000000000000000000000000000000000000000000E2E5E50000000000E500000000000000000000E50000E5000000E50000E2E200FFE200E2000000000000
310
000000000000000000000000000000000000000000000000000000000000000000000000000000000000000000000000000000000000000000000000000000000000E2E5E50000000000000000000000000000000000000000000000000000E2E20000E200E200000000000000000000000000000000000000000000000000
310
0000000000000000000000000000000000000000000000000000000000000000000000000000000000000000000000E2000000000000E500E00004040000E50000040400E000E50000000000E2E20000E200E20000000000000000000000000000000000000000000000000000000000000000000000000000000000000000
310
00000000000000000000000000000000000000000000000000000000E20000000000000000E0C0000000000000000000C0E000000000000000E2E20000E200E2000000000000000000000000000000000000000000000000000000000000000000000000000000000000000000000000000000000000000000000000000000
310
000000000000000000E200000000000000000000000000000000000000000000000000000000E2E20067E200E2000000000000000000000000000000000000000000000000000000000000000000000000000000000000000000000000000000000000000000000000000000000000000000000000E2000000000000000000
310
00000000C00000000000000000000000000000E2E20000E200E2000000000000000000000000000000000000000000000000000000000000000000000000000000000000000000000000000000000000000000000000000000000000000000000000E2E2E2E2E2E2E2E2E2E2E2E2E2E2E2E2E2E2E2E2E2E2E2E2E2E2E2E2E2
310
E2E20048E200E2E2E2E2E2E2E2E2E2000000000000000000E2E2E2E2E2E2E2E2E2E2E2E2E2E2E2E200000000000000000000E2E2E2E2E2E2E2E2E2E2E2E2E2E2E2E200000000000000000000E2E2E2E2E2E2E2E2E2E2E2E2E2E2E2E2000000000000000000E2E2E2E2E2E2E2E2E2E2FFE20000000000000000000000000000
310
00000000000000000000000000000000000000000000000000000000000000000000000000000000000000000000000000000000000000000000000000000000000000000000000000000000000000000000000000000000000000E2F3E2000000000000000000000000000000000000000000000000000000000000000000
310
0000000000000000000000000000000000000000000000000000000000000000000000000000000000000000000000000000000000000000000000000000000000000000000000000000E2E2E2E2E2E2E2E2E2E2E2E2E2E2E2E2E2E2E2E2E2E2E2E2E2E2E2E2E2E2E2E2E2E2E2E2E2E2E2E2E2E2E2E2E2E2E2E2E2E2E2E2E2
310
E2E2E2E2E2E2E2E2E2E2E2E2E2E2E2E2E2E2E2E2E2E2E2E2E2E2E2E2E2E2E2E2E2E2E2E2E2E2E2E2E2E2E2E2E2E2E2E2E2E2E2E2E2E270
  0
XRECORD
  5
3AC
102
{ACAD_REACTORS
330
19
102
}
330
19
100
AcDbXrecord
280
     1
102
SHADEPLOT
 70
     0
102
SHADEPLOTRESLEVEL
 70
     2
102
SHADEPLOTCUSTOMDPI
 70
   300
  0
XRECORD
  5
1A
102
{ACAD_REACTORS
330
19
102
}
330
19
100
AcDbXrecord
280
     1
310
280000000001000086000000010008000000000000860000000000000000000000010000000000000000000000000000C8C8C8000000000000000000000000000000000000000000000000000000000000000000330000006600000099000000CC000000FF00000000330000333300006633000099330000CC330000FF3300
310
0000660000336600006666000099660000CC660000FF66000000990000339900006699000099990000CC990000FF99000000CC000033CC000066CC000099CC0000CCCC0000FFCC000000FF000033FF000066FF000099FF0000CCFF0000FFFF000000003300330033006600330099003300CC003300FF003300003333003333
310
33006633330099333300CC333300FF33330000663300336633006666330099663300CC663300FF66330000993300339933006699330099993300CC993300FF99330000CC330033CC330066CC330099CC3300CCCC3300FFCC330000FF330033FF330066FF330099FF3300CCFF3300FFFF330000006600330066006600660099
310
006600CC006600FF00660000336600333366006633660099336600CC336600FF33660000666600336666006666660099666600CC666600FF66660000996600339966006699660099996600CC996600FF99660000CC660033CC660066CC660099CC6600CCCC6600FFCC660000FF660033FF660066FF660099FF6600CCFF6600
310
FFFF660000009900330099006600990099009900CC009900FF00990000339900333399006633990099339900CC339900FF33990000669900336699006666990099669900CC669900FF66990000999900339999006699990099999900CC999900FF99990000CC990033CC990066CC990099CC9900CCCC9900FFCC990000FF99
310
0033FF990066FF990099FF9900CCFF9900FFFF99000000CC003300CC006600CC009900CC00CC00CC00FF00CC000033CC003333CC006633CC009933CC00CC33CC00FF33CC000066CC003366CC006666CC009966CC00CC66CC00FF66CC000099CC003399CC006699CC009999CC00CC99CC00FF99CC0000CCCC0033CCCC0066CC
310
CC0099CCCC00CCCCCC00FFCCCC0000FFCC0033FFCC0066FFCC0099FFCC00CCFFCC00FFFFCC000000FF003300FF006600FF009900FF00CC00FF00FF00FF000033FF003333FF006633FF009933FF00CC33FF00FF33FF000066FF003366FF006666FF009966FF00CC66FF00FF66FF000099FF003399FF006699FF009999FF00CC
310
99FF00FF99FF0000CCFF0033CCFF0066CCFF0099CCFF00CCCCFF00FFCCFF0000FFFF0033FFFF0066FFFF0099FFFF00CCFFFF00FFFFFF00000000000D0D0D001A1A1A00282828003535350043434300505050005D5D5D006B6B6B00787878008686860093939300A1A1A100AEAEAE00BBBBBB00C9C9C900D6D6D600E4E4E400
310
F1F1F100FFFFFF000000000000000000000000000000000000000000000000000000000000000000000000000000000000000000F5F50000F5F500F500F5F500F500F5F500F50000000000F5F50000000000000000000000000000000000000000000000000000000000F50000000000000000000000000000000000000000
310
000000000000000000000000F5F5F5000000000000000000F5F5F5F5F5F5F5F5F5F5F5F500F5F5F5F500F50000000000000000000000000000000000000000000000000000000000000000000000F500000000000000000000000000000000000000000000000000F50000F500000000000000000000000000000000000000
310
00000000000000000000000000000000000000000000000000000000000000000000000000000000000000000000000000000000000000F50000F5F500F5F5F5F5F5F5F5F5F500F50000000000F5F50000000000000000000000000000000000000000000000000000000000F5000000000000000000000000000000000000
310
0000000000000000000000000000F5F5F5F50000000000000000F5F50000000000000000F500F50000000000F50000000000000000000000000000000000000000000000000000000000000000000000F50000000000000000000000000000000000000000000000000000F5F5F50000000000000000000000000000000000
310
000000000000000000000000000000000000000000000000000000000000000000000000000000000000000000000000000000000000000000F5F500F5F5F5F5F5F5F5F5F5F5F5F5F5F5000000000000F50000000000000000000000000000000000000000000000000000000000F500000000000000000000000000000000
310
00000000000000000000000000000000F5F500000000000000000000F5F500000000000000F500F5000000000000F50000000000000000000000000000000000000000000000000000000000000000000000F500000000000000000000000000000000000000000000000000000000F5000000000000000000000000000000
310
0000000000000000000000000000000000000000000000000000000000000000000000000000000000000000000000000000000000000000000000F5F5000000000000000000000000000000000000000000F50000000000000000000000000000000000000000000000000000000000F50000000000000000000000000000
310
000000000000000000000000000000000000F5F5F5000000000000000000F5F5F5F5F5F5F5F5F5F5F5F5F5F5F5F5F5F5F50000000000000000000000000000000000000000000000000000000000000000000000F500000000000000000000000000000000000000000000000000000000F500000000000000000000000000
310
000000000000000000000000000000000000000000000000000000000000000000000000000000000000000000000000000000000000000000F5000000F500000000000000000000000000000000000000000000F50000000000000000000000000000000000000000000000000000000000F5000000000000000000000000
310
0000000000000000000000000000000000000000F5F500F50000000000000000F5F500000000000000000000000000000000000000000000000000000000000000000000000000000000000000000000000000000000F5000000000000000000000000000000F5F5F5F5000000000000000000F50000000000000000000000
310
0000000000000000000000000000000000000000000000000000000000000000000000000000000000000000000000000000000000000000000000F5000000F500000000000000000000000000000000000000000000F50000000000000000000000000000000000000000000000000000000000F500000000000000000000
310
00000000000000000000000000000000000000000000F500F500F500000000000000F5F500000000000000000000000000000000000000000000000000000000000000000000000000000000000000000000000000000000F50000000000000000000000000000F5F5F5F5F5F5F500000000000000F5000000000000000000
310
0000000000000000000000000000000000000000000000000000000000000000000000000000000000000000000000000000000000000000000000000000F5F5F50000000000000000000000000000000000000000F5F5F5F50000000000000000000000000000000000000000000000000000000000F50000000000000000
310
000000000000000000000000000000000000000000000000F50000F500F5000000000000F5F500000000000000000000000000000000000000000000000000000000000000000000000000000000000000000000000000000000F500000000000000000000000000F5F5F5F5F5F5F5F5F5000000000000F500000000000000
310
000000000000000000000000000000000000000000000000000000000000000000000000000000000000000000000000000000000000000000000000000000000000000000000000000000000000000000000000000000F5F5F5F50000000000000000000000000000000000000000000000000000000000F5000000000000
310
0000000000000000000000000000000000000000000000000000F5000000F5F5F50000000000F5F500000000000000000000000000000000000000000000000000000000000000000000000000000000000000000000000000000000F5F5F5F5F5F5F5F5F5F5F5F5F5F5F5F5F5F5F5F5F5F5F5F5F5F5F5F5F5F5F5F5F5F5F5
310
F5F5F5F5F5F5F5F5F5F5F5F5F5F5F5F5F5000000000000000000000000000000000000000000000000000000000000000000000000000000000000000000000000000000000000000000000000000000000000000000000000000000000000000000000000000000000000000000000000000000000000000000F5F5F5F5F5
310
00000000000000000000000000000000000000000000000000000000F50000000000F5F500000000F5F500000000000000000000000000000000000000000000000000000000000000000000000000000000000000000000000000000000F500000000F5000000000000000000000000000000000000000000000000000000
310
000000000000000000000000000000000000F5000000000000000000000000000000000000000000000000000000000000000000000000000000000000000000000000000000000000000000000000000000000000000000000000000000000000000000000000000000000000000000000000000000000000000000000000
310
00F500000000000000000000000000000000000000000000000000000000F5000000000000F5F5000000F5F500000000000000000000000000000000000000000000000000000000000000000000000000000000000000000000000000000000F500000000F500000000000000000000000000000000000000000000000000
310
0000000000000000000000000000000000000000F500000000000000000000000000000000000000000000000000000000000000000000000000000000000000000000000000000000000000000000000000000000000000000000000000000000000000000000000000000000000000000000000000000000000000000000
310
000000F500000000000000000000000000000000000000000000000000000000F500000000000000F5F50000F5F500000000000000000000000000000000000000000000000000000000000000000000000000000000000000000000000000000000F500000000F50000000000000000000000000000000000000000000000
310
00000000000000000000000000000000000000000000F50000000000000000000000000000000000000000000000000000000000000000000000000000000000000000000000000000000000000000000000000000000000000000000000000000000000000000000000000000000000000000000000000000000000000000
310
0000000000F500000000000000000000000000000000000000000000000000000000F500000000000000F5F50000F5F500000000000000000000000000000000000000000000000000000000000000000000000000000000000000000000000000000000F500000000F5000000000000000000000000000000000000000000
310
000000000000000000000000000000000000000000000000F5000000000000000000000000000000000000000000000000000000000000000000000000000000000000000000000000000000000000000000000000000000000000000000000000000000000000000000000000000000000000000000000000000000000000
310
00000000000000F500000000000000000000000000000000000000000000000000000000F500000000000000F5F50000F5F500000000000000000000000000000000000000000000000000000000000000000000000000000000000000000000000000000000F5F50000F5F500000000000000000000000000000000000000
310
0000000000000000000000000000000000000000000000000000F500000000000000000000000000000000000000000000000000000000000000000000000000000000000000000000000000000000000000000000000000000000000000000000000000000000000000000000000000000000000000000000000000000000
310
000000000000000000F500000000000000000000000000000000000000000000000000000000F500000000000000F5F50000F5F500000000000000000000000000000000000000000000000000000000000000000000000000000000000000000000000000000000F5F50000F5F50000000000000000000000000000000000
310
00000000000000000000000000000000000000000000000000000000F50000000000000000000000000000000000000000000000000000000000000000000000000000000000000000000000000000000000000000000000000000000000000000000000000000000000000000000000000000000000000000000000000000
310
0000000000000000000000F500000000000000000000000000000000000000000000000000000000F500000000000000F5F5F5F5F5F500000000000000000000000000000000000000000000000000000000000000000000000000000000000000000000000000000000F5F50000F5F5F5F5F5F5F5F5F5F5F5F5F5F5F5F5F5
310
F5F5F5F5F5F5F5F5F5F5F5F5F5F5F5F5F5F5F5F5F5F5F5F5F5F5F5F5F5F5F5000000000000000000000000000000000000000000000000000000000000000000000000000000000000000000000000000000000000000000000000000000000000000000000000000000000000000000000000000000000000000000000000
310
00000000000000000000000000F500000000000000000000000000000000000000000000000000000000F50000000000000000F5F5F5F5F500000000000000000000000000000000000000000000000000000000000000000000000000000000000000000000000000000000F5F50000F5F5F5F5F5F5F5F5F5F5F5F5F5F5F5
310
F5F5F5F5F5F5F5F5F50000000000000000000000000000000000000000000000F500000000000000000000000000000000000000000000000000000000000000000000000000000000000000000000000000000000000000000000000000000000000000000000000000000000000000000000000000000000000000000000
310
000000000000000000000000000000F500000000000000000000000000000000000000000000000000000000F5000000000000000000000000F500000000000000000000000000000000000000000000000000000000000000000000000000000000000000000000000000000000F5F50000F5F5F5F5F5F5F5F5F5F5F5F5F5
310
F5000000000000000000F50000000000000000000000000000000000000000000000F50000000000000000000000000000000000000000000000000000000000000000000000000000000000000000000000000000000000000000000000000000000000000000000000000000000000000000000000000000000000000000
310
0000000000000000000000000000000000F500000000000000000000000000000000000000000000000000000000F5000000000000000000000000F500000000000000000000000000000000000000000000000000000000000000000000000000000000000000000000000000000000F5F50000F5F5F5F5F5F5F5F5F5F5F5
310
F5F5F5F5F5F5F5F5F5F5F500F50000000000000000000000000000000000000000000000F50000000000000000000000000000000000000000000000000000000000000000000000000000000000000000000000000000F5F5F5F5F5F500000000000000000000000000000000000000000000000000000000000000000000
310
00000000000000000000000000000000000000F500000000000000000000000000000000000000000000000000000000F5000000000000000000000000F500000000000000000000000000000000000000000000000000000000000000000000000000000000000000000000000000000000F5F50000F5F5F5F5F5F5F5F5F5
310
F5F5F5F5F5F5F50000000000F500F50000000000000000000000000000000000000000000000F50000000000000000000000000000000000000000000000000000000000000000000000000000000000000000000000000000F5F5F5F5F5F50000000000000000000000000000000000000000000000000000000000000000
310
000000000000000000000000000000000000000000F500000000000000000000000000000000000000000000000000000000F5000000000000000000000000F500000000000000000000000000000000000000000000000000000000000000000000000000000000000000000000000000000000F5F50000F5F5F5F5F5F5F5
310
F5F5F5F5F5F5F5F5F50000000000F500F50000000000000000000000000000000000000000000000F50000000000000000000000000000000000000000000000000000000000000000000000000000000000000000000000000000F5F500000000000000000000000000000000000000000000000000000000000000000000
310
0000000000000000000000000000000000000000000000F500000000000000000000000000000000000000000000000000000000F5000000000000000000000000F500000000000000000000000000000000000000000000000000000000000000000000000000000000000000000000000000000000F5F50000F5F5F5F5F5
310
F5F5F5F5F5F5F5F5F5F5F50000000000F500F50000000000000000000000000000000000000000000000F50000000000000000000000000000000000000000000000000000000000000000000000000000000000000000000000000000F5F50000000000000000000000000000000000000000000000000000000000000000
310
00000000000000000000000000000000000000F5F5F5F5F5F5F500000000000000000000000000000000000000000000000000000000F5000000000000000000000000F500000000000000000000000000000000000000000000000000000000000000000000000000000000000000000000000000000000F500F5F500F5F5
310
F5F5F5F5F5F5F5F5F5F5F5F5000000000000F500F50000000000000000000000000000000000000000000000F50000000000000000000000000000000000000000000000000000000000000000000000000000000000000000000000000000F5F5000000000000000000000000000000000000000000000000000000000000
310
000000000000000000000000000000000000000000F500000000000000000000000000000000000000000000000000000000000000000000F5000000000000000000000000F500000000000000000000000000000000000000000000000000000000000000000000000000000000000000000000000000000000F500F5F500
310
F5F5F5F5F5F5F5F5F5F500000000000000000000F500F50000000000000000000000000000000000000000000000F5000000000000000000000000000000000000000000000000000000000000000000000000000000000000000000000000000000F5F5000000000000000000000000000000000000000000000000000000
310
0000000000000000000000000000000000000000000000F500000000000000000000000000000000000000000000000000000000000000000000F5000000000000000000000000F500000000000000000000000000000000000000000000000000000000000000000000000000000000000000000000000000000000F500F5
310
F500F5F5F5F5F5F5F5F5F5F500000000000000000000F500F50000000000000000000000000000000000000000000000F500000000000000000000000000000000000000000000000000000000000000000000000000000000000000000000000000000000F500000000000000000000000000000000000000000000000000
310
00000000000000000000000000000000000000000000000000F500000000000000000000000000000000000000000000000000000000000000000000F5000000000000000000000000F500000000000000000000000000000000000000000000000000000000000000000000000000000000000000000000000000000000F5
310
00F5F500F5F5F5F5F5F5F5F5F5F500000000000000000000F500F50000000000000000000000000000000000000000000000F500000000000000000000000000000000000000000000000000000000000000000000000000000000000000000000000000000000F5F500000000000000000000000000000000000000000000
310
000000000000000000000000000000000000000000000000000000F500000000000000000000000000000000000000000000000000000000000000000000F5000000000000000000000000F5000000000000000000000000000000000000000000000000000000000000000000000000000000000000000000000000000000
310
00F500F5F500F5F5F5F5F5F5F5F5F5F500000000000000000000F500F50000000000000000000000000000000000000000000000F50000000000000000000000000000000000000000000000000000000000000000000000000000000000000000000000000000000000F5F500000000000000000000000000000000000000
310
0000000000000000000000000000000000000000000000000000000000F500000000000000000000000000000000000000000000000000000000000000000000F5000000000000000000000000F50000000000000000000000000000000000000000000000000000F5F5F5F5F5F50000000000000000000000000000000000
310
000000F500F5F500F5F5F5F5F5F5F5F5F5F500000000000000000000F500F50000000000000000000000000000000000000000000000F5000000000000000000000000000000000000000000000000000000000000000000000000000000000000000000000000000000000000F50000000000000000000000000000000000
310
00000000000000000000000000000000000000000000000000000000000000F500000000000000000000000000000000000000000000000000000000000000000000F5000000000000000000000000F50000000000000000000000000000000000000000000000000000F500000000F5000000000000000000000000000000
310
0000000000F500F5F500F5F5F5F5F5F5F5F5F5F500000000000000000000F500F50000000000000000000000000000000000000000000000F50000000000000000000000000000000000000000000000000000000000000000000000000000000000000000000000F5000000000000F5F50000000000000000000000000000
310
000000000000000000000000000000000000000000000000000000000000000000F500000000000000000000000000000000000000000000000000000000000000000000F5000000000000000000000000F50000000000000000000000000000000000000000000000000000F500000000F500000000000000000000000000
310
00000000000000F500F5F500F5F5F5F5F5F5F5F5F5F500000000000000000000F500F50000000000000000000000000000000000000000000000F50000000000000000000000000000000000000000000000000000000000000000000000000000000000000000000000F5000000F5000000F5000000F5F500F50000000000
310
0000000000000000000000000000000000000000000000000000000000000000000000F500000000000000000000000000000000000000000000000000000000000000000000F5000000000000000000000000F50000000000000000000000000000000000000000000000000000F500000000F50000000000000000000000
310
000000000000000000F500F5F500F5F5F5F5F5F5F5F5F5F500000000000000000000F500F50000000000000000000000000000000000000000000000F50000000000000000000000000000000000000000000000000000000000000000000000000000000000000000000000F5000000F5000000F5F50000F5F500F5000000
310
00000000000000000000000000000000000000000000000000000000000000000000000000F500000000000000000000000000000000000000000000000000000000000000000000F5000000000000000000000000F50000000000000000000000000000000000000000000000000000F500000000F5000000000000000000
310
0000000000000000000000F500F5F500F5F5F5F5F5F5F5F5F5F500000000000000000000F500F50000000000000000000000000000000000000000000000F50000000000000000000000000000000000000000000000000000000000000000000000000000000000000000000000F5F50000F5F5000000F5000000F500F500
310
000000000000000000000000000000000000000000000000000000000000000000000000000000F500000000000000000000000000000000000000000000000000000000000000000000F5000000000000000000000000F50000000000000000000000000000000000000000000000000000F500000000F500000000000000
310
00000000000000000000000000F500F5F500F5F5F5F5F5F5F5F5F5F500000000000000000000F500F50000000000000000000000000000000000000000000000F50000000000000000000000000000000000000000000000000000000000000000000000000000000000000000000000F5F5000000F50000F5F5000000F500
310
F500000000000000000000000000000000000000000000000000000000000000000000000000000000F500000000000000000000000000000000000000000000000000000000000000000000F5000000000000000000000000F50000000000000000000000000000000000000000000000000000F500000000F50000000000
310
000000000000000000000000F5F5F5F500F5F500F5F5F5F5F5F5F5F5F5F500000000000000000000F500F50000000000000000000000000000000000000000000000F5000000000000000000000000000000000000000000000000000000000000000000000000000000000000000000000000F5F5000000F500F5F5000000
310
F500F500000000000000000000000000000000000000000000000000000000000000000000000000000000F500000000000000000000000000000000000000000000000000000000000000000000F5000000000000000000000000F50000000000000000000000000000000000000000000000000000F500000000F5000000
310
00000000000000000000000000F5F50000F500F5F500F5F5F5F5F5F5F5F5F5F500000000000000000000F500F50000000000000000000000000000000000000000000000F5000000000000000000000000000000000000000000000000000000000000000000000000000000000000000000000000F5F500000000F5F50000
310
0000F500F5F5000000000000000000000000000000000000000000000000000000000000000000000000000000F500000000000000000000000000000000000000000000000000000000000000000000F5F5F5F5F5F5F5F5F5F5F5F5F5F5F5F5F5F5F5F5F5F5F5F500000000000000000000000000000000F500000000F500
310
0000000000000000000000000000F5F5000000F500F5F500F5F5F5F5F5F5F5F5F5F500000000000000000000F500F50000000000000000000000000000000000000000000000F50000000000000000000000000000000000000000000000000000000000000000000000000000000000000000000000000000000000000000
310
0000000000000000000000000000000000000000000000000000000000000000000000000000000000000000000000F500000000000000000000000000000000000000000000000000000000000000000000F500F50000000000000000000000F50000F5F5F5000000F500000000000000000000000000000000F500000000
310
F5000000000000000000000000000000F500000000F500F5F500F5F5F5F5F5F5F5F5F5F500000000000000000000F500F50000000000000000000000000000000000000000000000F5000000000000000000000000000000000000000000000000000000000000000000000000000000000000000000000000000000000000
310
00000000000000000000000000000000000000000000000000000000000000000000000000000000000000000000000000F500000000000000000000000000000000000000000000000000000000000000000000F500F50000000000000000000000F5000000F5F5000000F500000000000000000000000000000000F50000
310
0000F5000000000000000000000000000000F500000000F500F5F500F5F5F5F5F5F5F5F5F5F500000000000000000000F500F50000000000000000000000000000000000000000000000F500000000000000000000000000000000000000000000000000000000000000000000000000000000000000000000000000000000
310
000000000000000000000000000000000000000000000000000000000000000000000000000000000000000000000000000000F500000000000000000000000000000000000000000000000000000000000000000000F500F5F5F5000000000000000000F5000000F5F5000000F500000000000000000000000000000000F5
310
00000000F5000000000000000000000000000000F500000000F500F5F500F5F5F5F5F5F5F5F5F5F500000000000000000000F500F50000000000000000000000000000000000000000000000F50000000000000000000000000000000000000000000000000000000000000000000000000000000000000000000000000000
310
0000000000000000000000000000000000000000000000000000000000000000000000000000000000000000000000000000000000F500000000000000000000000000000000000000000000000000000000000000000000F500F500F5000000000000000000F5000000F5F5000000F5000000000000000000000000000000
310
00F500000000F5000000000000000000000000000000F500000000F5F50000F5F5F5F5F5F5F5F5F5F5F5F5F5F5F5000000000000F500F50000000000000000000000000000000000000000000000F5000000000000000000000000000000000000000000000000000000000000000000000000000000000000000000000000
310
00000000000000000000000000000000000000000000000000000000000000000000000000000000000000000000000000000000000000F500000000000000000000000000000000000000000000000000000000000000000000F500F500F5000000000000000000F5000000F5F5000000F5F5000000000000000000000000
310
000000F500000000F5000000000000000000000000000000F5F5000000F5F50000F5F5F5F5F5F5F5F5F5F5F5F5F5F5F5F50000000000F500F50000000000000000000000000000000000000000000000F500000000000000000000000000000000000000000000000000000000000000000000000000000000000000000000
310
000000000000000000000000000000000000000000000000000000000000000000000000000000000000000000000000000000000000000000F500000000000000000000000000000000000000000000000000000000000000000000F500F500F5000000000000000000F5000000F5F5000000F500F5000000000000000000
310
0000000000F500000000F500000000000000000000000000000000F5000000F5F50000F5F5F5F5F5F5F5F5F5F5F5F5F5F5F5F50000000000F500F50000000000000000000000000000000000000000000000F50000000000000000000000000000000000000000000000000000000000000000000000000000000000000000
310
0000000000000000000000000000000000000000000000000000000000000000000000000000000000000000000000000000000000000000000000F500000000000000000000000000000000000000000000000000000000000000000000F500F500F5000000000000000000F5000000F5F5000000F50000F5F50000000000
310
00000000F50000F500F50000F500F5000000000000000000000000000000F5F5F5F5F50000F5F5F5F5F5F5F5F5F5F5F5F5F5F5F5F50000000000F500F50000000000000000000000000000000000000000000000F5000000000000000000000000000000000000000000000000000000000000000000000000000000000000
310
00000000000000000000000000000000000000000000000000000000000000000000000000000000000000000000000000000000000000000000000000F500000000000000000000000000000000000000000000000000000000000000000000F500F500F5000000000000000000F5000000F5F5000000F500000000F50000
310
000000000000F5F500F5F500F500F5F500F5000000F500000000000000000000000000F5F50000F5F5F5F5F5F5F5F5F5F5F5F5F5F5F5F5F5F5F5F5F5F500F50000000000000000000000000000000000000000000000F500000000000000000000000000000000000000000000000000000000000000000000000000000000
310
000000000000000000000000000000000000000000000000000000000000000000000000000000000000000000000000000000000000000000000000000000F500000000000000000000000000000000000000000000000000000000000000000000F500F500F5000000000000000000F5000000F5F5000000F50000000000
310
F5F5F5F5F5F5F5F5F5F5F5F5F5F5F5F5F50000F5F5F5F500F5F5F500000000000000000000F5F50000F5F5F5F5F5F5F5F5F5F5F5F5F5F5F5F5F5F5F5F5F5F5F5F50000000000000000000000000000000000000000000000F50000000000000000000000000000000000000000000000000000000000000000000000000000
310
0000000000000000000000000000000000000000000000000000000000000000000000000000000000000000000000000000000000000000000000000000000000F500000000000000000000000000000000000000000000000000000000000000000000F500F500F5000000000000000000F5000000F5F5000000F5000000
310
000000000000000000000000F5F5000000F5F5000000F500000000F500F5F5F5F5F50000000000F5F50000F5F5F5F5F5F5F5F5F5F5F5F5F5F5F5F5F5F5F5F5F5F5F5F50000000000000000000000000000000000000000000000F5000000000000000000000000000000000000000000000000000000000000000000000000
310
00000000000000000000000000000000000000000000000000000000000000000000000000000000000000000000000000000000000000000000000000000000000000F500000000000000000000000000000000000000000000000000000000000000000000F500F500F5000000000000000000F5000000F5F5000000F500
310
000000000000000000000000000000F500000000F500000000F5000000F5000000000000F5F5F50000F5F50000F5F5F5F5F5F5F5F5F5F5F5F5F5F5F5F5F5F5F5F5F5F5F5F5F5F5F5F5F5F5F5F5F5F5F5F5F5F5F5F5F5F5F5F5F5F5F5F500000000000000000000000000000000000000000000000000000000000000000000
310
000000000000000000000000000000000000000000000000000000000000000000000000000000000000000000000000000000000000000000000000000000000000000000F500000000000000000000000000000000000000000000000000000000000000000000F500F500F5000000000000000000F5000000F5F5000000
310
F500000000000000000000000000000000F5F5000000F5F500000000F5000000F50000F5F5F5F500000000F5F50000F5F5000000000000000000000000000000000000000000000000000000000000000000000000000000000000000000F50000000000000000000000000000000000000000000000000000000000000000
310
0000000000000000000000000000000000000000000000000000000000000000000000000000000000000000000000000000000000000000000000000000000000000000000000F500000000000000000000000000000000000000000000000000000000000000000000F500F500F5000000000000000000F5000000F5F500
310
0000F50000000000F5F5F5F5F5F5F5F5F5F5F5F5F5F5F5F5F5F50000F5F5F50000F5F5F5F50000000000000000F500000000F5000000000000000000000000000000000000000000000000000000000000000000000000000000000000000000F5000000000000000000000000000000000000000000000000000000000000
310
00000000000000000000000000000000000000000000000000000000000000000000000000000000000000000000000000000000000000000000000000000000000000000000000000F500000000000000000000000000000000000000000000000000000000000000000000F500F500F5000000000000000000F5000000F5
310
F5000000F5000000F5F50000000000000000F5F500F500F5F500F500F5F5000000F5F5000000000000000000000000F500000000F5000000000000000000000000000000000000000000000000000000000000000000000000000000000000000000F500000000000000000000000000000000000000000000000000000000
310
000000000000000000000000000000000000000000000000000000000000000000000000000000000000000000000000000000000000000000000000000000000000000000000000000000F500000000000000000000000000000000000000000000000000000000000000000000F500F500F5000000000000000000F50000
310
00F5F5000000F50000F500000000000000000000000000F500000000F50000000000000000000000000000000000000000F500000000F5000000000000000000000000000000000000000000000000000000000000000000000000000000000000000000F50000000000000000000000000000000000000000000000000000
310
0000000000000000000000000000000000000000000000000000000000000000000000000000000000000000000000000000000000000000000000000000000000000000000000000000000000F500000000000000000000000000000000000000000000000000000000000000000000F500F500F5000000000000000000F5
310
000000F5F5000000F5F5F50000000000000000000000000000F500000000F50000000000000000000000000000000000000000F500000000F5000000000000000000000000000000000000000000000000000000000000000000000000000000000000000000F5000000000000000000000000000000000000000000000000
310
00000000000000000000000000000000000000000000000000000000000000000000000000000000000000000000000000000000000000000000000000000000000000000000000000000000000000F500000000000000000000000000000000000000000000000000000000000000000000F500F500F50000000000000000
310
00F5000000F5F5000000F500000000000000000000000000000000F500000000F50000000000000000000000000000000000000000F5F5F5F5F5F5F5F5F5F5F5F5F5F5F5F5F5F5F5F5F5F5F5F5F5F5F5F5F5F5F5F5F5F5F5F5F5F5F5F5F5F5F5F5F5F5F5F5F5F5F5F500000000000000000000000000000000000000000000
310
000000000000000000000000000000000000000000000000000000000000000000000000000000000000000000000000000000000000000000000000000000000000000000000000000000000000000000F500000000000000000000000000000000000000000000000000000000000000000000F500F500F5000000000000
310
000000F5000000F5F5000000F500000000000000000000000000000000F500000000F5000000000000000000000000000000000000000000000000000000000000000000F5F5F5F5F5F5F5F5F5F5F50000000000F5000000000000000000000000000000000000000000F50000000000000000000000000000000000000000
310
0000000000000000000000000000000000000000000000000000000000000000000000000000000000000000000000000000000000000000000000000000000000000000000000000000000000000000000000F500000000000000000000000000000000000000000000000000000000000000000000F500F500F500000000
310
0000000000F5000000F5F5000000F500000000000000000000000000000000F500000000F500000000000000000000000000000000000000000000000000000000000000000000F5F5F5F5F5F5F5F5F5000000000000F5000000000000000000000000000000000000000000F5000000000000000000000000000000000000
310
00000000000000000000000000000000000000000000000000000000000000000000000000000000000000000000000000000000000000000000000000000000000000000000000000000000000000000000000000F500000000000000000000000000000000000000000000000000000000000000000000F500F500F50000
310
00000000000000F5000000F5F5000000F500000000000000000000000000000000F500000000F50000000000000000000000000000000000000000000000000000000000000000000000F5F5F5F5F5F5F500000000000000F5000000000000000000000000000000000000000000F500000000000000000000000000000000
310
000000000000000000000000000000000000000000000000000000000000000000000000000000000000000000000000000000000000000000000000000000000000000000000000000000000000000000000000000000F500000000000000000000000000000000000000000000000000000000000000000000F500F500F5
310
000000000000000000F5000000F5F5000000F500000000000000000000000000000000F500000000F500000000000000000000000000000000000000000000000000000000000000000000000000F5F5F5000000000000000000F5000000000000000000000000000000000000000000F50000000000000000000000000000
310
0000000000000000000000000000000000000000000000000000000000000000000000000000000000000000000000000000000000000000000000000000000000000000000000000000000000000000000000000000000000F500000000000000000000000000000000000000000000000000000000000000000000F500F5
310
00F5000000000000000000F5000000F5F5000000F500000000000000000000000000000000F500000000F50000000000000000000000000000000000000000000000000000000000000000000000000000000000000000000000F5F5F5000000000000000000000000000000000000000000F5000000000000000000000000
310
00000000000000000000000000000000000000000000000000000000000000000000000000000000000000000000000000000000000000000000000000000000000000000000000000000000000000000000000000000000000000F500000000000000000000000000000000000000000000000000000000000000000000F5
310
00F500F5000000000000000000F5000000F5F5000000F500000000000000000000000000000000F500000000F50000000000000000000000000000000000000000000000000000000000000000000000000000000000000000000000F50000000000000000000000000000000000000000000000F500000000000000000000
310
000000000000000000000000000000000000000000000000000000000000000000000000000000000000000000000000000000000000000000000000000000000000000000000000000000000000000000000000000000000000000000F5000000000000000000000000000000000000000000000000000000000000000000
310
00F500F500F5000000000000000000F5000000F5F5000000F500000000000000000000000000000000F500000000F50000000000000000000000000000000000000000000000000000000000000000000000000000000000000000000000F50000000000000000000000000000000000000000000000F50000000000000000
310
0000000000000000000000000000000000000000000000000000000000000000000000000000000000000000000000000000000000000000000000000000000000000000000000000000000000000000000000000000000000000000000000F500000000000000000000000000000000000000000000000000000000000000
310
000000F500F500F5000000000000000000F5000000F5F5000000F500000000000000000000000000000000F500000000F500000000000000000000000000000000000000000000000000000000000000000000000000000000000000000000F5000000000000000000000000000000000000000000000000F5000000000000
310
00000000000000000000000000000000000000000000000000000000000000000000000000000000000000000000000000000000000000000000000000000000000000000000000000000000000000000000000000000000000000000000000000F50000000000000000000000000000000000000000000000000000000000
310
0000000000F500F500F5000000000000000000F50000F500F5000000F500000000000000000000000000000000F500000000F500000000000000000000000000000000000000000000000000000000000000000000000000000000000000000000F5000000000000000000000000000000000000000000000000F500000000
310
000000000000000000000000000000000000000000000000000000000000000000000000000000000000000000000000000000000000000000000000000000000000000000000000000000000000000000000000000000000000000000000000000000F5000000000000000000000000000000000000000000000000000000
310
00000000000000F500F500F50000000000F5F5F5F5F5F5F50000F5F5F5F5F500000000000000000000000000000000F500000000F500000000000000000000000000000000000000000000000000000000000000000000000000000000000000000000F5000000000000000000000000000000000000000000000000F50000
310
0000000000000000000000000000000000000000000000000000000000000000000000000000000000000000000000000000000000000000000000000000000000000000000000000000000000000000000000000000000000000000000000000000000000F500000000000000000000000000000000000000000000000000
310
000000000000000000F500F500F50000000000F500F5F5F5F5F5F5F5F5000000F500000000000000000000000000000000F500000000F50000000000000000000000000000000000000000000000000000000000000000000000000000000000000000F5F500000000000000000000000000000000000000000000000000F5
310
00000000000000000000000000000000000000000000000000000000000000000000000000000000000000000000000000000000000000000000000000000000000000000000000000000000000000000000000000000000000000000000000000000000000000F50000000000000000000000000000000000000000000000
310
0000000000000000000000F500F500F50000000000F500F500000000000000F50000F500000000000000000000000000000000F500000000F500000000000000000000000000000000000000000000000000000000000000000000000000000000000000F50000000000000000000000000000000000000000000000000000
310
00F500000000000000000000000000000000000000000000000000000000000000000000000000000000000000000000000000000000000000000000000000000000000000000000000000000000000000000000000000000000000000000000000000000000000000F5000000000000000000000000000000000000000000
310
00000000000000000000000000F500F5F5F50000000000F5F5F5F5F5F5F5F5F5F5F50000F500000000000000000000000000000000F500000000F500000000000000000000000000000000000000000000000000000000000000000000000000000000000000F5000000000000000000000000000000000000000000000000
310
000000F500000000000000000000000000000000000000000000000000000000000000000000000000000000000000000000000000000000000000000000000000000000000000000000000000000000000000000000000000000000000000000000000000000000000000F500000000000000000000000000000000000000
310
000000000000000000000000000000F500F5000000000000000000000000000000F5F5F50000F500000000000000000000000000000000F500000000F50000000000000000000000000000000000000000000000000000000000000000000000000000000000F5F50000000000000000000000000000000000000000000000
310
0000000000F500000000000000000000000000000000000000000000000000000000000000000000000000000000000000000000000000000000000000000000000000000000000000000000000000000000000000000000000000000000000000000000000000000000000000F50000000000000000000000000000000000
310
0000000000000000000000000000000000F500F5000000000000000000000000000000F5F5F50000F500000000000000000000000000000000F500000000F5000000000000000000000000000000000000000000000000000000000000000000000000F5F5F5F5F50000000000000000000000000000000000000000000000
310
00000000000000F500000000000000000000000000000000000000000000000000000000000000000000000000000000000000000000000000000000000000000000000000000000000000000000000000000000000000000000000000000000000000000000000000000000000000F5000000000000000000000000000000
310
00000000000000000000000000000000000000F500F5F5F500000000000000000000000000F5F5F50000F500000000000000000000000000000000F500000000F5000000000000000000000000000000000000000000000000000000000000000000000000F500000000000000000000000000000000000000000000000000
310
000000000000000000F500000000000000000000000000000000000000000000000000000000000000000000000000000000000000000000000000000000000000000000000000000000000000000000000000000000000000000000000000000000000000000000000000000000000000F500000000000000000000000000
310
000000000000000000000000000000000000000000F500F500F500000000000000000000000000F5F5F50000F500000000000000000000000000000000F500000000F5000000000000000000000000000000000000000000000000000000000000000000000000F50000000000000000000000000000000000000000000000
310
0000000000000000000000F500000000000000000000000000000000000000000000000000000000000000000000000000000000000000000000000000000000000000000000000000000000000000000000000000000000000000000000000000000000000000000000000000000000000000F50000000000000000000000
310
0000000000000000000000000000000000000000000000F500F500F500000000000000000000000000F5F5F50000F500000000000000000000000000000000F500000000F5000000000000000000000000000000000000000000000000000000000000000000000000F5000000000000000000000000000000000000000000
310
00000000000000000000000000F500000000000000000000000000000000000000000000000000000000000000000000000000000000000000000000000000000000000000000000000000000000000000000000000000000000000000000000000000000000000000000000000000000000000000F5000000000000000000
310
00000000000000000000000000000000000000000000000000F500F5F5F5F5F5F5F5F5F5F5F5F5F5F5F5F5F5F5F50000F500000000000000000000000000000000F500000000F5000000000000000000000000000000000000000000000000000000000000000000000000F500000000000000000000000000000000000000
310
000000000000000000000000000000F500000000000000000000000000000000000000000000000000000000000000000000000000000000000000000000000000000000000000000000000000000000000000000000000000000000000000000000000000000000000000000000000000000000000000F500000000000000
310
000000000000000000000000000000000000000000000000000000F5000000000000000000000000000000000000F5F5F5F5F5F5F5F5F5F5F5F5F5F5F5F5F5F5F5F5F5F5F5F5F5F5F5F5F5F5F5F5F5F5F5F5F5F5F5F5F5F5F5F5F5F5F5F5F5F5F5F5F5F5F5F5F5F5F5F5F5F5F5F50000000000000000000000000000000000
310
0000000000000000000000000000000000F500000000000000000000000000000000000000000000000000000000000000000000000000000000000000000000000000000000000000000000000000000000000000000000000000000000000000000000000000000000000000000000000000000000000000F50000000000
310
0000000000000000000000000000000000000000000000000000000000F5F5F5F5F5F5F5F5F5F5F5F5F5F5F5F5F5F5F5F5F5F5F5F5F5F5F5F5F5F5F5F5F5F5F50000000000F500000000F500000000000000000000F5000000000000F500000000000000000000000000000000000000000000000000000000000000000000
310
00000000000000000000000000000000000000F500000000000000000000000000000000000000000000000000000000000000000000000000000000000000000000000000000000000000000000000000000000000000000000000000000000000000000000000000000000000000000000000000000000000000F5000000
310
00000000000000000000000000000000000000000000000000000000000000F50000000000000000000000F5000000000000F5F5000000000000000000000000F5F50000000000F500000000F5000000000000000000F500000000000000F50000000000000000000000000000000000000000000000000000000000000000
310
000000000000000000000000000000000000000000F500000000000000000000000000000000000000000000000000000000000000000000000000000000000000000000000000000000000000000000000000000000000000000000000000000000000000000000000000000000000000000000000000000000000000F500
310
000000000000000000000000000000000000000000000000000000000000000000F50000000000000000000000F5000000000000F5F5000000000000000000000000F5F50000000000F500000000F50000000000000000F50000000000000000F5000000000000000000000000000000000000000000000000000000000000
310
0000000000000000000000000000000000000000000000F500000000000000000000000000000000000000000000000000000000000000000000000000000000000000000000000000000000000000000000000000000000000000000000000000000000000000000000000000000000000000000000000000000000000000
310
F500000000000000000000000000000000000000000000000000000000000000000000F50000000000000000000000F5000000000000F5F5000000000000000000000000F5F50000000000F500000000F500000000000000F5000000000000000000F500000000000000000000000000000000000000000000000000000000
310
00000000000000000000000000000000000000000000000000F50000000000000000000000000000000000000000000000000000000000000000000000000000000000000000000000000000000000000000000000000000000000000000000000000000000000000000000000000000000000000000000000000000000000
310
0000F500000000000000000000000000000000000000000000000000000000000000000000F50000000000000000000000F5000000000000F5F5000000000000000000000000F5F50000000000F500000000F500000000000000F5000000000000000000F50000000000000000000000000000000000000000000000000000
310
000000000000000000000000000000000000000000000000000000F5000000000000000000000000000000000000000000000000000000000000000000000000000000000000000000000000000000000000000000000000000000000000000000000000000000000000000000000000000000000000000000000000000000
310
00000000F500000000000000000000000000000000000000000000000000000000000000000000F50000000000000000000000F5F5F5F5F5F5F5F5F5F5F5F5F5F5F5F5F5F5F5F5F5F5F50000000000F500000000F500000000000000F5000000000000000000F5000000000000000000000000000000000000000000000000
310
0000000000000000000000000000000000000000000000000000000000F500000000000000000000000000000000000000000000000000000000000000000000000000000000000000000000000000000000000000000000000000000000000000000000000000000000000000000000000000000000000000000000000000
310
000000000000F500000000000000000000000000000000000000000000000000000000000000000000F50000000000000000000000F5F5F5F5F5F5F5F5F5F5F5F5F5F5F5F5F5F5F5F5F5F5F50000000000F500000000F500000000000000F5000000000000000000F500000000000000000000000000000000000000000000
310
00000000000000000000000000000000000000000000000000000000000000F50000000000000000000000000000000000000000000000000000000000000000000000000000000000000000000000000000000000000000000000000000000000000000000000000000000000000000000000000000000000000000000000
310
0000000000000000F500000000000000000000000000000000000000000000000000000000000000000000F50000000000000000000000F5F5F500F50000000000000000F50000000000000000000000000000F500000000F500000000000000F5000000000000000000F50000000000000000000000000000000000000000
310
000000000000000000000000000000000000000000000000000000000000000000F5000000000000000000000000000000000000000000000000000000000000000000000000000000000000000000000000000000000000000000000000000000000000000000000000000000000000000000000000000000000000000000
310
00000000000000000000F500000000000000000000000000000000000000000000000000000000000000000000F50000000000000000000000F5F5F500F50000000000000000F50000000000000000000000000000F500000000F500000000000000F5000000000000000000F5000000000000000000000000000000000000
310
0000000000000000000000000000000000000000000000000000000000000000000000F500000000000000000000000000000000000000000000000000000000000000000000000000000000000000000000000000000000000000000000000000000000000000000000000000000000000000000000000000000000000000
310
000000000000000000000000F500000000000000000000000000000000000000000000000000000000000000000000F50000000000000000000000F5F5F500F50000000000000000F50000000000000000000000000000F500000000F500000000000000F5000000000000000000F500000000000000000000000000000000
310
00000000000000000000000000000000000000000000000000000000000000000000000000F50000000000000000000000000000000000000000000000000000000000000000000000000000000000000000000000000000000000000000000000000000000000000000000000000000000000000000000000000000000000
310
0000000000000000000000000000F500000000000000000000000000000000000000000000000000000000000000000000F50000000000000000000000F5F5F500F50000000000000000F50000000000000000000000000000F500000000F500000000000000F5000000000000000000F50000000000000000000000000000
310
000000000000000000000000000000000000000000000000000000000000000000000000000000F5000000000000000000000000000000000000000000000000000000000000000000000000000000000000000000000000000000000000000000000000000000000000000000000000000000000000000000000000000000
310
00000000000000000000000000000000F500000000000000000000000000000000000000000000000000000000000000000000F5F500000000000000000000F5F5F5F5F50000000000000000F50000000000000000000000000000F500000000F500000000000000F5000000000000000000F5000000000000000000000000
310
0000000000000000000000000000000000000000000000000000000000000000000000000000000000F500000000000000000000000000000000000000000000000000000000000000000000000000000000000000000000000000000000000000000000000000000000000000000000000000000000000000000000000000
310
000000000000000000000000000000000000F500000000000000000000000000000000000000000000000000000000000000000000F5F500000000000000000000F5F5F5F5F50000000000000000F50000000000000000000000000000F500000000F500000000000000F5000000000000000000F500000000000000000000
310
00000000000000000000000000000000000000000000000000000000000000000000000000000000000000F50000000000000000000000000000000000000000000000000000000000000000000000000000000000000000000000000000000000000000000000000000000000000000000000000000000000000000000000
310
0000000000000000000000000000000000000000F500000000000000000000000000000000000000000000000000000000000000000000F5F5F5000000000000000000F5F5F500F50000000000000000F50000000000000000000000000000F500000000F50000F5F5F5F5F5F5000000000000000000F50000000000000000
310
000000000000000000000000000000000000000000000000000000000000000000000000000000000000000000F5000000000000000000000000000000000000000000000000000000000000000000000000000000000000000000000000000000000000000000000000000000000000000000000000000000000000000000
310
00000000000000000000000000000000000000000000F500000000000000000000000000000000000000000000000000000000000000000000F5F5F5000000000000000000F5F5F500F50000000000000000F50000000000000000000000000000F500000000F50000F5000000F5F5000000000000000000F5000000000000
310
0000000000000000000000000000000000000000000000000000000000000000000000000000000000000000000000F500000000000000000000000000000000000000000000000000000000000000000000000000000000000000000000000000000000000000000000000000000000000000000000000000000000000000
310
000000000000000000000000000000000000000000000000F500000000000000000000000000000000000000000000000000000000000000000000F5F5F5000000000000000000F5F5F5F5F50000000000000000F5F5F5F5F5F5F5F5F5F5F5F5F5F5F5F5F5F5F5F5F5F5F5F5000000F5F5000000000000000000F500000000
310
00000000000000000000000000000000000000000000000000000000000000000000000000000000000000000000000000F50000000000000000000000000000000000000000000000000000000000000000000000000000000000000000000000000000000000000000000000000000000000000000000000000000000000
310
0000000000000000000000000000000000000000000000000000F500000000000000000000000000000000000000000000000000000000000000000000F5F5F5000000000000000000F5F5F5F5F50000000000000000F50000000000000000000000000000F500000000F50000F5000000F5F5000000000000000000F50000
310
000000000000000000000000000000000000000000000000000000000000000000000000000000000000000000000000000000F5000000000000000000000000000000000000000000000000000000000000000000000000000000000000000000000000000000000000000000000000000000000000000000000000000000
310
00000000000000000000000000000000000000000000000000000000F500000000000000000000000000000000000000000000000000000000000000000000F5F5F5000000000000000000F5F5F500F50000000000000000F50000000000000000000000000000F500000000F50000F5000000F5F5000000000000000000F5
310
0000000000000000000000000000000000000000000000000000000000000000000000000000000000000000000000000000000000F500000000000000000000000000000000000000000000000000000000000000000000000000000000000000000000000000000000000000000000000000000000000000000000000000
310
000000000000000000000000000000000000000000000000000000000000F500000000000000000000000000000000000000000000000000000000000000000000F5F500000000000000000000F5F5F500F50000000000000000F50000000000000000000000000000F500000000F50000F5000000F5F50000000000000000
310
00F50000000000000000000000000000000000000000000000000000000000000000000000000000000000000000000000000000000000F50000000000000000000000000000000000000000000000000000000000000000000000000000000000000000000000000000000000000000000000000000000000000000000000
310
0000000000000000000000000000000000000000000000000000000000000000F500000000000000000000000000000000000000000000000000000000000000000000F5F500000000000000000000F5000000F50000000000000000F50000000000000000000000000000F500000000F50000F5000000F5F5000000000000
310
000000F50000000000000000000000000000000000000000000000000000000000000000000000000000000000000000000000000000000000F5000000000000000000000000000000000000000000000000000000000000000000000000000000000000000000000000000000000000000000000000000000000000000000
310
00000000000000000000000000000000000000000000000000000000000000000000F500000000000000000000000000000000000000000000000000000000000000000000F50000000000000000000000F5000000F50000000000000000F50000000000000000000000000000F500000000F50000F5000000F5F500000000
310
0000000000F50000000000000000000000000000000000000000000000000000000000000000000000000000000000000000000000000000000000F500000000000000000000000000000000000000000000000000000000000000000000000000000000000000000000000000000000000000000000000000000000000000
310
000000000000000000000000000000000000000000000000000000000000000000000000F500000000000000000000000000000000000000000000000000000000000000000000F50000000000000000000000F5F5F5F5F50000000000000000F50000000000000000000000000000F500000000F50000F5000000F5F50000
310
00000000000000F50000000000000000000000000000000000000000000000000000000000000000000000000000000000000000000000000000000000F50000000000000000000000000000000000000000000000000000000000000000000000000000000000000000000000000000000000000000000000000000000000
310
0000000000000000000000000000000000000000000000000000000000000000000000000000F500000000000000000000000000000000000000000000000000000000000000000000F5000000000000000000000000000000000000000000000000F50000000000000000000000000000F500000000F50000F5000000F5F5
310
000000000000000000F50000000000000000000000000000000000000000000000000000000000000000000000000000000000000000000000000000000000F5000000000000000000000000000000000000000000000000000000000000000000000000000000000000000000000000000000000000000000000000000000
310
00000000000000000000000000000000000000000000000000000000000000000000000000000000F500000000000000000000000000000000000000000000000000000000000000000000F5000000000000000000000000000000000000000000000000F50000000000000000000000000000F500000000F50000F5000000
310
F5F5000000000000000000F50000000000000000000000000000000000000000000000000000000000000000000000000000000000000000000000000000000000F500000000000000000000000000000000000000000000000000000000000000000000000000000000000000000000000000000000000000000000000000
310
000000000000000000000000000000000000000000000000000000000000000000000000000000000000F500000000000000000000000000000000000000000000000000000000000000000000F5000000000000000000000000000000000000000000000000F50000000000000000000000000000F500000000F50000F500
310
0000F5F5000000000000000000F50000000000000000000000000000000000000000000000000000000000000000000000000000000000000000000000000000000000F50000000000000000000000000000000000000000000000000000000000000000000000000000000000000000000000000000000000000000000000
310
0000000000000000000000000000000000000000000000000000000000000000000000000000000000000000F500000000000000000000000000000000000000000000000000000000000000000000F5000000000000000000000000000000000000000000000000F50000000000000000000000000000F500000000F50000
310
F5000000F5F5000000000000000000F50000000000000000000000000000000000000000000000000000000000000000000000000000000000000000000000000000000000F5000000000000000000000000000000000000000000000000000000000000000000000000000000000000000000000000000000000000000000
310
00000000000000000000000000000000000000000000000000000000000000000000000000000000000000000000F500000000000000000000000000000000000000000000000000000000000000000000F5000000000000000000000000000000000000000000000000F50000000000000000000000000000F500000000F5
310
0000F5000000F5F5000000000000000000F50000000000000000000000000000000000000000000000000000000000000000000000000000000000000000000000000000000000F500000000000000000000000000000000000000000000000000000000000000000000000000000000000000000000000000000000000000
310
000000000000000000000000000000000000000000000000000000000000000000000000000000000000000000000000F500000000000000000000000000000000000000000000000000000000000000000000F5000000000000000000000000000000000000000000000000F50000000000000000000000000000F5000000
310
00F50000F5000000F5F5000000000000000000F50000000000000000000000000000000000000000000000000000000000000000000000000000000000000000000000000000000000F50000000000000000000000000000000000000000000000000000000000000000000000000000000000000000000000000000000000
310
0000000000000000000000000000000000000000000000000000000000000000000000000000000000000000000000000000F500000000000000000000000000000000000000000000000000000000000000000000F5000000000000000000000000000000000000000000000000F50000000000000000000000000000F500
310
000000F50000F5000000F5F5000000000000000000F50000000000000000000000000000000000000000000000000000000000000000000000000000000000000000000000000000000000F5000000000000000000000000000000000000000000000000000000000000000000000000000000000000000000000000000000
310
00000000000000000000000000000000000000000000000000000000000000000000000000000000000000000000000000000000F500000000000000000000000000000000000000000000000000000000000000000000F5000000000000000000000000000000000000000000000000F50000000000000000000000000000
310
F500000000F50000F5000000F5F5000000000000000000F50000000000000000000000000000000000000000000000000000000000000000000000000000000000000000000000000000000000F500000000000000000000000000000000000000000000000000000000000000000000000000000000000000000000000000
310
000000000000000000000000000000000000000000000000000000000000000000000000000000000000000000000000000000000000F500000000000000000000000000000000000000000000000000000000000000000000F5000000000000000000000000000000000000000000000000F5000000000000000000000000
310
0000F500000000F50000F5000000F5F5000000000000000000F50000000000000000000000000000000000000000000000000000000000000000000000000000000000000000000000000000000000F50000000000000000000000000000000000000000000000000000000000000000000000000000000000000000000000
310
0000000000000000000000000000000000000000000000000000000000000000000000000000000000000000000000000000000000000000F500000000000000000000000000000000000000000000000000000000000000000000F5000000000000000000000000000000000000000000000000F500000000000000000000
310
00000000F500000000F50000F5000000F5F5000000000000000000F50000000000000000000000000000000000000000000000000000000000000000000000000000000000000000000000000000000000F5000000000000000000000000000000000000000000000000000000000000000000000000000000000000000000
310
00000000000000000000000000000000000000000000000000000000000000000000000000000000000000000000000000000000000000000000F500000000000000000000000000000000000000000000000000000000000000000000F5000000000000000000000000000000000000000000000000F50000000000000000
310
000000000000F500000000F50000F5000000F5F5000000000000000000F50000000000000000000000000000000000000000000000000000000000000000000000000000000000000000000000000000000000F500000000000000000000000000000000000000000000000000000000000000000000000000000000000000
310
000000000000000000000000000000000000000000000000000000000000000000000000000000000000000000000000000000000000000000000000F500000000000000000000000000000000000000000000000000000000000000000000F5000000000000000000000000000000000000000000000000F5F5F5F5F5F5F5
310
F5F5F5F5F5F5F5F5F5F5F5F5F5F5F5F5F5000000F5F5000000000000000000F50000000000000000000000000000000000000000000000000000000000000000000000000000000000000000000000000000000000F50000000000000000000000000000000000000000000000000000000000000000000000000000000000
310
0000000000000000000000000000000000000000000000000000000000000000000000000000000000000000000000000000000000000000000000000000F500000000000000000000000000000000000000000000000000000000000000000000F5000000000000000000000000000000000000000000000000F500000000
310
00000000000000000000F500000000F50000F5000000F5F5000000000000000000F50000000000000000000000000000000000000000000000000000000000000000000000000000000000000000000000000000000000F5000000000000000000000000000000000000000000000000000000000000000000000000000000
310
00000000000000000000000000000000000000000000000000000000000000000000000000000000000000000000000000000000000000000000000000000000F500000000000000000000000000000000000000000000000000000000000000000000F5000000000000000000000000000000000000000000000000F50000
310
000000000000000000000000F500000000F50000F5000000F5F5000000000000000000F50000000000000000000000000000000000000000000000000000000000000000000000000000000000000000000000000000000000F500000000000000000000000000000000000000000000000000000000000000000000000000
310
000000000000000000000000000000000000000000000000000000000000000000000000000000000000000000000000000000000000000000000000000000000000F500000000000000000000000000000000000000000000000000000000000000000000F5000000000000000000000000000000000000000000000000F5
310
0000000000000000000000000000F500000000F50000F5F5F5F5F5F5000000000000000000F50000000000000000000000000000000000000000000000000000000000000000000000000000000000000000000000000000000000F50000000000000000000000000000000000000000000000000000000000000000000000
310
0000000000000000000000000000000000000000000000000000000000000000000000000000000000000000000000000000000000000000000000000000000000000000F500000000000000000000000000000000000000000000000000000000000000000000F50000000000000000000000000000000000000000000000
310
00F50000000000000000000000000000F500000000F500000000000000F5000000000000000000F50000000000000000000000000000000000000000000000000000000000000000000000000000000000000000000000000000000000F5000000000000000000000000000000000000000000000000000000000000000000
310
00000000000000000000000000000000000000000000000000000000000000000000000000000000000000000000000000000000000000000000000000000000000000000000F500000000000000000000000000000000000000000000000000000000000000000000F5000000000000000000000000000000000000000000
310
000000F50000000000000000000000000000F500000000F500000000000000F5000000000000000000F50000000000000000000000000000000000000000000000000000000000000000000000000000000000000000000000000000000000F500000000000000000000000000000000000000000000000000000000000000
310
000000000000000000000000000000000000000000000000000000000000000000000000000000000000000000000000000000000000000000000000000000000000000000000000F5F5F50000000000000000000000000000000000000000000000000000000000000000F500000000000000000000000000000000000000
310
0000000000F50000000000000000000000000000F500000000F500000000000000F5000000000000000000F50000000000000000000000000000000000000000000000000000000000000000000000000000000000000000000000000000000000F50000000000000000000000000000000000000000000000000000000000
310
00000000000000000000000000000000000000000000000000000000000000000000000000000000000000000000000000000000000000000000000000000000000000000000000000000000F5F500000000000000000000000000000000000000000000000000000000000000F50000000000000000000000000000000000
310
00000000000000F50000000000000000000000000000F500000000F500000000000000F5000000000000000000F50000000000000000000000000000000000000000000000000000000000000000000000000000000000000000000000000000000000F5000000000000000000000000000000000000000000000000000000
310
00000000000000000000000000000000000000000000000000000000000000000000000000000000000000000000000000000000000000000000000000000000000000000000000000000000000000F500000000000000000000000000000000000000000000000000000000000000F5000000000000000000000000000000
310
000000000000000000F50000000000000000000000000000F500000000F500000000000000F5000000000000000000F50000000000000000000000000000000000000000000000000000000000000000000000000000000000000000000000000000000000F500000000000000000000000000000000000000000000000000
310
000000000000000000000000000000000000000000000000000000000000000000000000000000000000000000000000000000000000000000000000000000000000000000000000000000000000000000F500000000000000000000000000000000000000000000000000000000000000F500000000000000000000000000
310
0000000000000000000000F50000000000000000000000000000F500000000F500000000000000F5000000000000000000F50000000000000000000000000000000000000000000000000000000000000000000000000000000000000000000000000000000000F50000000000000000000000000000000000000000000000
310
0000000000000000000000000000000000000000000000000000000000000000000000000000000000000000000000000000000000000000000000000000000000000000000000000000000000000000000000F500000000000000000000000000000000000000000000000000000000000000F50000000000000000000000
310
00000000000000000000000000F50000000000000000000000000000F500000000F500000000000000F5000000000000000000F50000000000000000000000000000000000000000000000000000000000000000000000000000000000000000000000000000000000F5000000000000000000000000000000000000000000
310
000000000000000000000000000000000000000000000000000000000000000000000000000000000000000000000000000000000000000000000000000000000000000000000000000000000000000000000000F5F500000000000000000000000000000000000000000000000000000000000000F5000000000000000000
310
000000000000000000000000000000F50000000000000000000000000000F500000000F500000000000000F5000000000000000000F50000000000000000000000000000000000000000000000000000000000000000000000000000000000000000000000000000000000F500000000000000000000000000000000000000
310
000000000000000000000000000000000000000000000000000000000000000000000000000000000000000000000000000000000000000000000000000000000000000000000000000000000000000000000000F5F5000000000000000000000000000000000000000000000000000000000000000000F500000000000000
310
0000000000000000000000000000000000F50000000000000000000000000000F500000000F500000000000000F5000000000000000000F50000000000000000000000000000000000000000000000000000000000000000000000000000000000000000000000000000000000F50000000000000000000000000000000000
310
0000000000000000000000000000000000000000000000000000000000000000000000000000000000000000000000000000000000000000000000000000000000000000000000000000000000000000000000000000F500000000000000000000000000000000000000000000000000000000000000000000F50000000000
310
0000000000000000000000000000F5F5F5F5F5F50000000000000000000000000000F500000000F500000000000000F5000000000000000000F50000000000000000000000000000000000000000000000000000000000000000000000000000000000000000000000000000000000F5000000000000000000000000000000
310
00000000000000000000000000000000000000000000000000000000000000000000000000000000000000000000000000000000000000000000000000000000000000000000000000000000000000000000000000000000F500000000000000000000000000000000000000000000000000000000000000000000F5000000
310
00000000000000000000000000000000F500000000000000000000000000000000000000F500000000F500000000000000F5000000000000000000F50000000000000000000000000000000000000000000000000000000000000000000000000000000000000000000000000000000000F500000000000000000000000000
310
000000000000000000000000000000000000000000000000000000000000000000000000000000000000000000000000000000000000000000000000000000000000000000000000000000000000000000000000000000000000F500000000000000000000000000000000000000000000000000000000000000000000F500
310
000000000000000000000000000000000000F500000000000000000000000000000000000000F500000000F500000000000000F5000000000000000000F50000000000000000000000000000000000000000000000000000000000000000000000000000000000000000000000000000000000F50000000000000000000000
310
0000000000000000000000000000000000000000000000000000000000000000000000000000000000000000000000000000000000000000000000000000000000000000000000000000000000000000000000000000000000000000F500000000000000000000000000000000000000000000000000000000000000000000
310
F500000000000000000000000000000000000000F500000000000000000000000000000000000000F500000000F500000000000000F5000000000000000000F50000000000000000000000000000000000000000000000000000000000000000000000000000000000000000000000000000000000F5000000000000000000
310
00000000000000000000000000000000000000000000000000000000000000000000000000000000000000000000000000000000000000000000000000000000000000000000000000000000000000000000000000000000000000000000F50000000000000000000000000000000000000000000000000000000000000000
310
0000F500000000000000000000000000000000000000F500000000000000000000000000000000000000F5F5F5F5F5F500000000000000F5000000000000000000F50000000000000000000000000000000000000000000000000000000000000000000000000000000000000000000000000000000000F500000000000000
310
000000000000000000000000000000000000000000000000000000000000000000000000000000000000000000000000000000000000000000000000000000000000000000000000000000000000000000000000000000000000000000000000F5000000000000000000000000000000000000000000000000000000000000
310
00000000F500000000000000000000000000000000000000F5F5F5F5F5F5000000000000000000000000000000000000000000000000000000F5000000000000000000F50000000000000000000000000000000000000000000000000000000000000000000000000000000000000000000000000000000000F50000000000
310
0000000000000000000000000000000000000000000000000000000000000000000000000000000000000000000000000000000000000000000000000000000000000000000000000000000000000000000000000000000000000000000000000000F500000000000000000000000000000000000000000000000000000000
310
000000000000F5000000000000000000000000000000000000000000000000F5000000000000000000000000000000000000000000000000000000F5000000000000000000F50000000000000000000000000000000000000000000000000000000000000000000000000000000000000000000000000000000000F5000000
310
00000000000000000000000000000000000000000000000000000000000000000000000000000000000000000000000000000000000000000000000000000000000000000000000000000000000000000000000000000000000000000000000000000000F50000000000000000000000000000000000000000000000000000
310
0000000000000000F5000000000000000000000000000000000000000000000000F5F5F5F5F5F5F5F5F5F5F5F5F5F5F5F5F5F5F5F5F5F5F5F5F5F5F5F5F5000000000000000000F50000000000000000000000000000000000000000000000000000000000000000000000000000000000000000000000000000000000F500
310
000000000000000000000000000000000000000000000000000000000000000000000000000000000000000000000000000000000000000000000000000000000000000000000000000000000000000000000000000000000000000000000000000000000000F5000000000000000000000000000000000000000000000000
310
00000000000000000000F5000000000000000000000000000000000000000000000000F500000000000000000000000000000000000000000000000000000000000000000000000000F50000000000000000000000000000000000000000000000000000000000000000000000000000000000000000000000000000000000
310
F500000000000000000000000000000000000000000000000000000000000000000000000000000000000000000000000000000000000000000000000000000000000000000000000000000000000000000000000000000000000000000000000000000000000000F500000000000000000000000000000000000000000000
310
000000000000000000000000F5000000000000000000000000000000000000000000000000F500000000000000000000000000000000000000000000000000000000000000000000000000F5000000000000000000000000000000000000000000000000000000000000000000000000000000000000000000000000000000
310
0000F500000000000000000000000000000000000000000000000000000000000000000000000000000000000000000000000000000000000000000000000000000000000000000000000000000000000000000000000000000000000000000000000000000000000000F50000000000000000000000000000000000000000
310
0000000000000000000000000000F5000000000000000000000000000000000000000000000000F500000000000000000000000000000000000000000000000000000000000000000000000000F500000000000000000000000000000000000000000000000000000000000000000000000000000000000000000000000000
310
00000000F500000000000000000000000000000000000000000000000000000000000000000000000000000000000000000000000000000000000000000000000000000000000000000000000000000000000000000000000000000000000000000000000000000000000000F5000000000000000000000000000000000000
310
00000000000000000000000000000000F5000000000000000000000000000000000000000000000000F500000000000000000000000000000000000000000000000000000000000000000000000000F50000000000000000000000000000000000000000000000000000000000000000000000000000000000000000000000
310
000000000000F500000000000000000000000000000000000000000000000000000000000000000000000000000000000000000000000000000000000000000000000000000000000000000000000000000000000000000000000000000000000000000000000000000000000000F500000000000000000000000000000000
310
000000000000000000000000000000000000F5000000000000000000000000000000000000000000000000F500000000000000000000000000000000000000000000000000000000000000000000000000F5000000000000000000000000000000000000000000000000000000000000000000000000000000000000000000
310
0000000000000000F500000000000000000000000000000000000000000000000000000000000000000000000000000000000000000000000000000000000000000000000000000000000000000000000000000000000000000000000000000000000000000000000000000000000000F50000000000000000000000000000
310
0000000000000000000000000000000000000000F5000000000000000000000000000000000000000000000000F500000000000000000000000000000000000000000000000000000000000000000000000000F500000000000000000000000000000000000000000000000000000000000000000000000000000000000000
310
00000000000000000000F500000000000000000000000000000000000000000000000000000000000000000000000000000000000000000000000000000000000000000000000000000000000000000000000000000000000000000000000000000000000000000000000000000000000000F5000000000000000000000000
310
00000000000000000000000000000000000000000000F5000000000000000000000000000000000000000000000000F500000000000000000000000000000000000000000000000000000000000000000000000000F50000000000000000000000000000000000000000000000000000000000000000000000000000000000
310
000000000000000000000000F500000000000000000000000000000000000000000000000000000000000000000000000000000000000000000000000000000000000000000000000000000000000000000000000000000000000000000000000000000000000000000000000000000000000000F500000000000000000000
310
000000000000000000000000000000000000000000000000F5000000000000000000000000000000000000000000000000F5000000000000000000000000000000000000000000000000000000000000000000000000F500000000000000000000000000000000000000000000000000000000000000000000000000000000
310
0000000000000000000000000000F50000000000000000000000000000000000000000000000000000000000000000000000000000000000000000000000
  0
XRECORD
  5
3B1
102
{ACAD_REACTORS
330
49
102
}
330
49
100
AcDbXrecord
280
     1
102
MATERIAL
148
0.0
149
0.0
149
0.0
 93
        0
 94
      127
282
     0
 72
     0
 77
     0
171
     0
175
     0
179
     0
273
     0
  0
XRECORD
  5
4A
102
{ACAD_REACTORS
330
49
102
}
330
49
100
AcDbXrecord
280
     1
270
     1
271
     1
  0
XRECORD
  5
4B
102
{ACAD_REACTORS
330
49
102
}
330
49
100
AcDbXrecord
280
     1
270
     1
271
     1
  0
XRECORD
  5
4C
102
{ACAD_REACTORS
330
49
102
}
330
49
100
AcDbXrecord
280
     1
270
     1
271
     1
  0
XRECORD
  5
4D
102
{ACAD_REACTORS
330
49
102
}
330
49
100
AcDbXrecord
280
     1
270
     1
271
     1
  0
XRECORD
  5
4E
102
{ACAD_REACTORS
330
49
102
}
330
49
100
AcDbXrecord
280
     1
270
     1
271
     1
  0
XRECORD
  5
4F
102
{ACAD_REACTORS
330
49
102
}
330
49
100
AcDbXrecord
280
     1
270
     1
271
     1
  0
XRECORD
  5
3B0
102
{ACAD_REACTORS
330
41
102
}
330
41
100
AcDbXrecord
280
     1
102
MATERIAL
148
0.0
149
0.0
149
0.0
 93
        0
 94
      127
282
     0
 72
     0
 77
     0
171
     0
175
     0
179
     0
273
     0
  0
XRECORD
  5
42
102
{ACAD_REACTORS
330
41
102
}
330
41
100
AcDbXrecord
280
     1
270
     1
271
     1
  0
XRECORD
  5
43
102
{ACAD_REACTORS
330
41
102
}
330
41
100
AcDbXrecord
280
     1
270
     1
271
     1
  0
XRECORD
  5
44
102
{ACAD_REACTORS
330
41
102
}
330
41
100
AcDbXrecord
280
     1
270
     1
271
     1
  0
XRECORD
  5
45
102
{ACAD_REACTORS
330
41
102
}
330
41
100
AcDbXrecord
280
     1
270
     1
271
     1
  0
XRECORD
  5
46
102
{ACAD_REACTORS
330
41
102
}
330
41
100
AcDbXrecord
280
     1
270
     1
271
     1
  0
XRECORD
  5
47
102
{ACAD_REACTORS
330
41
102
}
330
41
100
AcDbXrecord
280
     1
270
     1
271
     1
  0
XRECORD
  5
3AB
102
{ACAD_REACTORS
330
E
102
}
330
E
100
AcDbXrecord
280
     1
102
MATERIAL
148
0.0
149
0.0
149
0.0
 93
        0
 94
      127
282
     0
 72
     0
 77
     0
171
     0
175
     0
179
     0
273
     0
  0
XRECORD
  5
F
102
{ACAD_REACTORS
330
E
102
}
330
E
100
AcDbXrecord
280
     1
270
     1
271
     1
  0
XRECORD
  5
10
102
{ACAD_REACTORS
330
E
102
}
330
E
100
AcDbXrecord
280
     1
270
     1
271
     1
  0
XRECORD
  5
11
102
{ACAD_REACTORS
330
E
102
}
330
E
100
AcDbXrecord
280
     1
270
     1
271
     1
  0
XRECORD
  5
12
102
{ACAD_REACTORS
330
E
102
}
330
E
100
AcDbXrecord
280
     1
270
     1
271
     1
  0
XRECORD
  5
13
102
{ACAD_REACTORS
330
E
102
}
330
E
100
AcDbXrecord
280
     1
270
     1
271
     1
  0
XRECORD
  5
14
102
{ACAD_REACTORS
330
E
102
}
330
E
100
AcDbXrecord
280
     1
270
     1
271
     1
  0
CELLSTYLEMAP
  5
3A9
102
{ACAD_REACTORS
330
56
102
}
330
56
100
AcDbCellStyleMap
 90
        3
300
CELLSTYLE
  1
TABLEFORMAT_BEGIN
 90
        5
170
     1
 91
        0
 92
    32768
 62
   257
 93
        1
300
CONTENTFORMAT
  1
CONTENTFORMAT_BEGIN
 90
        0
 91
        0
 92
        4
 93
        0
300

 40
0.0
140
1.0
 94
        5
 62
     0
340
26
144
0.25
309
CONTENTFORMAT_END
171
     0
 94
        6
 95
        1
302
GRIDFORMAT
  1
GRIDFORMAT_BEGIN
 90
        0
 91
        1
 62
     0
 92
       -2
340
0
 93
        0
 40
0.045
309
GRIDFORMAT_END
 95
        2
302
GRIDFORMAT
  1
GRIDFORMAT_BEGIN
 90
        0
 91
        1
 62
     0
 92
       -2
340
0
 93
        0
 40
0.045
309
GRIDFORMAT_END
 95
        4
302
GRIDFORMAT
  1
GRIDFORMAT_BEGIN
 90
        0
 91
        1
 62
     0
 92
       -2
340
0
 93
        0
 40
0.045
309
GRIDFORMAT_END
 95
        8
302
GRIDFORMAT
  1
GRIDFORMAT_BEGIN
 90
        0
 91
        1
 62
     0
 92
       -2
340
0
 93
        0
 40
0.045
309
GRIDFORMAT_END
 95
       16
302
GRIDFORMAT
  1
GRIDFORMAT_BEGIN
 90
        0
 91
        1
 62
     0
 92
       -2
340
0
 93
        0
 40
0.045
309
GRIDFORMAT_END
 95
       32
302
GRIDFORMAT
  1
GRIDFORMAT_BEGIN
 90
        0
 91
        1
 62
     0
 92
       -2
340
0
 93
        0
 40
0.045
309
GRIDFORMAT_END
309
TABLEFORMAT_END
  1
CELLSTYLE_BEGIN
 90
        1
 91
        1
300
_TITLE
309
CELLSTYLE_END
300
CELLSTYLE
  1
TABLEFORMAT_BEGIN
 90
        5
170
     1
 91
        0
 92
        0
 62
   257
 93
        1
300
CONTENTFORMAT
  1
CONTENTFORMAT_BEGIN
 90
        0
 91
        0
 92
        4
 93
        0
300

 40
0.0
140
1.0
 94
        5
 62
     0
340
26
144
0.18
309
CONTENTFORMAT_END
171
     0
 94
        6
 95
        1
302
GRIDFORMAT
  1
GRIDFORMAT_BEGIN
 90
        0
 91
        1
 62
     0
 92
       -2
340
0
 93
        0
 40
0.045
309
GRIDFORMAT_END
 95
        2
302
GRIDFORMAT
  1
GRIDFORMAT_BEGIN
 90
        0
 91
        1
 62
     0
 92
       -2
340
0
 93
        0
 40
0.045
309
GRIDFORMAT_END
 95
        4
302
GRIDFORMAT
  1
GRIDFORMAT_BEGIN
 90
        0
 91
        1
 62
     0
 92
       -2
340
0
 93
        0
 40
0.045
309
GRIDFORMAT_END
 95
        8
302
GRIDFORMAT
  1
GRIDFORMAT_BEGIN
 90
        0
 91
        1
 62
     0
 92
       -2
340
0
 93
        0
 40
0.045
309
GRIDFORMAT_END
 95
       16
302
GRIDFORMAT
  1
GRIDFORMAT_BEGIN
 90
        0
 91
        1
 62
     0
 92
       -2
340
0
 93
        0
 40
0.045
309
GRIDFORMAT_END
 95
       32
302
GRIDFORMAT
  1
GRIDFORMAT_BEGIN
 90
        0
 91
        1
 62
     0
 92
       -2
340
0
 93
        0
 40
0.045
309
GRIDFORMAT_END
309
TABLEFORMAT_END
  1
CELLSTYLE_BEGIN
 90
        2
 91
        1
300
_HEADER
309
CELLSTYLE_END
300
CELLSTYLE
  1
TABLEFORMAT_BEGIN
 90
        5
170
     1
 91
        0
 92
        0
 62
   257
 93
        1
300
CONTENTFORMAT
  1
CONTENTFORMAT_BEGIN
 90
        0
 91
        0
 92
        4
 93
        0
300

 40
0.0
140
1.0
 94
        2
 62
     0
340
26
144
0.18
309
CONTENTFORMAT_END
171
     0
 94
        6
 95
        1
302
GRIDFORMAT
  1
GRIDFORMAT_BEGIN
 90
        0
 91
        1
 62
     0
 92
       -2
340
0
 93
        0
 40
0.045
309
GRIDFORMAT_END
 95
        2
302
GRIDFORMAT
  1
GRIDFORMAT_BEGIN
 90
        0
 91
        1
 62
     0
 92
       -2
340
0
 93
        0
 40
0.045
309
GRIDFORMAT_END
 95
        4
302
GRIDFORMAT
  1
GRIDFORMAT_BEGIN
 90
        0
 91
        1
 62
     0
 92
       -2
340
0
 93
        0
 40
0.045
309
GRIDFORMAT_END
 95
        8
302
GRIDFORMAT
  1
GRIDFORMAT_BEGIN
 90
        0
 91
        1
 62
     0
 92
       -2
340
0
 93
        0
 40
0.045
309
GRIDFORMAT_END
 95
       16
302
GRIDFORMAT
  1
GRIDFORMAT_BEGIN
 90
        0
 91
        1
 62
     0
 92
       -2
340
0
 93
        0
 40
0.045
309
GRIDFORMAT_END
 95
       32
302
GRIDFORMAT
  1
GRIDFORMAT_BEGIN
 90
        0
 91
        1
 62
     0
 92
       -2
340
0
 93
        0
 40
0.045
309
GRIDFORMAT_END
309
TABLEFORMAT_END
  1
CELLSTYLE_BEGIN
 90
        3
 91
        2
300
_DATA
309
CELLSTYLE_END
  0
XRECORD
  5
3B2
102
{ACAD_REACTORS
330
56
102
}
330
56
100
AcDbXrecord
280
     1
102
ACAD_ROUNDTRIP_PRE2007_TABLESTYLE
 90
        4
 91
        0
  1

 92
        4
 93
        0
  2

 94
        4
 95
        0
  3

  0
XRECORD
  5
3AF
102
{ACAD_REACTORS
330
3AE
102
}
330
3AE
100
AcDbXrecord
280
     1
102
RTVSPropertyOp0
 70
     1
102
RTVSPropertyOp1
 70
     1
102
RTVSPropertyOp2
 70
     1
102
RTVSPropertyOp3
 70
     1
102
RTVSPropertyOp4
 70
     1
102
RTVSPropertyOp5
 70
     1
102
RTVSPropertyOp6
 70
     1
102
RTVSPropertyOp7
 70
     1
102
RTVSPropertyOp8
 70
     1
102
RTVSPropertyOp9
 70
     1
102
RTVSPropertyOp10
 70
     1
102
RTVSPropertyOp11
 70
     1
102
RTVSPropertyOp12
 70
     1
102
RTVSPropertyOp13
 70
     1
102
RTVSPropertyOp14
 70
     1
102
RTVSPropertyOp15
 70
     1
102
RTVSPropertyOp16
 70
     1
102
RTVSPropertyOp17
 70
     1
102
RTVSPropertyOp18
 70
     1
102
RTVSPropertyOp19
 70
     1
102
RTVSPropertyOp20
 70
     1
102
RTVSPropertyOp21
 70
     1
102
RTVSPropertyOp22
 70
     1
102
RTVSPropertyOp23
 70
     1
102
RTVSPropertyOp24
 70
     1
102
RTVSPropertyOp25
 70
     1
102
RTVSPropertyOp26
 70
     1
102
RTVSPropertyOp27
 70
     1
102
RTVSPropertyOp28
 70
     1
102
RTVSPropertyOp29
 70
     1
102
RTVSPropertyOp30
 70
     1
102
RTVSPropertyOp31
 70
     1
102
RTVSPropertyOp32
 70
     1
  0
XRECORD
  5
3B4
102
{ACAD_REACTORS
330
3B3
102
}
330
3B3
100
AcDbXrecord
280
     1
102
RTVSPropertyOp0
 70
     1
102
RTVSPropertyOp1
 70
     1
102
RTVSPropertyOp2
 70
     1
102
RTVSPropertyOp3
 70
     1
102
RTVSPropertyOp4
 70
     1
102
RTVSPropertyOp5
 70
     1
102
RTVSPropertyOp6
 70
     1
102
RTVSPropertyOp7
 70
     1
102
RTVSPropertyOp8
 70
     1
102
RTVSPropertyOp9
 70
     1
102
RTVSPropertyOp10
 70
     1
102
RTVSPropertyOp11
 70
     1
102
RTVSPropertyOp12
 70
     1
102
RTVSPropertyOp13
 70
     1
102
RTVSPropertyOp14
 70
     1
102
RTVSPropertyOp15
 70
     1
102
RTVSPropertyOp16
 70
     1
102
RTVSPropertyOp17
 70
     1
102
RTVSPropertyOp18
 70
     1
102
RTVSPropertyOp19
 70
     1
102
RTVSPropertyOp20
 70
     1
102
RTVSPropertyOp21
 70
     1
102
RTVSPropertyOp22
 70
     1
102
RTVSPropertyOp23
 70
     1
102
RTVSPropertyOp24
 70
     1
102
RTVSPropertyOp25
 70
     1
102
RTVSPropertyOp26
 70
     1
102
RTVSPropertyOp27
 70
     1
102
RTVSPropertyOp28
 70
     1
102
RTVSPropertyOp29
 70
     1
102
RTVSPropertyOp30
 70
     1
102
RTVSPropertyOp31
 70
     1
102
RTVSPropertyOp32
 70
     1
  0
XRECORD
  5
3B6
102
{ACAD_REACTORS
330
3B5
102
}
330
3B5
100
AcDbXrecord
280
     1
102
RTVSPropertyOp0
 70
     1
102
RTVSPropertyOp1
 70
     1
102
RTVSPropertyOp2
 70
     1
102
RTVSPropertyOp3
 70
     1
102
RTVSPropertyOp4
 70
     1
102
RTVSPropertyOp5
 70
     1
102
RTVSPropertyOp6
 70
     1
102
RTVSPropertyOp7
 70
     1
102
RTVSPropertyOp8
 70
     1
102
RTVSPropertyOp9
 70
     1
102
RTVSPropertyOp10
 70
     1
102
RTVSPropertyOp11
 70
     1
102
RTVSPropertyOp12
 70
     1
102
RTVSPropertyOp13
 70
     1
102
RTVSPropertyOp14
 70
     1
102
RTVSPropertyOp15
 70
     1
102
RTVSPropertyOp16
 70
     1
102
RTVSPropertyOp17
 70
     1
102
RTVSPropertyOp18
 70
     1
102
RTVSPropertyOp19
 70
     1
102
RTVSPropertyOp20
 70
     1
102
RTVSPropertyOp21
 70
     1
102
RTVSPropertyOp22
 70
     1
102
RTVSPropertyOp23
 70
     1
102
RTVSPropertyOp24
 70
     1
102
RTVSPropertyOp25
 70
     1
102
RTVSPropertyOp26
 70
     1
102
RTVSPropertyOp27
 70
     1
102
RTVSPropertyOp28
 70
     1
102
RTVSPropertyOp29
 70
     1
102
RTVSPropertyOp30
 70
     1
102
RTVSPropertyOp31
 70
     1
102
RTVSPropertyOp32
 70
     1
  0
ENDSEC
  0
EOF
