  0
SECTION
  2
HEADER
  9
$ACADVER
  1
AC1015
  9
$ACADMAINTVER
 70
    18
  9
$DWGCODEPAGE
  3
ANSI_1252
  9
$INSBASE
 10
4078.468963999013
 20
4285.056239932804
 30
0.0
  9
$EXTMIN
 10
4068.502789641059
 20
4270.273471228366
 30
0.0
  9
$EXTMAX
 10
4088.249464960229
 20
4294.067558742368
 30
0.0
  9
$LIMMIN
 10
0.0
 20
0.0
  9
$LIMMAX
 10
10000.0
 20
10000.0
  9
$ORTHOMODE
 70
     1
  9
$REGENMODE
 70
     1
  9
$FILLMODE
 70
     1
  9
$QTEXTMODE
 70
     0
  9
$MIRRTEXT
 70
     0
  9
$LTSCALE
 40
0.5
  9
$ATTMODE
 70
     1
  9
$TEXTSIZE
 40
3.0
  9
$TRACEWID
 40
0.05
  9
$TEXTSTYLE
  7
Standard
  9
$CLAYER
  8
0
  9
$CELTYPE
  6
ByLayer
  9
$CECOLOR
 62
   256
  9
$CELTSCALE
 40
1.0
  9
$DISPSILH
 70
     0
  9
$DIMSCALE
 40
0.0
  9
$DIMASZ
 40
0.156
  9
$DIMEXO
 40
0.04
  9
$DIMDLI
 40
0.38
  9
$DIMRND
 40
0.0
  9
$DIMDLE
 40
0.0
  9
$DIMEXE
 40
0.03
  9
$DIMTP
 40
0.0
  9
$DIMTM
 40
0.0
  9
$DIMTXT
 40
0.3125
  9
$DIMCEN
 40
0.0
  9
$DIMTSZ
 40
0.0
  9
$DIMTOL
 70
     0
  9
$DIMLIM
 70
     0
  9
$DIMTIH
 70
     1
  9
$DIMTOH
 70
     1
  9
$DIMSE1
 70
     0
  9
$DIMSE2
 70
     0
  9
$DIMTAD
 70
     0
  9
$DIMZIN
 70
     0
  9
$DIMBLK
  1
ArchTick
  9
$DIMASO
 70
     1
  9
$DIMSHO
 70
     1
  9
$DIMPOST
  1
\X
  9
$DIMAPOST
  1
mm
  9
$DIMALT
 70
     1
  9
$DIMALTD
 70
     0
  9
$DIMALTF
 40
25.4
  9
$DIMLFAC
 40
1.0
  9
$DIMTOFL
 70
     0
  9
$DIMTVP
 40
0.0
  9
$DIMTIX
 70
     0
  9
$DIMSOXD
 70
     0
  9
$DIMSAH
 70
     0
  9
$DIMBLK1
  1

  9
$DIMBLK2
  1

  9
$DIMSTYLE
  2
Knife
  9
$DIMCLRD
 70
     0
  9
$DIMCLRE
 70
     0
  9
$DIMCLRT
 70
     0
  9
$DIMTFAC
 40
1.0
  9
$DIMGAP
 40
0.04
  9
$DIMJUST
 70
     0
  9
$DIMSD1
 70
     0
  9
$DIMSD2
 70
     0
  9
$DIMTOLJ
 70
     1
  9
$DIMTZIN
 70
     0
  9
$DIMALTZ
 70
     0
  9
$DIMALTTZ
 70
     0
  9
$DIMUPT
 70
     0
  9
$DIMDEC
 70
     5
  9
$DIMTDEC
 70
     5
  9
$DIMALTU
 70
     2
  9
$DIMALTTD
 70
     0
  9
$DIMTXSTY
  7
Standard
  9
$DIMAUNIT
 70
     0
  9
$DIMADEC
 70
     1
  9
$DIMALTRND
 40
0.0
  9
$DIMAZIN
 70
     0
  9
$DIMDSEP
 70
    46
  9
$DIMATFIT
 70
     3
  9
$DIMFRAC
 70
     2
  9
$DIMLDRBLK
  1

  9
$DIMLUNIT
 70
     4
  9
$DIMLWD
 70
    -2
  9
$DIMLWE
 70
    -2
  9
$DIMTMOVE
 70
     0
  9
$LUNITS
 70
     2
  9
$LUPREC
 70
     4
  9
$SKETCHINC
 40
0.1
  9
$FILLETRAD
 40
0.0
  9
$AUNITS
 70
     0
  9
$AUPREC
 70
     0
  9
$MENU
  1
.
  9
$ELEVATION
 40
0.0
  9
$PELEVATION
 40
0.0
  9
$THICKNESS
 40
0.0
  9
$LIMCHECK
 70
     0
  9
$CHAMFERA
 40
0.0
  9
$CHAMFERB
 40
0.0
  9
$CHAMFERC
 40
0.0
  9
$CHAMFERD
 40
0.0
  9
$SKPOLY
 70
     0
  9
$TDCREATE
 40
2454538.540644179
  9
$TDUCREATE
 40
2454538.665644178
  9
$TDUPDATE
 40
2456100.330853403
  9
$TDUUPDATE
 40
2456100.455853403
  9
$TDINDWG
 40
0.1245494329
  9
$TDUSRTIMER
 40
0.1245494329
  9
$USRTIMER
 70
     1
  9
$ANGBASE
 50
0.0
  9
$ANGDIR
 70
     0
  9
$PDMODE
 70
     3
  9
$PDSIZE
 40
0.0
  9
$PLINEWID
 40
0.0
  9
$SPLFRAME
 70
     0
  9
$SPLINETYPE
 70
     6
  9
$SPLINESEGS
 70
    12
  9
$HANDSEED
  5
358
  9
$SURFTAB1
 70
     6
  9
$SURFTAB2
 70
     6
  9
$SURFTYPE
 70
     6
  9
$SURFU
 70
     6
  9
$SURFV
 70
     6
  9
$UCSBASE
  2

  9
$UCSNAME
  2

  9
$UCSORG
 10
0.0
 20
0.0
 30
0.0
  9
$UCSXDIR
 10
1.0
 20
0.0
 30
0.0
  9
$UCSYDIR
 10
0.0
 20
1.0
 30
0.0
  9
$UCSORTHOREF
  2

  9
$UCSORTHOVIEW
 70
     0
  9
$UCSORGTOP
 10
0.0
 20
0.0
 30
0.0
  9
$UCSORGBOTTOM
 10
0.0
 20
0.0
 30
0.0
  9
$UCSORGLEFT
 10
0.0
 20
0.0
 30
0.0
  9
$UCSORGRIGHT
 10
0.0
 20
0.0
 30
0.0
  9
$UCSORGFRONT
 10
0.0
 20
0.0
 30
0.0
  9
$UCSORGBACK
 10
0.0
 20
0.0
 30
0.0
  9
$PUCSBASE
  2

  9
$PUCSNAME
  2

  9
$PUCSORG
 10
0.0
 20
0.0
 30
0.0
  9
$PUCSXDIR
 10
1.0
 20
0.0
 30
0.0
  9
$PUCSYDIR
 10
0.0
 20
1.0
 30
0.0
  9
$PUCSORTHOREF
  2

  9
$PUCSORTHOVIEW
 70
     0
  9
$PUCSORGTOP
 10
0.0
 20
0.0
 30
0.0
  9
$PUCSORGBOTTOM
 10
0.0
 20
0.0
 30
0.0
  9
$PUCSORGLEFT
 10
0.0
 20
0.0
 30
0.0
  9
$PUCSORGRIGHT
 10
0.0
 20
0.0
 30
0.0
  9
$PUCSORGFRONT
 10
0.0
 20
0.0
 30
0.0
  9
$PUCSORGBACK
 10
0.0
 20
0.0
 30
0.0
  9
$USERI1
 70
     0
  9
$USERI2
 70
     0
  9
$USERI3
 70
     0
  9
$USERI4
 70
     0
  9
$USERI5
 70
     0
  9
$USERR1
 40
0.0
  9
$USERR2
 40
0.0
  9
$USERR3
 40
0.0
  9
$USERR4
 40
0.0
  9
$USERR5
 40
0.0
  9
$WORLDVIEW
 70
     1
  9
$SHADEDGE
 70
     3
  9
$SHADEDIF
 70
    70
  9
$TILEMODE
 70
     1
  9
$MAXACTVP
 70
    64
  9
$PINSBASE
 10
0.0
 20
0.0
 30
0.0
  9
$PLIMCHECK
 70
     0
  9
$PEXTMIN
 10
0.0000000075458644
 20
0.0000000082145277
 30
0.0
  9
$PEXTMAX
 10
8.454000007545857
 20
10.67400000821453
 30
0.0
  9
$PLIMMIN
 10
-0.0396281825147785
 20
-0.1631190569075597
  9
$PLIMMAX
 10
8.460371577189331
 20
10.83688070279655
  9
$UNITMODE
 70
     0
  9
$VISRETAIN
 70
     1
  9
$PLINEGEN
 70
     0
  9
$PSLTSCALE
 70
     1
  9
$TREEDEPTH
 70
  3020
  9
$CMLSTYLE
  2
Standard
  9
$CMLJUST
 70
     0
  9
$CMLSCALE
 40
1.0
  9
$PROXYGRAPHICS
 70
     1
  9
$MEASUREMENT
 70
     0
  9
$CELWEIGHT
370
    -1
  9
$ENDCAPS
280
     0
  9
$JOINSTYLE
280
     0
  9
$LWDISPLAY
290
     0
  9
$INSUNITS
 70
     1
  9
$HYPERLINKBASE
  1

  9
$STYLESHEET
  1

  9
$XEDIT
290
     1
  9
$CEPSNTYPE
380
     0
  9
$PSTYLEMODE
290
     1
  9
$FINGERPRINTGUID
  2
{41089F4A-AACE-43D5-AC80-CA069BA69E46}
  9
$VERSIONGUID
  2
{1CA2BEBC-98B8-4D8D-9D10-041D5317F4B2}
  9
$EXTNAMES
290
     1
  9
$PSVPSCALE
 40
0.0
  9
$OLESTARTUP
290
     0
  0
ENDSEC
  0
SECTION
  2
CLASSES
  0
CLASS
  1
ACDBDICTIONARYWDFLT
  2
AcDbDictionaryWithDefault
  3
ObjectDBX Classes
 90
        0
280
     0
281
     0
  0
CLASS
  1
ACDBPLACEHOLDER
  2
AcDbPlaceHolder
  3
ObjectDBX Classes
 90
        0
280
     0
281
     0
  0
CLASS
  1
LAYOUT
  2
AcDbLayout
  3
ObjectDBX Classes
 90
        0
280
     0
281
     0
  0
CLASS
  1
DICTIONARYVAR
  2
AcDbDictionaryVar
  3
ObjectDBX Classes
 90
        0
280
     0
281
     0
  0
CLASS
  1
TABLESTYLE
  2
AcDbTableStyle
  3
ObjectDBX Classes
 90
     4095
280
     0
281
     0
  0
CLASS
  1
SORTENTSTABLE
  2
AcDbSortentsTable
  3
ObjectDBX Classes
 90
        0
280
     0
281
     0
  0
CLASS
  1
DIMASSOC
  2
AcDbDimAssoc
  3
"AcDbDimAssoc|Product Desc:     AcDim ARX App For Dimension|Company:          Autodesk, Inc.|WEB Address:      www.autodesk.com"
 90
        0
280
     0
281
     0
  0
CLASS
  1
MATERIAL
  2
AcDbMaterial
  3
ObjectDBX Classes
 90
     1153
280
     0
281
     0
  0
CLASS
  1
VISUALSTYLE
  2
AcDbVisualStyle
  3
ObjectDBX Classes
 90
     4095
280
     0
281
     0
  0
CLASS
  1
SCALE
  2
AcDbScale
  3
ObjectDBX Classes
 90
     1153
280
     0
281
     0
  0
CLASS
  1
MLEADERSTYLE
  2
AcDbMLeaderStyle
  3
ACDB_MLEADERSTYLE_CLASS
 90
    36863
280
     0
281
     0
  0
CLASS
  1
CELLSTYLEMAP
  2
AcDbCellStyleMap
  3
ObjectDBX Classes
 90
     1152
280
     0
281
     0
  0
ENDSEC
  0
SECTION
  2
TABLES
  0
TABLE
  2
VPORT
  5
2E
102
{ACAD_XDICTIONARY
360
33
102
}
330
0
100
AcDbSymbolTable
 70
     1
  0
VPORT
  5
2F
330
2E
100
AcDbSymbolTableRecord
100
AcDbViewportTableRecord
  2
*Active
 70
     0
 10
0.0
 20
0.0
 11
1.0
 21
1.0
 12
4081.64916981391
 22
4281.745361351129
 13
0.0
 23
0.0
 14
0.5
 24
0.5
 15
0.5
 25
0.5
 16
0.0
 26
0.0
 36
1.0
 17
0.0
 27
0.0
 37
0.0
 40
25.99229945271188
 41
2.183284457478005
 42
50.0
 43
0.0
 44
0.0
 50
0.0
 51
0.0
 71
     0
 72
  5000
 73
     1
 74
     3
 75
     0
 76
     0
 77
     0
 78
     0
281
     0
 65
     1
110
0.0
120
0.0
130
0.0
111
1.0
121
0.0
131
0.0
112
0.0
122
1.0
132
0.0
 79
     0
146
0.0
1001
ACAD_NAV_VCDISPLAY
1070
     3
  0
ENDTAB
  0
TABLE
  2
LTYPE
  5
29
330
0
100
AcDbSymbolTable
 70
     3
  0
LTYPE
  5
2A
330
29
100
AcDbSymbolTableRecord
100
AcDbLinetypeTableRecord
  2
ByBlock
 70
     0
  3

 72
    65
 73
     0
 40
0.0
  0
LTYPE
  5
2B
330
29
100
AcDbSymbolTableRecord
100
AcDbLinetypeTableRecord
  2
ByLayer
 70
     0
  3

 72
    65
 73
     0
 40
0.0
  0
LTYPE
  5
15
330
29
100
AcDbSymbolTableRecord
100
AcDbLinetypeTableRecord
  2
Continuous
 70
     0
  3
Solid line
 72
    65
 73
     0
 40
0.0
  0
LTYPE
  5
7D
330
29
100
AcDbSymbolTableRecord
100
AcDbLinetypeTableRecord
  2
HIDDEN
 70
     0
  3
Hidden __ __ __ __ __ __ __ __ __ __ __ __ __ _
 72
    65
 73
     2
 40
0.375
 49
0.25
 74
     0
 49
-0.125
 74
     0
  0
LTYPE
  5
1BC
330
29
100
AcDbSymbolTableRecord
100
AcDbLinetypeTableRecord
  2
HIDDEN2
 70
     0
  3
Hidden (.5x) _ _ _ _ _ _ _ _ _ _ _ _ _ _ _ _ _
 72
    65
 73
     2
 40
0.1875
 49
0.125
 74
     0
 49
-0.0625
 74
     0
  0
ENDTAB
  0
TABLE
  2
LAYER
  5
22
102
{ACAD_XDICTIONARY
360
23
102
}
330
0
100
AcDbSymbolTable
 70
     3
  0
LAYER
  5
6
102
{ACAD_XDICTIONARY
360
7
102
}
330
22
100
AcDbSymbolTableRecord
100
AcDbLayerTableRecord
  2
0
 70
     0
 62
     7
  6
Continuous
370
    18
390
9
  0
LAYER
  5
76
330
22
100
AcDbSymbolTableRecord
100
AcDbLayerTableRecord
  2
Defpoints
 70
     0
 62
     7
  6
Continuous
290
     0
370
    18
390
9
  0
LAYER
  5
82
102
{ACAD_XDICTIONARY
360
83
102
}
330
22
100
AcDbSymbolTableRecord
100
AcDbLayerTableRecord
  2
0010010007
 70
     0
 62
     7
  6
Continuous
370
    18
390
9
  0
ENDTAB
  0
TABLE
  2
STYLE
  5
25
330
0
100
AcDbSymbolTable
 70
     2
  0
STYLE
  5
26
330
25
100
AcDbSymbolTableRecord
100
AcDbTextStyleTableRecord
  2
Standard
 70
     0
 40
0.0
 41
0.55
 50
5.0
 71
     0
 42
3.0
  3
lc______.ttf
  4

1001
ACAD
1000
Letter Gothic
1071
       50
  0
STYLE
  5
7B
330
25
100
AcDbSymbolTableRecord
100
AcDbTextStyleTableRecord
  2
DIMTXT
 70
     0
 40
0.0
 41
0.6
 50
5.0
 71
     0
 42
0.2
  3
lc______.ttf
  4

1001
ACAD
1000
Letter Gothic
1071
       50
  0
ENDTAB
  0
TABLE
  2
VIEW
  5
2C
330
0
100
AcDbSymbolTable
 70
     0
  0
ENDTAB
  0
TABLE
  2
UCS
  5
2D
330
0
100
AcDbSymbolTable
 70
     0
  0
ENDTAB
  0
TABLE
  2
APPID
  5
34
330
0
100
AcDbSymbolTable
 70
     5
  0
APPID
  5
27
330
34
100
AcDbSymbolTableRecord
100
AcDbRegAppTableRecord
  2
ACAD
 70
     0
  0
APPID
  5
1B
330
34
100
AcDbSymbolTableRecord
100
AcDbRegAppTableRecord
  2
ACAD_PSEXT
 70
     0
  0
APPID
  5
32
330
34
100
AcDbSymbolTableRecord
100
AcDbRegAppTableRecord
  2
ACAD_NAV_VCDISPLAY
 70
     0
  0
APPID
  5
D7
330
34
100
AcDbSymbolTableRecord
100
AcDbRegAppTableRecord
  2
GradientColor1ACI
 70
     0
  0
APPID
  5
D8
330
34
100
AcDbSymbolTableRecord
100
AcDbRegAppTableRecord
  2
GradientColor2ACI
 70
     0
  0
ENDTAB
  0
TABLE
  2
DIMSTYLE
  5
35
330
0
100
AcDbSymbolTable
 70
     2
100
AcDbDimStyleTable
 71
     2
340
36
340
3B
  0
DIMSTYLE
105
3B
330
35
100
AcDbSymbolTableRecord
100
AcDbDimStyleTableRecord
  2
Standard
 70
     0
  3
"
 40
0.0
 41
0.095
 42
0.04
 44
0.04
140
0.125
141
0.0
147
0.04
179
     1
271
     6
272
     6
276
     2
277
     5
340
26
  0
DIMSTYLE
105
36
102
{ACAD_REACTORS
330
6A
330
EC
330
FD
330
130
330
15C
330
16D
330
17F
330
193
330
1A4
330
22C
330
23D
330
294
330
2A6
330
2B7
330
2C7
330
2D9
330
2EA
102
}
330
35
100
AcDbSymbolTableRecord
100
AcDbDimStyleTableRecord
  2
Knife
 70
     0
  3
\X
  4
mm
 40
0.0
 41
0.156
 42
0.04
 44
0.03
140
0.3125
141
0.0
147
0.04
170
     1
171
     0
179
     1
271
     5
272
     5
274
     0
276
     2
277
     4
340
26
342
37
  0
ENDTAB
  0
TABLE
  2
BLOCK_RECORD
  5
1
330
0
100
AcDbSymbolTable
 70
    22
  0
BLOCK_RECORD
  5
2
102
{ACAD_XDICTIONARY
360
3
102
}
330
1
100
AcDbSymbolTableRecord
100
AcDbBlockTableRecord
  2
*Model_Space
340
17
  0
BLOCK_RECORD
  5
1C
330
1
100
AcDbSymbolTableRecord
100
AcDbBlockTableRecord
  2
*Paper_Space
340
1F
  0
BLOCK_RECORD
  5
37
330
1
100
AcDbSymbolTableRecord
100
AcDbBlockTableRecord
  2
_ArchTick
340
0
102
{BLKREFS
331
29E
331
29F
331
2AF
331
2B0
331
2C0
331
2C1
331
2D1
331
2D2
331
2E2
331
2E3
331
2F3
331
2F4
331
F6
331
F7
331
106
331
107
331
137
331
138
331
166
331
167
331
176
331
177
331
188
331
189
331
19C
331
19D
331
1AE
331
1AF
331
235
331
236
331
247
331
248
331
71
331
72
102
}
  0
BLOCK_RECORD
  5
1E5
330
1
100
AcDbSymbolTableRecord
100
AcDbBlockTableRecord
  2
11HINGE
340
0
102
{BLKREFS
331
27F
331
329
331
1E4
102
}
  0
BLOCK_RECORD
  5
7F
330
1
100
AcDbSymbolTableRecord
100
AcDbBlockTableRecord
  2
93OBW
340
0
102
{BLKREFS
331
7E
331
110
331
141
102
}
  0
BLOCK_RECORD
  5
AB
330
1
100
AcDbSymbolTableRecord
100
AcDbBlockTableRecord
  2
86NPF141
340
0
102
{BLKREFS
331
27E
331
328
331
AA
331
111
331
142
331
1E3
102
}
  0
BLOCK_RECORD
  5
6B
330
1
100
AcDbSymbolTableRecord
100
AcDbBlockTableRecord
  2
*D4
340
0
  0
BLOCK_RECORD
  5
C5
330
1
100
AcDbSymbolTableRecord
100
AcDbBlockTableRecord
  2
*U5
340
0
102
{BLKREFS
331
C4
331
114
331
145
102
}
  0
BLOCK_RECORD
  5
EF
330
1
100
AcDbSymbolTableRecord
100
AcDbBlockTableRecord
  2
*D6
340
0
  0
BLOCK_RECORD
  5
100
330
1
100
AcDbSymbolTableRecord
100
AcDbBlockTableRecord
  2
*D7
340
0
  0
BLOCK_RECORD
  5
131
330
1
100
AcDbSymbolTableRecord
100
AcDbBlockTableRecord
  2
*D8
340
0
  0
BLOCK_RECORD
  5
15F
330
1
100
AcDbSymbolTableRecord
100
AcDbBlockTableRecord
  2
*D9
340
0
  0
BLOCK_RECORD
  5
170
330
1
100
AcDbSymbolTableRecord
100
AcDbBlockTableRecord
  2
*D10
340
0
  0
BLOCK_RECORD
  5
182
330
1
100
AcDbSymbolTableRecord
100
AcDbBlockTableRecord
  2
*D11
340
0
  0
BLOCK_RECORD
  5
196
330
1
100
AcDbSymbolTableRecord
100
AcDbBlockTableRecord
  2
*D12
340
0
  0
BLOCK_RECORD
  5
1A7
330
1
100
AcDbSymbolTableRecord
100
AcDbBlockTableRecord
  2
*D13
340
0
  0
BLOCK_RECORD
  5
22F
330
1
100
AcDbSymbolTableRecord
100
AcDbBlockTableRecord
  2
*D14
340
0
  0
BLOCK_RECORD
  5
240
330
1
100
AcDbSymbolTableRecord
100
AcDbBlockTableRecord
  2
*D15
340
0
  0
BLOCK_RECORD
  5
297
330
1
100
AcDbSymbolTableRecord
100
AcDbBlockTableRecord
  2
*D16
340
0
  0
BLOCK_RECORD
  5
2A9
330
1
100
AcDbSymbolTableRecord
100
AcDbBlockTableRecord
  2
*D17
340
0
  0
BLOCK_RECORD
  5
2BA
330
1
100
AcDbSymbolTableRecord
100
AcDbBlockTableRecord
  2
*D18
340
0
  0
BLOCK_RECORD
  5
2CA
330
1
100
AcDbSymbolTableRecord
100
AcDbBlockTableRecord
  2
*D19
340
0
  0
BLOCK_RECORD
  5
2DC
330
1
100
AcDbSymbolTableRecord
100
AcDbBlockTableRecord
  2
*D20
340
0
  0
BLOCK_RECORD
  5
2ED
330
1
100
AcDbSymbolTableRecord
100
AcDbBlockTableRecord
  2
*D21
340
0
  0
ENDTAB
  0
ENDSEC
  0
SECTION
  2
BLOCKS
  0
BLOCK
  5
5
330
2
100
AcDbEntity
  8
0
100
AcDbBlockBegin
  2
*Model_Space
 70
     0
 10
0.0
 20
0.0
 30
0.0
  3
*Model_Space
  1

  0
ENDBLK
  5
16
330
2
100
AcDbEntity
  8
0
100
AcDbBlockEnd
  0
BLOCK
  5
1D
330
1C
100
AcDbEntity
 67
     1
  8
0
100
AcDbBlockBegin
  2
*Paper_Space
 70
     0
 10
0.0
 20
0.0
 30
0.0
  3
*Paper_Space
  1

  0
ENDBLK
  5
1E
330
1C
100
AcDbEntity
 67
     1
  8
0
100
AcDbBlockEnd
  0
BLOCK
  5
38
330
37
100
AcDbEntity
  8
0
100
AcDbBlockBegin
  2
_ArchTick
 70
     0
 10
0.0
 20
0.0
 30
0.0
  3
_ArchTick
  1

  0
LWPOLYLINE
  5
39
330
37
100
AcDbEntity
  8
0
  6
ByBlock
 62
     0
100
AcDbPolyline
 90
        2
 70
     0
 43
0.15
 10
-0.5
 20
-0.5
 10
0.5
 20
0.5
  0
ENDBLK
  5
3A
330
37
100
AcDbEntity
  8
0
100
AcDbBlockEnd
  0
BLOCK
  5
1E6
330
1E5
100
AcDbEntity
  8
0
100
AcDbBlockBegin
  2
11HINGE
 70
     0
 10
0.0
 20
0.0
 30
0.0
  3
11HINGE
  1

  0
LINE
  5
1E7
330
1E5
100
AcDbEntity
  8
0010010007
100
AcDbLine
 10
0.219000000000001
 20
0.187
 30
0.0
 11
0.219000000000001
 21
0.156000000000001
 31
0.0
  0
LINE
  5
1E8
330
1E5
100
AcDbEntity
  8
0010010007
100
AcDbLine
 10
0.0320000000000036
 20
0.7180000000000011
 30
0.0
 11
0.0010000000000048
 21
0.7180000000000011
 31
0.0
  0
LINE
  5
1E9
330
1E5
100
AcDbEntity
  8
0010010007
100
AcDbLine
 10
0.0010000000000048
 20
0.7180000000000011
 30
0.0
 11
0.251000000000005
 21
0.7180000000000011
 31
0.0
  0
LINE
  5
1EA
330
1E5
100
AcDbEntity
  8
0010010007
100
AcDbLine
 10
0.251000000000005
 20
0.218000000000001
 30
0.0
 11
0.189000000000007
 21
0.218000000000001
 31
0.0
  0
LINE
  5
1EB
330
1E5
100
AcDbEntity
  8
0010010007
100
AcDbLine
 10
0.189000000000007
 20
0.218000000000001
 30
0.0
 11
0.189000000000007
 21
0.156000000000001
 31
0.0
  0
LINE
  5
1EC
330
1E5
100
AcDbEntity
  8
0010010007
100
AcDbLine
 10
0.189000000000007
 20
0.156000000000001
 30
0.0
 11
0.345000000000006
 21
0.156000000000001
 31
0.0
  0
LINE
  5
1ED
330
1E5
100
AcDbEntity
  8
0010010007
100
AcDbLine
 10
0.0640000000000072
 20
0.0310000000000006
 30
0.0
 11
0.189000000000007
 21
0.0310000000000006
 31
0.0
  0
LINE
  5
1EE
330
1E5
100
AcDbEntity
  8
0010010007
100
AcDbLine
 10
0.0320000000000036
 20
0.7180000000000011
 30
0.0
 11
0.0320000000000036
 21
0.656000000000001
 31
0.0
  0
LINE
  5
1EF
330
1E5
100
AcDbEntity
  8
0010010007
100
AcDbLine
 10
0.0320000000000036
 20
0.656000000000001
 30
0.0
 11
0.0630000000000024
 21
0.656000000000001
 31
0.0
  0
LINE
  5
1F0
330
1E5
100
AcDbEntity
  8
0010010007
100
AcDbLine
 10
0.0630000000000024
 20
0.656000000000001
 30
0.0
 11
0.0630000000000024
 21
0.281000000000001
 31
0.0
  0
LINE
  5
1F1
330
1E5
100
AcDbEntity
  8
0010010007
100
AcDbLine
 10
0.0630000000000024
 20
0.281000000000001
 30
0.0
 11
0.0630000000000024
 21
0.4060000000000012
 31
0.0
  0
LINE
  5
1F2
330
1E5
100
AcDbEntity
  8
0010010007
100
AcDbLine
 10
0.0630000000000024
 20
0.281000000000001
 30
0.0
 11
0.0630000000000024
 21
0.156000000000001
 31
0.0
  0
LINE
  5
1F3
330
1E5
100
AcDbEntity
  8
0010010007
100
AcDbLine
 10
0.0630000000000024
 20
0.156000000000001
 30
0.0
 11
0.0320000000000036
 21
0.156000000000001
 31
0.0
  0
LINE
  5
1F4
330
1E5
100
AcDbEntity
  8
0010010007
100
AcDbLine
 10
0.0320000000000036
 20
0.156000000000001
 30
0.0
 11
0.0320000000000036
 21
0.0940000000000003
 31
0.0
  0
LINE
  5
1F5
330
1E5
100
AcDbEntity
  8
0010010007
100
AcDbLine
 10
0.0320000000000036
 20
0.0940000000000003
 30
0.0
 11
0.0630000000000024
 21
0.0940000000000003
 31
0.0
  0
LINE
  5
1F6
330
1E5
100
AcDbEntity
  8
0010010007
100
AcDbLine
 10
0.0630000000000024
 20
0.0940000000000003
 30
0.0
 11
0.0630000000000024
 21
0.032
 31
0.0
  0
LINE
  5
1F7
330
1E5
100
AcDbEntity
  8
0010010007
100
AcDbLine
 10
0.4380000000000022
 20
0.7180000000000011
 30
0.0
 11
0.4380000000000022
 21
0.218000000000001
 31
0.0
  0
LINE
  5
1F8
330
1E5
100
AcDbEntity
  8
0010010007
100
AcDbLine
 10
0.360000000000007
 20
0.218000000000001
 30
0.0
 11
0.360000000000007
 21
0.7180000000000011
 31
0.0
  0
LINE
  5
1F9
330
1E5
100
AcDbEntity
  8
0010010007
100
AcDbLine
 10
0.0
 20
0.718
 30
0.0
 11
0.0
 21
0.0309999999999997
 31
0.0
  0
ARC
  5
1FA
330
1E5
100
AcDbEntity
  8
0010010007
100
AcDbCircle
 10
0.0309999999999988
 20
0.0309999999999997
 30
0.0
 40
0.031
100
AcDbArc
 50
180.0
 51
270.0
  0
LINE
  5
1FB
330
1E5
100
AcDbEntity
  8
0010010007
100
AcDbLine
 10
0.344000000000001
 20
0.156000000000001
 30
0.0
 11
0.344000000000001
 21
0.0620000000000003
 31
0.0
  0
ARC
  5
1FC
330
1E5
100
AcDbEntity
  8
0010010007
100
AcDbCircle
 10
0.313000000000002
 20
0.0620000000000003
 30
0.0
 40
0.031
100
AcDbArc
 50
270.0
 51
0.0
  0
ARC
  5
1FD
330
1E5
100
AcDbEntity
  8
0010010007
100
AcDbCircle
 10
0.344000000000001
 20
0.0309999999999997
 30
0.0
 40
0.031
100
AcDbArc
 50
270.0
 51
0.0
  0
LINE
  5
1FE
330
1E5
100
AcDbEntity
  8
0010010007
100
AcDbLine
 10
0.0309999999999988
 20
0.0
 30
0.0
 11
0.344000000000001
 21
0.0
 31
0.0
  0
LINE
  5
1FF
330
1E5
100
AcDbEntity
  8
0010010007
100
AcDbLine
 10
0.219000000000001
 20
0.187
 30
0.0
 11
0.344000000000001
 21
0.187
 31
0.0
  0
ARC
  5
200
330
1E5
100
AcDbEntity
  8
0010010007
100
AcDbCircle
 10
0.344000000000001
 20
0.156000000000001
 30
0.0
 40
0.031
100
AcDbArc
 50
0.0
 51
90.0
  0
LINE
  5
201
330
1E5
100
AcDbEntity
  8
0010010007
100
AcDbLine
 10
0.375
 20
0.0309999999999997
 30
0.0
 11
0.375
 21
0.156000000000001
 31
0.0
  0
LINE
  5
202
330
1E5
100
AcDbEntity
  8
0010010007
100
AcDbLine
 10
0.219000000000001
 20
0.156000000000001
 30
0.0
 11
0.314000000000007
 21
0.156000000000001
 31
0.0
  0
ARC
  5
203
330
1E5
100
AcDbEntity
  8
0010010007
100
AcDbCircle
 10
0.314000000000007
 20
0.125000000000001
 30
0.0
 40
0.031
100
AcDbArc
 50
0.0
 51
90.0
  0
LINE
  5
204
330
1E5
100
AcDbEntity
  8
0010010007
100
AcDbLine
 10
0.345000000000006
 20
0.0310000000000006
 30
0.0
 11
0.345000000000006
 21
0.125000000000001
 31
0.0
  0
ARC
  5
205
330
1E5
100
AcDbEntity
  8
0010010007
100
AcDbCircle
 10
0.282000000000004
 20
0.6870000000000011
 30
0.0
 40
0.031
100
AcDbArc
 50
90.0
 51
180.0
  0
LINE
  5
206
330
1E5
100
AcDbEntity
  8
0010010007
100
AcDbLine
 10
0.251000000000005
 20
0.7180000000000011
 30
0.0
 11
0.298000000000009
 21
0.7180000000000011
 31
0.0
  0
ARC
  5
207
330
1E5
100
AcDbEntity
  8
0010010007
100
AcDbCircle
 10
0.298000000000009
 20
0.6870000000000011
 30
0.0
 40
0.031
100
AcDbArc
 50
0.0
 51
90.0
  0
LINE
  5
208
330
1E5
100
AcDbEntity
  8
0010010007
100
AcDbLine
 10
0.251000000000005
 20
0.6870000000000011
 30
0.0
 11
0.251000000000005
 21
0.249000000000001
 31
0.0
  0
ARC
  5
209
330
1E5
100
AcDbEntity
  8
0010010007
100
AcDbCircle
 10
0.282000000000004
 20
0.249000000000001
 30
0.0
 40
0.031
100
AcDbArc
 50
180.0
 51
270.0
  0
LINE
  5
20A
330
1E5
100
AcDbEntity
  8
0010010007
100
AcDbLine
 10
0.329000000000008
 20
0.6870000000000011
 30
0.0
 11
0.329000000000008
 21
0.249000000000001
 31
0.0
  0
ARC
  5
20B
330
1E5
100
AcDbEntity
  8
0010010007
100
AcDbCircle
 10
0.298000000000009
 20
0.249000000000001
 30
0.0
 40
0.031
100
AcDbArc
 50
270.0
 51
0.0
  0
LINE
  5
20C
330
1E5
100
AcDbEntity
  8
0010010007
100
AcDbLine
 10
0.282000000000004
 20
0.218000000000001
 30
0.0
 11
0.298000000000009
 21
0.218000000000001
 31
0.0
  0
LINE
  5
20D
330
1E5
100
AcDbEntity
  8
0010010007
100
AcDbLine
 10
0.360000000000007
 20
0.7180000000000011
 30
0.0
 11
0.4380000000000022
 21
0.7180000000000011
 31
0.0
  0
LINE
  5
20E
330
1E5
100
AcDbEntity
  8
0010010007
100
AcDbLine
 10
0.4380000000000022
 20
0.218000000000001
 30
0.0
 11
0.360000000000007
 21
0.218000000000001
 31
0.0
  0
LINE
  5
20F
330
1E5
100
AcDbEntity
  8
0010010007
100
AcDbLine
 10
0.329000000000008
 20
0.586952854598391
 30
0.0
 11
0.360000000000007
 21
0.586952854598391
 31
0.0
  0
LINE
  5
210
330
1E5
100
AcDbEntity
  8
0010010007
100
AcDbLine
 10
0.328125
 20
0.358625
 30
0.0
 11
0.360000000000007
 21
0.358625
 31
0.0
  0
ARC
  5
211
330
1E5
100
AcDbEntity
  8
0010010007
100
AcDbCircle
 10
0.0630000000000024
 20
0.0620000000000003
 30
0.0
 40
0.031
100
AcDbArc
 50
180.0
 51
269.9999919723101
  0
LINE
  5
212
330
1E5
100
AcDbEntity
  8
0010010007
100
AcDbLine
 10
0.0320000000000036
 20
0.7180000000000011
 30
0.0
 11
0.0320000000000036
 21
0.0620000000000003
 31
0.0
  0
ARC
  5
213
330
1E5
100
AcDbEntity
  8
0010010007
100
AcDbCircle
 10
0.0630000000000024
 20
0.0620000000000003
 30
0.0
 40
0.031
100
AcDbArc
 50
180.0
 51
270.0
  0
LINE
  5
214
330
1E5
100
AcDbEntity
  8
0010010007
100
AcDbLine
 10
0.345000000000006
 20
0.0310000000000006
 30
0.0
 11
0.0630000000000024
 21
0.0310000000000006
 31
0.0
  0
LINE
  5
215
330
1E5
100
AcDbEntity
  8
0010010007
100
AcDbLine
 10
0.0621464456240588
 20
0.0310000000000006
 30
0.0
 11
0.313000000000002
 21
0.0310000000000006
 31
0.0
  0
LINE
  5
216
330
1E5
100
AcDbEntity
  8
0010010007
100
AcDbLine
 10
0.251000000000005
 20
0.218000000000001
 30
0.0
 11
0.28125
 21
0.218000000000001
 31
0.0
  0
ENDBLK
  5
217
330
1E5
100
AcDbEntity
  8
0
100
AcDbBlockEnd
  0
BLOCK
  5
80
330
7F
100
AcDbEntity
  8
0
100
AcDbBlockBegin
  2
93OBW
 70
     0
 10
0.0
 20
0.0
 30
0.0
  3
93OBW
  1

  0
ARC
  5
81
330
7F
100
AcDbEntity
  8
0010010007
100
AcDbCircle
 10
0.398000000000001
 20
0.318999999999997
 30
0.0
 40
0.015
100
AcDbArc
 50
0.0
 51
90.0
  0
LINE
  5
85
330
7F
100
AcDbEntity
  8
0010010007
100
AcDbLine
 10
0.4130000000000022
 20
0.318999999999996
 30
0.0
 11
0.4130000000000022
 21
0.316
 31
0.0
  0
ARC
  5
86
330
7F
100
AcDbEntity
  8
0010010007
100
AcDbCircle
 10
0.40200000000001
 20
0.323000000000002
 30
0.0
 40
0.031
100
AcDbArc
 50
359.9999999999988
 51
90.0
  0
LINE
  5
87
330
7F
100
AcDbEntity
  8
0010010007
100
AcDbLine
 10
0.0300000000000011
 20
0.250000000000004
 30
0.0
 11
0.138017246507628
 21
0.250000000000004
 31
0.0
  0
LINE
  5
88
330
7F
100
AcDbEntity
  8
0010010007
100
AcDbLine
 10
0.0800000000000072
 20
0.0573205080756924
 30
0.0
 11
0.050000000000006
 21
0.0400000000000027
 31
0.0
  0
LINE
  5
89
330
7F
100
AcDbEntity
  8
0010010007
100
AcDbLine
 10
0.080000000000009
 20
0.127320508075694
 30
0.0
 11
0.0500000000000078
 21
0.110000000000004
 31
0.0
  0
LINE
  5
8A
330
7F
100
AcDbEntity
  8
0010010007
100
AcDbLine
 10
0.0
 20
0.126695508075692
 30
0.0
 11
0.0300000000000011
 21
0.109375000000002
 31
0.0
  0
LINE
  5
8B
330
7F
100
AcDbEntity
  8
0010010007
100
AcDbLine
 10
0.0
 20
0.0573205080756907
 30
0.0
 11
0.0300000000000011
 21
0.0400000000000009
 31
0.0
  0
LINE
  5
8C
330
7F
100
AcDbEntity
  8
0010010007
100
AcDbLine
 10
0.0
 20
0.0742242240651549
 30
0.0
 11
0.0300000000000029
 21
0.0569037159894652
 31
0.0
  0
LINE
  5
8D
330
7F
100
AcDbEntity
  8
0010010007
100
AcDbLine
 10
0.0
 20
0.143261682032593
 30
0.0
 11
0.0300000000000011
 21
0.125941173956903
 31
0.0
  0
LINE
  5
8E
330
7F
100
AcDbEntity
  8
0010010007
100
AcDbLine
 10
0.0800000000000072
 20
0.0747715805396574
 30
0.0
 11
0.050000000000006
 21
0.0574510724639676
 31
0.0
  0
LINE
  5
8F
330
7F
100
AcDbEntity
  8
0010010007
100
AcDbLine
 10
0.0800000000000072
 20
0.143990944821956
 30
0.0
 11
0.050000000000006
 21
0.126670436746268
 31
0.0
  0
LINE
  5
90
330
7F
100
AcDbEntity
  8
0010010007
100
AcDbLine
 10
0.0
 20
0.143261682032593
 30
0.0
 11
0.0
 21
0.12669550807569
 31
0.0
  0
LINE
  5
91
330
7F
100
AcDbEntity
  8
0010010007
100
AcDbLine
 10
0.0
 20
0.0573205080756907
 30
0.0
 11
0.0
 21
0.0742242240651532
 31
0.0
  0
LINE
  5
92
330
7F
100
AcDbEntity
  8
0010010007
100
AcDbLine
 10
0.0800000000000072
 20
0.0573205080756924
 30
0.0
 11
0.0800000000000072
 21
0.0747715805396556
 31
0.0
  0
LINE
  5
93
330
7F
100
AcDbEntity
  8
0010010007
100
AcDbLine
 10
0.0800000000000072
 20
0.143990944821956
 30
0.0
 11
0.0800000000000072
 21
0.127320508075691
 31
0.0
  0
LINE
  5
94
330
7F
100
AcDbEntity
  8
0010010007
100
AcDbLine
 10
0.0300000000000011
 20
0.250000000000004
 30
0.0
 11
0.0300000000000011
 21
0.125941173956907
 31
0.0
  0
LINE
  5
95
330
7F
100
AcDbEntity
  8
0010010007
100
AcDbLine
 10
0.0500000000000043
 20
0.126670436746266
 30
0.0
 11
0.0500000000000043
 21
0.23
 31
0.0
  0
LINE
  5
96
330
7F
100
AcDbEntity
  8
0010010007
100
AcDbLine
 10
0.0300000000000011
 20
0.109375
 30
0.0
 11
0.0300000000000011
 21
0.0569037159894617
 31
0.0
  0
LINE
  5
97
330
7F
100
AcDbEntity
  8
0010010007
100
AcDbLine
 10
0.0500000000000043
 20
0.110000000000001
 30
0.0
 11
0.0500000000000043
 21
0.0574510724639659
 31
0.0
  0
LINE
  5
98
330
7F
100
AcDbEntity
  8
0010010007
100
AcDbLine
 10
0.0500000000000078
 20
0.0400000000000027
 30
0.0
 11
0.0500000000000078
 21
0.0
 31
0.0
  0
LINE
  5
99
330
7F
100
AcDbEntity
  8
0010010007
100
AcDbLine
 10
0.0500000000000078
 20
0.0
 30
0.0
 11
0.0300000000000047
 21
0.0
 31
0.0
  0
LINE
  5
9A
330
7F
100
AcDbEntity
  8
0010010007
100
AcDbLine
 10
0.0300000000000011
 20
0.0399999999999992
 30
0.0
 11
0.0300000000000011
 21
0.0
 31
0.0
  0
ARC
  5
9B
330
7F
100
AcDbEntity
  8
0010010007
100
AcDbCircle
 10
0.171000000000011
 20
0.264999999999998
 30
0.0
 40
0.015
100
AcDbArc
 50
180.0
 51
270.0
  0
LINE
  5
9C
330
7F
100
AcDbEntity
  8
0010010007
100
AcDbLine
 10
0.4130000000000022
 20
0.319000004130271
 30
0.0
 11
0.4130000000000022
 21
0.264999999999999
 31
0.0
  0
ARC
  5
9D
330
7F
100
AcDbEntity
  8
0010010007
100
AcDbCircle
 10
0.398000000000003
 20
0.2650000000000019
 30
0.0
 40
0.015
100
AcDbArc
 50
270.0
 51
0.0
  0
LINE
  5
9E
330
7F
100
AcDbEntity
  8
0010010007
100
AcDbLine
 10
0.397999999999999
 20
0.25
 30
0.0
 11
0.17100000000001
 21
0.25
 31
0.0
  0
LINE
  5
9F
330
7F
100
AcDbEntity
  8
0010010007
100
AcDbLine
 10
0.4330000000000072
 20
0.323000000000003
 30
0.0
 11
0.4330000000000072
 21
0.261000000000005
 31
0.0
  0
ARC
  5
A0
330
7F
100
AcDbEntity
  8
0010010007
100
AcDbCircle
 10
0.402000000000006
 20
0.261000000000001
 30
0.0
 40
0.031
100
AcDbArc
 50
270.0
 51
359.9999999999988
  0
ARC
  5
A1
330
7F
100
AcDbEntity
  8
0010010007
100
AcDbCircle
 10
0.167000000000008
 20
0.260999999999999
 30
0.0
 40
0.031
100
AcDbArc
 50
180.0
 51
200.783559595846
  0
LINE
  5
A2
330
7F
100
AcDbEntity
  8
0010010007
100
AcDbLine
 10
0.402000000000008
 20
0.230000000000003
 30
0.0
 11
0.050000000000006
 21
0.230000000000005
 31
0.0
  0
LINE
  5
A3
330
7F
100
AcDbEntity
  8
0010010007
100
AcDbLine
 10
0.40200000000001
 20
0.354000000000002
 30
0.0
 11
0.167000000000009
 21
0.354000000000002
 31
0.0
  0
ARC
  5
A4
330
7F
100
AcDbEntity
  8
0010010007
100
AcDbCircle
 10
0.167000000000008
 20
0.323000000000002
 30
0.0
 40
0.031
100
AcDbArc
 50
90.0
 51
180.0
  0
LINE
  5
A5
330
7F
100
AcDbEntity
  8
0010010007
100
AcDbLine
 10
0.136000000000009
 20
0.323000000000002
 30
0.0
 11
0.136000000000009
 21
0.261
 31
0.0
  0
LINE
  5
A6
330
7F
100
AcDbEntity
  8
0010010007
100
AcDbLine
 10
0.398000000000001
 20
0.333999999999997
 30
0.0
 11
0.171000000000011
 21
0.333999999999997
 31
0.0
  0
ARC
  5
A7
330
7F
100
AcDbEntity
  8
0010010007
100
AcDbCircle
 10
0.171000000000011
 20
0.318999999999997
 30
0.0
 40
0.015
100
AcDbArc
 50
90.0
 51
180.0
  0
LINE
  5
A8
330
7F
100
AcDbEntity
  8
0010010007
100
AcDbLine
 10
0.156000000000013
 20
0.318999999999997
 30
0.0
 11
0.156000000000013
 21
0.265000000000003
 31
0.0
  0
ENDBLK
  5
A9
330
7F
100
AcDbEntity
  8
0
100
AcDbBlockEnd
  0
BLOCK
  5
AC
330
AB
100
AcDbEntity
  8
0
100
AcDbBlockBegin
  2
86NPF141
 70
     0
 10
0.0
 20
0.0
 30
0.0
  3
86NPF141
  1

  0
LINE
  5
AD
330
AB
100
AcDbEntity
  8
0010010007
100
AcDbLine
 10
0.292234549170809
 20
0.292592286238269
 30
0.0
 11
0.0905816224003475
 21
0.292592286238268
 31
0.0
  0
LINE
  5
AE
330
AB
100
AcDbEntity
  8
0010010007
100
AcDbLine
 10
0.292234549170809
 20
0.292592286238269
 30
0.0
 11
0.292234549170809
 21
0.0429999999999993
 31
0.0
  0
LINE
  5
AF
330
AB
100
AcDbEntity
  8
0010010007
100
AcDbLine
 10
0.38175
 20
0.0916250000000005
 30
0.0
 11
0.38175
 21
0.0429999999999993
 31
0.0
  0
LINE
  5
B0
330
AB
100
AcDbEntity
  8
0010010007
100
AcDbLine
 10
0.0629975848402324
 20
0.292592286238268
 30
0.0
 11
0.11998804152432
 21
0.232592286238267
 31
0.0
  0
LINE
  5
B1
330
AB
100
AcDbEntity
  8
0010010007
100
AcDbLine
 10
0.0
 20
0.3125922862382669
 30
0.0
 11
0.292234549170809
 21
0.312592286238268
 31
0.0
  0
LINE
  5
B2
330
AB
100
AcDbEntity
  8
0010010007
100
AcDbLine
 10
0.312234549170809
 20
0.374592286238269
 30
0.0
 11
0.312234549170809
 21
0.0429999999999993
 31
0.0
  0
LINE
  5
B3
330
AB
100
AcDbEntity
  8
0010010007
100
AcDbLine
 10
0.3617500000000011
 20
0.100259966132592
 30
0.0
 11
0.3617500000000011
 21
0.046649781204545
 31
0.0
  0
LINE
  5
B4
330
AB
100
AcDbEntity
  8
0010010007
100
AcDbLine
 10
0.312234549170809
 20
0.374592286238269
 30
0.0
 11
0.292234549170809
 21
0.374592286238269
 31
0.0
  0
LINE
  5
B5
330
AB
100
AcDbEntity
  8
0010010007
100
AcDbLine
 10
0.0905816224003475
 20
0.292592286238268
 30
0.0
 11
0.147572079084434
 21
0.232592286238267
 31
0.0
  0
LINE
  5
B6
330
AB
100
AcDbEntity
  8
0010010007
100
AcDbLine
 10
0.0
 20
0.3125922862382669
 30
0.0
 11
0.0
 21
0.292592286238268
 31
0.0
  0
ARC
  5
B7
330
AB
100
AcDbEntity
  8
0010010007
100
AcDbCircle
 10
0.483527566184302
 20
0.246
 30
0.0
 40
0.046
100
AcDbArc
 50
312.198599646998
 51
81.43726286549343
  0
LINE
  5
B8
330
AB
100
AcDbEntity
  8
0010010007
100
AcDbLine
 10
0.5144258804155121
 20
0.211922233382023
 30
0.0
 11
0.38175
 21
0.0916250000000005
 31
0.0
  0
LINE
  5
B9
330
AB
100
AcDbEntity
  8
0010010007
100
AcDbLine
 10
0.3617500000000011
 20
0.100259966132592
 30
0.0
 11
0.5018334986466062
 21
0.227536716524801
 31
0.0
  0
ARC
  5
BA
330
AB
100
AcDbEntity
  8
0010010007
100
AcDbCircle
 10
0.483527566184302
 20
0.246
 30
0.0
 40
0.0259999999999999
100
AcDbArc
 50
323.4673418504359
 51
85.7257390740707
  0
LINE
  5
BB
330
AB
100
AcDbEntity
  8
0010010007
100
AcDbLine
 10
0.0
 20
0.292592286238268
 30
0.0
 11
0.0629975848402324
 21
0.292592286238268
 31
0.0
  0
LINE
  5
BC
330
AB
100
AcDbEntity
  8
0010010007
100
AcDbLine
 10
0.292234549170809
 20
0.374592286238269
 30
0.0
 11
0.292234549170809
 21
0.312592286238268
 31
0.0
  0
LINE
  5
BD
330
AB
100
AcDbEntity
  8
0010010007
100
AcDbLine
 10
0.4903766103545081
 20
0.2914872574899241
 30
0.0
 11
0.4854653657418579
 21
0.271927686608619
 31
0.0
  0
ARC
  5
BE
330
AB
100
AcDbEntity
  8
0010010007
100
AcDbCircle
 10
0.336992274585405
 20
0.0448248906022721
 30
0.0
 40
0.0248248906022726
100
AcDbArc
 50
184.215645088867
 51
355.784354911133
  0
ARC
  5
BF
330
AB
100
AcDbEntity
  8
0010010007
100
AcDbCircle
 10
0.336992274585405
 20
0.0447936509800968
 30
0.0
 40
0.044793650980097
100
AcDbArc
 50
182.294881348948
 51
357.705118651052
  0
LINE
  5
C0
330
AB
100
AcDbEntity
  8
0010010007
100
AcDbLine
 10
0.11998804152432
 20
0.232592286238267
 30
0.0
 11
0.147572079084434
 21
0.232592286238267
 31
0.0
  0
ENDBLK
  5
C1
330
AB
100
AcDbEntity
  8
0
100
AcDbBlockEnd
  0
BLOCK
  5
6C
330
6B
100
AcDbEntity
  8
0
100
AcDbBlockBegin
  2
*D4
 70
     1
 10
0.0
 20
0.0
 30
0.0
  3
*D4
  1

  0
LINE
  5
6D
330
6B
100
AcDbEntity
  8
0
 62
     0
370
    -2
100
AcDbLine
 10
4068.978495050264
 20
4288.501287547198
 30
0.0
 11
4068.978495050264
 21
4285.952549128643
 31
0.0
  0
LINE
  5
6E
330
6B
100
AcDbEntity
  8
0
 62
     0
370
    -2
100
AcDbLine
 10
4074.355055017896
 20
4290.558225396335
 30
0.0
 11
4074.355055017896
 21
4285.952549128643
 31
0.0
  0
LINE
  5
6F
330
6B
100
AcDbEntity
  8
0
 62
     0
370
    -2
100
AcDbLine
 10
4068.978495050264
 20
4285.982549128642
 30
0.0
 11
4071.155515725073
 21
4285.982549128642
 31
0.0
  0
LINE
  5
70
330
6B
100
AcDbEntity
  8
0
 62
     0
370
    -2
100
AcDbLine
 10
4074.355055017896
 20
4285.982549128642
 30
0.0
 11
4072.178034343087
 21
4285.982549128642
 31
0.0
  0
INSERT
  5
71
330
6B
100
AcDbEntity
  8
0
 62
     0
370
    -2
100
AcDbBlockReference
  2
_ArchTick
 10
4068.978495050264
 20
4285.982549128642
 30
0.0
 41
0.156
 42
0.156
 43
0.156
 50
180.0
  0
INSERT
  5
72
330
6B
100
AcDbEntity
  8
0
 62
     0
370
    -2
100
AcDbBlockReference
  2
_ArchTick
 10
4074.355055017896
 20
4285.982549128642
 30
0.0
 41
0.156
 42
0.156
 43
0.156
  0
MTEXT
  5
73
330
6B
100
AcDbEntity
  8
0
 62
     0
100
AcDbMText
 10
4071.66677503408
 20
4286.184893614183
 30
0.0
 40
0.3125
 41
0.0
 71
     5
 72
     1
  1
\A1;5 3/8"
 73
     1
 44
1.0
1001
ACAD
1000
MTEXTBEGIN
1070
    73
1070
     1
1070
    44
1040
1.0
1070
    74
1070
     0
1000
MTEXTEND
  0
MTEXT
  5
74
330
6B
100
AcDbEntity
  8
0
 62
     0
100
AcDbMText
 10
4071.66677503408
 20
4285.762656727835
 30
0.0
 40
0.3125
 41
0.0
 71
     5
 72
     1
  1
\A1;[137mm]
 73
     1
 44
1.0
1001
ACAD
1000
MTEXTBEGIN
1070
    73
1070
     1
1070
    44
1040
1.0
1070
    74
1070
     0
1000
MTEXTEND
  0
POINT
  5
75
330
6B
100
AcDbEntity
  8
Defpoints
 62
     0
100
AcDbPoint
 10
4068.978495050264
 20
4288.541287547198
 30
0.0
  0
POINT
  5
77
330
6B
100
AcDbEntity
  8
Defpoints
 62
     0
100
AcDbPoint
 10
4074.355055017896
 20
4290.598225396335
 30
0.0
  0
POINT
  5
78
330
6B
100
AcDbEntity
  8
Defpoints
 62
     0
100
AcDbPoint
 10
4074.355055017896
 20
4285.982549128642
 30
0.0
  0
ENDBLK
  5
79
330
6B
100
AcDbEntity
  8
0
100
AcDbBlockEnd
  0
BLOCK
  5
C6
330
C5
100
AcDbEntity
  8
0
100
AcDbBlockBegin
  2
*U5
 70
     1
 10
0.0
 20
0.0
 30
0.0
  3
*U5
  1

  0
SOLID
  5
C7
330
C5
100
AcDbEntity
  8
0
  6
Continuous
100
AcDbTrace
 10
1.881186878287215
 20
3.346448750095686
 30
0.0
 11
1.881186878287214
 21
3.286225296794519
 31
0.0
 12
1.90951442518562
 22
3.286225296794519
 32
0.0
 13
1.90951442518562
 23
3.286225296794519
 33
0.0
  0
SOLID
  5
C8
330
C5
100
AcDbEntity
  8
0
  6
Continuous
100
AcDbTrace
 10
1.881186878287214
 20
3.286225296794519
 30
0.0
 11
1.881186878287213
 21
3.219672203396846
 31
0.0
 12
1.90951442518562
 22
3.219672203396846
 32
0.0
 13
1.90951442518562
 23
3.219672203396846
 33
0.0
  0
SOLID
  5
C9
330
C5
100
AcDbEntity
  8
0
  6
Continuous
100
AcDbTrace
 10
-1.881186878287214
 20
3.286225296794519
 30
0.0
 11
-1.90951442518562
 21
3.286225296794519
 31
0.0
 12
-1.90951442518562
 22
3.219672203396846
 32
0.0
 13
-1.90951442518562
 23
3.219672203396846
 33
0.0
210
0.0
220
0.0
230
-1.0
  0
SOLID
  5
CA
330
C5
100
AcDbEntity
  8
0
  6
Continuous
100
AcDbTrace
 10
-1.881186878287213
 20
3.219672203396846
 30
0.0
 11
-1.90951442518562
 21
3.219672203396846
 31
0.0
 12
-1.881186878287213
 22
3.15944875009568
 32
0.0
 13
-1.881186878287213
 23
3.15944875009568
 33
0.0
210
0.0
220
0.0
230
-1.0
  0
LINE
  5
CB
330
C5
100
AcDbEntity
  8
0
  6
Continuous
100
AcDbLine
 10
1.881186878287215
 20
3.346448750095686
 30
0.0
 11
1.881186878287214
 21
3.286225296794519
 31
0.0
  0
LINE
  5
CC
330
C5
100
AcDbEntity
  8
0
  6
Continuous
100
AcDbLine
 10
1.90951442518562
 20
3.286225296794519
 30
0.0
 11
1.881186878287215
 21
3.346448750095686
 31
0.0
  0
LINE
  5
CD
330
C5
100
AcDbEntity
  8
0
  6
Continuous
100
AcDbLine
 10
1.881186878287214
 20
3.286225296794519
 30
0.0
 11
1.881186878287213
 21
3.219672203396846
 31
0.0
  0
LINE
  5
CE
330
C5
100
AcDbEntity
  8
0
  6
Continuous
100
AcDbLine
 10
1.90951442518562
 20
3.286225296794519
 30
0.0
 11
1.90951442518562
 21
3.219672203396846
 31
0.0
  0
LINE
  5
CF
330
C5
100
AcDbEntity
  8
0
  6
Continuous
100
AcDbLine
 10
1.90951442518562
 20
3.219672203396846
 30
0.0
 11
1.881186878287213
 21
3.15944875009568
 31
0.0
  0
LINE
  5
D0
330
C5
100
AcDbEntity
  8
0
  6
Continuous
100
AcDbLine
 10
1.881186878287213
 20
3.15944875009568
 30
0.0
 11
1.881186878287213
 21
3.219672203396846
 31
0.0
  0
ENDBLK
  5
D1
330
C5
100
AcDbEntity
  8
0
100
AcDbBlockEnd
  0
BLOCK
  5
F0
330
EF
100
AcDbEntity
  8
0
100
AcDbBlockBegin
  2
*D6
 70
     1
 10
0.0
 20
0.0
 30
0.0
  3
*D6
  1

  0
LINE
  5
F1
330
EF
100
AcDbEntity
  8
0
 62
     0
370
    -2
100
AcDbLine
 10
4070.845912596352
 20
4292.822603143706
 30
0.0
 11
4070.330254839054
 21
4292.822603143706
 31
0.0
  0
LINE
  5
F2
330
EF
100
AcDbEntity
  8
0
 62
     0
370
    -2
100
AcDbLine
 10
4070.90591259635
 20
4293.072603143706
 30
0.0
 11
4070.330254839054
 21
4293.072603143706
 31
0.0
  0
LINE
  5
F3
330
EF
100
AcDbEntity
  8
0
 62
     0
370
    -2
100
AcDbLine
 10
4070.360254839054
 20
4293.072603143706
 30
0.0
 11
4070.360254839054
 21
4292.822603143706
 31
0.0
  0
LINE
  5
F4
330
EF
100
AcDbEntity
  8
0
 62
     0
370
    -2
100
AcDbLine
 10
4070.360254839054
 20
4292.822603143706
 30
0.0
 11
4070.360254839054
 21
4292.666603143707
 31
0.0
  0
LINE
  5
F5
330
EF
100
AcDbEntity
  8
0
 62
     0
370
    -2
100
AcDbLine
 10
4070.360254839054
 20
4292.666603143707
 30
0.0
 11
4070.204254839054
 21
4292.666603143707
 31
0.0
  0
INSERT
  5
F6
330
EF
100
AcDbEntity
  8
0
 62
     0
370
    -2
100
AcDbBlockReference
  2
_ArchTick
 10
4070.360254839054
 20
4293.072603143706
 30
0.0
 41
0.156
 42
0.156
 43
0.156
 50
90.0
  0
INSERT
  5
F7
330
EF
100
AcDbEntity
  8
0
 62
     0
370
    -2
100
AcDbBlockReference
  2
_ArchTick
 10
4070.360254839054
 20
4292.822603143706
 30
0.0
 41
0.156
 42
0.156
 43
0.156
 50
270.0
  0
MTEXT
  5
F8
330
EF
100
AcDbEntity
  8
0
 62
     0
100
AcDbMText
 10
4069.744756411796
 20
4292.666603143707
 30
0.0
 40
0.3125
 41
0.0
 71
     5
 72
     1
  1
\A1;1/4"\P [6mm]
 73
     1
 44
1.0
1001
ACAD
1000
MTEXTBEGIN
1070
    73
1070
     1
1070
    44
1040
1.0
1070
    74
1070
     0
1000
MTEXTEND
  0
POINT
  5
F9
330
EF
100
AcDbEntity
  8
Defpoints
 62
     0
100
AcDbPoint
 10
4070.885912596351
 20
4292.822603143706
 30
0.0
  0
POINT
  5
FA
330
EF
100
AcDbEntity
  8
Defpoints
 62
     0
100
AcDbPoint
 10
4070.945912596349
 20
4293.072603143706
 30
0.0
  0
POINT
  5
FB
330
EF
100
AcDbEntity
  8
Defpoints
 62
     0
100
AcDbPoint
 10
4070.360254839054
 20
4293.072603143706
 30
0.0
  0
ENDBLK
  5
FC
330
EF
100
AcDbEntity
  8
0
100
AcDbBlockEnd
  0
BLOCK
  5
101
330
100
100
AcDbEntity
  8
0
100
AcDbBlockBegin
  2
*D7
 70
     1
 10
0.0
 20
0.0
 30
0.0
  3
*D7
  1

  0
LINE
  5
102
330
100
100
AcDbEntity
  8
0
 62
     0
370
    -2
100
AcDbLine
 10
4072.008912583583
 20
4287.719603143705
 30
0.0
 11
4072.008912583583
 21
4287.083819973243
 31
0.0
  0
LINE
  5
103
330
100
100
AcDbEntity
  8
0
 62
     0
370
    -2
100
AcDbLine
 10
4070.883912583582
 20
4287.719603143705
 30
0.0
 11
4070.883912583582
 21
4287.083819973243
 31
0.0
  0
LINE
  5
104
330
100
100
AcDbEntity
  8
0
 62
     0
370
    -2
100
AcDbLine
 10
4072.008912583583
 20
4287.113819973241
 30
0.0
 11
4071.8893508416
 21
4287.113819973241
 31
0.0
  0
LINE
  5
105
330
100
100
AcDbEntity
  8
0
 62
     0
370
    -2
100
AcDbLine
 10
4070.883912583582
 20
4287.113819973241
 30
0.0
 11
4071.003474325564
 21
4287.113819973241
 31
0.0
  0
INSERT
  5
106
330
100
100
AcDbEntity
  8
0
 62
     0
370
    -2
100
AcDbBlockReference
  2
_ArchTick
 10
4072.008912583583
 20
4287.113819973241
 30
0.0
 41
0.156
 42
0.156
 43
0.156
  0
INSERT
  5
107
330
100
100
AcDbEntity
  8
0
 62
     0
370
    -2
100
AcDbBlockReference
  2
_ArchTick
 10
4070.883912583582
 20
4287.113819973241
 30
0.0
 41
0.156
 42
0.156
 43
0.156
 50
180.0
  0
MTEXT
  5
108
330
100
100
AcDbEntity
  8
0
 62
     0
100
AcDbMText
 10
4071.446412583582
 20
4287.316164458784
 30
0.0
 40
0.3125
 41
0.0
 71
     5
 72
     1
  1
\A1;1 1/8"
 73
     1
 44
1.0
1001
ACAD
1000
MTEXTBEGIN
1070
    73
1070
     1
1070
    44
1040
1.0
1070
    74
1070
     0
1000
MTEXTEND
  0
MTEXT
  5
109
330
100
100
AcDbEntity
  8
0
 62
     0
100
AcDbMText
 10
4071.446412583582
 20
4286.893927572434
 30
0.0
 40
0.3125
 41
0.0
 71
     5
 72
     1
  1
\A1;[29mm]
 73
     1
 44
1.0
1001
ACAD
1000
MTEXTBEGIN
1070
    73
1070
     1
1070
    44
1040
1.0
1070
    74
1070
     0
1000
MTEXTEND
  0
POINT
  5
10A
330
100
100
AcDbEntity
  8
Defpoints
 62
     0
100
AcDbPoint
 10
4072.008912583583
 20
4287.759603143705
 30
0.0
  0
POINT
  5
10B
330
100
100
AcDbEntity
  8
Defpoints
 62
     0
100
AcDbPoint
 10
4070.883912583582
 20
4287.759603143705
 30
0.0
  0
POINT
  5
10C
330
100
100
AcDbEntity
  8
Defpoints
 62
     0
100
AcDbPoint
 10
4070.883912583582
 20
4287.113819973241
 30
0.0
  0
ENDBLK
  5
10D
330
100
100
AcDbEntity
  8
0
100
AcDbBlockEnd
  0
BLOCK
  5
132
330
131
100
AcDbEntity
  8
0
100
AcDbBlockBegin
  2
*D8
 70
     1
 10
0.0
 20
0.0
 30
0.0
  3
*D8
  1

  0
LINE
  5
133
330
131
100
AcDbEntity
  8
0
 62
     0
370
    -2
100
AcDbLine
 10
4073.757803189422
 20
4275.154682392153
 30
0.0
 11
4073.757803189422
 21
4272.566567226432
 31
0.0
  0
LINE
  5
134
330
131
100
AcDbEntity
  8
0
 62
     0
370
    -2
100
AcDbLine
 10
4083.134363157055
 20
4277.214723220384
 30
0.0
 11
4083.134363157055
 21
4272.566567226432
 31
0.0
  0
LINE
  5
135
330
131
100
AcDbEntity
  8
0
 62
     0
370
    -2
100
AcDbLine
 10
4073.757803189422
 20
4272.596567226432
 30
0.0
 11
4077.934823864231
 21
4272.596567226432
 31
0.0
  0
LINE
  5
136
330
131
100
AcDbEntity
  8
0
 62
     0
370
    -2
100
AcDbLine
 10
4083.134363157055
 20
4272.596567226432
 30
0.0
 11
4078.957342482246
 21
4272.596567226432
 31
0.0
  0
INSERT
  5
137
330
131
100
AcDbEntity
  8
0
 62
     0
370
    -2
100
AcDbBlockReference
  2
_ArchTick
 10
4073.757803189422
 20
4272.596567226432
 30
0.0
 41
0.156
 42
0.156
 43
0.156
 50
180.0
  0
INSERT
  5
138
330
131
100
AcDbEntity
  8
0
 62
     0
370
    -2
100
AcDbBlockReference
  2
_ArchTick
 10
4083.134363157055
 20
4272.596567226432
 30
0.0
 41
0.156
 42
0.156
 43
0.156
  0
MTEXT
  5
139
330
131
100
AcDbEntity
  8
0
 62
     0
100
AcDbMText
 10
4078.446083173239
 20
4272.798911711973
 30
0.0
 40
0.3125
 41
0.0
 71
     5
 72
     1
  1
\A1;9 3/8"
 73
     1
 44
1.0
1001
ACAD
1000
MTEXTBEGIN
1070
    73
1070
     1
1070
    44
1040
1.0
1070
    74
1070
     0
1000
MTEXTEND
  0
MTEXT
  5
13A
330
131
100
AcDbEntity
  8
0
 62
     0
100
AcDbMText
 10
4078.446083173239
 20
4272.376674825625
 30
0.0
 40
0.3125
 41
0.0
 71
     5
 72
     1
  1
\A1;[238mm]
 73
     1
 44
1.0
1001
ACAD
1000
MTEXTBEGIN
1070
    73
1070
     1
1070
    44
1040
1.0
1070
    74
1070
     0
1000
MTEXTEND
  0
POINT
  5
13B
330
131
100
AcDbEntity
  8
Defpoints
 62
     0
100
AcDbPoint
 10
4073.757803189422
 20
4275.194682392153
 30
0.0
  0
POINT
  5
13C
330
131
100
AcDbEntity
  8
Defpoints
 62
     0
100
AcDbPoint
 10
4083.134363157055
 20
4277.254723220384
 30
0.0
  0
POINT
  5
13D
330
131
100
AcDbEntity
  8
Defpoints
 62
     0
100
AcDbPoint
 10
4083.134363157055
 20
4272.596567226432
 30
0.0
  0
ENDBLK
  5
13E
330
131
100
AcDbEntity
  8
0
100
AcDbBlockEnd
  0
BLOCK
  5
160
330
15F
100
AcDbEntity
  8
0
100
AcDbBlockBegin
  2
*D9
 70
     1
 10
0.0
 20
0.0
 30
0.0
  3
*D9
  1

  0
LINE
  5
161
330
15F
100
AcDbEntity
  8
0
 62
     0
370
    -2
100
AcDbLine
 10
4080.748220722741
 20
4274.850497988649
 30
0.0
 11
4078.851470036627
 21
4274.850497988649
 31
0.0
  0
LINE
  5
162
330
15F
100
AcDbEntity
  8
0
 62
     0
370
    -2
100
AcDbLine
 10
4080.68572072274
 20
4274.35049798866
 30
0.0
 11
4078.851470036627
 21
4274.35049798866
 31
0.0
  0
LINE
  5
163
330
15F
100
AcDbEntity
  8
0
 62
     0
370
    -2
100
AcDbLine
 10
4078.881470036628
 20
4274.35049798866
 30
0.0
 11
4078.881470036628
 21
4274.850497988649
 31
0.0
  0
LINE
  5
164
330
15F
100
AcDbEntity
  8
0
 62
     0
370
    -2
100
AcDbLine
 10
4078.881470036628
 20
4274.850497988649
 30
0.0
 11
4078.881470036628
 21
4275.352019799051
 31
0.0
  0
LINE
  5
165
330
15F
100
AcDbEntity
  8
0
 62
     0
370
    -2
100
AcDbLine
 10
4078.881470036628
 20
4275.352019799051
 30
0.0
 11
4079.037470036627
 21
4275.352019799051
 31
0.0
  0
INSERT
  5
166
330
15F
100
AcDbEntity
  8
0
 62
     0
370
    -2
100
AcDbBlockReference
  2
_ArchTick
 10
4078.881470036628
 20
4274.35049798866
 30
0.0
 41
0.156
 42
0.156
 43
0.156
 50
270.0
  0
INSERT
  5
167
330
15F
100
AcDbEntity
  8
0
 62
     0
370
    -2
100
AcDbBlockReference
  2
_ArchTick
 10
4078.881470036628
 20
4274.850497988649
 30
0.0
 41
0.156
 42
0.156
 43
0.156
 50
90.0
  0
MTEXT
  5
168
330
15F
100
AcDbEntity
  8
0
 62
     0
100
AcDbMText
 10
4079.567995489775
 20
4275.352019799053
 30
0.0
 40
0.3125
 41
0.0
 71
     5
 72
     1
  1
\A1;1/2"\P [13mm]
 73
     1
 44
1.0
1001
ACAD
1000
MTEXTBEGIN
1070
    73
1070
     1
1070
    44
1040
1.0
1070
    74
1070
     0
1000
MTEXTEND
  0
POINT
  5
169
330
15F
100
AcDbEntity
  8
Defpoints
 62
     0
100
AcDbPoint
 10
4080.78822072274
 20
4274.850497988649
 30
0.0
  0
POINT
  5
16A
330
15F
100
AcDbEntity
  8
Defpoints
 62
     0
100
AcDbPoint
 10
4080.725720722741
 20
4274.35049798866
 30
0.0
  0
POINT
  5
16B
330
15F
100
AcDbEntity
  8
Defpoints
 62
     0
100
AcDbPoint
 10
4078.881470036628
 20
4274.35049798866
 30
0.0
  0
ENDBLK
  5
16C
330
15F
100
AcDbEntity
  8
0
100
AcDbBlockEnd
  0
BLOCK
  5
171
330
170
100
AcDbEntity
  8
0
100
AcDbBlockBegin
  2
*D10
 70
     1
 10
0.0
 20
0.0
 30
0.0
  3
*D10
  1

  0
LINE
  5
172
330
170
100
AcDbEntity
  8
0
 62
     0
370
    -2
100
AcDbLine
 10
4080.78822072274
 20
4274.37299798866
 30
0.0
 11
4080.78822072274
 21
4273.578568078304
 31
0.0
  0
LINE
  5
173
330
170
100
AcDbEntity
  8
0
 62
     0
370
    -2
100
AcDbLine
 10
4075.663220722741
 20
4274.37299798866
 30
0.0
 11
4075.663220722741
 21
4273.578568078304
 31
0.0
  0
LINE
  5
174
330
170
100
AcDbEntity
  8
0
 62
     0
370
    -2
100
AcDbLine
 10
4080.78822072274
 20
4273.608568078303
 30
0.0
 11
4078.736980031748
 21
4273.608568078303
 31
0.0
  0
LINE
  5
175
330
170
100
AcDbEntity
  8
0
 62
     0
370
    -2
100
AcDbLine
 10
4075.663220722741
 20
4273.608568078303
 30
0.0
 11
4077.714461413733
 21
4273.608568078303
 31
0.0
  0
INSERT
  5
176
330
170
100
AcDbEntity
  8
0
 62
     0
370
    -2
100
AcDbBlockReference
  2
_ArchTick
 10
4080.78822072274
 20
4273.608568078303
 30
0.0
 41
0.156
 42
0.156
 43
0.156
  0
INSERT
  5
177
330
170
100
AcDbEntity
  8
0
 62
     0
370
    -2
100
AcDbBlockReference
  2
_ArchTick
 10
4075.663220722741
 20
4273.608568078303
 30
0.0
 41
0.156
 42
0.156
 43
0.156
 50
180.0
  0
MTEXT
  5
178
330
170
100
AcDbEntity
  8
0
 62
     0
100
AcDbMText
 10
4078.22572072274
 20
4273.810912563845
 30
0.0
 40
0.3125
 41
0.0
 71
     5
 72
     1
  1
\A1;5 1/8"
 73
     1
 44
1.0
1001
ACAD
1000
MTEXTBEGIN
1070
    73
1070
     1
1070
    44
1040
1.0
1070
    74
1070
     0
1000
MTEXTEND
  0
MTEXT
  5
179
330
170
100
AcDbEntity
  8
0
 62
     0
100
AcDbMText
 10
4078.22572072274
 20
4273.388675677496
 30
0.0
 40
0.3125
 41
0.0
 71
     5
 72
     1
  1
\A1;[130mm]
 73
     1
 44
1.0
1001
ACAD
1000
MTEXTBEGIN
1070
    73
1070
     1
1070
    44
1040
1.0
1070
    74
1070
     0
1000
MTEXTEND
  0
POINT
  5
17A
330
170
100
AcDbEntity
  8
Defpoints
 62
     0
100
AcDbPoint
 10
4080.78822072274
 20
4274.41299798866
 30
0.0
  0
POINT
  5
17B
330
170
100
AcDbEntity
  8
Defpoints
 62
     0
100
AcDbPoint
 10
4075.663220722741
 20
4274.41299798866
 30
0.0
  0
POINT
  5
17C
330
170
100
AcDbEntity
  8
Defpoints
 62
     0
100
AcDbPoint
 10
4075.663220722741
 20
4273.608568078303
 30
0.0
  0
ENDBLK
  5
17D
330
170
100
AcDbEntity
  8
0
100
AcDbBlockEnd
  0
BLOCK
  5
183
330
182
100
AcDbEntity
  8
0
100
AcDbBlockBegin
  2
*D11
 70
     1
 10
0.0
 20
0.0
 30
0.0
  3
*D11
  1

  0
LINE
  5
184
330
182
100
AcDbEntity
  8
0
 62
     0
370
    -2
100
AcDbLine
 10
4076.22672073551
 20
4276.42124798866
 30
0.0
 11
4076.22672073551
 21
4277.014633533297
 31
0.0
  0
LINE
  5
185
330
182
100
AcDbEntity
  8
0
 62
     0
370
    -2
100
AcDbLine
 10
4080.22672073551
 20
4276.42124798866
 30
0.0
 11
4080.22672073551
 21
4277.014633533297
 31
0.0
  0
LINE
  5
186
330
182
100
AcDbEntity
  8
0
 62
     0
370
    -2
100
AcDbLine
 10
4076.22672073551
 20
4276.984633533298
 30
0.0
 11
4077.715461426503
 21
4276.984633533298
 31
0.0
  0
LINE
  5
187
330
182
100
AcDbEntity
  8
0
 62
     0
370
    -2
100
AcDbLine
 10
4080.22672073551
 20
4276.984633533298
 30
0.0
 11
4078.737980044517
 21
4276.984633533298
 31
0.0
  0
INSERT
  5
188
330
182
100
AcDbEntity
  8
0
 62
     0
370
    -2
100
AcDbBlockReference
  2
_ArchTick
 10
4076.22672073551
 20
4276.984633533298
 30
0.0
 41
0.156
 42
0.156
 43
0.156
 50
180.0
  0
INSERT
  5
189
330
182
100
AcDbEntity
  8
0
 62
     0
370
    -2
100
AcDbBlockReference
  2
_ArchTick
 10
4080.22672073551
 20
4276.984633533298
 30
0.0
 41
0.156
 42
0.156
 43
0.156
  0
MTEXT
  5
18A
330
182
100
AcDbEntity
  8
0
 62
     0
100
AcDbMText
 10
4078.22672073551
 20
4277.183930776068
 30
0.0
 40
0.3125
 41
0.0
 71
     5
 72
     1
  1
\A1;4"
 73
     1
 44
1.0
1001
ACAD
1000
MTEXTBEGIN
1070
    73
1070
     1
1070
    44
1040
1.0
1070
    74
1070
     0
1000
MTEXTEND
  0
MTEXT
  5
18B
330
182
100
AcDbEntity
  8
0
 62
     0
100
AcDbMText
 10
4078.22672073551
 20
4276.764741132491
 30
0.0
 40
0.3125
 41
0.0
 71
     5
 72
     1
  1
\A1;[102mm]
 73
     1
 44
1.0
1001
ACAD
1000
MTEXTBEGIN
1070
    73
1070
     1
1070
    44
1040
1.0
1070
    74
1070
     0
1000
MTEXTEND
  0
POINT
  5
18C
330
182
100
AcDbEntity
  8
Defpoints
 62
     0
100
AcDbPoint
 10
4076.22672073551
 20
4276.381247988661
 30
0.0
  0
POINT
  5
18D
330
182
100
AcDbEntity
  8
Defpoints
 62
     0
100
AcDbPoint
 10
4080.22672073551
 20
4276.381247988661
 30
0.0
  0
POINT
  5
18E
330
182
100
AcDbEntity
  8
Defpoints
 62
     0
100
AcDbPoint
 10
4080.22672073551
 20
4276.984633533298
 30
0.0
  0
ENDBLK
  5
18F
330
182
100
AcDbEntity
  8
0
100
AcDbBlockEnd
  0
BLOCK
  5
197
330
196
100
AcDbEntity
  8
0
100
AcDbBlockBegin
  2
*D12
 70
     1
 10
0.0
 20
0.0
 30
0.0
  3
*D12
  1

  0
LINE
  5
198
330
196
100
AcDbEntity
  8
0
 62
     0
370
    -2
100
AcDbLine
 10
4075.669246987087
 20
4281.730661437193
 30
0.0
 11
4075.669246987087
 21
4282.428467261449
 31
0.0
  0
LINE
  5
199
330
196
100
AcDbEntity
  8
0
 62
     0
370
    -2
100
AcDbLine
 10
4080.788220735509
 20
4281.703997988661
 30
0.0
 11
4080.788220735509
 21
4282.428467261449
 31
0.0
  0
LINE
  5
19A
330
196
100
AcDbEntity
  8
0
 62
     0
370
    -2
100
AcDbLine
 10
4075.669246987087
 20
4282.398467261448
 30
0.0
 11
4077.717474552291
 21
4282.398467261448
 31
0.0
  0
LINE
  5
19B
330
196
100
AcDbEntity
  8
0
 62
     0
370
    -2
100
AcDbLine
 10
4080.788220735509
 20
4282.398467261448
 30
0.0
 11
4078.739993170305
 21
4282.398467261448
 31
0.0
  0
INSERT
  5
19C
330
196
100
AcDbEntity
  8
0
 62
     0
370
    -2
100
AcDbBlockReference
  2
_ArchTick
 10
4075.669246987087
 20
4282.398467261448
 30
0.0
 41
0.156
 42
0.156
 43
0.156
 50
180.0
  0
INSERT
  5
19D
330
196
100
AcDbEntity
  8
0
 62
     0
370
    -2
100
AcDbBlockReference
  2
_ArchTick
 10
4080.788220735509
 20
4282.398467261448
 30
0.0
 41
0.156
 42
0.156
 43
0.156
  0
MTEXT
  5
19E
330
196
100
AcDbEntity
  8
0
 62
     0
100
AcDbMText
 10
4078.228733861298
 20
4282.60081174699
 30
0.0
 40
0.3125
 41
0.0
 71
     5
 72
     1
  1
\A1;5 1/8"
 73
     1
 44
1.0
1001
ACAD
1000
MTEXTBEGIN
1070
    73
1070
     1
1070
    44
1040
1.0
1070
    74
1070
     0
1000
MTEXTEND
  0
MTEXT
  5
19F
330
196
100
AcDbEntity
  8
0
 62
     0
100
AcDbMText
 10
4078.228733861298
 20
4282.178574860641
 30
0.0
 40
0.3125
 41
0.0
 71
     5
 72
     1
  1
\A1;[130mm]
 73
     1
 44
1.0
1001
ACAD
1000
MTEXTBEGIN
1070
    73
1070
     1
1070
    44
1040
1.0
1070
    74
1070
     0
1000
MTEXTEND
  0
POINT
  5
1A0
330
196
100
AcDbEntity
  8
Defpoints
 62
     0
100
AcDbPoint
 10
4075.669246987087
 20
4281.690661437194
 30
0.0
  0
POINT
  5
1A1
330
196
100
AcDbEntity
  8
Defpoints
 62
     0
100
AcDbPoint
 10
4080.788220735509
 20
4281.663997988661
 30
0.0
  0
POINT
  5
1A2
330
196
100
AcDbEntity
  8
Defpoints
 62
     0
100
AcDbPoint
 10
4080.788220735509
 20
4282.398467261448
 30
0.0
  0
ENDBLK
  5
1A3
330
196
100
AcDbEntity
  8
0
100
AcDbBlockEnd
  0
BLOCK
  5
1A8
330
1A7
100
AcDbEntity
  8
0
100
AcDbBlockBegin
  2
*D13
 70
     1
 10
0.0
 20
0.0
 30
0.0
  3
*D13
  1

  0
LINE
  5
1A9
330
1A7
100
AcDbEntity
  8
0
 62
     0
370
    -2
100
AcDbLine
 10
4075.623220735509
 20
4281.47599798866
 30
0.0
 11
4075.227731363333
 21
4281.47599798866
 31
0.0
  0
LINE
  5
1AA
330
1A7
100
AcDbEntity
  8
0
 62
     0
370
    -2
100
AcDbLine
 10
4075.685220735507
 20
4281.725997988659
 30
0.0
 11
4075.227731363333
 21
4281.725997988659
 31
0.0
  0
LINE
  5
1AB
330
1A7
100
AcDbEntity
  8
0
 62
     0
370
    -2
100
AcDbLine
 10
4075.257731363333
 20
4281.725997988659
 30
0.0
 11
4075.257731363333
 21
4281.47599798866
 31
0.0
  0
LINE
  5
1AC
330
1A7
100
AcDbEntity
  8
0
 62
     0
370
    -2
100
AcDbLine
 10
4075.257731363333
 20
4281.47599798866
 30
0.0
 11
4075.257731363333
 21
4281.24357248832
 31
0.0
  0
LINE
  5
1AD
330
1A7
100
AcDbEntity
  8
0
 62
     0
370
    -2
100
AcDbLine
 10
4075.257731363333
 20
4281.24357248832
 30
0.0
 11
4075.101731363332
 21
4281.24357248832
 31
0.0
  0
INSERT
  5
1AE
330
1A7
100
AcDbEntity
  8
0
 62
     0
370
    -2
100
AcDbBlockReference
  2
_ArchTick
 10
4075.257731363333
 20
4281.725997988659
 30
0.0
 41
0.156
 42
0.156
 43
0.156
 50
90.0
  0
INSERT
  5
1AF
330
1A7
100
AcDbEntity
  8
0
 62
     0
370
    -2
100
AcDbBlockReference
  2
_ArchTick
 10
4075.257731363333
 20
4281.47599798866
 30
0.0
 41
0.156
 42
0.156
 43
0.156
 50
270.0
  0
MTEXT
  5
1B0
330
1A7
100
AcDbEntity
  8
0
 62
     0
100
AcDbMText
 10
4074.642232936075
 20
4281.24357248832
 30
0.0
 40
0.3125
 41
0.0
 71
     5
 72
     1
  1
\A1;1/4"\P [6mm]
 73
     1
 44
1.0
1001
ACAD
1000
MTEXTBEGIN
1070
    73
1070
     1
1070
    44
1040
1.0
1070
    74
1070
     0
1000
MTEXTEND
  0
POINT
  5
1B1
330
1A7
100
AcDbEntity
  8
Defpoints
 62
     0
100
AcDbPoint
 10
4075.663220735509
 20
4281.47599798866
 30
0.0
  0
POINT
  5
1B2
330
1A7
100
AcDbEntity
  8
Defpoints
 62
     0
100
AcDbPoint
 10
4075.725220735507
 20
4281.725997988659
 30
0.0
  0
POINT
  5
1B3
330
1A7
100
AcDbEntity
  8
Defpoints
 62
     0
100
AcDbPoint
 10
4075.257731363333
 20
4281.725997988659
 30
0.0
  0
ENDBLK
  5
1B4
330
1A7
100
AcDbEntity
  8
0
100
AcDbBlockEnd
  0
BLOCK
  5
230
330
22F
100
AcDbEntity
  8
0
100
AcDbBlockBegin
  2
*D14
 70
     1
 10
0.0
 20
0.0
 30
0.0
  3
*D14
  1

  0
LINE
  5
231
330
22F
100
AcDbEntity
  8
0
 62
     0
370
    -2
100
AcDbLine
 10
4070.883912596352
 20
4293.050603143708
 30
0.0
 11
4070.883912596352
 21
4293.615918695293
 31
0.0
  0
LINE
  5
232
330
22F
100
AcDbEntity
  8
0
 62
     0
370
    -2
100
AcDbLine
 10
4072.008912596351
 20
4293.050603143708
 30
0.0
 11
4072.008912596351
 21
4293.615918695293
 31
0.0
  0
LINE
  5
233
330
22F
100
AcDbEntity
  8
0
 62
     0
370
    -2
100
AcDbLine
 10
4070.883912596352
 20
4293.585918695293
 30
0.0
 11
4071.003474338334
 21
4293.585918695293
 31
0.0
  0
LINE
  5
234
330
22F
100
AcDbEntity
  8
0
 62
     0
370
    -2
100
AcDbLine
 10
4072.008912596351
 20
4293.585918695293
 30
0.0
 11
4071.88935085437
 21
4293.585918695293
 31
0.0
  0
INSERT
  5
235
330
22F
100
AcDbEntity
  8
0
 62
     0
370
    -2
100
AcDbBlockReference
  2
_ArchTick
 10
4070.883912596352
 20
4293.585918695293
 30
0.0
 41
0.156
 42
0.156
 43
0.156
 50
180.0
  0
INSERT
  5
236
330
22F
100
AcDbEntity
  8
0
 62
     0
370
    -2
100
AcDbBlockReference
  2
_ArchTick
 10
4072.008912596351
 20
4293.585918695293
 30
0.0
 41
0.156
 42
0.156
 43
0.156
  0
MTEXT
  5
237
330
22F
100
AcDbEntity
  8
0
 62
     0
100
AcDbMText
 10
4071.446412596351
 20
4293.788263180834
 30
0.0
 40
0.3125
 41
0.0
 71
     5
 72
     1
  1
\A1;1 1/8"
 73
     1
 44
1.0
1001
ACAD
1000
MTEXTBEGIN
1070
    73
1070
     1
1070
    44
1040
1.0
1070
    74
1070
     0
1000
MTEXTEND
  0
MTEXT
  5
238
330
22F
100
AcDbEntity
  8
0
 62
     0
100
AcDbMText
 10
4071.446412596351
 20
4293.366026294486
 30
0.0
 40
0.3125
 41
0.0
 71
     5
 72
     1
  1
\A1;[29mm]
 73
     1
 44
1.0
1001
ACAD
1000
MTEXTBEGIN
1070
    73
1070
     1
1070
    44
1040
1.0
1070
    74
1070
     0
1000
MTEXTEND
  0
POINT
  5
239
330
22F
100
AcDbEntity
  8
Defpoints
 62
     0
100
AcDbPoint
 10
4070.883912596352
 20
4293.010603143708
 30
0.0
  0
POINT
  5
23A
330
22F
100
AcDbEntity
  8
Defpoints
 62
     0
100
AcDbPoint
 10
4072.008912596351
 20
4293.010603143708
 30
0.0
  0
POINT
  5
23B
330
22F
100
AcDbEntity
  8
Defpoints
 62
     0
100
AcDbPoint
 10
4072.008912596351
 20
4293.585918695293
 30
0.0
  0
ENDBLK
  5
23C
330
22F
100
AcDbEntity
  8
0
100
AcDbBlockEnd
  0
BLOCK
  5
241
330
240
100
AcDbEntity
  8
0
100
AcDbBlockBegin
  2
*D15
 70
     1
 10
0.0
 20
0.0
 30
0.0
  3
*D15
  1

  0
LINE
  5
242
330
240
100
AcDbEntity
  8
0
 62
     0
370
    -2
100
AcDbLine
 10
4070.843912583582
 20
4288.197103143706
 30
0.0
 11
4070.288292654844
 21
4288.197103143706
 31
0.0
  0
LINE
  5
243
330
240
100
AcDbEntity
  8
0
 62
     0
370
    -2
100
AcDbLine
 10
4070.906412583582
 20
4287.697103143705
 30
0.0
 11
4070.288292654844
 21
4287.697103143705
 31
0.0
  0
LINE
  5
244
330
240
100
AcDbEntity
  8
0
 62
     0
370
    -2
100
AcDbLine
 10
4070.318292654845
 20
4288.197103143706
 30
0.0
 11
4070.318292654845
 21
4287.697103143705
 31
0.0
  0
LINE
  5
245
330
240
100
AcDbEntity
  8
0
 62
     0
370
    -2
100
AcDbLine
 10
4070.318292654845
 20
4287.697103143705
 30
0.0
 11
4070.318292654845
 21
4287.541103143706
 31
0.0
  0
LINE
  5
246
330
240
100
AcDbEntity
  8
0
 62
     0
370
    -2
100
AcDbLine
 10
4070.318292654845
 20
4287.541103143706
 30
0.0
 11
4070.162292654845
 21
4287.541103143706
 31
0.0
  0
INSERT
  5
247
330
240
100
AcDbEntity
  8
0
 62
     0
370
    -2
100
AcDbBlockReference
  2
_ArchTick
 10
4070.318292654845
 20
4288.197103143706
 30
0.0
 41
0.156
 42
0.156
 43
0.156
 50
90.0
  0
INSERT
  5
248
330
240
100
AcDbEntity
  8
0
 62
     0
370
    -2
100
AcDbBlockReference
  2
_ArchTick
 10
4070.318292654845
 20
4287.697103143705
 30
0.0
 41
0.156
 42
0.156
 43
0.156
 50
270.0
  0
MTEXT
  5
249
330
240
100
AcDbEntity
  8
0
 62
     0
100
AcDbMText
 10
4069.722060371729
 20
4287.743447629249
 30
0.0
 40
0.3125
 41
0.0
 71
     5
 72
     1
  1
\A1;1/2"
 73
     1
 44
1.0
1001
ACAD
1000
MTEXTBEGIN
1070
    73
1070
     1
1070
    44
1040
1.0
1070
    74
1070
     0
1000
MTEXTEND
  0
MTEXT
  5
24A
330
240
100
AcDbEntity
  8
0
 62
     0
100
AcDbMText
 10
4069.722060371729
 20
4287.321210742899
 30
0.0
 40
0.3125
 41
0.0
 71
     5
 72
     1
  1
\A1;[13mm]
 73
     1
 44
1.0
1001
ACAD
1000
MTEXTBEGIN
1070
    73
1070
     1
1070
    44
1040
1.0
1070
    74
1070
     0
1000
MTEXTEND
  0
POINT
  5
24B
330
240
100
AcDbEntity
  8
Defpoints
 62
     0
100
AcDbPoint
 10
4070.883912583582
 20
4288.197103143706
 30
0.0
  0
POINT
  5
24C
330
240
100
AcDbEntity
  8
Defpoints
 62
     0
100
AcDbPoint
 10
4070.946412583583
 20
4287.697103143705
 30
0.0
  0
POINT
  5
24D
330
240
100
AcDbEntity
  8
Defpoints
 62
     0
100
AcDbPoint
 10
4070.318292654845
 20
4287.697103143705
 30
0.0
  0
ENDBLK
  5
24E
330
240
100
AcDbEntity
  8
0
100
AcDbBlockEnd
  0
BLOCK
  5
298
330
297
100
AcDbEntity
  8
0
100
AcDbBlockBegin
  2
*D16
 70
     1
 10
0.0
 20
0.0
 30
0.0
  3
*D16
  1

  0
LINE
  5
299
330
297
100
AcDbEntity
  8
0
 62
     0
370
    -2
100
AcDbLine
 10
4083.585182886926
 20
4288.197103143706
 30
0.0
 11
4083.064682439355
 21
4288.197103143706
 31
0.0
  0
LINE
  5
29A
330
297
100
AcDbEntity
  8
0
 62
     0
370
    -2
100
AcDbLine
 10
4083.647682886925
 20
4287.697103143705
 30
0.0
 11
4083.064682439355
 21
4287.697103143705
 31
0.0
  0
LINE
  5
29B
330
297
100
AcDbEntity
  8
0
 62
     0
370
    -2
100
AcDbLine
 10
4083.094682439354
 20
4288.197103143706
 30
0.0
 11
4083.094682439354
 21
4287.697103143705
 31
0.0
  0
LINE
  5
29C
330
297
100
AcDbEntity
  8
0
 62
     0
370
    -2
100
AcDbLine
 10
4083.094682439354
 20
4287.697103143705
 30
0.0
 11
4083.094682439354
 21
4287.541103143706
 31
0.0
  0
LINE
  5
29D
330
297
100
AcDbEntity
  8
0
 62
     0
370
    -2
100
AcDbLine
 10
4083.094682439354
 20
4287.541103143706
 30
0.0
 11
4082.938682439355
 21
4287.541103143706
 31
0.0
  0
INSERT
  5
29E
330
297
100
AcDbEntity
  8
0
 62
     0
370
    -2
100
AcDbBlockReference
  2
_ArchTick
 10
4083.094682439354
 20
4288.197103143706
 30
0.0
 41
0.156
 42
0.156
 43
0.156
 50
90.0
  0
INSERT
  5
29F
330
297
100
AcDbEntity
  8
0
 62
     0
370
    -2
100
AcDbBlockReference
  2
_ArchTick
 10
4083.094682439354
 20
4287.697103143705
 30
0.0
 41
0.156
 42
0.156
 43
0.156
 50
270.0
  0
MTEXT
  5
2A0
330
297
100
AcDbEntity
  8
0
 62
     0
100
AcDbMText
 10
4082.498450156239
 20
4287.743447629249
 30
0.0
 40
0.3125
 41
0.0
 71
     5
 72
     1
  1
\A1;1/2"
 73
     1
 44
1.0
1001
ACAD
1000
MTEXTBEGIN
1070
    73
1070
     1
1070
    44
1040
1.0
1070
    74
1070
     0
1000
MTEXTEND
  0
MTEXT
  5
2A1
330
297
100
AcDbEntity
  8
0
 62
     0
100
AcDbMText
 10
4082.498450156239
 20
4287.321210742899
 30
0.0
 40
0.3125
 41
0.0
 71
     5
 72
     1
  1
\A1;[13mm]
 73
     1
 44
1.0
1001
ACAD
1000
MTEXTBEGIN
1070
    73
1070
     1
1070
    44
1040
1.0
1070
    74
1070
     0
1000
MTEXTEND
  0
POINT
  5
2A2
330
297
100
AcDbEntity
  8
Defpoints
 62
     0
100
AcDbPoint
 10
4083.625182886925
 20
4288.197103143706
 30
0.0
  0
POINT
  5
2A3
330
297
100
AcDbEntity
  8
Defpoints
 62
     0
100
AcDbPoint
 10
4083.687682886925
 20
4287.697103143705
 30
0.0
  0
POINT
  5
2A4
330
297
100
AcDbEntity
  8
Defpoints
 62
     0
100
AcDbPoint
 10
4083.094682439354
 20
4287.697103143705
 30
0.0
  0
ENDBLK
  5
2A5
330
297
100
AcDbEntity
  8
0
100
AcDbBlockEnd
  0
BLOCK
  5
2AA
330
2A9
100
AcDbEntity
  8
0
100
AcDbBlockBegin
  2
*D17
 70
     1
 10
0.0
 20
0.0
 30
0.0
  3
*D17
  1

  0
LINE
  5
2AB
330
2A9
100
AcDbEntity
  8
0
 62
     0
370
    -2
100
AcDbLine
 10
4083.625182886925
 20
4287.719603143705
 30
0.0
 11
4083.625182886925
 21
4286.492234923929
 31
0.0
  0
LINE
  5
2AC
330
2A9
100
AcDbEntity
  8
0
 62
     0
370
    -2
100
AcDbLine
 10
4085.437682886925
 20
4287.719603143705
 30
0.0
 11
4085.437682886925
 21
4286.492234923929
 31
0.0
  0
LINE
  5
2AD
330
2A9
100
AcDbEntity
  8
0
 62
     0
370
    -2
100
AcDbLine
 10
4083.625182886925
 20
4286.522234923928
 30
0.0
 11
4083.946440577125
 21
4286.522234923928
 31
0.0
  0
LINE
  5
2AE
330
2A9
100
AcDbEntity
  8
0
 62
     0
370
    -2
100
AcDbLine
 10
4085.437682886925
 20
4286.522234923928
 30
0.0
 11
4085.116425196726
 21
4286.522234923928
 31
0.0
  0
INSERT
  5
2AF
330
2A9
100
AcDbEntity
  8
0
 62
     0
370
    -2
100
AcDbBlockReference
  2
_ArchTick
 10
4083.625182886925
 20
4286.522234923928
 30
0.0
 41
0.156
 42
0.156
 43
0.156
 50
180.0
  0
INSERT
  5
2B0
330
2A9
100
AcDbEntity
  8
0
 62
     0
370
    -2
100
AcDbBlockReference
  2
_ArchTick
 10
4085.437682886925
 20
4286.522234923928
 30
0.0
 41
0.156
 42
0.156
 43
0.156
  0
MTEXT
  5
2B1
330
2A9
100
AcDbEntity
  8
0
 62
     0
100
AcDbMText
 10
4084.531432886925
 20
4286.72457940947
 30
0.0
 40
0.3125
 41
0.0
 71
     5
 72
     1
  1
\A1;1 13/16"
 73
     1
 44
1.0
1001
ACAD
1000
MTEXTBEGIN
1070
    73
1070
     1
1070
    44
1040
1.0
1070
    74
1070
     0
1000
MTEXTEND
  0
MTEXT
  5
2B2
330
2A9
100
AcDbEntity
  8
0
 62
     0
100
AcDbMText
 10
4084.531432886925
 20
4286.302342523121
 30
0.0
 40
0.3125
 41
0.0
 71
     5
 72
     1
  1
\A1;[46mm]
 73
     1
 44
1.0
1001
ACAD
1000
MTEXTBEGIN
1070
    73
1070
     1
1070
    44
1040
1.0
1070
    74
1070
     0
1000
MTEXTEND
  0
POINT
  5
2B3
330
2A9
100
AcDbEntity
  8
Defpoints
 62
     0
100
AcDbPoint
 10
4083.625182886925
 20
4287.759603143705
 30
0.0
  0
POINT
  5
2B4
330
2A9
100
AcDbEntity
  8
Defpoints
 62
     0
100
AcDbPoint
 10
4085.437682886925
 20
4287.759603143705
 30
0.0
  0
POINT
  5
2B5
330
2A9
100
AcDbEntity
  8
Defpoints
 62
     0
100
AcDbPoint
 10
4085.437682886925
 20
4286.522234923928
 30
0.0
  0
ENDBLK
  5
2B6
330
2A9
100
AcDbEntity
  8
0
100
AcDbBlockEnd
  0
BLOCK
  5
2BB
330
2BA
100
AcDbEntity
  8
0
100
AcDbBlockBegin
  2
*D18
 70
     1
 10
0.0
 20
0.0
 30
0.0
  3
*D18
  1

  0
LINE
  5
2BC
330
2BA
100
AcDbEntity
  8
0
 62
     0
370
    -2
100
AcDbLine
 10
4084.188682899696
 20
4288.219603143701
 30
0.0
 11
4084.188682899696
 21
4287.33946958994
 31
0.0
  0
LINE
  5
2BD
330
2BA
100
AcDbEntity
  8
0
 62
     0
370
    -2
100
AcDbLine
 10
4084.876182899695
 20
4288.219603143701
 30
0.0
 11
4084.876182899695
 21
4287.33946958994
 31
0.0
  0
LINE
  5
2BE
330
2BA
100
AcDbEntity
  8
0
 62
     0
370
    -2
100
AcDbLine
 10
4084.188682899696
 20
4287.36946958994
 30
0.0
 11
4084.876182899695
 21
4287.36946958994
 31
0.0
  0
LINE
  5
2BF
330
2BA
100
AcDbEntity
  8
0
 62
     0
370
    -2
100
AcDbLine
 10
4084.876182899695
 20
4287.36946958994
 30
0.0
 11
4085.620271510603
 21
4287.36946958994
 31
0.0
  0
INSERT
  5
2C0
330
2BA
100
AcDbEntity
  8
0
 62
     0
370
    -2
100
AcDbBlockReference
  2
_ArchTick
 10
4084.188682899696
 20
4287.36946958994
 30
0.0
 41
0.156
 42
0.156
 43
0.156
 50
180.0
  0
INSERT
  5
2C1
330
2BA
100
AcDbEntity
  8
0
 62
     0
370
    -2
100
AcDbBlockReference
  2
_ArchTick
 10
4084.876182899695
 20
4287.36946958994
 30
0.0
 41
0.156
 42
0.156
 43
0.156
  0
MTEXT
  5
2C2
330
2BA
100
AcDbEntity
  8
0
 62
     0
100
AcDbMText
 10
4086.150796963752
 20
4287.36946958994
 30
0.0
 40
0.3125
 41
0.0
 71
     5
 72
     1
  1
\A1;11/16"\P [17mm]
 73
     1
 44
1.0
1001
ACAD
1000
MTEXTBEGIN
1070
    73
1070
     1
1070
    44
1040
1.0
1070
    74
1070
     0
1000
MTEXTEND
  0
POINT
  5
2C3
330
2BA
100
AcDbEntity
  8
Defpoints
 62
     0
100
AcDbPoint
 10
4084.188682899696
 20
4288.259603143702
 30
0.0
  0
POINT
  5
2C4
330
2BA
100
AcDbEntity
  8
Defpoints
 62
     0
100
AcDbPoint
 10
4084.876182899695
 20
4288.259603143702
 30
0.0
  0
POINT
  5
2C5
330
2BA
100
AcDbEntity
  8
Defpoints
 62
     0
100
AcDbPoint
 10
4084.876182899695
 20
4287.36946958994
 30
0.0
  0
ENDBLK
  5
2C6
330
2BA
100
AcDbEntity
  8
0
100
AcDbBlockEnd
  0
BLOCK
  5
2CB
330
2CA
100
AcDbEntity
  8
0
100
AcDbBlockBegin
  2
*D19
 70
     1
 10
0.0
 20
0.0
 30
0.0
  3
*D19
  1

  0
LINE
  5
2CC
330
2CA
100
AcDbEntity
  8
0
 62
     0
370
    -2
100
AcDbLine
 10
4083.647182899693
 20
4293.072603143706
 30
0.0
 11
4083.154564880488
 21
4293.072603143706
 31
0.0
  0
LINE
  5
2CD
330
2CA
100
AcDbEntity
  8
0
 62
     0
370
    -2
100
AcDbLine
 10
4083.587182899695
 20
4292.822603143706
 30
0.0
 11
4083.154564880488
 21
4292.822603143706
 31
0.0
  0
LINE
  5
2CE
330
2CA
100
AcDbEntity
  8
0
 62
     0
370
    -2
100
AcDbLine
 10
4083.184564880489
 20
4293.072603143706
 30
0.0
 11
4083.184564880489
 21
4292.822603143706
 31
0.0
  0
LINE
  5
2CF
330
2CA
100
AcDbEntity
  8
0
 62
     0
370
    -2
100
AcDbLine
 10
4083.184564880489
 20
4292.822603143706
 30
0.0
 11
4083.184564880489
 21
4292.666603143707
 31
0.0
  0
LINE
  5
2D0
330
2CA
100
AcDbEntity
  8
0
 62
     0
370
    -2
100
AcDbLine
 10
4083.184564880489
 20
4292.666603143707
 30
0.0
 11
4083.028564880488
 21
4292.666603143707
 31
0.0
  0
INSERT
  5
2D1
330
2CA
100
AcDbEntity
  8
0
 62
     0
370
    -2
100
AcDbBlockReference
  2
_ArchTick
 10
4083.184564880489
 20
4293.072603143706
 30
0.0
 41
0.156
 42
0.156
 43
0.156
 50
90.0
  0
INSERT
  5
2D2
330
2CA
100
AcDbEntity
  8
0
 62
     0
370
    -2
100
AcDbBlockReference
  2
_ArchTick
 10
4083.184564880489
 20
4292.822603143706
 30
0.0
 41
0.156
 42
0.156
 43
0.156
 50
270.0
  0
MTEXT
  5
2D3
330
2CA
100
AcDbEntity
  8
0
 62
     0
100
AcDbMText
 10
4082.659359623263
 20
4292.868947629248
 30
0.0
 40
0.3125
 41
0.0
 71
     5
 72
     1
  1
\A1;1/4"
 73
     1
 44
1.0
1001
ACAD
1000
MTEXTBEGIN
1070
    73
1070
     1
1070
    44
1040
1.0
1070
    74
1070
     0
1000
MTEXTEND
  0
MTEXT
  5
2D4
330
2CA
100
AcDbEntity
  8
0
 62
     0
100
AcDbMText
 10
4082.659359623263
 20
4292.4467107429
 30
0.0
 40
0.3125
 41
0.0
 71
     5
 72
     1
  1
\A1;[6mm]
 73
     1
 44
1.0
1001
ACAD
1000
MTEXTBEGIN
1070
    73
1070
     1
1070
    44
1040
1.0
1070
    74
1070
     0
1000
MTEXTEND
  0
POINT
  5
2D5
330
2CA
100
AcDbEntity
  8
Defpoints
 62
     0
100
AcDbPoint
 10
4083.687182899693
 20
4293.072603143706
 30
0.0
  0
POINT
  5
2D6
330
2CA
100
AcDbEntity
  8
Defpoints
 62
     0
100
AcDbPoint
 10
4083.627182899696
 20
4292.822603143706
 30
0.0
  0
POINT
  5
2D7
330
2CA
100
AcDbEntity
  8
Defpoints
 62
     0
100
AcDbPoint
 10
4083.184564880489
 20
4292.822603143706
 30
0.0
  0
ENDBLK
  5
2D8
330
2CA
100
AcDbEntity
  8
0
100
AcDbBlockEnd
  0
BLOCK
  5
2DD
330
2DC
100
AcDbEntity
  8
0
100
AcDbBlockBegin
  2
*D20
 70
     1
 10
0.0
 20
0.0
 30
0.0
  3
*D20
  1

  0
LINE
  5
2DE
330
2DC
100
AcDbEntity
  8
0
 62
     0
370
    -2
100
AcDbLine
 10
4083.625182899695
 20
4293.050603143708
 30
0.0
 11
4083.625182899695
 21
4293.605136035213
 31
0.0
  0
LINE
  5
2DF
330
2DC
100
AcDbEntity
  8
0
 62
     0
370
    -2
100
AcDbLine
 10
4085.437682899695
 20
4293.050603143708
 30
0.0
 11
4085.437682899695
 21
4293.605136035213
 31
0.0
  0
LINE
  5
2E0
330
2DC
100
AcDbEntity
  8
0
 62
     0
370
    -2
100
AcDbLine
 10
4083.625182899695
 20
4293.575136035214
 30
0.0
 11
4083.946440589895
 21
4293.575136035214
 31
0.0
  0
LINE
  5
2E1
330
2DC
100
AcDbEntity
  8
0
 62
     0
370
    -2
100
AcDbLine
 10
4085.437682899695
 20
4293.575136035214
 30
0.0
 11
4085.116425209495
 21
4293.575136035214
 31
0.0
  0
INSERT
  5
2E2
330
2DC
100
AcDbEntity
  8
0
 62
     0
370
    -2
100
AcDbBlockReference
  2
_ArchTick
 10
4083.625182899695
 20
4293.575136035214
 30
0.0
 41
0.156
 42
0.156
 43
0.156
 50
180.0
  0
INSERT
  5
2E3
330
2DC
100
AcDbEntity
  8
0
 62
     0
370
    -2
100
AcDbBlockReference
  2
_ArchTick
 10
4085.437682899695
 20
4293.575136035214
 30
0.0
 41
0.156
 42
0.156
 43
0.156
  0
MTEXT
  5
2E4
330
2DC
100
AcDbEntity
  8
0
 62
     0
100
AcDbMText
 10
4084.531432899694
 20
4293.777480520755
 30
0.0
 40
0.3125
 41
0.0
 71
     5
 72
     1
  1
\A1;1 13/16"
 73
     1
 44
1.0
1001
ACAD
1000
MTEXTBEGIN
1070
    73
1070
     1
1070
    44
1040
1.0
1070
    74
1070
     0
1000
MTEXTEND
  0
MTEXT
  5
2E5
330
2DC
100
AcDbEntity
  8
0
 62
     0
100
AcDbMText
 10
4084.531432899694
 20
4293.355243634407
 30
0.0
 40
0.3125
 41
0.0
 71
     5
 72
     1
  1
\A1;[46mm]
 73
     1
 44
1.0
1001
ACAD
1000
MTEXTBEGIN
1070
    73
1070
     1
1070
    44
1040
1.0
1070
    74
1070
     0
1000
MTEXTEND
  0
POINT
  5
2E6
330
2DC
100
AcDbEntity
  8
Defpoints
 62
     0
100
AcDbPoint
 10
4083.625182899695
 20
4293.010603143708
 30
0.0
  0
POINT
  5
2E7
330
2DC
100
AcDbEntity
  8
Defpoints
 62
     0
100
AcDbPoint
 10
4085.437682899695
 20
4293.010603143708
 30
0.0
  0
POINT
  5
2E8
330
2DC
100
AcDbEntity
  8
Defpoints
 62
     0
100
AcDbPoint
 10
4085.437682899695
 20
4293.575136035214
 30
0.0
  0
ENDBLK
  5
2E9
330
2DC
100
AcDbEntity
  8
0
100
AcDbBlockEnd
  0
BLOCK
  5
2EE
330
2ED
100
AcDbEntity
  8
0
100
AcDbBlockBegin
  2
*D21
 70
     1
 10
0.0
 20
0.0
 30
0.0
  3
*D21
  1

  0
LINE
  5
2EF
330
2ED
100
AcDbEntity
  8
0
 62
     0
370
    -2
100
AcDbLine
 10
4081.719765353607
 20
4288.501287547198
 30
0.0
 11
4081.719765353607
 21
4285.3770256592
 31
0.0
  0
LINE
  5
2F0
330
2ED
100
AcDbEntity
  8
0
 62
     0
370
    -2
100
AcDbLine
 10
4087.78382532124
 20
4290.561328375441
 30
0.0
 11
4087.78382532124
 21
4285.3770256592
 31
0.0
  0
LINE
  5
2F1
330
2ED
100
AcDbEntity
  8
0
 62
     0
370
    -2
100
AcDbLine
 10
4081.719765353607
 20
4285.4070256592
 30
0.0
 11
4084.233110795017
 21
4285.4070256592
 31
0.0
  0
LINE
  5
2F2
330
2ED
100
AcDbEntity
  8
0
 62
     0
370
    -2
100
AcDbLine
 10
4087.78382532124
 20
4285.4070256592
 30
0.0
 11
4085.270479879829
 21
4285.4070256592
 31
0.0
  0
INSERT
  5
2F3
330
2ED
100
AcDbEntity
  8
0
 62
     0
370
    -2
100
AcDbBlockReference
  2
_ArchTick
 10
4081.719765353607
 20
4285.4070256592
 30
0.0
 41
0.156
 42
0.156
 43
0.156
 50
180.0
  0
INSERT
  5
2F4
330
2ED
100
AcDbEntity
  8
0
 62
     0
370
    -2
100
AcDbBlockReference
  2
_ArchTick
 10
4087.78382532124
 20
4285.4070256592
 30
0.0
 41
0.156
 42
0.156
 43
0.156
  0
MTEXT
  5
2F5
330
2ED
100
AcDbEntity
  8
0
 62
     0
100
AcDbMText
 10
4084.751795337424
 20
4285.609370144742
 30
0.0
 40
0.3125
 41
0.0
 71
     5
 72
     1
  1
\A1;6 1/16"
 73
     1
 44
1.0
1001
ACAD
1000
MTEXTBEGIN
1070
    73
1070
     1
1070
    44
1040
1.0
1070
    74
1070
     0
1000
MTEXTEND
  0
MTEXT
  5
2F6
330
2ED
100
AcDbEntity
  8
0
 62
     0
100
AcDbMText
 10
4084.751795337424
 20
4285.187133258393
 30
0.0
 40
0.3125
 41
0.0
 71
     5
 72
     1
  1
\A1;[154mm]
 73
     1
 44
1.0
1001
ACAD
1000
MTEXTBEGIN
1070
    73
1070
     1
1070
    44
1040
1.0
1070
    74
1070
     0
1000
MTEXTEND
  0
POINT
  5
2F7
330
2ED
100
AcDbEntity
  8
Defpoints
 62
     0
100
AcDbPoint
 10
4081.719765353607
 20
4288.541287547198
 30
0.0
  0
POINT
  5
2F8
330
2ED
100
AcDbEntity
  8
Defpoints
 62
     0
100
AcDbPoint
 10
4087.78382532124
 20
4290.601328375441
 30
0.0
  0
POINT
  5
2F9
330
2ED
100
AcDbEntity
  8
Defpoints
 62
     0
100
AcDbPoint
 10
4087.78382532124
 20
4285.4070256592
 30
0.0
  0
ENDBLK
  5
2FA
330
2ED
100
AcDbEntity
  8
0
100
AcDbBlockEnd
  0
ENDSEC
  0
SECTION
  2
ENTITIES
  0
DIMENSION
  5
6A
330
2
100
AcDbEntity
  8
0
100
AcDbDimension
  2
*D4
 10
4074.355055017896
 20
4285.982549128642
 30
0.0
 11
4071.66677503408
 21
4285.982549128642
 31
0.0
 71
     5
 42
5.376559967632601
  3
Knife
100
AcDbAlignedDimension
 13
4068.978495050264
 23
4288.541287547198
 33
0.0
 14
4074.355055017896
 24
4290.598225396335
 34
0.0
 50
180.0
100
AcDbRotatedDimension
1001
ACAD
1000
DSTYLE
1002
{
1070
    40
1040
1.0
1002
}
  0
TEXT
  5
7A
330
2
100
AcDbEntity
  8
0
100
AcDbText
 10
4069.784881536017
 20
4284.429288069516
 30
0.0
 40
0.375
  1
%%UTRANSOM / HOPPER MULL
 41
0.6
 51
5.0
  7
DIMTXT
 72
     1
 11
4071.737479047786
 21
4284.429288069516
 31
0.0
100
AcDbText
  0
LINE
  5
7C
330
2
100
AcDbEntity
  8
0
  6
HIDDEN
100
AcDbLine
 10
4068.502789641059
 20
4289.449302315484
 30
0.0
 11
4068.502789641059
 21
4288.618812315484
 31
0.0
  0
INSERT
  5
7E
330
2
100
AcDbEntity
  8
0
100
AcDbBlockReference
  2
93OBW
 10
4070.476412596351
 20
4290.18314728499
 30
0.0
 41
-1.0
 42
-1.0
 43
2.0
  0
INSERT
  5
AA
330
2
100
AcDbEntity
  8
0
100
AcDbBlockReference
  2
86NPF141
 10
4070.248760501093
 20
4288.763170478453
 30
0.0
 41
-1.0
 43
2.0
 50
180.0
  0
LINE
  5
C2
330
2
100
AcDbEntity
  8
0
100
AcDbLine
 10
4070.776412596352
 20
4289.843470891407
 30
0.0
 11
4070.776412596352
 21
4289.106470891407
 31
0.0
  0
LINE
  5
C3
330
2
100
AcDbEntity
  8
0
100
AcDbLine
 10
4070.776412596352
 20
4289.124720891407
 30
0.0
 11
4070.776412596352
 21
4289.811720891406
 31
0.0
  0
INSERT
  5
C4
330
2
100
AcDbEntity
  8
0
100
AcDbBlockReference
  2
*U5
 10
4072.657599474638
 20
4286.87202214131
 30
0.0
 41
-1.0
1001
ACAD
1002
{
1000
R14_HATCH_DATA
1000
3651
1011
4071.657599474638
1021
4286.87202214131
1031
0.0
1011
4072.657599474638
1021
4287.87202214131
1031
0.0
1011
4072.657599474638
1021
4286.87202214131
1031
1.0
1040
0.0
1010
0.0
1020
0.0
1030
1.0
1000
SOLID
1070
     1
1070
     0
1071
        1
1071
        1
1071
        2
1070
     1
1040
1.881186878287213
1040
3.15944875009568
1040
1.881186878287314
1040
3.346448750095556
1070
     2
1040
1.760589222037213
1040
3.252948750095684
1040
0.1525976562500021
1040
-0.65950076747307
1040
0.6595007674730821
1070
     0
1071
        0
1070
     0
1070
     1
1071
        1
1040
4.812561040009144
1040
6.499794521109716
1040
0.0
1002
}
  0
LWPOLYLINE
  5
D2
330
2
100
AcDbEntity
  8
0
100
AcDbPolyline
 90
       15
 70
     1
 43
0.0
 10
4071.322412596352
 20
4288.635412273577
 10
4071.322412596352
 20
4288.88192126059
 10
4071.447412596351
 20
4288.884103143707
 10
4071.447412596351
 20
4290.571603143706
 42
-0.9999999999999998
 10
4071.447412596351
 20
4290.696603143707
 10
4071.447412596351
 20
4291.759603143706
 10
4070.776412596352
 20
4291.759603143706
 10
4070.776412596352
 20
4291.322603143706
 10
4070.869412596351
 20
4291.320979822668
 10
4070.869412596351
 20
4291.074226464744
 10
4070.776412596352
 20
4291.072603143706
 10
4070.776412596352
 20
4288.228103143706
 42
0.4142135623730949
 10
4070.807412596352
 20
4288.197103143706
 10
4071.397412596351
 20
4288.197103143706
 10
4071.397412596351
 20
4288.634103143706
  0
LWPOLYLINE
  5
D3
330
2
100
AcDbEntity
  8
0
100
AcDbPolyline
 90
       20
 70
     1
 43
0.0
 10
4070.854537596352
 20
4291.286385839568
 10
4070.776412596352
 20
4291.293220891406
 10
4070.776412596352
 20
4291.948396880019
 10
4069.870784922059
 20
4291.948396880019
 42
0.4142135623730951
 10
4069.839784922059
 20
4291.917396880019
 10
4069.839784922059
 20
4291.01475156538
 10
4069.650330547153
 20
4291.011444626964
 42
0.4091108014277093
 10
4069.589412596352
 20
4290.949454069865
 10
4069.589412596352
 20
4289.824470891406
 10
4069.714412596352
 20
4289.824470891406
 10
4069.839721242235
 20
4289.949779537288
 10
4070.396412596351
 20
4289.949779537288
 10
4070.396412596351
 20
4290.23077953729
 10
4070.476412596351
 20
4290.23077953729
 10
4070.476412596351
 20
4289.844470891405
 10
4070.776412596352
 20
4289.844470891405
 10
4070.776412596352
 20
4290.031470891405
 42
-0.3422459893048229
 10
4070.776412596352
 20
4290.218470891406
 10
4070.776412596352
 20
4291.074470891406
 10
4070.854537596352
 20
4291.075834568355
  0
LWPOLYLINE
  5
D4
330
2
100
AcDbEntity
  8
0
100
AcDbPolyline
 90
        8
 70
     1
 43
0.0
 10
4070.650995063837
 20
4289.174470891405
 10
4070.465995063837
 20
4289.174470891405
 42
-0.4142135623730951
 10
4070.340995063837
 20
4289.299470891406
 10
4070.340995063837
 20
4289.719470891405
 42
-0.4142135623730951
 10
4070.465995063837
 20
4289.844470891405
 10
4070.650995063837
 20
4289.844470891405
 42
-0.4142135623730951
 10
4070.775995063836
 20
4289.719470891405
 10
4070.775995063836
 20
4289.299470891406
 42
-0.4142135623730951
  0
LWPOLYLINE
  5
D5
330
2
100
AcDbEntity
  8
0
100
AcDbPolyline
 90
       22
 70
     0
 43
0.0
 10
4070.54113747181
 20
4288.530578192215
 10
4070.54113747181
 20
4289.124552315484
 10
4070.338995050263
 20
4289.124552315484
 10
4070.338995050263
 20
4289.809302315484
 42
0.4142135623730951
 10
4070.323995050263
 20
4289.824302315484
 10
4069.229607820132
 20
4289.824302315484
 10
4069.229607820132
 20
4289.729263368365
 42
0.3899024490717824
 10
4069.028434968806
 20
4289.544263368366
 10
4068.978827743034
 20
4289.544263368366
 10
4068.978827743034
 20
4289.449302315484
 10
4069.103827743035
 20
4289.449302315484
 42
-0.6666666666666686
 10
4069.291327743035
 20
4289.449302315484
 10
4069.540995050264
 20
4289.449302315484
 10
4069.540995050264
 20
4289.263214645858
 42
-0.9946524064171082
 10
4069.540995050264
 20
4289.076214645858
 10
4069.540995050264
 20
4288.200578192215
 10
4070.415995050264
 20
4288.200578192215
 42
0.4142135623730951
 10
4070.540995050264
 20
4288.325578192215
 10
4070.540995050264
 20
4288.450578192215
 10
4070.224495050264
 20
4288.450578192215
 10
4070.224495050264
 20
4288.530578192215
 10
4070.536995050264
 20
4288.530578192215
  0
HATCH
  5
D6
330
2
100
AcDbEntity
  8
0
100
AcDbHatch
 10
0.0
 20
0.0
 30
0.0
210
0.0
220
0.0
230
1.0
  2
SOLID
 70
     1
 71
     0
 91
        1
 92
        7
 72
     1
 73
     1
 93
        2
 10
4069.103495050264
 20
4288.618812315484
 42
0.0
 10
4069.290995050264
 20
4288.618812315484
 42
-0.6666666666666311
 97
        0
 75
     1
 76
     1
 47
0.0010014887122476
 98
        1
 10
4069.218400246308
 20
4288.572752239138
1001
GradientColor1ACI
1070
     5
1001
GradientColor2ACI
1070
     2
1001
ACAD
1010
0.0
1020
0.0
1030
0.0
  0
LWPOLYLINE
  5
D9
330
2
100
AcDbEntity
  8
0
100
AcDbPolyline
 90
       11
 70
     1
 43
0.0
 10
4069.290995050264
 20
4288.618812315484
 10
4069.540995050264
 20
4288.618812315484
 10
4069.540995050264
 20
4288.244812315484
 10
4069.259495050263
 20
4288.244812315484
 42
-0.4142135623731695
 10
4069.228495050263
 20
4288.275812315484
 10
4069.228495050263
 20
4288.32233708377
 42
0.235730494161761
 10
4069.216126748584
 20
4288.347113278347
 10
4068.990863351943
 20
4288.516511352622
 42
-0.235730494161718
 10
4068.978495050264
 20
4288.541287547198
 10
4068.978495050264
 20
4288.618812315484
 10
4069.103495050264
 20
4288.618812315484
 42
0.6666666666666588
  0
LWPOLYLINE
  5
DA
330
2
100
AcDbEntity
  8
0
100
AcDbPolyline
 90
        4
 70
     0
 43
0.0
 10
4068.502789641059
 20
4289.330932315484
 10
4069.431995050264
 20
4289.330932315484
 10
4069.431995050264
 20
4289.449302315484
 10
4068.502789641059
 20
4289.449302315484
  0
LWPOLYLINE
  5
DB
330
2
100
AcDbEntity
  8
0
100
AcDbPolyline
 90
        4
 70
     0
 43
0.0
 10
4068.502789641059
 20
4288.737182315484
 10
4069.431995050264
 20
4288.737182315484
 10
4069.431995050264
 20
4288.618812315484
 10
4068.502789641059
 20
4288.618812315484
  0
LWPOLYLINE
  5
DC
330
2
100
AcDbEntity
  8
0
100
AcDbPolyline
 90
       14
 70
     1
 43
0.0
 10
4069.222170309315
 20
4288.846557315484
 42
0.3359746306540741
 10
4069.201807550263
 20
4288.814053405737
 10
4069.225995050263
 20
4288.778182315485
 42
-0.4142135623730951
 10
4069.210370050263
 20
4288.762557315485
 10
4069.028745050263
 20
4288.762557315485
 10
4069.028745050263
 20
4289.305557315485
 10
4069.210370050263
 20
4289.305557315485
 42
-0.414213562373094
 10
4069.225995050263
 20
4289.289932315484
 10
4069.201807550263
 20
4289.254444527426
 42
0.3208708054700532
 10
4069.222533218396
 20
4289.221557315484
 10
4069.279370050264
 20
4289.221557315484
 42
-0.4142135623730951
 10
4069.294995050263
 20
4289.205932315485
 10
4069.294995050263
 20
4288.862182315484
 42
-0.4142135623730951
 10
4069.279370050264
 20
4288.846557315484
  0
LWPOLYLINE
  5
DD
330
2
100
AcDbEntity
  8
0
100
AcDbPolyline
 90
       14
 70
     1
 43
0.0
 10
4069.22095190917
 20
4288.853557315484
 42
0.3593608004949541
 10
4069.19504789329
 20
4288.811557428161
 10
4069.218795660009
 20
4288.776338481048
 42
-0.3524310491054993
 10
4069.210370050263
 20
4288.769557315484
 10
4069.028745050263
 20
4288.769557315484
 10
4069.028745050263
 20
4289.298557315484
 10
4069.210370050263
 20
4289.298557315484
 42
-0.3518693664465323
 10
4069.218791957625
 20
4289.291792987783
 10
4069.194988453445
 20
4289.256868596617
 42
0.3446308864324803
 10
4069.221227367447
 20
4289.214557315484
 10
4069.279370050264
 20
4289.214557315484
 42
-0.4142135623730946
 10
4069.287995050263
 20
4289.205932315485
 10
4069.287995050263
 20
4288.862182315484
 42
-0.4142135623730946
 10
4069.279370050264
 20
4288.853557315484
  0
LWPOLYLINE
  5
DE
330
2
100
AcDbEntity
  8
0
100
AcDbPolyline
 90
       10
 70
     1
 43
0.0
 10
4069.217432550263
 20
4288.877807315484
 42
0.3584554666094669
 10
4069.170557550263
 20
4288.812903469331
 10
4069.170557550263
 20
4288.793807315484
 10
4069.059995050263
 20
4288.793807315484
 10
4069.059995050263
 20
4289.274307315484
 10
4069.170557550263
 20
4289.274307315484
 10
4069.170557550263
 20
4289.255211161638
 42
0.3467993108968364
 10
4069.217432550263
 20
4289.190307315484
 10
4069.263745050263
 20
4289.190307315484
 10
4069.263745050263
 20
4288.877807315484
  0
LWPOLYLINE
  5
DF
330
2
100
AcDbEntity
  8
0
100
AcDbPolyline
 90
        6
 70
     0
 43
0.0
 10
4069.056995050263
 20
4288.762557315485
 10
4069.056995050263
 20
4288.752807315485
 10
4069.018995050263
 20
4288.752807315485
 10
4069.018995050263
 20
4289.315307315484
 10
4069.056995050263
 20
4289.315307315484
 10
4069.056995050263
 20
4289.305557315485
  0
LINE
  5
E0
330
2
100
AcDbEntity
  8
0
100
AcDbLine
 10
4069.210370050263
 20
4289.305557315485
 30
0.0
 11
4069.210370050263
 21
4289.330932315484
 31
0.0
  0
LINE
  5
E1
330
2
100
AcDbEntity
  8
0
100
AcDbLine
 10
4069.056995050263
 20
4289.305557315485
 30
0.0
 11
4069.056995050263
 21
4289.330932315484
 31
0.0
  0
LINE
  5
E2
330
2
100
AcDbEntity
  8
0
100
AcDbLine
 10
4069.210370050263
 20
4288.762557315485
 30
0.0
 11
4069.210370050263
 21
4288.737182315484
 31
0.0
  0
LINE
  5
E3
330
2
100
AcDbEntity
  8
0
100
AcDbLine
 10
4069.056995050263
 20
4288.762557315485
 30
0.0
 11
4069.056995050263
 21
4288.737182315484
 31
0.0
  0
HATCH
  5
E4
330
2
100
AcDbEntity
  8
0
100
AcDbHatch
 10
0.0
 20
0.0
 30
0.0
210
0.0
220
0.0
230
1.0
  2
DOTS
 70
     0
 71
     0
 91
        2
 92
        7
 72
     0
 73
     1
 93
        4
 10
4069.210370050263
 20
4288.762557315485
 10
4069.210370050263
 20
4288.737182315484
 10
4069.056995050263
 20
4288.737182315484
 10
4069.056995050263
 20
4288.762557315485
 97
        0
 92
        7
 72
     0
 73
     1
 93
        4
 10
4069.210370050263
 20
4289.330932315484
 10
4069.210370050263
 20
4289.305557315485
 10
4069.056995050263
 20
4289.305557315485
 10
4069.056995050263
 20
4289.330932315484
 97
        0
 75
     0
 76
     1
 52
450.0
 41
0.1
 77
     0
 78
     1
 53
90.0
 43
4064.427951572668
 44
4282.643702569948
 45
0.00625
 46
0.003125
 79
     2
 49
0.0
 49
-0.00625
 47
0.0006001443632006
 98
        2
 10
4069.152785110214
 20
4288.750837025337
 10
4069.149184236416
 20
4289.320721954733
  0
HATCH
  5
E5
330
2
100
AcDbEntity
  8
0
100
AcDbHatch
 10
0.0
 20
0.0
 30
0.0
210
0.0
220
0.0
230
1.0
  2
DASH
 70
     0
 71
     0
 91
        1
 92
        7
 72
     1
 73
     1
 93
       16
 10
4069.294995050263
 20
4289.205932315485
 42
0.4142135623730951
 10
4069.279370050264
 20
4289.221557315484
 42
0.0
 10
4069.222533218396
 20
4289.221557315484
 42
-0.3208708054700533
 10
4069.201807550263
 20
4289.254444527426
 42
0.0
 10
4069.225995050263
 20
4289.289932315484
 42
0.414213562373094
 10
4069.210370050263
 20
4289.305557315485
 42
0.0
 10
4069.210370050263
 20
4289.330932315485
 42
0.0
 10
4069.431995050262
 20
4289.330932315484
 42
0.0
 10
4069.431995050262
 20
4288.737182315484
 42
0.0
 10
4069.210370050263
 20
4288.737182315484
 42
0.0
 10
4069.210370050263
 20
4288.762557315485
 42
0.4142135623730951
 10
4069.225995050263
 20
4288.778182315485
 42
0.0
 10
4069.201807550263
 20
4288.814053405737
 42
-0.3359746306540741
 10
4069.222170309315
 20
4288.846557315484
 42
0.0
 10
4069.279370050264
 20
4288.846557315484
 42
0.4142135623730951
 10
4069.294995050263
 20
4288.862182315484
 42
0.0
 97
        0
 75
     0
 76
     1
 52
450.0
 41
0.1
 77
     0
 78
     1
 53
90.0
 43
4064.427951572668
 44
4282.643702569948
 45
0.0125
 46
0.0125
 79
     2
 49
0.0125
 49
-0.0125
 47
0.0009600803746669
 98
        1
 10
4069.345834322457
 20
4289.083078795569
  0
HATCH
  5
E6
330
2
100
AcDbEntity
  8
0
100
AcDbHatch
 10
0.0
 20
0.0
 30
0.0
210
0.0
220
0.0
230
1.0
  2
SOLID
 70
     1
 71
     0
 91
        1
 92
        7
 72
     1
 73
     1
 93
        2
 10
4069.103495050264
 20
4289.449302315484
 42
0.0
 10
4069.290995050264
 20
4289.449302315484
 42
0.6666666666666311
 97
        0
 75
     1
 76
     1
 47
0.0010014887122476
 98
        1
 10
4069.218400246308
 20
4289.495362391831
1001
GradientColor1ACI
1070
     5
1001
GradientColor2ACI
1070
     2
1001
ACAD
1010
0.0
1020
0.0
1030
0.0
  0
LINE
  5
E7
330
2
100
AcDbEntity
  8
0
100
AcDbLine
 10
4069.540995050264
 20
4288.618812315484
 30
0.0
 11
4069.431995050264
 21
4289.449302315484
 31
0.0
  0
LWPOLYLINE
  5
E8
330
2
100
AcDbEntity
  8
0
100
AcDbPolyline
 90
        8
 70
     0
 43
0.0
 10
4069.540995050264
 20
4288.618812315484
 10
4069.540995050264
 20
4289.449302315484
 10
4069.431995050264
 20
4289.449302315484
 10
4069.431995050264
 20
4288.618812315484
 10
4069.540995050264
 20
4288.618812315484
 10
4069.431995050264
 20
4289.449302315484
 10
4069.431995050264
 20
4288.618812315484
 10
4069.540995050264
 20
4289.449302315484
  0
LWPOLYLINE
  5
E9
102
{ACAD_REACTORS
330
FF
330
23F
102
}
330
2
100
AcDbEntity
  8
0
100
AcDbPolyline
 90
       10
 70
     1
 43
0.0
 10
4071.226594583215
 20
4288.147611334171
 10
4070.945912583583
 20
4288.197103143706
 10
4070.883912583582
 20
4288.197103143706
 10
4070.883912583582
 20
4287.759603143705
 42
0.4142135623730951
 10
4070.946412583583
 20
4287.697103143705
 10
4071.946412583582
 20
4287.697103143705
 42
0.4142135623730951
 10
4072.008912583583
 20
4287.759603143705
 10
4072.008912583583
 20
4288.197103143706
 10
4071.946912583583
 20
4288.197103143706
 10
4071.66623058395
 20
4288.147611334171
  0
LWPOLYLINE
  5
EA
102
{ACAD_REACTORS
330
EE
330
22E
102
}
330
2
100
AcDbEntity
  8
0
100
AcDbPolyline
 90
       11
 70
     0
 43
0.0
 10
4070.883912596352
 20
4292.822603143706
 10
4070.883912596352
 20
4293.010603143708
 42
-0.4142135623730951
 10
4070.945912596349
 20
4293.072603143706
 10
4071.946912596353
 20
4293.072603143706
 42
-0.4142135623730951
 10
4072.008912596351
 20
4293.010603143708
 10
4072.008912596351
 20
4292.822603143706
 10
4071.66591259635
 20
4292.822603143706
 10
4071.66591259635
 20
4292.884603143708
 10
4071.228912596352
 20
4292.884603143708
 10
4071.228912596352
 20
4292.822603143706
 10
4070.885912596351
 20
4292.822603143706
  0
LWPOLYLINE
  5
EB
330
2
100
AcDbEntity
  8
0
  6
Continuous
100
AcDbPolyline
 90
       10
 70
     1
 43
0.0
 10
4070.775476812957
 20
4291.774603143706
 10
4070.775476812957
 20
4292.807603143706
 42
-0.4142135623730951
 10
4070.790476812957
 20
4292.822603143706
 10
4071.432412596351
 20
4292.822603143706
 42
-0.4142135623730951
 10
4071.447412596351
 20
4292.807603143706
 10
4071.447412596351
 20
4291.774603143706
 42
-0.4142135623730951
 10
4071.432412596351
 20
4291.759603143706
 10
4071.219412596351
 20
4291.759603143706
 42
0.9999999999999998
 10
4071.001412596352
 20
4291.759603143706
 10
4070.790476812957
 20
4291.759603143706
 42
-0.4142135623730951
  0
DIMENSION
  5
EC
102
{ACAD_XDICTIONARY
360
ED
102
}
102
{ACAD_REACTORS
330
EE
102
}
330
2
100
AcDbEntity
  8
0
100
AcDbDimension
  2
*D6
 10
4070.360254839054
 20
4293.072603143706
 30
0.0
 11
4069.744756411796
 21
4292.666603143707
 31
0.0
 70
   128
 71
     5
 42
0.25
  3
Knife
100
AcDbAlignedDimension
 13
4070.885912596351
 23
4292.822603143706
 33
0.0
 14
4070.945912596349
 24
4293.072603143706
 34
0.0
 50
90.0
100
AcDbRotatedDimension
1001
ACAD
1000
DSTYLE
1002
{
1070
    40
1040
1.0
1002
}
  0
DIMENSION
  5
FD
102
{ACAD_XDICTIONARY
360
FE
102
}
102
{ACAD_REACTORS
330
FF
102
}
330
2
100
AcDbEntity
  8
0
100
AcDbDimension
  2
*D7
 10
4070.883912583582
 20
4287.113819973241
 30
0.0
 11
4071.446412583582
 21
4287.113819973241
 31
0.0
 71
     5
 42
1.125
  3
Knife
100
AcDbAlignedDimension
 13
4072.008912583583
 23
4287.759603143705
 33
0.0
 14
4070.883912583582
 24
4287.759603143705
 34
0.0
 50
180.0
100
AcDbRotatedDimension
1001
ACAD
1000
DSTYLE
1002
{
1070
    40
1040
1.0
1002
}
  0
TEXT
  5
10E
330
2
100
AcDbEntity
  8
0
100
AcDbText
 10
4070.62170904106
 20
4283.64530179051
 30
0.0
 40
0.375
  1
4 9/16" JAMB
 41
0.6
 51
5.0
  7
DIMTXT
 72
     1
 11
4071.737479047786
 21
4283.64530179051
 31
0.0
100
AcDbText
  0
LINE
  5
10F
330
2
100
AcDbEntity
  8
0
  6
HIDDEN
100
AcDbLine
 10
4081.244059944403
 20
4289.449302315484
 30
0.0
 11
4081.244059944403
 21
4288.618812315484
 31
0.0
  0
INSERT
  5
110
330
2
100
AcDbEntity
  8
0
100
AcDbBlockReference
  2
93OBW
 10
4083.217682899695
 20
4290.18314728499
 30
0.0
 41
-1.0
 42
-1.0
 43
2.0
  0
INSERT
  5
111
330
2
100
AcDbEntity
  8
0
100
AcDbBlockReference
  2
86NPF141
 10
4082.990030804436
 20
4288.763170478454
 30
0.0
 41
-1.0
 43
2.0
 50
180.0
  0
LINE
  5
112
330
2
100
AcDbEntity
  8
0
100
AcDbLine
 10
4083.517682899695
 20
4289.843470891407
 30
0.0
 11
4083.517682899695
 21
4289.106470891407
 31
0.0
  0
LINE
  5
113
330
2
100
AcDbEntity
  8
0
100
AcDbLine
 10
4083.517682899695
 20
4289.124720891407
 30
0.0
 11
4083.517682899695
 21
4289.811720891406
 31
0.0
  0
INSERT
  5
114
330
2
100
AcDbEntity
  8
0
100
AcDbBlockReference
  2
*U5
 10
4085.398869777981
 20
4286.872022141311
 30
0.0
 41
-1.0
1001
ACAD
1002
{
1000
R14_HATCH_DATA
1000
3651
1011
4084.398869777982
1021
4286.872022141311
1031
0.0
1011
4085.398869777981
1021
4287.872022141311
1031
0.0
1011
4085.398869777981
1021
4286.872022141311
1031
1.0
1040
0.0
1010
0.0
1020
0.0
1030
1.0
1000
SOLID
1070
     1
1070
     0
1071
        1
1071
        1
1071
        2
1070
     1
1040
1.881186878287213
1040
3.15944875009568
1040
1.881186878287314
1040
3.346448750095556
1070
     2
1040
1.760589222037213
1040
3.252948750095684
1040
0.1525976562500021
1040
-0.65950076747307
1040
0.6595007674730821
1070
     0
1071
        0
1070
     0
1070
     1
1071
        1
1040
4.812561040009144
1040
6.499794521109716
1040
0.0
1002
}
  0
LWPOLYLINE
  5
115
330
2
100
AcDbEntity
  8
0
100
AcDbPolyline
 90
       15
 70
     1
 43
0.0
 10
4084.063682899695
 20
4288.635412273577
 10
4084.063682899695
 20
4288.88192126059
 10
4084.188682899696
 20
4288.884103143707
 10
4084.188682899696
 20
4290.571603143706
 42
-0.9999999999999998
 10
4084.188682899696
 20
4290.696603143707
 10
4084.188682899696
 20
4291.759603143706
 10
4083.517682899695
 20
4291.759603143706
 10
4083.517682899695
 20
4291.322603143706
 10
4083.610682899695
 20
4291.320979822669
 10
4083.610682899695
 20
4291.074226464745
 10
4083.517682899695
 20
4291.072603143706
 10
4083.517682899695
 20
4288.228103143707
 42
0.4142135623730949
 10
4083.548682899695
 20
4288.197103143706
 10
4084.138682899695
 20
4288.197103143706
 10
4084.138682899695
 20
4288.634103143706
  0
LWPOLYLINE
  5
116
330
2
100
AcDbEntity
  8
0
100
AcDbPolyline
 90
       20
 70
     1
 43
0.0
 10
4083.595807899695
 20
4291.286385839568
 10
4083.517682899695
 20
4291.293220891406
 10
4083.517682899695
 20
4291.948396880019
 10
4082.612055225403
 20
4291.948396880019
 42
0.4142135623730951
 10
4082.581055225403
 20
4291.917396880021
 10
4082.581055225403
 20
4291.014751565381
 10
4082.391600850495
 20
4291.011444626965
 42
0.4091108014277093
 10
4082.330682899695
 20
4290.949454069865
 10
4082.330682899695
 20
4289.824470891406
 10
4082.455682899695
 20
4289.824470891406
 10
4082.580991545579
 20
4289.94977953729
 10
4083.137682899695
 20
4289.94977953729
 10
4083.137682899695
 20
4290.23077953729
 10
4083.217682899695
 20
4290.23077953729
 10
4083.217682899695
 20
4289.844470891407
 10
4083.517682899695
 20
4289.844470891407
 10
4083.517682899695
 20
4290.031470891406
 42
-0.3422459893048229
 10
4083.517682899695
 20
4290.218470891406
 10
4083.517682899695
 20
4291.074470891406
 10
4083.595807899695
 20
4291.075834568355
  0
LWPOLYLINE
  5
117
330
2
100
AcDbEntity
  8
0
100
AcDbPolyline
 90
        8
 70
     1
 43
0.0
 10
4083.39226536718
 20
4289.174470891406
 10
4083.207265367181
 20
4289.174470891406
 42
-0.4142135623730951
 10
4083.08226536718
 20
4289.299470891406
 10
4083.08226536718
 20
4289.719470891406
 42
-0.4142135623730951
 10
4083.207265367181
 20
4289.844470891407
 10
4083.39226536718
 20
4289.844470891407
 42
-0.4142135623730951
 10
4083.51726536718
 20
4289.719470891406
 10
4083.51726536718
 20
4289.299470891406
 42
-0.4142135623730951
  0
LWPOLYLINE
  5
118
330
2
100
AcDbEntity
  8
0
100
AcDbPolyline
 90
       22
 70
     0
 43
0.0
 10
4083.282407775153
 20
4288.530578192216
 10
4083.282407775153
 20
4289.124552315485
 10
4083.080265353607
 20
4289.124552315485
 10
4083.080265353607
 20
4289.809302315485
 42
0.4142135623730951
 10
4083.065265353607
 20
4289.824302315484
 10
4081.970878123477
 20
4289.824302315484
 10
4081.970878123477
 20
4289.729263368366
 42
0.3899024490717824
 10
4081.769705272149
 20
4289.544263368367
 10
4081.720098046377
 20
4289.544263368367
 10
4081.720098046377
 20
4289.449302315484
 10
4081.845098046378
 20
4289.449302315484
 42
-0.6666666666666686
 10
4082.032598046378
 20
4289.449302315484
 10
4082.282265353607
 20
4289.449302315484
 10
4082.282265353607
 20
4289.263214645858
 42
-0.9946524064171082
 10
4082.282265353607
 20
4289.076214645858
 10
4082.282265353607
 20
4288.200578192216
 10
4083.157265353607
 20
4288.200578192216
 42
0.4142135623730951
 10
4083.282265353608
 20
4288.325578192217
 10
4083.282265353608
 20
4288.450578192216
 10
4082.965765353607
 20
4288.450578192216
 10
4082.965765353607
 20
4288.530578192216
 10
4083.278265353607
 20
4288.530578192216
  0
HATCH
  5
119
330
2
100
AcDbEntity
  8
0
100
AcDbHatch
 10
0.0
 20
0.0
 30
0.0
210
0.0
220
0.0
230
1.0
  2
SOLID
 70
     1
 71
     0
 91
        1
 92
        7
 72
     1
 73
     1
 93
        2
 10
4081.844765353607
 20
4288.618812315484
 42
0.0
 10
4082.032265353607
 20
4288.618812315484
 42
-0.6666666666666311
 97
        0
 75
     1
 76
     1
 47
0.0010014887122476
 98
        1
 10
4081.95967054965
 20
4288.572752239138
1001
GradientColor1ACI
1070
     5
1001
GradientColor2ACI
1070
     2
1001
ACAD
1010
0.0
1020
0.0
1030
0.0
  0
LWPOLYLINE
  5
11A
330
2
100
AcDbEntity
  8
0
100
AcDbPolyline
 90
       11
 70
     1
 43
0.0
 10
4082.032265353607
 20
4288.618812315484
 10
4082.282265353607
 20
4288.618812315484
 10
4082.282265353607
 20
4288.244812315484
 10
4082.000765353607
 20
4288.244812315484
 42
-0.4142135623731695
 10
4081.969765353608
 20
4288.275812315485
 10
4081.969765353608
 20
4288.322337083771
 42
0.235730494161761
 10
4081.957397051928
 20
4288.347113278347
 10
4081.732133655286
 20
4288.516511352622
 42
-0.235730494161718
 10
4081.719765353607
 20
4288.541287547198
 10
4081.719765353607
 20
4288.618812315484
 10
4081.844765353607
 20
4288.618812315484
 42
0.6666666666666588
  0
LWPOLYLINE
  5
11B
330
2
100
AcDbEntity
  8
0
100
AcDbPolyline
 90
        4
 70
     0
 43
0.0
 10
4081.244059944403
 20
4289.330932315484
 10
4082.173265353606
 20
4289.330932315484
 10
4082.173265353606
 20
4289.449302315484
 10
4081.244059944403
 20
4289.449302315484
  0
LWPOLYLINE
  5
11C
330
2
100
AcDbEntity
  8
0
100
AcDbPolyline
 90
        4
 70
     0
 43
0.0
 10
4081.244059944403
 20
4288.737182315484
 10
4082.173265353606
 20
4288.737182315484
 10
4082.173265353606
 20
4288.618812315484
 10
4081.244059944403
 20
4288.618812315484
  0
LWPOLYLINE
  5
11D
330
2
100
AcDbEntity
  8
0
100
AcDbPolyline
 90
       14
 70
     1
 43
0.0
 10
4081.963440612658
 20
4288.846557315484
 42
0.3359746306540741
 10
4081.943077853606
 20
4288.814053405738
 10
4081.967265353607
 20
4288.778182315485
 42
-0.4142135623730951
 10
4081.951640353607
 20
4288.762557315485
 10
4081.770015353606
 20
4288.762557315485
 10
4081.770015353606
 20
4289.305557315485
 10
4081.951640353607
 20
4289.305557315485
 42
-0.414213562373094
 10
4081.967265353607
 20
4289.289932315485
 10
4081.943077853606
 20
4289.254444527426
 42
0.3208708054700532
 10
4081.963803521738
 20
4289.221557315484
 10
4082.020640353607
 20
4289.221557315484
 42
-0.4142135623730951
 10
4082.036265353607
 20
4289.205932315485
 10
4082.036265353607
 20
4288.862182315484
 42
-0.4142135623730951
 10
4082.020640353607
 20
4288.846557315484
  0
LWPOLYLINE
  5
11E
330
2
100
AcDbEntity
  8
0
100
AcDbPolyline
 90
       14
 70
     1
 43
0.0
 10
4081.962222212514
 20
4288.853557315486
 42
0.3593608004949541
 10
4081.936318196633
 20
4288.811557428162
 10
4081.960065963352
 20
4288.776338481049
 42
-0.3524310491054993
 10
4081.951640353607
 20
4288.769557315485
 10
4081.770015353606
 20
4288.769557315485
 10
4081.770015353606
 20
4289.298557315485
 10
4081.951640353607
 20
4289.298557315485
 42
-0.3518693664465323
 10
4081.960062260968
 20
4289.291792987784
 10
4081.936258756789
 20
4289.256868596618
 42
0.3446308864324803
 10
4081.96249767079
 20
4289.214557315484
 10
4082.020640353607
 20
4289.214557315484
 42
-0.4142135623730946
 10
4082.029265353606
 20
4289.205932315485
 10
4082.029265353606
 20
4288.862182315484
 42
-0.4142135623730946
 10
4082.020640353607
 20
4288.853557315486
  0
LWPOLYLINE
  5
11F
330
2
100
AcDbEntity
  8
0
100
AcDbPolyline
 90
       10
 70
     1
 43
0.0
 10
4081.958702853607
 20
4288.877807315484
 42
0.3584554666094669
 10
4081.911827853606
 20
4288.812903469332
 10
4081.911827853606
 20
4288.793807315485
 10
4081.801265353607
 20
4288.793807315485
 10
4081.801265353607
 20
4289.274307315485
 10
4081.911827853606
 20
4289.274307315485
 10
4081.911827853606
 20
4289.255211161639
 42
0.3467993108968364
 10
4081.958702853607
 20
4289.190307315484
 10
4082.005015353607
 20
4289.190307315484
 10
4082.005015353607
 20
4288.877807315484
  0
LWPOLYLINE
  5
120
330
2
100
AcDbEntity
  8
0
100
AcDbPolyline
 90
        6
 70
     0
 43
0.0
 10
4081.798265353607
 20
4288.762557315485
 10
4081.798265353607
 20
4288.752807315485
 10
4081.760265353606
 20
4288.752807315485
 10
4081.760265353606
 20
4289.315307315484
 10
4081.798265353607
 20
4289.315307315484
 10
4081.798265353607
 20
4289.305557315485
  0
LINE
  5
121
330
2
100
AcDbEntity
  8
0
100
AcDbLine
 10
4081.951640353607
 20
4289.305557315485
 30
0.0
 11
4081.951640353607
 21
4289.330932315484
 31
0.0
  0
LINE
  5
122
330
2
100
AcDbEntity
  8
0
100
AcDbLine
 10
4081.798265353607
 20
4289.305557315485
 30
0.0
 11
4081.798265353607
 21
4289.330932315484
 31
0.0
  0
LINE
  5
123
330
2
100
AcDbEntity
  8
0
100
AcDbLine
 10
4081.951640353607
 20
4288.762557315485
 30
0.0
 11
4081.951640353607
 21
4288.737182315484
 31
0.0
  0
LINE
  5
124
330
2
100
AcDbEntity
  8
0
100
AcDbLine
 10
4081.798265353607
 20
4288.762557315485
 30
0.0
 11
4081.798265353607
 21
4288.737182315484
 31
0.0
  0
HATCH
  5
125
330
2
100
AcDbEntity
  8
0
100
AcDbHatch
 10
0.0
 20
0.0
 30
0.0
210
0.0
220
0.0
230
1.0
  2
DOTS
 70
     0
 71
     0
 91
        2
 92
        7
 72
     0
 73
     1
 93
        4
 10
4081.951640353607
 20
4288.762557315485
 10
4081.951640353607
 20
4288.737182315484
 10
4081.798265353607
 20
4288.737182315484
 10
4081.798265353607
 20
4288.762557315485
 97
        0
 92
        7
 72
     0
 73
     1
 93
        4
 10
4081.951640353607
 20
4289.330932315484
 10
4081.951640353607
 20
4289.305557315485
 10
4081.798265353607
 20
4289.305557315485
 10
4081.798265353607
 20
4289.330932315484
 97
        0
 75
     0
 76
     1
 52
450.0
 41
0.1
 77
     0
 78
     1
 53
90.0
 43
4077.169221876012
 44
4282.643702569949
 45
0.00625
 46
0.003125
 79
     2
 49
0.0
 49
-0.00625
 47
0.0006001443632006
 98
        2
 10
4081.894055413559
 20
4288.750837025338
 10
4081.890454539759
 20
4289.320721954733
  0
HATCH
  5
126
330
2
100
AcDbEntity
  8
0
100
AcDbHatch
 10
0.0
 20
0.0
 30
0.0
210
0.0
220
0.0
230
1.0
  2
DASH
 70
     0
 71
     0
 91
        1
 92
        7
 72
     1
 73
     1
 93
       16
 10
4082.036265353607
 20
4289.205932315485
 42
0.4142135623730951
 10
4082.020640353607
 20
4289.221557315484
 42
0.0
 10
4081.963803521738
 20
4289.221557315484
 42
-0.3208708054700533
 10
4081.943077853606
 20
4289.254444527426
 42
0.0
 10
4081.967265353607
 20
4289.289932315485
 42
0.414213562373094
 10
4081.951640353607
 20
4289.305557315485
 42
0.0
 10
4081.951640353607
 20
4289.330932315486
 42
0.0
 10
4082.173265353605
 20
4289.330932315484
 42
0.0
 10
4082.173265353605
 20
4288.737182315484
 42
0.0
 10
4081.951640353607
 20
4288.737182315484
 42
0.0
 10
4081.951640353607
 20
4288.762557315485
 42
0.4142135623730951
 10
4081.967265353607
 20
4288.778182315485
 42
0.0
 10
4081.943077853606
 20
4288.814053405738
 42
-0.3359746306540741
 10
4081.963440612658
 20
4288.846557315484
 42
0.0
 10
4082.020640353607
 20
4288.846557315484
 42
0.4142135623730951
 10
4082.036265353607
 20
4288.862182315484
 42
0.0
 97
        0
 75
     0
 76
     1
 52
450.0
 41
0.1
 77
     0
 78
     1
 53
90.0
 43
4077.169221876012
 44
4282.643702569949
 45
0.0125
 46
0.0125
 79
     2
 49
0.0125
 49
-0.0125
 47
0.0009600803746669
 98
        1
 10
4082.087104625801
 20
4289.083078795569
  0
HATCH
  5
127
330
2
100
AcDbEntity
  8
0
100
AcDbHatch
 10
0.0
 20
0.0
 30
0.0
210
0.0
220
0.0
230
1.0
  2
SOLID
 70
     1
 71
     0
 91
        1
 92
        7
 72
     1
 73
     1
 93
        2
 10
4081.844765353607
 20
4289.449302315484
 42
0.0
 10
4082.032265353607
 20
4289.449302315484
 42
0.6666666666666311
 97
        0
 75
     1
 76
     1
 47
0.0010014887122476
 98
        1
 10
4081.95967054965
 20
4289.495362391831
1001
GradientColor1ACI
1070
     5
1001
GradientColor2ACI
1070
     2
1001
ACAD
1010
0.0
1020
0.0
1030
0.0
  0
LINE
  5
128
330
2
100
AcDbEntity
  8
0
100
AcDbLine
 10
4082.282265353607
 20
4288.618812315484
 30
0.0
 11
4082.173265353606
 21
4289.449302315484
 31
0.0
  0
LWPOLYLINE
  5
129
330
2
100
AcDbEntity
  8
0
100
AcDbPolyline
 90
        8
 70
     0
 43
0.0
 10
4082.282265353607
 20
4288.618812315484
 10
4082.282265353607
 20
4289.449302315484
 10
4082.173265353606
 20
4289.449302315484
 10
4082.173265353606
 20
4288.618812315484
 10
4082.282265353607
 20
4288.618812315484
 10
4082.173265353606
 20
4289.449302315484
 10
4082.173265353606
 20
4288.618812315484
 10
4082.282265353607
 20
4289.449302315484
  0
LWPOLYLINE
  5
12A
102
{ACAD_REACTORS
330
296
330
2A8
102
}
330
2
100
AcDbEntity
  8
0
100
AcDbPolyline
 90
       10
 70
     1
 43
0.0
 10
4083.967864886559
 20
4288.147611334172
 10
4083.687182886927
 20
4288.197103143706
 10
4083.625182886925
 20
4288.197103143706
 10
4083.625182886925
 20
4287.759603143705
 42
0.4142135623730951
 10
4083.687682886925
 20
4287.697103143705
 10
4085.375182886926
 20
4287.697103143705
 42
0.4142135623730951
 10
4085.437682886925
 20
4287.759603143705
 10
4085.437682886925
 20
4288.197103143706
 10
4085.375682886925
 20
4288.197103143706
 10
4085.095000887293
 20
4288.147611334172
  0
LWPOLYLINE
  5
12B
102
{ACAD_REACTORS
330
2C9
330
2DB
102
}
330
2
100
AcDbEntity
  8
0
100
AcDbPolyline
 90
       11
 70
     0
 43
0.0
 10
4083.625182899695
 20
4292.822603143706
 10
4083.625182899695
 20
4293.010603143708
 42
-0.4142135623730951
 10
4083.687182899693
 20
4293.072603143706
 10
4085.375682899697
 20
4293.072603143706
 42
-0.4142135623730951
 10
4085.437682899695
 20
4293.010603143708
 10
4085.437682899695
 20
4292.822603143706
 10
4085.094682899694
 20
4292.822603143706
 10
4085.094682899694
 20
4292.884603143708
 10
4083.970182899697
 20
4292.884603143708
 10
4083.970182899697
 20
4292.822603143706
 10
4083.627182899696
 20
4292.822603143706
  0
LWPOLYLINE
  5
12C
330
2
100
AcDbEntity
  8
0
  6
Continuous
100
AcDbPolyline
 90
       10
 70
     1
 43
0.0
 10
4083.516747116299
 20
4291.774603143706
 10
4083.516747116299
 20
4292.807603143706
 42
-0.4142135623730951
 10
4083.5317471163
 20
4292.822603143706
 10
4084.173682899694
 20
4292.822603143706
 42
-0.4142135623730951
 10
4084.188682899696
 20
4292.807603143706
 10
4084.188682899696
 20
4291.774603143706
 42
-0.4142135623730951
 10
4084.173682899694
 20
4291.759603143706
 10
4083.960682899696
 20
4291.759603143706
 42
0.9999999999999998
 10
4083.742682899695
 20
4291.759603143706
 10
4083.5317471163
 20
4291.759603143706
 42
-0.4142135623730951
  0
LWPOLYLINE
  5
12D
102
{ACAD_REACTORS
330
2B9
102
}
330
2
100
AcDbEntity
  8
0
100
AcDbPolyline
 90
        4
 70
     1
 43
0.0
 10
4084.876182899695
 20
4288.259603143702
 10
4084.876182899695
 20
4292.759603143701
 10
4084.188682899696
 20
4292.759603143701
 10
4084.188682899696
 20
4288.259603143702
  0
LINE
  5
12E
102
{ACAD_REACTORS
330
2B9
102
}
330
2
100
AcDbEntity
  8
0
100
AcDbLine
 10
4084.188682899696
 20
4288.259603143702
 30
0.0
 11
4084.876182899695
 21
4292.759603143701
 31
0.0
  0
LINE
  5
12F
330
2
100
AcDbEntity
  8
0
100
AcDbLine
 10
4084.188682899696
 20
4292.790853143702
 30
0.0
 11
4084.876182899695
 21
4288.290853143702
 31
0.0
  0
DIMENSION
  5
130
330
2
100
AcDbEntity
  8
0
100
AcDbDimension
  2
*D8
 10
4083.134363157055
 20
4272.596567226432
 30
0.0
 11
4078.446083173239
 21
4272.596567226432
 31
0.0
 71
     5
 42
9.376559967633056
  3
Knife
100
AcDbAlignedDimension
 13
4073.757803189422
 23
4275.194682392153
 33
0.0
 14
4083.134363157055
 24
4277.254723220384
 34
0.0
 50
180.0
100
AcDbRotatedDimension
1001
ACAD
1000
DSTYLE
1002
{
1070
    40
1040
1.0
1002
}
  0
TEXT
  5
13F
330
2
100
AcDbEntity
  8
0
100
AcDbText
 10
4076.456333754705
 20
4271.176236929025
 30
0.0
 40
0.375
  1
%%UTRANSOM / HOPPER MULL
 41
0.6
 51
5.0
  7
DIMTXT
 72
     1
 11
4078.408931266475
 21
4271.176236929025
 31
0.0
100
AcDbText
  0
LINE
  5
140
330
2
100
AcDbEntity
  8
0
  6
HIDDEN
100
AcDbLine
 10
4073.282097780218
 20
4276.102697160438
 30
0.0
 11
4073.282097780218
 21
4275.272207160439
 31
0.0
  0
INSERT
  5
141
330
2
100
AcDbEntity
  8
0
100
AcDbBlockReference
  2
93OBW
 10
4075.255720735509
 20
4276.836542129944
 30
0.0
 41
-1.0
 42
-1.0
 43
2.0
  0
INSERT
  5
142
330
2
100
AcDbEntity
  8
0
100
AcDbBlockReference
  2
86NPF141
 10
4075.028068640252
 20
4275.416565323407
 30
0.0
 41
-1.0
 43
2.0
 50
180.0
  0
LINE
  5
143
330
2
100
AcDbEntity
  8
0
100
AcDbLine
 10
4075.55572073551
 20
4276.496865736361
 30
0.0
 11
4075.55572073551
 21
4275.75986573636
 31
0.0
  0
LINE
  5
144
330
2
100
AcDbEntity
  8
0
100
AcDbLine
 10
4075.55572073551
 20
4275.77811573636
 30
0.0
 11
4075.55572073551
 21
4276.46511573636
 31
0.0
  0
INSERT
  5
145
330
2
100
AcDbEntity
  8
0
100
AcDbBlockReference
  2
*U5
 10
4077.436907613797
 20
4273.525416986265
 30
0.0
 41
-1.0
1001
ACAD
1002
{
1000
R14_HATCH_DATA
1000
3651
1011
4073.124407613796
1021
4273.525416986265
1031
0.0
1011
4077.436907613797
1021
4274.525416986264
1031
0.0
1011
4077.436907613797
1021
4273.525416986265
1031
1.0
1040
0.0
1010
0.0
1020
0.0
1030
1.0
1000
SOLID
1070
     1
1070
     0
1071
        1
1071
        1
1071
        2
1070
     1
1040
1.881186878287213
1040
3.15944875009568
1040
1.881186878287314
1040
3.346448750095556
1070
     2
1040
1.760589222037213
1040
3.252948750095684
1040
0.1525976562500021
1040
-0.65950076747307
1040
0.6595007674730821
1070
     0
1071
        0
1070
     0
1070
     1
1071
        1
1040
4.812561040009144
1040
6.499794521109716
1040
0.0
1002
}
  0
LWPOLYLINE
  5
146
102
{ACAD_REACTORS
330
181
102
}
330
2
100
AcDbEntity
  8
0
100
AcDbPolyline
 90
       15
 70
     1
 43
0.0
 10
4076.10172073551
 20
4275.28880711853
 10
4076.10172073551
 20
4275.535316105544
 10
4076.22672073551
 20
4275.53749798866
 10
4076.22672073551
 20
4277.22499798866
 42
-0.9999999999999998
 10
4076.22672073551
 20
4277.34999798866
 10
4076.22672073551
 20
4278.412997988659
 10
4075.55572073551
 20
4278.412997988659
 10
4075.55572073551
 20
4277.975997988661
 10
4075.64872073551
 20
4277.974374667622
 10
4075.64872073551
 20
4277.727621309698
 10
4075.55572073551
 20
4277.725997988659
 10
4075.55572073551
 20
4274.88149798866
 42
0.4142135623730949
 10
4075.58672073551
 20
4274.85049798866
 10
4076.176720735509
 20
4274.85049798866
 10
4076.176720735509
 20
4275.287497988661
  0
LWPOLYLINE
  5
147
330
2
100
AcDbEntity
  8
0
100
AcDbPolyline
 90
       20
 70
     1
 43
0.0
 10
4075.633845735509
 20
4277.939780684522
 10
4075.55572073551
 20
4277.94661573636
 10
4075.55572073551
 20
4278.601791724972
 10
4074.650093061218
 20
4278.601791724972
 42
0.4142135623730951
 10
4074.619093061218
 20
4278.570791724973
 10
4074.619093061218
 20
4277.668146410333
 10
4074.429638686311
 20
4277.664839471919
 42
0.4091108014277093
 10
4074.36872073551
 20
4277.60284891482
 10
4074.36872073551
 20
4276.47786573636
 10
4074.493720735509
 20
4276.47786573636
 10
4074.619029381394
 20
4276.603174382243
 10
4075.17572073551
 20
4276.603174382243
 10
4075.17572073551
 20
4276.884174382244
 10
4075.255720735509
 20
4276.884174382244
 10
4075.255720735509
 20
4276.497865736359
 10
4075.55572073551
 20
4276.497865736359
 10
4075.55572073551
 20
4276.684865736359
 42
-0.3422459893048229
 10
4075.55572073551
 20
4276.87186573636
 10
4075.55572073551
 20
4277.72786573636
 10
4075.633845735509
 20
4277.729229413308
  0
LWPOLYLINE
  5
148
330
2
100
AcDbEntity
  8
0
100
AcDbPolyline
 90
        8
 70
     1
 43
0.0
 10
4075.430303202995
 20
4275.827865736359
 10
4075.245303202995
 20
4275.827865736359
 42
-0.4142135623730951
 10
4075.120303202996
 20
4275.95286573636
 10
4075.120303202996
 20
4276.37286573636
 42
-0.4142135623730951
 10
4075.245303202995
 20
4276.497865736359
 10
4075.430303202995
 20
4276.497865736359
 42
-0.4142135623730951
 10
4075.555303202995
 20
4276.37286573636
 10
4075.555303202995
 20
4275.95286573636
 42
-0.4142135623730951
  0
LWPOLYLINE
  5
149
330
2
100
AcDbEntity
  8
0
100
AcDbPolyline
 90
       22
 70
     0
 43
0.0
 10
4075.320445610969
 20
4275.183973037169
 10
4075.320445610969
 20
4275.777947160437
 10
4075.118303189422
 20
4275.777947160437
 10
4075.118303189422
 20
4276.462697160439
 42
0.4142135623730951
 10
4075.103303189421
 20
4276.477697160437
 10
4074.008915959291
 20
4276.477697160437
 10
4074.008915959291
 20
4276.38265821332
 42
0.3899024490717824
 10
4073.807743107964
 20
4276.19765821332
 10
4073.758135882193
 20
4276.19765821332
 10
4073.758135882193
 20
4276.102697160438
 10
4073.883135882193
 20
4276.102697160438
 42
-0.6666666666666686
 10
4074.070635882192
 20
4276.102697160438
 10
4074.320303189423
 20
4276.102697160438
 10
4074.320303189423
 20
4275.916609490812
 42
-0.9946524064171082
 10
4074.320303189423
 20
4275.729609490812
 10
4074.320303189423
 20
4274.85397303717
 10
4075.195303189422
 20
4274.85397303717
 42
0.4142135623730951
 10
4075.320303189422
 20
4274.978973037169
 10
4075.320303189422
 20
4275.103973037169
 10
4075.003803189423
 20
4275.103973037169
 10
4075.003803189423
 20
4275.183973037169
 10
4075.316303189422
 20
4275.183973037169
  0
HATCH
  5
14A
330
2
100
AcDbEntity
  8
0
100
AcDbHatch
 10
0.0
 20
0.0
 30
0.0
210
0.0
220
0.0
230
1.0
  2
SOLID
 70
     1
 71
     0
 91
        1
 92
        7
 72
     1
 73
     1
 93
        2
 10
4073.882803189422
 20
4275.272207160439
 42
0.0
 10
4074.070303189421
 20
4275.272207160439
 42
-0.6666666666666311
 97
        0
 75
     1
 76
     1
 47
0.0010014887122476
 98
        1
 10
4073.997708385466
 20
4275.226147084092
1001
GradientColor1ACI
1070
     5
1001
GradientColor2ACI
1070
     2
1001
ACAD
1010
0.0
1020
0.0
1030
0.0
  0
LWPOLYLINE
  5
14B
330
2
100
AcDbEntity
  8
0
100
AcDbPolyline
 90
       11
 70
     1
 43
0.0
 10
4074.070303189421
 20
4275.272207160439
 10
4074.320303189423
 20
4275.272207160439
 10
4074.320303189423
 20
4274.898207160439
 10
4074.038803189422
 20
4274.898207160439
 42
-0.4142135623731695
 10
4074.007803189422
 20
4274.929207160439
 10
4074.007803189422
 20
4274.975731928725
 42
0.235730494161761
 10
4073.995434887743
 20
4275.000508123301
 10
4073.7701714911
 20
4275.169906197576
 42
-0.235730494161718
 10
4073.757803189422
 20
4275.194682392153
 10
4073.757803189422
 20
4275.272207160439
 10
4073.882803189422
 20
4275.272207160439
 42
0.6666666666666588
  0
LWPOLYLINE
  5
14C
330
2
100
AcDbEntity
  8
0
100
AcDbPolyline
 90
        4
 70
     0
 43
0.0
 10
4073.282097780218
 20
4275.984327160439
 10
4074.211303189422
 20
4275.984327160439
 10
4074.211303189422
 20
4276.102697160438
 10
4073.282097780218
 20
4276.102697160438
  0
LWPOLYLINE
  5
14D
330
2
100
AcDbEntity
  8
0
100
AcDbPolyline
 90
        4
 70
     0
 43
0.0
 10
4073.282097780218
 20
4275.390577160439
 10
4074.211303189422
 20
4275.390577160439
 10
4074.211303189422
 20
4275.272207160439
 10
4073.282097780218
 20
4275.272207160439
  0
LWPOLYLINE
  5
14E
330
2
100
AcDbEntity
  8
0
100
AcDbPolyline
 90
       14
 70
     1
 43
0.0
 10
4074.001478448473
 20
4275.499952160439
 42
0.3359746306540741
 10
4073.981115689422
 20
4275.467448250691
 10
4074.005303189422
 20
4275.431577160438
 42
-0.4142135623730951
 10
4073.989678189422
 20
4275.415952160439
 10
4073.808053189422
 20
4275.415952160439
 10
4073.808053189422
 20
4275.958952160438
 10
4073.989678189422
 20
4275.958952160438
 42
-0.414213562373094
 10
4074.005303189422
 20
4275.943327160439
 10
4073.981115689422
 20
4275.90783937238
 42
0.3208708054700532
 10
4074.001841357554
 20
4275.874952160438
 10
4074.058678189422
 20
4275.874952160438
 42
-0.4142135623730951
 10
4074.074303189422
 20
4275.859327160438
 10
4074.074303189422
 20
4275.515577160438
 42
-0.4142135623730951
 10
4074.058678189422
 20
4275.499952160439
  0
LWPOLYLINE
  5
14F
330
2
100
AcDbEntity
  8
0
100
AcDbPolyline
 90
       14
 70
     1
 43
0.0
 10
4074.000260048329
 20
4275.506952160439
 42
0.3593608004949541
 10
4073.974356032448
 20
4275.464952273114
 10
4073.998103799167
 20
4275.429733326002
 42
-0.3524310491054993
 10
4073.989678189422
 20
4275.422952160439
 10
4073.808053189422
 20
4275.422952160439
 10
4073.808053189422
 20
4275.951952160439
 10
4073.989678189422
 20
4275.951952160439
 42
-0.3518693664465323
 10
4073.998100096782
 20
4275.945187832737
 10
4073.974296592604
 20
4275.910263441571
 42
0.3446308864324803
 10
4074.000535506605
 20
4275.867952160438
 10
4074.058678189422
 20
4275.867952160438
 42
-0.4142135623730946
 10
4074.067303189422
 20
4275.859327160438
 10
4074.067303189422
 20
4275.515577160438
 42
-0.4142135623730946
 10
4074.058678189422
 20
4275.506952160439
  0
LWPOLYLINE
  5
150
330
2
100
AcDbEntity
  8
0
100
AcDbPolyline
 90
       10
 70
     1
 43
0.0
 10
4073.996740689421
 20
4275.531202160439
 42
0.3584554666094669
 10
4073.949865689422
 20
4275.466298314285
 10
4073.949865689422
 20
4275.447202160438
 10
4073.839303189422
 20
4275.447202160438
 10
4073.839303189422
 20
4275.927702160438
 10
4073.949865689422
 20
4275.927702160438
 10
4073.949865689422
 20
4275.908606006591
 42
0.3467993108968364
 10
4073.996740689421
 20
4275.843702160439
 10
4074.043053189422
 20
4275.843702160439
 10
4074.043053189422
 20
4275.531202160439
  0
LWPOLYLINE
  5
151
330
2
100
AcDbEntity
  8
0
100
AcDbPolyline
 90
        6
 70
     0
 43
0.0
 10
4073.836303189422
 20
4275.415952160439
 10
4073.836303189422
 20
4275.406202160438
 10
4073.798303189422
 20
4275.406202160438
 10
4073.798303189422
 20
4275.968702160438
 10
4073.836303189422
 20
4275.968702160438
 10
4073.836303189422
 20
4275.958952160438
  0
LINE
  5
152
330
2
100
AcDbEntity
  8
0
100
AcDbLine
 10
4073.989678189422
 20
4275.958952160438
 30
0.0
 11
4073.989678189422
 21
4275.984327160439
 31
0.0
  0
LINE
  5
153
330
2
100
AcDbEntity
  8
0
100
AcDbLine
 10
4073.836303189422
 20
4275.958952160438
 30
0.0
 11
4073.836303189422
 21
4275.984327160439
 31
0.0
  0
LINE
  5
154
330
2
100
AcDbEntity
  8
0
100
AcDbLine
 10
4073.989678189422
 20
4275.415952160439
 30
0.0
 11
4073.989678189422
 21
4275.390577160439
 31
0.0
  0
LINE
  5
155
330
2
100
AcDbEntity
  8
0
100
AcDbLine
 10
4073.836303189422
 20
4275.415952160439
 30
0.0
 11
4073.836303189422
 21
4275.390577160439
 31
0.0
  0
HATCH
  5
156
330
2
100
AcDbEntity
  8
0
100
AcDbHatch
 10
0.0
 20
0.0
 30
0.0
210
0.0
220
0.0
230
1.0
  2
DOTS
 70
     0
 71
     0
 91
        2
 92
        7
 72
     0
 73
     1
 93
        4
 10
4073.989678189422
 20
4275.415952160439
 10
4073.989678189422
 20
4275.390577160439
 10
4073.836303189422
 20
4275.390577160439
 10
4073.836303189422
 20
4275.415952160439
 97
        0
 92
        7
 72
     0
 73
     1
 93
        4
 10
4073.989678189422
 20
4275.984327160439
 10
4073.989678189422
 20
4275.958952160438
 10
4073.836303189422
 20
4275.958952160438
 10
4073.836303189422
 20
4275.984327160439
 97
        0
 75
     0
 76
     1
 52
450.0
 41
0.1
 77
     0
 78
     1
 53
90.0
 43
4069.207259711827
 44
4269.297097414901
 45
0.00625
 46
0.003125
 79
     2
 49
0.0
 49
-0.00625
 47
0.0006001443632006
 98
        2
 10
4073.932093249373
 20
4275.404231870291
 10
4073.928492375574
 20
4275.974116799686
  0
HATCH
  5
157
330
2
100
AcDbEntity
  8
0
100
AcDbHatch
 10
0.0
 20
0.0
 30
0.0
210
0.0
220
0.0
230
1.0
  2
DASH
 70
     0
 71
     0
 91
        1
 92
        7
 72
     1
 73
     1
 93
       16
 10
4074.074303189422
 20
4275.859327160438
 42
0.4142135623730951
 10
4074.058678189422
 20
4275.874952160438
 42
0.0
 10
4074.001841357554
 20
4275.874952160438
 42
-0.3208708054700533
 10
4073.981115689422
 20
4275.90783937238
 42
0.0
 10
4074.005303189422
 20
4275.943327160439
 42
0.414213562373094
 10
4073.989678189422
 20
4275.958952160438
 42
0.0
 10
4073.989678189422
 20
4275.984327160439
 42
0.0
 10
4074.211303189421
 20
4275.984327160437
 42
0.0
 10
4074.211303189421
 20
4275.390577160439
 42
0.0
 10
4073.989678189422
 20
4275.390577160439
 42
0.0
 10
4073.989678189422
 20
4275.415952160439
 42
0.4142135623730951
 10
4074.005303189422
 20
4275.431577160438
 42
0.0
 10
4073.981115689422
 20
4275.467448250691
 42
-0.3359746306540741
 10
4074.001478448473
 20
4275.499952160439
 42
0.0
 10
4074.058678189422
 20
4275.499952160439
 42
0.4142135623730951
 10
4074.074303189422
 20
4275.515577160438
 42
0.0
 97
        0
 75
     0
 76
     1
 52
450.0
 41
0.1
 77
     0
 78
     1
 53
90.0
 43
4069.207259711827
 44
4269.297097414901
 45
0.0125
 46
0.0125
 79
     2
 49
0.0125
 49
-0.0125
 47
0.0009600803746669
 98
        1
 10
4074.125142461616
 20
4275.736473640523
  0
HATCH
  5
158
330
2
100
AcDbEntity
  8
0
100
AcDbHatch
 10
0.0
 20
0.0
 30
0.0
210
0.0
220
0.0
230
1.0
  2
SOLID
 70
     1
 71
     0
 91
        1
 92
        7
 72
     1
 73
     1
 93
        2
 10
4073.882803189422
 20
4276.102697160438
 42
0.0
 10
4074.070303189421
 20
4276.102697160438
 42
0.6666666666666311
 97
        0
 75
     1
 76
     1
 47
0.0010014887122476
 98
        1
 10
4073.997708385466
 20
4276.148757236785
1001
GradientColor1ACI
1070
     5
1001
GradientColor2ACI
1070
     2
1001
ACAD
1010
0.0
1020
0.0
1030
0.0
  0
LINE
  5
159
330
2
100
AcDbEntity
  8
0
100
AcDbLine
 10
4074.320303189423
 20
4275.272207160439
 30
0.0
 11
4074.211303189422
 21
4276.102697160438
 31
0.0
  0
LWPOLYLINE
  5
15A
330
2
100
AcDbEntity
  8
0
100
AcDbPolyline
 90
        8
 70
     0
 43
0.0
 10
4074.320303189423
 20
4275.272207160439
 10
4074.320303189423
 20
4276.102697160438
 10
4074.211303189422
 20
4276.102697160438
 10
4074.211303189422
 20
4275.272207160439
 10
4074.320303189423
 20
4275.272207160439
 10
4074.211303189422
 20
4276.102697160438
 10
4074.211303189422
 20
4275.272207160439
 10
4074.320303189423
 20
4276.102697160438
  0
LWPOLYLINE
  5
15B
102
{ACAD_REACTORS
330
16F
330
15E
102
}
330
2
100
AcDbEntity
  8
0
100
AcDbPolyline
 90
       10
 70
     1
 43
0.0
 10
4076.005902722374
 20
4274.801006179125
 10
4075.725220722741
 20
4274.85049798866
 10
4075.663220722741
 20
4274.85049798866
 10
4075.663220722741
 20
4274.41299798866
 42
0.4142135623730951
 10
4075.725720722741
 20
4274.35049798866
 10
4080.725720722741
 20
4274.35049798866
 42
0.4142135623730951
 10
4080.78822072274
 20
4274.41299798866
 10
4080.78822072274
 20
4274.85049798866
 10
4080.72622072274
 20
4274.85049798866
 10
4080.445538723108
 20
4274.801006179125
  0
DIMENSION
  5
15C
102
{ACAD_XDICTIONARY
360
15D
102
}
102
{ACAD_REACTORS
330
15E
102
}
330
2
100
AcDbEntity
  8
0
100
AcDbDimension
  2
*D9
 10
4078.881470036628
 20
4274.35049798866
 30
0.0
 11
4079.567995489775
 21
4275.352019799053
 31
0.0
 70
   128
 71
     5
 42
0.4999999999890861
  3
Knife
100
AcDbAlignedDimension
 13
4080.78822072274
 23
4274.850497988649
 33
0.0
 14
4080.725720722741
 24
4274.35049798866
 34
0.0
 50
90.0
100
AcDbRotatedDimension
1001
ACAD
1000
DSTYLE
1002
{
1070
    40
1040
1.0
1002
}
  0
DIMENSION
  5
16D
102
{ACAD_XDICTIONARY
360
16E
102
}
102
{ACAD_REACTORS
330
16F
102
}
330
2
100
AcDbEntity
  8
0
100
AcDbDimension
  2
*D10
 10
4075.663220722741
 20
4273.608568078303
 30
0.0
 11
4078.22572072274
 21
4273.608568078303
 31
0.0
 71
     5
 42
5.125
  3
Knife
100
AcDbAlignedDimension
 13
4080.78822072274
 23
4274.41299798866
 33
0.0
 14
4075.663220722741
 24
4274.41299798866
 34
0.0
 50
180.0
100
AcDbRotatedDimension
1001
ACAD
1000
DSTYLE
1002
{
1070
    40
1040
1.0
1002
}
  0
TEXT
  5
17E
330
2
100
AcDbEntity
  8
0
100
AcDbText
 10
4076.270372086918
 20
4270.392250650019
 30
0.0
 40
0.375
  1
6 9/16" JAMB C/W POCKET
 41
0.6
 51
5.0
  7
DIMTXT
 72
     1
 11
4078.408931266475
 21
4270.392250650019
 31
0.0
100
AcDbText
  0
DIMENSION
  5
17F
102
{ACAD_XDICTIONARY
360
180
102
}
102
{ACAD_REACTORS
330
181
102
}
330
2
100
AcDbEntity
  8
0
100
AcDbDimension
  2
*D11
 10
4080.22672073551
 20
4276.984633533298
 30
0.0
 11
4078.22672073551
 21
4276.984633533298
 31
0.0
 71
     5
 42
4.0
  3
Knife
100
AcDbAlignedDimension
 13
4076.22672073551
 23
4276.381247988661
 33
0.0
 14
4080.22672073551
 24
4276.381247988661
 34
0.0
 50
180.0
100
AcDbRotatedDimension
1001
ACAD
1000
DSTYLE
1002
{
1070
    40
1040
1.0
1002
}
  0
LWPOLYLINE
  5
190
330
2
100
AcDbEntity
  8
0
100
AcDbPolyline
 90
        8
 70
     1
 43
0.0
 10
4076.212656518904
 20
4279.224997988658
 10
4075.96502092962
 20
4279.268662824434
 10
4076.21172073551
 20
4280.667766948477
 10
4076.21172073551
 20
4281.47599798866
 10
4075.570720735509
 20
4281.47599798866
 42
0.4142135623730951
 10
4075.55572073551
 20
4281.460997988659
 10
4075.55572073551
 20
4278.412997988659
 10
4076.212656518904
 20
4278.412997988659
  0
LWPOLYLINE
  5
191
102
{ACAD_REACTORS
330
1A6
330
195
102
}
330
2
100
AcDbEntity
  8
0
100
AcDbPolyline
 90
       11
 70
     0
 43
0.0
 10
4075.663220735509
 20
4281.47599798866
 10
4075.663220735509
 20
4281.663997988661
 42
-0.4142135623730951
 10
4075.725220735507
 20
4281.725997988659
 10
4080.726220735511
 20
4281.725997988659
 42
-0.4142135623730951
 10
4080.788220735509
 20
4281.663997988661
 10
4080.788220735509
 20
4281.47599798866
 10
4080.445220735508
 20
4281.47599798866
 10
4080.445220735508
 20
4281.537997988661
 10
4076.00822073551
 20
4281.537997988661
 10
4076.00822073551
 20
4281.47599798866
 10
4075.665220735509
 20
4281.47599798866
  0
LWPOLYLINE
  5
192
330
2
100
AcDbEntity
  8
0
  6
Continuous
100
AcDbPolyline
 90
        9
 70
     1
 43
0.0
 10
4080.17847073551
 20
4280.287997988655
 10
4080.424672673764
 20
4280.331410033073
 10
4080.226470735511
 20
4281.475497988656
 10
4080.81984573551
 20
4281.475497988656
 42
-0.4142135623730934
 10
4080.83547073551
 20
4281.459872988655
 10
4080.83547073551
 20
4279.475497988655
 10
4080.647970735511
 20
4279.475497988655
 42
-1.019490806375842
 10
4080.46047073551
 20
4279.475497988655
 10
4080.17847073551
 20
4279.475497988655
  0
DIMENSION
  5
193
102
{ACAD_XDICTIONARY
360
194
102
}
102
{ACAD_REACTORS
330
195
102
}
330
2
100
AcDbEntity
  8
0
100
AcDbDimension
  2
*D12
 10
4080.788220735509
 20
4282.398467261448
 30
0.0
 11
4078.228733861298
 21
4282.398467261448
 31
0.0
 71
     5
 42
5.118973748421922
  3
Knife
100
AcDbAlignedDimension
 13
4075.669246987087
 23
4281.690661437194
 33
0.0
 14
4080.788220735509
 24
4281.663997988661
 34
0.0
 50
180.0
100
AcDbRotatedDimension
1001
ACAD
1000
DSTYLE
1002
{
1070
    40
1040
1.0
1002
}
  0
DIMENSION
  5
1A4
102
{ACAD_XDICTIONARY
360
1A5
102
}
102
{ACAD_REACTORS
330
1A6
102
}
330
2
100
AcDbEntity
  8
0
100
AcDbDimension
  2
*D13
 10
4075.257731363333
 20
4281.725997988659
 30
0.0
 11
4074.642232936075
 21
4281.24357248832
 31
0.0
 70
   128
 71
     5
 42
0.25
  3
Knife
100
AcDbAlignedDimension
 13
4075.663220735509
 23
4281.47599798866
 33
0.0
 14
4075.725220735507
 24
4281.725997988659
 34
0.0
 50
90.0
100
AcDbRotatedDimension
1001
ACAD
1000
DSTYLE
1002
{
1070
    40
1040
1.0
1002
}
  0
LWPOLYLINE
  5
1B5
330
2
100
AcDbEntity
  8
0
  6
Continuous
100
AcDbPolyline
 90
       16
 70
     1
 43
0.0
 10
4071.884412596353
 20
4292.822103143701
 10
4072.103787596351
 20
4292.822103143701
 42
-0.4142135623730951
 10
4072.11941259635
 20
4292.806478143702
 10
4072.11941259635
 20
4289.134103143707
 10
4072.026412596353
 20
4289.134103143707
 10
4072.026412596353
 20
4288.884103143707
 10
4072.11941259635
 20
4288.884103143707
 10
4072.11941259635
 20
4288.212728143694
 42
-0.4142135623730951
 10
4072.103787596351
 20
4288.197103143693
 10
4071.497412596351
 20
4288.197103143701
 10
4071.497412596351
 20
4288.634103143706
 10
4071.540412596353
 20
4288.634103143706
 10
4071.540412596353
 20
4288.884103143707
 10
4071.447412596351
 20
4288.884103143707
 10
4071.447412596351
 20
4292.822103143701
 10
4071.665412596352
 20
4292.822103143701
 42
0.9979286332485141
  0
LWPOLYLINE
  5
1B6
330
2
100
AcDbEntity
  8
0
100
AcDbPolyline
 90
       16
 70
     0
 43
0.0
 10
4073.623293072417
 20
4289.023582185468
 10
4073.623293072417
 20
4288.867332185469
 10
4073.592043072417
 20
4288.867332185469
 10
4073.623293072417
 20
4288.867332185469
 10
4073.623293072417
 20
4288.992182185468
 42
0.4142135623730951
 10
4073.591893072417
 20
4289.023582185468
 10
4073.498443072417
 20
4289.023582185468
 42
0.4142135623730951
 10
4073.467043072417
 20
4288.992182185468
 10
4073.467043072417
 20
4288.820607185468
 42
-0.4142135623730951
 10
4073.435643072417
 20
4288.789207185469
 10
4073.060943072417
 20
4288.789207185469
 42
-0.4142135623730951
 10
4073.029543072418
 20
4288.820607185468
 10
4073.029543072418
 20
4289.132807185469
 42
-0.4142135623730951
 10
4073.060943072417
 20
4289.164207185468
 10
4073.591893072417
 20
4289.164207185468
 42
-0.4142135623730951
 10
4073.623293072417
 20
4289.132807185469
  0
LWPOLYLINE
  5
1B7
330
2
100
AcDbEntity
  8
0
100
AcDbPolyline
 90
       19
 70
     1
 43
0.0
 10
4073.592043072417
 20
4288.961082185468
 10
4073.592043072417
 20
4288.867332185469
 10
4073.592043072417
 20
4288.960932185468
 42
0.4142135623730951
 10
4073.560643072418
 20
4288.992332185468
 10
4073.529693072417
 20
4288.992332185468
 42
0.4142135623730951
 10
4073.498293072417
 20
4288.960932185468
 10
4073.498293072417
 20
4288.789357185468
 42
-0.4142135623730951
 10
4073.466893072417
 20
4288.757957185469
 10
4073.029693072417
 20
4288.757957185469
 42
-0.4142135623730951
 10
4072.998293072418
 20
4288.789357185468
 10
4072.998293072418
 20
4289.164057185469
 42
-0.4142135623730951
 10
4073.029693072417
 20
4289.195457185468
 10
4073.623143072417
 20
4289.195457185468
 42
-0.4142135623730951
 10
4073.654543072417
 20
4289.164057185469
 10
4073.654543072417
 20
4288.867482185469
 42
-0.4142135623730951
 10
4073.623143072417
 20
4288.836082185468
 10
4073.592193072417
 20
4288.836082185468
 42
-0.4142135623730951
 10
4073.560793072417
 20
4288.867482185469
 10
4073.560793072417
 20
4288.961082185468
  0
LWPOLYLINE
  5
1B8
330
2
100
AcDbEntity
  8
0
100
AcDbPolyline
 90
        3
 70
     0
 43
0.0
 10
4073.029543072418
 20
4289.132957185468
 10
4073.623293072417
 20
4289.132957185468
 10
4073.623293072417
 20
4288.961082185468
  0
LWPOLYLINE
  5
1B9
330
2
100
AcDbEntity
  8
0
100
AcDbPolyline
 90
       11
 70
     0
 43
0.0
 10
4073.654543072417
 20
4289.132957185468
 10
4073.842043072417
 20
4289.132957185468
 10
4073.842043072417
 20
4288.976857185468
 42
0.4142135623730951
 10
4073.873443072417
 20
4288.945457185469
 10
4074.060643072417
 20
4288.945457185469
 42
0.4142135623730951
 10
4074.092043072417
 20
4288.976857185468
 10
4074.092043072417
 20
4289.164057185469
 42
0.4142135623730951
 10
4074.060643072417
 20
4289.195457185468
 10
4073.873443072417
 20
4289.195457185468
 42
0.412815076773199
 10
4073.842043430699
 20
4289.164207185468
 10
4073.654543072417
 20
4289.164207185468
  0
LWPOLYLINE
  5
1BA
330
2
100
AcDbEntity
  8
0
100
AcDbPolyline
 90
        4
 70
     0
 43
0.0
 10
4072.998293072418
 20
4289.164207185468
 10
4072.717043072417
 20
4289.164207185468
 10
4072.717043072417
 20
4289.132957185468
 10
4072.998293072418
 20
4289.132957185468
  0
LWPOLYLINE
  5
1BB
330
2
100
AcDbEntity
  8
0
  6
HIDDEN2
100
AcDbPolyline
 90
        4
 70
     0
 43
0.02
 10
4073.52966197087
 20
4288.960667061063
 10
4073.52966197087
 20
4288.868767285241
 42
0.4142135623730951
 10
4073.57616197087
 20
4288.82226728524
 10
4074.820694656886
 20
4288.82226728524
  0
LWPOLYLINE
  5
1BD
330
2
100
AcDbEntity
  8
0
100
AcDbPolyline
 90
        2
 70
     1
 43
0.03125
 10
4073.51403697087
 20
4288.960667061063
 42
1.0
 10
4073.54528697087
 20
4288.960667061063
 42
1.0
  0
LWPOLYLINE
  5
1BE
330
2
100
AcDbEntity
  8
0
  6
Continuous
100
AcDbPolyline
 90
       20
 70
     1
 43
0.0
 10
4072.11941259635
 20
4289.134103143707
 10
4072.11941259635
 20
4290.365103143706
 10
4072.41941259635
 20
4290.365103143706
 10
4072.41941259635
 20
4289.977794497823
 10
4072.499412596351
 20
4289.977794497823
 10
4072.499412596351
 20
4290.258794497822
 10
4072.936103950467
 20
4290.258794497822
 10
4073.06141259635
 20
4290.384103143707
 10
4073.18641259635
 20
4290.384103143707
 10
4073.18641259635
 20
4289.259119965247
 42
-0.4091108014277093
 10
4073.12549464555
 20
4289.197129408147
 10
4072.718040270642
 20
4289.190017265578
 10
4072.718040270642
 20
4289.065017265579
 10
4072.936040270643
 20
4289.061212061424
 10
4072.936040270643
 20
4288.291177155094
 42
-0.4142135623730951
 10
4072.905040270643
 20
4288.260177155094
 10
4072.119412596351
 20
4288.260177155094
 10
4072.119412596351
 20
4288.915353143706
 10
4072.041287596351
 20
4288.922188195544
 10
4072.041287596351
 20
4289.13273946676
  0
ARC
  5
1BF
330
2
100
AcDbEntity
  8
0010010007
100
AcDbCircle
 10
4072.586412596352
 20
4290.289794497822
 30
0.0
 40
0.0310000000010811
100
AcDbArc
 50
179.999999998593
 51
200.7835595944321
  0
LINE
  5
1C0
330
2
100
AcDbEntity
  8
0010010007
100
AcDbLine
 10
4072.555412596351
 20
4290.289794497822
 30
0.0
 11
4072.555412596351
 21
4290.353103143707
 31
0.0
  0
LINE
  5
1C1
330
2
100
AcDbEntity
  8
0010010007
100
AcDbLine
 10
4072.57541259635
 20
4290.289794497822
 30
0.0
 11
4072.57541259635
 21
4290.353103143707
 31
0.0
  0
ARC
  5
1C2
330
2
100
AcDbEntity
  8
0010010007
100
AcDbCircle
 10
4072.586412596351
 20
4290.289794497822
 30
0.0
 40
0.0110000000004202
100
AcDbArc
 50
180.0
 51
270.0
  0
ARC
  5
1C3
330
2
100
AcDbEntity
  8
0010010007
100
AcDbCircle
 10
4072.586412596351
 20
4290.353103143707
 30
0.0
 40
0.0309999999999491
100
AcDbArc
 50
90.0
 51
180.0
  0
ARC
  5
1C4
330
2
100
AcDbEntity
  8
0010010007
100
AcDbCircle
 10
4072.586412596351
 20
4290.353103143707
 30
0.0
 40
0.011000000000422
100
AcDbArc
 50
90.0
 51
180.0
  0
LINE
  5
1C5
330
2
100
AcDbEntity
  8
0010010007
100
AcDbLine
 10
4072.586412596351
 20
4290.384103143707
 30
0.0
 11
4072.812470265943
 21
4290.384103143707
 31
0.0
  0
ARC
  5
1C6
330
2
100
AcDbEntity
  8
0010010007
100
AcDbCircle
 10
4072.812470265943
 20
4290.353103143707
 30
0.0
 40
0.0309999999999491
100
AcDbArc
 50
0.0
 51
90.0
  0
ARC
  5
1C7
330
2
100
AcDbEntity
  8
0010010007
100
AcDbCircle
 10
4072.812470265943
 20
4290.353103143707
 30
0.0
 40
0.011000000000422
100
AcDbArc
 50
0.0
 51
90.0
  0
LINE
  5
1C8
330
2
100
AcDbEntity
  8
0010010007
100
AcDbLine
 10
4072.843470265944
 20
4290.353103143707
 30
0.0
 11
4072.843470265944
 21
4290.289794497822
 31
0.0
  0
LINE
  5
1C9
330
2
100
AcDbEntity
  8
0010010007
100
AcDbLine
 10
4072.823470265944
 20
4290.353103143707
 30
0.0
 11
4072.823470265944
 21
4290.289794497822
 31
0.0
  0
LINE
  5
1CA
330
2
100
AcDbEntity
  8
0010010007
100
AcDbLine
 10
4072.812470265943
 20
4290.258794497822
 30
0.0
 11
4072.46941259635
 21
4290.258794497822
 31
0.0
  0
LINE
  5
1CB
330
2
100
AcDbEntity
  8
0010010007
100
AcDbLine
 10
4072.812470265943
 20
4290.278794497822
 30
0.0
 11
4072.586412596351
 21
4290.278794497822
 31
0.0
  0
ARC
  5
1CC
330
2
100
AcDbEntity
  8
0010010007
100
AcDbCircle
 10
4072.812470265943
 20
4290.289794497822
 30
0.0
 40
0.0110000000004202
100
AcDbArc
 50
270.0
 51
0.0
  0
ARC
  5
1CD
330
2
100
AcDbEntity
  8
0010010007
100
AcDbCircle
 10
4072.812470265943
 20
4290.289794497822
 30
0.0
 40
0.0309999999999491
100
AcDbArc
 50
270.0
 51
0.0
  0
LINE
  5
1CE
330
2
100
AcDbEntity
  8
0010010007
100
AcDbLine
 10
4072.46941259635
 20
4290.258794497822
 30
0.0
 11
4072.46941259635
 21
4290.155464934569
 31
0.0
  0
LINE
  5
1CF
330
2
100
AcDbEntity
  8
0010010007
100
AcDbLine
 10
4072.46941259635
 20
4290.155464934569
 30
0.0
 11
4072.499412596351
 21
4290.172785442645
 31
0.0
  0
LINE
  5
1D0
330
2
100
AcDbEntity
  8
0010010007
100
AcDbLine
 10
4072.499412596351
 20
4290.172785442645
 30
0.0
 11
4072.499412596351
 21
4290.156115005898
 31
0.0
  0
LINE
  5
1D1
330
2
100
AcDbEntity
  8
0010010007
100
AcDbLine
 10
4072.499412596351
 20
4290.156115005898
 30
0.0
 11
4072.46941259635
 21
4290.138794497823
 31
0.0
  0
LINE
  5
1D2
330
2
100
AcDbEntity
  8
0010010007
100
AcDbLine
 10
4072.46941259635
 20
4290.138794497823
 30
0.0
 11
4072.46941259635
 21
4290.086245570286
 31
0.0
  0
LINE
  5
1D3
330
2
100
AcDbEntity
  8
0010010007
100
AcDbLine
 10
4072.46941259635
 20
4290.086245570286
 30
0.0
 11
4072.499412596351
 21
4290.103566078363
 31
0.0
  0
LINE
  5
1D4
330
2
100
AcDbEntity
  8
0010010007
100
AcDbLine
 10
4072.499412596351
 20
4290.103566078363
 30
0.0
 11
4072.499412596351
 21
4290.086115005897
 31
0.0
  0
LINE
  5
1D5
330
2
100
AcDbEntity
  8
0010010007
100
AcDbLine
 10
4072.499412596351
 20
4290.086115005897
 30
0.0
 11
4072.46941259635
 21
4290.068794497822
 31
0.0
  0
LINE
  5
1D6
330
2
100
AcDbEntity
  8
0010010007
100
AcDbLine
 10
4072.46941259635
 20
4290.068794497822
 30
0.0
 11
4072.46941259635
 21
4290.028794497822
 31
0.0
  0
LINE
  5
1D7
330
2
100
AcDbEntity
  8
0010010007
100
AcDbLine
 10
4072.46941259635
 20
4290.028794497822
 30
0.0
 11
4072.449412596351
 21
4290.028794497822
 31
0.0
  0
LINE
  5
1D8
330
2
100
AcDbEntity
  8
0010010007
100
AcDbLine
 10
4072.449412596351
 20
4290.028794497822
 30
0.0
 11
4072.449412596351
 21
4290.068794497822
 31
0.0
  0
LINE
  5
1D9
330
2
100
AcDbEntity
  8
0010010007
100
AcDbLine
 10
4072.449412596351
 20
4290.068794497822
 30
0.0
 11
4072.41941259635
 21
4290.086115005897
 31
0.0
  0
LINE
  5
1DA
330
2
100
AcDbEntity
  8
0010010007
100
AcDbLine
 10
4072.41941259635
 20
4290.086115005897
 30
0.0
 11
4072.41941259635
 21
4290.103018721888
 31
0.0
  0
LINE
  5
1DB
330
2
100
AcDbEntity
  8
0010010007
100
AcDbLine
 10
4072.41941259635
 20
4290.103018721888
 30
0.0
 11
4072.449412596351
 21
4290.085698213812
 31
0.0
  0
LINE
  5
1DC
330
2
100
AcDbEntity
  8
0010010007
100
AcDbLine
 10
4072.449412596351
 20
4290.085698213812
 30
0.0
 11
4072.449412596351
 21
4290.138169497822
 31
0.0
  0
LINE
  5
1DD
330
2
100
AcDbEntity
  8
0010010007
100
AcDbLine
 10
4072.449412596351
 20
4290.138169497822
 30
0.0
 11
4072.41941259635
 21
4290.155490005898
 31
0.0
  0
LINE
  5
1DE
330
2
100
AcDbEntity
  8
0010010007
100
AcDbLine
 10
4072.41941259635
 20
4290.155490005898
 30
0.0
 11
4072.41941259635
 21
4290.172056179855
 31
0.0
  0
LINE
  5
1DF
330
2
100
AcDbEntity
  8
0010010007
100
AcDbLine
 10
4072.41941259635
 20
4290.172056179855
 30
0.0
 11
4072.449412596351
 21
4290.154735671779
 31
0.0
  0
LINE
  5
1E0
330
2
100
AcDbEntity
  8
0010010007
100
AcDbLine
 10
4072.449412596351
 20
4290.154735671779
 30
0.0
 11
4072.449412596351
 21
4290.278794497822
 31
0.0
  0
LINE
  5
1E1
330
2
100
AcDbEntity
  8
0010010007
100
AcDbLine
 10
4072.449412596351
 20
4290.278794497822
 30
0.0
 11
4072.557429842858
 21
4290.278794497822
 31
0.0
  0
LINE
  5
1E2
330
2
100
AcDbEntity
  8
0
100
AcDbLine
 10
4072.586412596351
 20
4290.364103143708
 30
0.0
 11
4072.812470265943
 21
4290.364103143708
 31
0.0
  0
INSERT
  5
1E3
330
2
100
AcDbEntity
  8
0
100
AcDbBlockReference
  2
86NPF141
 10
4072.646647145521
 20
4291.133510857479
 30
0.0
 41
-1.0
 43
2.0
  0
INSERT
  5
1E4
330
2
100
AcDbEntity
  8
0
100
AcDbBlockReference
  2
11HINGE
 10
4072.11941259635
 20
4290.365103143706
 30
0.0
 41
-1.0
 42
-1.0
 43
2.0
 50
180.0
  0
LWPOLYLINE
  5
218
330
2
100
AcDbEntity
  8
0
100
AcDbPolyline
 90
        8
 70
     0
 43
0.0
 10
4073.792555017897
 20
4290.678853143717
 10
4073.792555017897
 20
4291.321103143718
 10
4073.901555017897
 20
4291.321103143718
 10
4073.901555017897
 20
4290.678853143717
 10
4073.792555017897
 20
4290.678853143717
 10
4073.901555017897
 20
4291.321103143717
 10
4073.792555017897
 20
4291.321103143718
 10
4073.901555017897
 20
4290.678853143717
  0
HATCH
  5
219
330
2
100
AcDbEntity
  8
0
  6
Continuous
100
AcDbHatch
 10
0.0
 20
0.0
 30
0.0
210
0.0
220
0.0
230
1.0
  2
DASH
 70
     0
 71
     0
 91
        1
 92
        7
 72
     1
 73
     1
 93
       16
 10
4074.123021368645
 20
4290.796853143719
 42
0.0
 10
4074.123021368645
 20
4290.822228143719
 42
-0.414213562373094
 10
4074.107396368645
 20
4290.837853143719
 42
0.0
 10
4074.131583868645
 20
4290.873340931777
 42
0.3208708054700796
 10
4074.110858200512
 20
4290.906228143719
 42
0.0
 10
4074.054021368644
 20
4290.906228143719
 42
-0.4142135623730951
 10
4074.038396368645
 20
4290.921853143719
 42
0.0
 10
4074.038396368645
 20
4291.078103143719
 42
-0.4142135623730951
 10
4074.054021368644
 20
4291.093728143719
 42
0.0
 10
4074.111221109594
 20
4291.093728143719
 42
0.3359746306540742
 10
4074.131583868645
 20
4291.126232053465
 42
0.0
 10
4074.107396368645
 20
4291.16210314372
 42
-0.4142135623730951
 10
4074.123021368645
 20
4291.177728143719
 42
0.0
 10
4074.123021368645
 20
4291.203103143719
 42
0.0
 10
4073.901396368645
 20
4291.203103143719
 42
0.0
 10
4073.901396368645
 20
4290.796853143719
 42
0.0
 97
        0
 75
     0
 76
     1
 52
270.0
 41
0.1
 77
     0
 78
     1
 53
270.0
 43
4071.065860213767
 44
4308.682109609026
 45
0.0125
 46
-0.0125
 79
     2
 49
0.0125
 49
-0.0125
 47
0.0022535086831111
 98
        1
 10
4074.001521629229
 20
4290.889710961209
  0
HATCH
  5
21A
330
2
100
AcDbEntity
  8
0
  6
Continuous
100
AcDbHatch
 10
0.0
 20
0.0
 30
0.0
210
0.0
220
0.0
230
1.0
  2
DOTS
 70
     0
 71
     0
 91
        2
 92
        7
 72
     0
 73
     1
 93
        4
 10
4074.276396368644
 20
4290.796853143719
 10
4074.276396368644
 20
4290.822228143719
 10
4074.123021368645
 20
4290.822228143719
 10
4074.123021368645
 20
4290.796853143719
 97
        0
 92
        7
 72
     0
 73
     1
 93
        4
 10
4074.276396368644
 20
4291.177728143719
 10
4074.276396368644
 20
4291.203103143719
 10
4074.123021368645
 20
4291.203103143719
 10
4074.123021368645
 20
4291.177728143719
 97
        0
 75
     0
 76
     1
 52
270.0
 41
0.1
 77
     0
 78
     1
 53
270.0
 43
4071.065860213767
 44
4308.682109609026
 45
0.00625
 46
-0.003125
 79
     2
 49
0.0
 49
-0.00625
 47
0.0009915749623601
 98
        2
 10
4074.206039584962
 20
4290.812378044985
 10
4074.220913215972
 20
4291.195421538366
  0
LWPOLYLINE
  5
21B
330
2
100
AcDbEntity
  8
0
100
AcDbPolyline
 90
       14
 70
     1
 43
0.0
 10
4074.111221109594
 20
4291.093728143719
 42
0.3359746306540741
 10
4074.131583868645
 20
4291.126232053465
 10
4074.107396368645
 20
4291.16210314372
 42
-0.4142135623730951
 10
4074.123021368645
 20
4291.177728143719
 10
4074.304646368645
 20
4291.177728143719
 10
4074.304646368645
 20
4290.822228143719
 10
4074.123021368645
 20
4290.822228143719
 42
-0.414213562373094
 10
4074.107396368645
 20
4290.837853143719
 10
4074.131583868645
 20
4290.873340931777
 42
0.3208708054700532
 10
4074.110858200512
 20
4290.906228143719
 10
4074.054021368644
 20
4290.906228143719
 42
-0.4142135623730951
 10
4074.038396368645
 20
4290.921853143719
 10
4074.038396368645
 20
4291.078103143719
 42
-0.4142135623730951
 10
4074.054021368644
 20
4291.093728143719
1001
ACAD
1000
ASC_BOUNDS
1002
{
1070
    19
1002
}
  0
LWPOLYLINE
  5
21C
330
2
100
AcDbEntity
  8
0
100
AcDbPolyline
 90
       14
 70
     1
 43
0.0
 10
4074.112439509738
 20
4291.08672814372
 42
0.3593608004949541
 10
4074.138343525619
 20
4291.128728031043
 10
4074.1145957589
 20
4291.163946978154
 42
-0.3524310491054993
 10
4074.123021368645
 20
4291.170728143719
 10
4074.304646368645
 20
4291.170728143719
 10
4074.304646368645
 20
4290.82922814372
 10
4074.123021368645
 20
4290.82922814372
 42
-0.3518693664465323
 10
4074.114599461284
 20
4290.835992471421
 10
4074.138402965463
 20
4290.870916862587
 42
0.3446308864324803
 10
4074.11216405146
 20
4290.913228143718
 10
4074.054021368644
 20
4290.913228143718
 42
-0.4142135623730946
 10
4074.045396368645
 20
4290.921853143719
 10
4074.045396368645
 20
4291.078103143719
 42
-0.4142135623730946
 10
4074.054021368644
 20
4291.08672814372
  0
LWPOLYLINE
  5
21D
330
2
100
AcDbEntity
  8
0
100
AcDbPolyline
 90
       10
 70
     1
 43
0.0
 10
4074.115958868645
 20
4291.062478143719
 42
0.3584554666094669
 10
4074.162833868645
 20
4291.127381989872
 10
4074.162833868645
 20
4291.146478143719
 10
4074.273396368645
 20
4291.146478143719
 10
4074.273396368645
 20
4290.853478143719
 10
4074.162833868645
 20
4290.853478143719
 10
4074.162833868645
 20
4290.872574297565
 42
0.3467993108968364
 10
4074.115958868645
 20
4290.937478143719
 10
4074.069646368644
 20
4290.937478143719
 10
4074.069646368644
 20
4291.062478143719
  0
LWPOLYLINE
  5
21E
330
2
100
AcDbEntity
  8
0
100
AcDbPolyline
 90
        6
 70
     0
 43
0.0
 10
4074.276396368644
 20
4291.177728143719
 10
4074.276396368644
 20
4291.187478143719
 10
4074.314396368644
 20
4291.187478143719
 10
4074.314396368644
 20
4290.81247814372
 10
4074.276396368644
 20
4290.81247814372
 10
4074.276396368644
 20
4290.822228143719
  0
LINE
  5
21F
330
2
100
AcDbEntity
  8
0
100
AcDbLine
 10
4074.123021368645
 20
4290.822228143719
 30
0.0
 11
4074.123021368645
 21
4290.796853143719
 31
0.0
  0
LINE
  5
220
330
2
100
AcDbEntity
  8
0
100
AcDbLine
 10
4074.276396368644
 20
4290.822228143719
 30
0.0
 11
4074.276396368644
 21
4290.796853143719
 31
0.0
  0
LINE
  5
221
330
2
100
AcDbEntity
  8
0
100
AcDbLine
 10
4074.123021368645
 20
4291.177728143719
 30
0.0
 11
4074.123021368645
 21
4291.203103143719
 31
0.0
  0
LINE
  5
222
330
2
100
AcDbEntity
  8
0
100
AcDbLine
 10
4074.276396368644
 20
4291.177728143719
 30
0.0
 11
4074.276396368644
 21
4291.203103143719
 31
0.0
  0
HATCH
  5
223
330
2
100
AcDbEntity
  8
0
100
AcDbHatch
 10
0.0
 20
0.0
 30
0.0
210
0.0
220
0.0
230
1.0
  2
SOLID
 70
     1
 71
     0
 91
        1
 92
        7
 72
     1
 73
     1
 93
        2
 10
4074.042222325121
 20
4291.321103143717
 42
0.0
 10
4074.22972232512
 20
4291.321103143718
 42
0.6666666666677566
 97
        0
 75
     1
 76
     1
 47
0.0043890848272954
 98
        1
 10
4074.128422260385
 20
4291.361690370375
1001
GradientColor1ACI
1070
     5
1001
GradientColor2ACI
1070
     2
1001
ACAD
1010
0.0
1020
0.0
1030
0.0
  0
LWPOLYLINE
  5
224
330
2
100
AcDbEntity
  8
0
100
AcDbPolyline
 90
        4
 70
     0
 43
0.0
 10
4074.820694656886
 20
4291.20310314372
 10
4073.901396368644
 20
4291.203103143717
 10
4073.901396368644
 20
4291.321103143717
 10
4074.820694656886
 20
4291.321103143719
  0
LWPOLYLINE
  5
225
330
2
100
AcDbEntity
  8
0
100
AcDbPolyline
 90
        4
 70
     0
 43
0.0
 10
4074.820694656886
 20
4290.796853143722
 10
4073.901396368644
 20
4290.796853143719
 10
4073.901396368644
 20
4290.678853143718
 10
4074.820694656886
 20
4290.678853143721
  0
LINE
  5
226
330
2
100
AcDbEntity
  8
0
  6
HIDDEN2
100
AcDbLine
 10
4074.820694656886
 20
4288.82226728524
 30
0.0
 11
4074.820694656886
 21
4291.321103143719
 31
0.0
  0
LWPOLYLINE
  5
227
330
2
100
AcDbEntity
  8
0
  6
Continuous
100
AcDbPolyline
 90
        2
 70
     0
 43
0.0
 10
4074.354722325121
 20
4291.321103143718
 10
4074.22972232512
 20
4291.321103143718
  0
LWPOLYLINE
  5
228
330
2
100
AcDbEntity
  8
0
  6
Continuous
100
AcDbPolyline
 90
       20
 70
     0
 43
0.0
 10
4074.042222325121
 20
4291.321103143718
 10
4073.792555017897
 20
4291.321103143718
 10
4073.792555017897
 20
4291.134103143723
 42
0.9999999999999998
 10
4073.792555017897
 20
4290.946103143717
 10
4073.792555017897
 20
4290.384103143719
 10
4072.605632199926
 20
4290.384103143712
 10
4072.604700878006
 20
4291.134103143716
 10
4072.354700685266
 20
4291.134103143716
 10
4072.35441259635
 20
4291.366103143723
 10
4072.666412596348
 20
4291.366103143723
 10
4072.666412596348
 20
4291.446103143718
 10
4072.35441259635
 20
4291.446103143718
 10
4072.35441259635
 20
4291.63410314372
 42
-0.4142135623730951
 10
4072.416412596349
 20
4291.696103143717
 10
4074.103942248015
 20
4291.696103143713
 10
4074.103942248022
 20
4291.6010641966
 42
-0.3899024490768579
 10
4074.305115099347
 20
4291.416064196599
 10
4074.354722325121
 20
4291.416064196599
 10
4074.354722325121
 20
4291.321103143718
 10
4074.22972232512
 20
4291.321103143718
  0
LWPOLYLINE
  5
229
330
2
100
AcDbEntity
  8
0
100
AcDbPolyline
 90
       11
 70
     1
 43
0.0
 10
4074.042555017896
 20
4290.678853143717
 10
4073.792555017897
 20
4290.678853143717
 10
4073.792555017897
 20
4290.304853143717
 10
4074.074055017901
 20
4290.304853143717
 42
0.4142135623731695
 10
4074.105055017897
 20
4290.335853143719
 10
4074.105055017897
 20
4290.382377912004
 42
-0.235730494161761
 10
4074.117423319576
 20
4290.40715410658
 10
4074.342686716217
 20
4290.576552180854
 42
0.235730494161718
 10
4074.355055017897
 20
4290.601328375429
 10
4074.355055017897
 20
4290.678853143717
 10
4074.230055017897
 20
4290.678853143717
 42
-0.6666666666666588
  0
ARC
  5
22A
330
2
100
AcDbEntity
  8
0
100
AcDbCircle
 10
4074.13597232512
 20
4291.282040643717
 30
0.0
 40
0.1015624999999893
100
AcDbArc
 50
22.61986494808652
 51
157.3801350519135
  0
HATCH
  5
22B
330
2
100
AcDbEntity
  8
0
100
AcDbHatch
 10
0.0
 20
0.0
 30
0.0
210
0.0
220
0.0
230
1.0
  2
SOLID
 70
     1
 71
     0
 91
        1
 92
        7
 72
     1
 73
     1
 93
        2
 10
4074.042222325121
 20
4290.678853143721
 42
0.0
 10
4074.22972232512
 20
4290.678853143721
 42
-0.6666666666677566
 97
        0
 75
     1
 76
     1
 47
0.0043890848272954
 98
        1
 10
4074.128422260385
 20
4290.638265917062
1001
GradientColor1ACI
1070
     5
1001
GradientColor2ACI
1070
     2
1001
ACAD
1010
0.0
1020
0.0
1030
0.0
  0
DIMENSION
  5
22C
102
{ACAD_XDICTIONARY
360
22D
102
}
102
{ACAD_REACTORS
330
22E
102
}
330
2
100
AcDbEntity
  8
0
100
AcDbDimension
  2
*D14
 10
4072.008912596351
 20
4293.585918695293
 30
0.0
 11
4071.446412596351
 21
4293.585918695293
 31
0.0
 71
     5
 42
1.125
  3
Knife
100
AcDbAlignedDimension
 13
4070.883912596352
 23
4293.010603143708
 33
0.0
 14
4072.008912596351
 24
4293.010603143708
 34
0.0
100
AcDbRotatedDimension
1001
ACAD
1000
DSTYLE
1002
{
1070
    40
1040
1.0
1002
}
  0
DIMENSION
  5
23D
102
{ACAD_XDICTIONARY
360
23E
102
}
102
{ACAD_REACTORS
330
23F
102
}
330
2
100
AcDbEntity
  8
0
100
AcDbDimension
  2
*D15
 10
4070.318292654845
 20
4287.697103143705
 30
0.0
 11
4069.722060371729
 21
4287.541103143706
 31
0.0
 71
     5
 42
0.5
  3
Knife
100
AcDbAlignedDimension
 13
4070.883912583582
 23
4288.197103143706
 33
0.0
 14
4070.946412583583
 24
4287.697103143705
 34
0.0
 50
90.0
100
AcDbRotatedDimension
1001
ACAD
1000
DSTYLE
1002
{
1070
    40
1040
1.0
1002
}
  0
TEXT
  5
24F
330
2
100
AcDbEntity
  8
0
100
AcDbText
 10
4082.766978930196
 20
4284.429288069516
 30
0.0
 40
0.375
  1
%%UTRANSOM / HOPPER MULL
 41
0.6
 51
5.0
  7
DIMTXT
 72
     1
 11
4084.719576441965
 21
4284.429288069516
 31
0.0
100
AcDbText
  0
TEXT
  5
250
330
2
100
AcDbEntity
  8
0
100
AcDbText
 10
4082.581017262408
 20
4283.64530179051
 30
0.0
 40
0.375
  1
4 9/16" JAMB C/W FILLER
 41
0.6
 51
5.0
  7
DIMTXT
 72
     1
 11
4084.719576441965
 21
4283.64530179051
 31
0.0
100
AcDbText
  0
LWPOLYLINE
  5
251
330
2
100
AcDbEntity
  8
0
  6
Continuous
100
AcDbPolyline
 90
       16
 70
     1
 43
0.0
 10
4085.313182899697
 20
4292.822103143712
 10
4085.532557899694
 20
4292.822103143712
 42
-0.4142135623730951
 10
4085.548182899694
 20
4292.806478143712
 10
4085.548182899694
 20
4289.134103143718
 10
4085.455182899696
 20
4289.134103143718
 10
4085.455182899696
 20
4288.884103143717
 10
4085.548182899694
 20
4288.884103143717
 10
4085.548182899694
 20
4288.212728143705
 42
-0.4142135623730951
 10
4085.532557899694
 20
4288.197103143705
 10
4084.926182899694
 20
4288.197103143712
 10
4084.926182899694
 20
4288.634103143717
 10
4084.969182899696
 20
4288.634103143717
 10
4084.969182899696
 20
4288.884103143717
 10
4084.876182899695
 20
4288.884103143717
 10
4084.876182899695
 20
4292.822103143712
 10
4085.094182899694
 20
4292.822103143712
 42
0.9979286332485141
  0
LWPOLYLINE
  5
252
330
2
100
AcDbEntity
  8
0
100
AcDbPolyline
 90
       16
 70
     0
 43
0.0
 10
4087.05206337576
 20
4289.023582185479
 10
4087.05206337576
 20
4288.867332185479
 10
4087.020813375761
 20
4288.867332185479
 10
4087.05206337576
 20
4288.867332185479
 10
4087.05206337576
 20
4288.99218218548
 42
0.4142135623730951
 10
4087.020663375761
 20
4289.023582185479
 10
4086.92721337576
 20
4289.023582185479
 42
0.4142135623730951
 10
4086.89581337576
 20
4288.99218218548
 10
4086.89581337576
 20
4288.820607185479
 42
-0.4142135623730951
 10
4086.86441337576
 20
4288.789207185479
 10
4086.48971337576
 20
4288.789207185479
 42
-0.4142135623730951
 10
4086.45831337576
 20
4288.820607185479
 10
4086.45831337576
 20
4289.132807185479
 42
-0.4142135623730951
 10
4086.48971337576
 20
4289.164207185479
 10
4087.020663375761
 20
4289.164207185479
 42
-0.4142135623730951
 10
4087.05206337576
 20
4289.132807185479
  0
LWPOLYLINE
  5
253
330
2
100
AcDbEntity
  8
0
100
AcDbPolyline
 90
       19
 70
     1
 43
0.0
 10
4087.020813375761
 20
4288.961082185479
 10
4087.020813375761
 20
4288.867332185479
 10
4087.020813375761
 20
4288.96093218548
 42
0.4142135623730951
 10
4086.98941337576
 20
4288.992332185479
 10
4086.95846337576
 20
4288.992332185479
 42
0.4142135623730951
 10
4086.92706337576
 20
4288.96093218548
 10
4086.92706337576
 20
4288.789357185479
 42
-0.4142135623730951
 10
4086.89566337576
 20
4288.757957185479
 10
4086.45846337576
 20
4288.757957185479
 42
-0.4142135623730951
 10
4086.427063375761
 20
4288.789357185479
 10
4086.427063375761
 20
4289.164057185479
 42
-0.4142135623730951
 10
4086.45846337576
 20
4289.19545718548
 10
4087.051913375761
 20
4289.19545718548
 42
-0.4142135623730951
 10
4087.08331337576
 20
4289.164057185479
 10
4087.08331337576
 20
4288.867482185479
 42
-0.4142135623730951
 10
4087.051913375761
 20
4288.836082185479
 10
4087.02096337576
 20
4288.836082185479
 42
-0.4142135623730951
 10
4086.989563375761
 20
4288.867482185479
 10
4086.989563375761
 20
4288.961082185479
  0
LWPOLYLINE
  5
254
330
2
100
AcDbEntity
  8
0
100
AcDbPolyline
 90
        3
 70
     0
 43
0.0
 10
4086.45831337576
 20
4289.132957185479
 10
4087.05206337576
 20
4289.132957185479
 10
4087.05206337576
 20
4288.961082185479
  0
LWPOLYLINE
  5
255
330
2
100
AcDbEntity
  8
0
100
AcDbPolyline
 90
       11
 70
     0
 43
0.0
 10
4087.08331337576
 20
4289.132957185479
 10
4087.27081337576
 20
4289.132957185479
 10
4087.27081337576
 20
4288.976857185479
 42
0.4142135623730951
 10
4087.30221337576
 20
4288.945457185479
 10
4087.48941337576
 20
4288.945457185479
 42
0.4142135623730951
 10
4087.52081337576
 20
4288.976857185479
 10
4087.52081337576
 20
4289.164057185479
 42
0.4142135623730951
 10
4087.48941337576
 20
4289.19545718548
 10
4087.30221337576
 20
4289.19545718548
 42
0.412815076773199
 10
4087.270813734042
 20
4289.164207185479
 10
4087.08331337576
 20
4289.164207185479
  0
LWPOLYLINE
  5
256
330
2
100
AcDbEntity
  8
0
100
AcDbPolyline
 90
        4
 70
     0
 43
0.0
 10
4086.427063375761
 20
4289.164207185479
 10
4086.14581337576
 20
4289.164207185479
 10
4086.14581337576
 20
4289.132957185479
 10
4086.427063375761
 20
4289.132957185479
  0
LWPOLYLINE
  5
257
330
2
100
AcDbEntity
  8
0
  6
HIDDEN2
100
AcDbPolyline
 90
        4
 70
     0
 43
0.02
 10
4086.958432274213
 20
4288.960667061074
 10
4086.958432274213
 20
4288.868767285252
 42
0.4142135623730951
 10
4087.004932274213
 20
4288.822267285251
 10
4088.249464960229
 20
4288.822267285251
  0
LWPOLYLINE
  5
258
330
2
100
AcDbEntity
  8
0
100
AcDbPolyline
 90
        2
 70
     1
 43
0.03125
 10
4086.942807274214
 20
4288.960667061074
 42
1.0
 10
4086.974057274214
 20
4288.960667061074
 42
1.0
  0
LWPOLYLINE
  5
259
330
2
100
AcDbEntity
  8
0
  6
Continuous
100
AcDbPolyline
 90
       20
 70
     1
 43
0.0
 10
4085.548182899694
 20
4289.134103143718
 10
4085.548182899694
 20
4290.365103143717
 10
4085.848182899694
 20
4290.365103143717
 10
4085.848182899694
 20
4289.977794497834
 10
4085.928182899694
 20
4289.977794497834
 10
4085.928182899694
 20
4290.258794497834
 10
4086.364874253811
 20
4290.258794497834
 10
4086.490182899694
 20
4290.384103143717
 10
4086.615182899694
 20
4290.384103143717
 10
4086.615182899694
 20
4289.259119965259
 42
-0.4091108014277093
 10
4086.554264948893
 20
4289.197129408158
 10
4086.146810573985
 20
4289.190017265589
 10
4086.146810573985
 20
4289.065017265589
 10
4086.364810573986
 20
4289.061212061435
 10
4086.364810573986
 20
4288.291177155104
 42
-0.4142135623730951
 10
4086.333810573986
 20
4288.260177155104
 10
4085.548182899694
 20
4288.260177155104
 10
4085.548182899694
 20
4288.915353143718
 10
4085.470057899694
 20
4288.922188195555
 10
4085.470057899694
 20
4289.13273946677
  0
ARC
  5
25A
330
2
100
AcDbEntity
  8
0010010007
100
AcDbCircle
 10
4086.015182899696
 20
4290.289794497834
 30
0.0
 40
0.0310000000010811
100
AcDbArc
 50
179.999999998593
 51
200.7835595944321
  0
LINE
  5
25B
330
2
100
AcDbEntity
  8
0010010007
100
AcDbLine
 10
4085.984182899694
 20
4290.289794497834
 30
0.0
 11
4085.984182899694
 21
4290.353103143718
 31
0.0
  0
LINE
  5
25C
330
2
100
AcDbEntity
  8
0010010007
100
AcDbLine
 10
4086.004182899693
 20
4290.289794497834
 30
0.0
 11
4086.004182899693
 21
4290.353103143718
 31
0.0
  0
ARC
  5
25D
330
2
100
AcDbEntity
  8
0010010007
100
AcDbCircle
 10
4086.015182899694
 20
4290.289794497834
 30
0.0
 40
0.0110000000004202
100
AcDbArc
 50
180.0
 51
270.0
  0
ARC
  5
25E
330
2
100
AcDbEntity
  8
0010010007
100
AcDbCircle
 10
4086.015182899694
 20
4290.353103143718
 30
0.0
 40
0.0309999999999491
100
AcDbArc
 50
90.0
 51
180.0
  0
ARC
  5
25F
330
2
100
AcDbEntity
  8
0010010007
100
AcDbCircle
 10
4086.015182899694
 20
4290.353103143718
 30
0.0
 40
0.011000000000422
100
AcDbArc
 50
90.0
 51
180.0
  0
LINE
  5
260
330
2
100
AcDbEntity
  8
0010010007
100
AcDbLine
 10
4086.015182899694
 20
4290.384103143717
 30
0.0
 11
4086.241240569287
 21
4290.384103143717
 31
0.0
  0
ARC
  5
261
330
2
100
AcDbEntity
  8
0010010007
100
AcDbCircle
 10
4086.241240569287
 20
4290.353103143718
 30
0.0
 40
0.0309999999999491
100
AcDbArc
 50
0.0
 51
90.0
  0
ARC
  5
262
330
2
100
AcDbEntity
  8
0010010007
100
AcDbCircle
 10
4086.241240569287
 20
4290.353103143718
 30
0.0
 40
0.011000000000422
100
AcDbArc
 50
0.0
 51
90.0
  0
LINE
  5
263
330
2
100
AcDbEntity
  8
0010010007
100
AcDbLine
 10
4086.272240569287
 20
4290.353103143718
 30
0.0
 11
4086.272240569287
 21
4290.289794497834
 31
0.0
  0
LINE
  5
264
330
2
100
AcDbEntity
  8
0010010007
100
AcDbLine
 10
4086.252240569288
 20
4290.353103143718
 30
0.0
 11
4086.252240569288
 21
4290.289794497834
 31
0.0
  0
LINE
  5
265
330
2
100
AcDbEntity
  8
0010010007
100
AcDbLine
 10
4086.241240569287
 20
4290.258794497834
 30
0.0
 11
4085.898182899694
 21
4290.258794497834
 31
0.0
  0
LINE
  5
266
330
2
100
AcDbEntity
  8
0010010007
100
AcDbLine
 10
4086.241240569287
 20
4290.278794497833
 30
0.0
 11
4086.015182899694
 21
4290.278794497833
 31
0.0
  0
ARC
  5
267
330
2
100
AcDbEntity
  8
0010010007
100
AcDbCircle
 10
4086.241240569287
 20
4290.289794497834
 30
0.0
 40
0.0110000000004202
100
AcDbArc
 50
270.0
 51
0.0
  0
ARC
  5
268
330
2
100
AcDbEntity
  8
0010010007
100
AcDbCircle
 10
4086.241240569287
 20
4290.289794497834
 30
0.0
 40
0.0309999999999491
100
AcDbArc
 50
270.0
 51
0.0
  0
LINE
  5
269
330
2
100
AcDbEntity
  8
0010010007
100
AcDbLine
 10
4085.898182899694
 20
4290.258794497834
 30
0.0
 11
4085.898182899694
 21
4290.15546493458
 31
0.0
  0
LINE
  5
26A
330
2
100
AcDbEntity
  8
0010010007
100
AcDbLine
 10
4085.898182899694
 20
4290.15546493458
 30
0.0
 11
4085.928182899694
 21
4290.172785442655
 31
0.0
  0
LINE
  5
26B
330
2
100
AcDbEntity
  8
0010010007
100
AcDbLine
 10
4085.928182899694
 20
4290.172785442655
 30
0.0
 11
4085.928182899694
 21
4290.156115005909
 31
0.0
  0
LINE
  5
26C
330
2
100
AcDbEntity
  8
0010010007
100
AcDbLine
 10
4085.928182899694
 20
4290.156115005909
 30
0.0
 11
4085.898182899694
 21
4290.138794497834
 31
0.0
  0
LINE
  5
26D
330
2
100
AcDbEntity
  8
0010010007
100
AcDbLine
 10
4085.898182899694
 20
4290.138794497834
 30
0.0
 11
4085.898182899694
 21
4290.086245570297
 31
0.0
  0
LINE
  5
26E
330
2
100
AcDbEntity
  8
0010010007
100
AcDbLine
 10
4085.898182899694
 20
4290.086245570297
 30
0.0
 11
4085.928182899694
 21
4290.103566078374
 31
0.0
  0
LINE
  5
26F
330
2
100
AcDbEntity
  8
0010010007
100
AcDbLine
 10
4085.928182899694
 20
4290.103566078374
 30
0.0
 11
4085.928182899694
 21
4290.086115005909
 31
0.0
  0
LINE
  5
270
330
2
100
AcDbEntity
  8
0010010007
100
AcDbLine
 10
4085.928182899694
 20
4290.086115005909
 30
0.0
 11
4085.898182899694
 21
4290.068794497833
 31
0.0
  0
LINE
  5
271
330
2
100
AcDbEntity
  8
0010010007
100
AcDbLine
 10
4085.898182899694
 20
4290.068794497833
 30
0.0
 11
4085.898182899694
 21
4290.028794497834
 31
0.0
  0
LINE
  5
272
330
2
100
AcDbEntity
  8
0010010007
100
AcDbLine
 10
4085.898182899694
 20
4290.028794497834
 30
0.0
 11
4085.878182899694
 21
4290.028794497834
 31
0.0
  0
LINE
  5
273
330
2
100
AcDbEntity
  8
0010010007
100
AcDbLine
 10
4085.878182899694
 20
4290.028794497834
 30
0.0
 11
4085.878182899694
 21
4290.068794497833
 31
0.0
  0
LINE
  5
274
330
2
100
AcDbEntity
  8
0010010007
100
AcDbLine
 10
4085.878182899694
 20
4290.068794497833
 30
0.0
 11
4085.848182899694
 21
4290.086115005909
 31
0.0
  0
LINE
  5
275
330
2
100
AcDbEntity
  8
0010010007
100
AcDbLine
 10
4085.848182899694
 20
4290.086115005909
 30
0.0
 11
4085.848182899694
 21
4290.103018721898
 31
0.0
  0
LINE
  5
276
330
2
100
AcDbEntity
  8
0010010007
100
AcDbLine
 10
4085.848182899694
 20
4290.103018721898
 30
0.0
 11
4085.878182899694
 21
4290.085698213823
 31
0.0
  0
LINE
  5
277
330
2
100
AcDbEntity
  8
0010010007
100
AcDbLine
 10
4085.878182899694
 20
4290.085698213823
 30
0.0
 11
4085.878182899694
 21
4290.138169497833
 31
0.0
  0
LINE
  5
278
330
2
100
AcDbEntity
  8
0010010007
100
AcDbLine
 10
4085.878182899694
 20
4290.138169497833
 30
0.0
 11
4085.848182899694
 21
4290.155490005909
 31
0.0
  0
LINE
  5
279
330
2
100
AcDbEntity
  8
0010010007
100
AcDbLine
 10
4085.848182899694
 20
4290.155490005909
 30
0.0
 11
4085.848182899694
 21
4290.172056179867
 31
0.0
  0
LINE
  5
27A
330
2
100
AcDbEntity
  8
0010010007
100
AcDbLine
 10
4085.848182899694
 20
4290.172056179867
 30
0.0
 11
4085.878182899694
 21
4290.154735671791
 31
0.0
  0
LINE
  5
27B
330
2
100
AcDbEntity
  8
0010010007
100
AcDbLine
 10
4085.878182899694
 20
4290.154735671791
 30
0.0
 11
4085.878182899694
 21
4290.278794497833
 31
0.0
  0
LINE
  5
27C
330
2
100
AcDbEntity
  8
0010010007
100
AcDbLine
 10
4085.878182899694
 20
4290.278794497833
 30
0.0
 11
4085.986200146201
 21
4290.278794497833
 31
0.0
  0
LINE
  5
27D
330
2
100
AcDbEntity
  8
0
100
AcDbLine
 10
4086.015182899694
 20
4290.364103143718
 30
0.0
 11
4086.241240569287
 21
4290.364103143718
 31
0.0
  0
INSERT
  5
27E
330
2
100
AcDbEntity
  8
0
100
AcDbBlockReference
  2
86NPF141
 10
4086.075417448864
 20
4291.133510857489
 30
0.0
 41
-1.0
 43
2.0
  0
INSERT
  5
27F
330
2
100
AcDbEntity
  8
0
100
AcDbBlockReference
  2
11HINGE
 10
4085.548182899694
 20
4290.365103143717
 30
0.0
 41
-1.0
 42
-1.0
 43
2.0
 50
180.0
  0
LWPOLYLINE
  5
280
330
2
100
AcDbEntity
  8
0
100
AcDbPolyline
 90
        8
 70
     0
 43
0.0
 10
4087.22132532124
 20
4290.678853143727
 10
4087.22132532124
 20
4291.321103143729
 10
4087.33032532124
 20
4291.321103143729
 10
4087.33032532124
 20
4290.678853143727
 10
4087.22132532124
 20
4290.678853143727
 10
4087.33032532124
 20
4291.321103143728
 10
4087.22132532124
 20
4291.321103143729
 10
4087.33032532124
 20
4290.678853143727
  0
HATCH
  5
281
330
2
100
AcDbEntity
  8
0
  6
Continuous
100
AcDbHatch
 10
0.0
 20
0.0
 30
0.0
210
0.0
220
0.0
230
1.0
  2
DASH
 70
     0
 71
     0
 91
        1
 92
        7
 72
     1
 73
     1
 93
       16
 10
4087.551791671988
 20
4290.79685314373
 42
0.0
 10
4087.551791671988
 20
4290.82222814373
 42
-0.414213562373094
 10
4087.536166671989
 20
4290.83785314373
 42
0.0
 10
4087.560354171989
 20
4290.873340931788
 42
0.3208708054700796
 10
4087.539628503855
 20
4290.90622814373
 42
0.0
 10
4087.482791671988
 20
4290.90622814373
 42
-0.4142135623730951
 10
4087.467166671988
 20
4290.92185314373
 42
0.0
 10
4087.467166671988
 20
4291.07810314373
 42
-0.4142135623730951
 10
4087.482791671988
 20
4291.09372814373
 42
0.0
 10
4087.539991412938
 20
4291.09372814373
 42
0.3359746306540742
 10
4087.560354171989
 20
4291.126232053476
 42
0.0
 10
4087.536166671989
 20
4291.16210314373
 42
-0.4142135623730951
 10
4087.551791671988
 20
4291.177728143731
 42
0.0
 10
4087.551791671988
 20
4291.20310314373
 42
0.0
 10
4087.330166671988
 20
4291.20310314373
 42
0.0
 10
4087.330166671988
 20
4290.79685314373
 42
0.0
 97
        0
 75
     0
 76
     1
 52
270.0
 41
0.1
 77
     0
 78
     1
 53
270.0
 43
4084.494630517111
 44
4308.682109609038
 45
0.0125
 46
-0.0125
 79
     2
 49
0.0125
 49
-0.0125
 47
0.0022535086831111
 98
        1
 10
4087.430291932572
 20
4290.88971096122
  0
HATCH
  5
282
330
2
100
AcDbEntity
  8
0
  6
Continuous
100
AcDbHatch
 10
0.0
 20
0.0
 30
0.0
210
0.0
220
0.0
230
1.0
  2
DOTS
 70
     0
 71
     0
 91
        2
 92
        7
 72
     0
 73
     1
 93
        4
 10
4087.705166671988
 20
4290.79685314373
 10
4087.705166671988
 20
4290.82222814373
 10
4087.551791671988
 20
4290.82222814373
 10
4087.551791671988
 20
4290.79685314373
 97
        0
 92
        7
 72
     0
 73
     1
 93
        4
 10
4087.705166671988
 20
4291.177728143731
 10
4087.705166671988
 20
4291.20310314373
 10
4087.551791671988
 20
4291.20310314373
 10
4087.551791671988
 20
4291.177728143731
 97
        0
 75
     0
 76
     1
 52
270.0
 41
0.1
 77
     0
 78
     1
 53
270.0
 43
4084.494630517111
 44
4308.682109609038
 45
0.00625
 46
-0.003125
 79
     2
 49
0.0
 49
-0.00625
 47
0.0009915749623601
 98
        2
 10
4087.634809888305
 20
4290.812378044996
 10
4087.649683519315
 20
4291.195421538378
  0
LWPOLYLINE
  5
283
330
2
100
AcDbEntity
  8
0
100
AcDbPolyline
 90
       14
 70
     1
 43
0.0
 10
4087.539991412938
 20
4291.09372814373
 42
0.3359746306540741
 10
4087.560354171989
 20
4291.126232053476
 10
4087.536166671989
 20
4291.16210314373
 42
-0.4142135623730951
 10
4087.551791671988
 20
4291.177728143731
 10
4087.733416671989
 20
4291.177728143731
 10
4087.733416671989
 20
4290.82222814373
 10
4087.551791671988
 20
4290.82222814373
 42
-0.414213562373094
 10
4087.536166671989
 20
4290.83785314373
 10
4087.560354171989
 20
4290.873340931788
 42
0.3208708054700532
 10
4087.539628503855
 20
4290.90622814373
 10
4087.482791671988
 20
4290.90622814373
 42
-0.4142135623730951
 10
4087.467166671988
 20
4290.92185314373
 10
4087.467166671988
 20
4291.07810314373
 42
-0.4142135623730951
 10
4087.482791671988
 20
4291.09372814373
1001
ACAD
1000
ASC_BOUNDS
1002
{
1070
    19
1002
}
  0
LWPOLYLINE
  5
284
330
2
100
AcDbEntity
  8
0
100
AcDbPolyline
 90
       14
 70
     1
 43
0.0
 10
4087.541209813081
 20
4291.086728143731
 42
0.3593608004949541
 10
4087.567113828963
 20
4291.128728031054
 10
4087.543366062243
 20
4291.163946978166
 42
-0.3524310491054993
 10
4087.551791671988
 20
4291.17072814373
 10
4087.733416671989
 20
4291.17072814373
 10
4087.733416671989
 20
4290.829228143731
 10
4087.551791671988
 20
4290.829228143731
 42
-0.3518693664465323
 10
4087.543369764627
 20
4290.835992471432
 10
4087.567173268807
 20
4290.870916862598
 42
0.3446308864324803
 10
4087.540934354804
 20
4290.913228143729
 10
4087.482791671988
 20
4290.913228143729
 42
-0.4142135623730946
 10
4087.474166671989
 20
4290.92185314373
 10
4087.474166671989
 20
4291.07810314373
 42
-0.4142135623730946
 10
4087.482791671988
 20
4291.086728143731
  0
LWPOLYLINE
  5
285
330
2
100
AcDbEntity
  8
0
100
AcDbPolyline
 90
       10
 70
     1
 43
0.0
 10
4087.544729171988
 20
4291.06247814373
 42
0.3584554666094669
 10
4087.591604171989
 20
4291.127381989884
 10
4087.591604171989
 20
4291.146478143731
 10
4087.702166671989
 20
4291.146478143731
 10
4087.702166671989
 20
4290.85347814373
 10
4087.591604171989
 20
4290.85347814373
 10
4087.591604171989
 20
4290.872574297575
 42
0.3467993108968364
 10
4087.544729171988
 20
4290.93747814373
 10
4087.498416671988
 20
4290.93747814373
 10
4087.498416671988
 20
4291.06247814373
  0
LWPOLYLINE
  5
286
330
2
100
AcDbEntity
  8
0
100
AcDbPolyline
 90
        6
 70
     0
 43
0.0
 10
4087.705166671988
 20
4291.177728143731
 10
4087.705166671988
 20
4291.187478143729
 10
4087.743166671987
 20
4291.187478143729
 10
4087.743166671987
 20
4290.81247814373
 10
4087.705166671988
 20
4290.81247814373
 10
4087.705166671988
 20
4290.82222814373
  0
LINE
  5
287
330
2
100
AcDbEntity
  8
0
100
AcDbLine
 10
4087.551791671988
 20
4290.82222814373
 30
0.0
 11
4087.551791671988
 21
4290.79685314373
 31
0.0
  0
LINE
  5
288
330
2
100
AcDbEntity
  8
0
100
AcDbLine
 10
4087.705166671988
 20
4290.82222814373
 30
0.0
 11
4087.705166671988
 21
4290.79685314373
 31
0.0
  0
LINE
  5
289
330
2
100
AcDbEntity
  8
0
100
AcDbLine
 10
4087.551791671988
 20
4291.177728143731
 30
0.0
 11
4087.551791671988
 21
4291.20310314373
 31
0.0
  0
LINE
  5
28A
330
2
100
AcDbEntity
  8
0
100
AcDbLine
 10
4087.705166671988
 20
4291.177728143731
 30
0.0
 11
4087.705166671988
 21
4291.20310314373
 31
0.0
  0
HATCH
  5
28B
330
2
100
AcDbEntity
  8
0
100
AcDbHatch
 10
0.0
 20
0.0
 30
0.0
210
0.0
220
0.0
230
1.0
  2
SOLID
 70
     1
 71
     0
 91
        1
 92
        7
 72
     1
 73
     1
 93
        2
 10
4087.470992628464
 20
4291.321103143728
 42
0.0
 10
4087.658492628464
 20
4291.321103143729
 42
0.6666666666677566
 97
        0
 75
     1
 76
     1
 47
0.0043890848272954
 98
        1
 10
4087.557192563727
 20
4291.361690370385
1001
GradientColor1ACI
1070
     5
1001
GradientColor2ACI
1070
     2
1001
ACAD
1010
0.0
1020
0.0
1030
0.0
  0
LWPOLYLINE
  5
28C
330
2
100
AcDbEntity
  8
0
100
AcDbPolyline
 90
        4
 70
     0
 43
0.0
 10
4088.249464960229
 20
4291.203103143731
 10
4087.330166671988
 20
4291.203103143728
 10
4087.330166671988
 20
4291.321103143728
 10
4088.249464960229
 20
4291.32110314373
  0
LWPOLYLINE
  5
28D
330
2
100
AcDbEntity
  8
0
100
AcDbPolyline
 90
        4
 70
     0
 43
0.0
 10
4088.249464960229
 20
4290.796853143732
 10
4087.330166671988
 20
4290.79685314373
 10
4087.330166671988
 20
4290.67885314373
 10
4088.249464960229
 20
4290.678853143732
  0
LINE
  5
28E
330
2
100
AcDbEntity
  8
0
  6
HIDDEN2
100
AcDbLine
 10
4088.249464960229
 20
4288.822267285251
 30
0.0
 11
4088.249464960229
 21
4291.32110314373
 31
0.0
  0
LWPOLYLINE
  5
28F
330
2
100
AcDbEntity
  8
0
  6
Continuous
100
AcDbPolyline
 90
        2
 70
     0
 43
0.0
 10
4087.783492628464
 20
4291.321103143729
 10
4087.658492628464
 20
4291.321103143729
  0
LWPOLYLINE
  5
290
330
2
100
AcDbEntity
  8
0
  6
Continuous
100
AcDbPolyline
 90
       20
 70
     0
 43
0.0
 10
4087.470992628464
 20
4291.321103143729
 10
4087.22132532124
 20
4291.321103143729
 10
4087.22132532124
 20
4291.134103143734
 42
0.9999999999999998
 10
4087.22132532124
 20
4290.946103143729
 10
4087.22132532124
 20
4290.38410314373
 10
4086.034402503269
 20
4290.384103143723
 10
4086.033471181349
 20
4291.134103143726
 10
4085.783470988609
 20
4291.134103143726
 10
4085.783182899694
 20
4291.366103143734
 10
4086.095182899692
 20
4291.366103143734
 10
4086.095182899692
 20
4291.446103143728
 10
4085.783182899694
 20
4291.446103143728
 10
4085.783182899694
 20
4291.634103143731
 42
-0.4142135623730951
 10
4085.845182899691
 20
4291.696103143729
 10
4087.532712551358
 20
4291.696103143725
 10
4087.532712551365
 20
4291.60106419661
 42
-0.3899024490768579
 10
4087.73388540269
 20
4291.416064196609
 10
4087.783492628464
 20
4291.416064196609
 10
4087.783492628464
 20
4291.321103143729
 10
4087.658492628464
 20
4291.321103143729
  0
LWPOLYLINE
  5
291
102
{ACAD_REACTORS
330
2EC
102
}
330
2
100
AcDbEntity
  8
0
100
AcDbPolyline
 90
       11
 70
     1
 43
0.0
 10
4087.47132532124
 20
4290.678853143727
 10
4087.22132532124
 20
4290.678853143727
 10
4087.22132532124
 20
4290.304853143728
 10
4087.502825321244
 20
4290.304853143728
 42
0.4142135623731695
 10
4087.53382532124
 20
4290.33585314373
 10
4087.53382532124
 20
4290.382377912015
 42
-0.235730494161761
 10
4087.546193622919
 20
4290.40715410659
 10
4087.771457019561
 20
4290.576552180865
 42
0.235730494161718
 10
4087.78382532124
 20
4290.601328375441
 10
4087.78382532124
 20
4290.678853143727
 10
4087.65882532124
 20
4290.678853143727
 42
-0.6666666666666588
  0
ARC
  5
292
330
2
100
AcDbEntity
  8
0
100
AcDbCircle
 10
4087.564742628464
 20
4291.282040643728
 30
0.0
 40
0.1015624999999893
100
AcDbArc
 50
22.61986494808652
 51
157.3801350519135
  0
HATCH
  5
293
330
2
100
AcDbEntity
  8
0
100
AcDbHatch
 10
0.0
 20
0.0
 30
0.0
210
0.0
220
0.0
230
1.0
  2
SOLID
 70
     1
 71
     0
 91
        1
 92
        7
 72
     1
 73
     1
 93
        2
 10
4087.470992628464
 20
4290.678853143732
 42
0.0
 10
4087.658492628464
 20
4290.678853143732
 42
-0.6666666666677566
 97
        0
 75
     1
 76
     1
 47
0.0043890848272954
 98
        1
 10
4087.557192563727
 20
4290.638265917073
1001
GradientColor1ACI
1070
     5
1001
GradientColor2ACI
1070
     2
1001
ACAD
1010
0.0
1020
0.0
1030
0.0
  0
DIMENSION
  5
294
102
{ACAD_XDICTIONARY
360
295
102
}
102
{ACAD_REACTORS
330
296
102
}
330
2
100
AcDbEntity
  8
0
100
AcDbDimension
  2
*D16
 10
4083.094682439354
 20
4287.697103143705
 30
0.0
 11
4082.498450156239
 21
4287.541103143706
 31
0.0
 71
     5
 42
0.5
  3
Knife
100
AcDbAlignedDimension
 13
4083.625182886925
 23
4288.197103143706
 33
0.0
 14
4083.687682886925
 24
4287.697103143705
 34
0.0
 50
90.0
100
AcDbRotatedDimension
1001
ACAD
1000
DSTYLE
1002
{
1070
    40
1040
1.0
1002
}
  0
DIMENSION
  5
2A6
102
{ACAD_XDICTIONARY
360
2A7
102
}
102
{ACAD_REACTORS
330
2A8
102
}
330
2
100
AcDbEntity
  8
0
100
AcDbDimension
  2
*D17
 10
4085.437682886925
 20
4286.522234923928
 30
0.0
 11
4084.531432886925
 21
4286.522234923928
 31
0.0
 71
     5
 42
1.8125
  3
Knife
100
AcDbAlignedDimension
 13
4083.625182886925
 23
4287.759603143705
 33
0.0
 14
4085.437682886925
 24
4287.759603143705
 34
0.0
100
AcDbRotatedDimension
1001
ACAD
1000
DSTYLE
1002
{
1070
    40
1040
1.0
1002
}
  0
DIMENSION
  5
2B7
102
{ACAD_XDICTIONARY
360
2B8
102
}
102
{ACAD_REACTORS
330
2B9
102
}
330
2
100
AcDbEntity
  8
0
100
AcDbDimension
  2
*D18
 10
4084.876182899695
 20
4287.36946958994
 30
0.0
 11
4086.150796963752
 21
4287.36946958994
 31
0.0
 70
   128
 71
     5
 42
0.6875
  3
Knife
100
AcDbAlignedDimension
 13
4084.188682899696
 23
4288.259603143702
 33
0.0
 14
4084.876182899695
 24
4288.259603143702
 34
0.0
100
AcDbRotatedDimension
1001
ACAD
1000
DSTYLE
1002
{
1070
    40
1040
1.0
1002
}
  0
DIMENSION
  5
2C7
102
{ACAD_XDICTIONARY
360
2C8
102
}
102
{ACAD_REACTORS
330
2C9
102
}
330
2
100
AcDbEntity
  8
0
100
AcDbDimension
  2
*D19
 10
4083.184564880489
 20
4292.822603143706
 30
0.0
 11
4082.659359623263
 21
4292.666603143707
 31
0.0
 71
     5
 42
0.25
  3
Knife
100
AcDbAlignedDimension
 13
4083.687182899693
 23
4293.072603143706
 33
0.0
 14
4083.627182899696
 24
4292.822603143706
 34
0.0
 50
90.0
100
AcDbRotatedDimension
1001
ACAD
1000
DSTYLE
1002
{
1070
    40
1040
1.0
1002
}
  0
DIMENSION
  5
2D9
102
{ACAD_XDICTIONARY
360
2DA
102
}
102
{ACAD_REACTORS
330
2DB
102
}
330
2
100
AcDbEntity
  8
0
100
AcDbDimension
  2
*D20
 10
4085.437682899695
 20
4293.575136035214
 30
0.0
 11
4084.531432899694
 21
4293.575136035214
 31
0.0
 71
     5
 42
1.8125
  3
Knife
100
AcDbAlignedDimension
 13
4083.625182899695
 23
4293.010603143708
 33
0.0
 14
4085.437682899695
 24
4293.010603143708
 34
0.0
100
AcDbRotatedDimension
1001
ACAD
1000
DSTYLE
1002
{
1070
    40
1040
1.0
1002
}
  0
DIMENSION
  5
2EA
102
{ACAD_XDICTIONARY
360
2EB
102
}
102
{ACAD_REACTORS
330
2EC
102
}
330
2
100
AcDbEntity
  8
0
100
AcDbDimension
  2
*D21
 10
4087.78382532124
 20
4285.4070256592
 30
0.0
 11
4084.751795337424
 21
4285.4070256592
 31
0.0
 71
     5
 42
6.064059967633056
  3
Knife
100
AcDbAlignedDimension
 13
4081.719765353607
 23
4288.541287547198
 33
0.0
 14
4087.78382532124
 24
4290.601328375441
 34
0.0
100
AcDbRotatedDimension
1001
ACAD
1000
DSTYLE
1002
{
1070
    40
1040
1.0
1002
}
  0
LWPOLYLINE
  5
2FB
330
2
100
AcDbEntity
  8
0
  6
Continuous
100
AcDbPolyline
 90
       16
 70
     1
 43
0.0
 10
4080.663720735512
 20
4279.475497988655
 10
4080.883095735509
 20
4279.475497988655
 42
-0.4142135623730951
 10
4080.898720735508
 20
4279.459872988655
 10
4080.898720735508
 20
4275.787497988661
 10
4080.805720735511
 20
4275.787497988661
 10
4080.805720735511
 20
4275.53749798866
 10
4080.898720735508
 20
4275.53749798866
 10
4080.898720735508
 20
4274.866122988648
 42
-0.4142135623730951
 10
4080.883095735509
 20
4274.850497988648
 10
4080.276720735509
 20
4274.850497988655
 10
4080.276720735509
 20
4275.287497988661
 10
4080.319720735511
 20
4275.287497988661
 10
4080.319720735511
 20
4275.53749798866
 10
4080.22672073551
 20
4275.53749798866
 10
4080.22672073551
 20
4279.475497988655
 10
4080.444720735509
 20
4279.475497988655
 42
0.9979286332485141
  0
LWPOLYLINE
  5
2FC
330
2
100
AcDbEntity
  8
0
100
AcDbPolyline
 90
       16
 70
     0
 43
0.0
 10
4082.402601211575
 20
4275.676977030422
 10
4082.402601211575
 20
4275.520727030422
 10
4082.371351211576
 20
4275.520727030422
 10
4082.402601211575
 20
4275.520727030422
 10
4082.402601211575
 20
4275.645577030423
 42
0.4142135623730951
 10
4082.371201211575
 20
4275.676977030422
 10
4082.277751211575
 20
4275.676977030422
 42
0.4142135623730951
 10
4082.246351211575
 20
4275.645577030423
 10
4082.246351211575
 20
4275.474002030422
 42
-0.4142135623730951
 10
4082.214951211575
 20
4275.442602030422
 10
4081.840251211575
 20
4275.442602030422
 42
-0.4142135623730951
 10
4081.808851211575
 20
4275.474002030422
 10
4081.808851211575
 20
4275.786202030423
 42
-0.4142135623730951
 10
4081.840251211575
 20
4275.817602030422
 10
4082.371201211575
 20
4275.817602030422
 42
-0.4142135623730951
 10
4082.402601211575
 20
4275.786202030423
  0
LWPOLYLINE
  5
2FD
330
2
100
AcDbEntity
  8
0
100
AcDbPolyline
 90
       19
 70
     1
 43
0.0
 10
4082.371351211576
 20
4275.614477030422
 10
4082.371351211576
 20
4275.520727030422
 10
4082.371351211576
 20
4275.614327030423
 42
0.4142135623730951
 10
4082.339951211575
 20
4275.645727030422
 10
4082.309001211576
 20
4275.645727030422
 42
0.4142135623730951
 10
4082.277601211575
 20
4275.614327030423
 10
4082.277601211575
 20
4275.442752030422
 42
-0.4142135623730951
 10
4082.246201211575
 20
4275.411352030423
 10
4081.809001211575
 20
4275.411352030423
 42
-0.4142135623730951
 10
4081.777601211576
 20
4275.442752030422
 10
4081.777601211576
 20
4275.817452030422
 42
-0.4142135623730951
 10
4081.809001211575
 20
4275.848852030422
 10
4082.402451211575
 20
4275.848852030422
 42
-0.4142135623730951
 10
4082.433851211575
 20
4275.817452030422
 10
4082.433851211575
 20
4275.520877030422
 42
-0.4142135623730951
 10
4082.402451211575
 20
4275.489477030422
 10
4082.371501211575
 20
4275.489477030422
 42
-0.4142135623730951
 10
4082.340101211576
 20
4275.520877030422
 10
4082.340101211576
 20
4275.614477030422
  0
LWPOLYLINE
  5
2FE
330
2
100
AcDbEntity
  8
0
100
AcDbPolyline
 90
        3
 70
     0
 43
0.0
 10
4081.808851211575
 20
4275.786352030422
 10
4082.402601211575
 20
4275.786352030422
 10
4082.402601211575
 20
4275.614477030422
  0
LWPOLYLINE
  5
2FF
330
2
100
AcDbEntity
  8
0
100
AcDbPolyline
 90
       11
 70
     0
 43
0.0
 10
4082.433851211575
 20
4275.786352030422
 10
4082.621351211575
 20
4275.786352030422
 10
4082.621351211575
 20
4275.630252030422
 42
0.4142135623730951
 10
4082.652751211575
 20
4275.598852030422
 10
4082.839951211576
 20
4275.598852030422
 42
0.4142135623730951
 10
4082.871351211575
 20
4275.630252030422
 10
4082.871351211575
 20
4275.817452030422
 42
0.4142135623730951
 10
4082.839951211576
 20
4275.848852030422
 10
4082.652751211575
 20
4275.848852030422
 42
0.412815076773199
 10
4082.621351569858
 20
4275.817602030422
 10
4082.433851211575
 20
4275.817602030422
  0
LWPOLYLINE
  5
300
330
2
100
AcDbEntity
  8
0
100
AcDbPolyline
 90
        4
 70
     0
 43
0.0
 10
4081.777601211576
 20
4275.817602030422
 10
4081.496351211575
 20
4275.817602030422
 10
4081.496351211575
 20
4275.786352030422
 10
4081.777601211576
 20
4275.786352030422
  0
LWPOLYLINE
  5
301
330
2
100
AcDbEntity
  8
0
  6
HIDDEN2
100
AcDbPolyline
 90
        4
 70
     0
 43
0.02
 10
4082.308970110029
 20
4275.614061906017
 10
4082.308970110029
 20
4275.522162130195
 42
0.4142135623730951
 10
4082.355470110028
 20
4275.475662130195
 10
4083.600002796044
 20
4275.475662130195
  0
LWPOLYLINE
  5
302
330
2
100
AcDbEntity
  8
0
100
AcDbPolyline
 90
        2
 70
     1
 43
0.03125
 10
4082.293345110028
 20
4275.614061906017
 42
1.0
 10
4082.324595110028
 20
4275.614061906017
 42
1.0
  0
LWPOLYLINE
  5
303
330
2
100
AcDbEntity
  8
0
  6
Continuous
100
AcDbPolyline
 90
       20
 70
     1
 43
0.0
 10
4080.898720735508
 20
4275.787497988661
 10
4080.898720735508
 20
4277.01849798866
 10
4081.19872073551
 20
4277.01849798866
 10
4081.19872073551
 20
4276.631189342777
 10
4081.278720735509
 20
4276.631189342777
 10
4081.278720735509
 20
4276.912189342777
 10
4081.715412089625
 20
4276.912189342777
 10
4081.840720735509
 20
4277.03749798866
 10
4081.965720735509
 20
4277.03749798866
 10
4081.965720735509
 20
4275.912514810202
 42
-0.4091108014277093
 10
4081.904802784708
 20
4275.850524253102
 10
4081.497348409801
 20
4275.843412110533
 10
4081.497348409801
 20
4275.718412110533
 10
4081.715348409801
 20
4275.714606906379
 10
4081.715348409801
 20
4274.944572000047
 42
-0.4142135623730951
 10
4081.684348409801
 20
4274.913572000047
 10
4080.898720735509
 20
4274.913572000047
 10
4080.898720735509
 20
4275.568747988661
 10
4080.820595735509
 20
4275.575583040498
 10
4080.820595735509
 20
4275.786134311714
  0
ARC
  5
304
330
2
100
AcDbEntity
  8
0010010007
100
AcDbCircle
 10
4081.365720735511
 20
4276.943189342777
 30
0.0
 40
0.0310000000010811
100
AcDbArc
 50
179.999999998593
 51
200.7835595944323
  0
LINE
  5
305
330
2
100
AcDbEntity
  8
0010010007
100
AcDbLine
 10
4081.334720735509
 20
4276.943189342777
 30
0.0
 11
4081.334720735509
 21
4277.006497988661
 31
0.0
  0
LINE
  5
306
330
2
100
AcDbEntity
  8
0010010007
100
AcDbLine
 10
4081.354720735508
 20
4276.943189342777
 30
0.0
 11
4081.354720735508
 21
4277.006497988661
 31
0.0
  0
ARC
  5
307
330
2
100
AcDbEntity
  8
0010010007
100
AcDbCircle
 10
4081.365720735509
 20
4276.943189342777
 30
0.0
 40
0.0110000000004202
100
AcDbArc
 50
180.0
 51
270.0
  0
ARC
  5
308
330
2
100
AcDbEntity
  8
0010010007
100
AcDbCircle
 10
4081.365720735509
 20
4277.006497988661
 30
0.0
 40
0.0309999999999491
100
AcDbArc
 50
90.0
 51
180.0
  0
ARC
  5
309
330
2
100
AcDbEntity
  8
0010010007
100
AcDbCircle
 10
4081.365720735509
 20
4277.006497988661
 30
0.0
 40
0.011000000000422
100
AcDbArc
 50
90.0
 51
180.0
  0
LINE
  5
30A
330
2
100
AcDbEntity
  8
0010010007
100
AcDbLine
 10
4081.365720735509
 20
4277.03749798866
 30
0.0
 11
4081.591778405102
 21
4277.03749798866
 31
0.0
  0
ARC
  5
30B
330
2
100
AcDbEntity
  8
0010010007
100
AcDbCircle
 10
4081.591778405102
 20
4277.006497988661
 30
0.0
 40
0.0309999999999491
100
AcDbArc
 50
0.0
 51
90.0
  0
ARC
  5
30C
330
2
100
AcDbEntity
  8
0010010007
100
AcDbCircle
 10
4081.591778405102
 20
4277.006497988661
 30
0.0
 40
0.011000000000422
100
AcDbArc
 50
0.0
 51
90.0
  0
LINE
  5
30D
330
2
100
AcDbEntity
  8
0010010007
100
AcDbLine
 10
4081.622778405102
 20
4277.006497988661
 30
0.0
 11
4081.622778405102
 21
4276.943189342777
 31
0.0
  0
LINE
  5
30E
330
2
100
AcDbEntity
  8
0010010007
100
AcDbLine
 10
4081.602778405102
 20
4277.006497988661
 30
0.0
 11
4081.602778405102
 21
4276.943189342777
 31
0.0
  0
LINE
  5
30F
330
2
100
AcDbEntity
  8
0010010007
100
AcDbLine
 10
4081.591778405102
 20
4276.912189342777
 30
0.0
 11
4081.248720735509
 21
4276.912189342777
 31
0.0
  0
LINE
  5
310
330
2
100
AcDbEntity
  8
0010010007
100
AcDbLine
 10
4081.591778405102
 20
4276.932189342777
 30
0.0
 11
4081.365720735509
 21
4276.932189342777
 31
0.0
  0
ARC
  5
311
330
2
100
AcDbEntity
  8
0010010007
100
AcDbCircle
 10
4081.591778405102
 20
4276.943189342777
 30
0.0
 40
0.0110000000004202
100
AcDbArc
 50
270.0
 51
0.0
  0
ARC
  5
312
330
2
100
AcDbEntity
  8
0010010007
100
AcDbCircle
 10
4081.591778405102
 20
4276.943189342777
 30
0.0
 40
0.0309999999999491
100
AcDbArc
 50
270.0
 51
0.0
  0
LINE
  5
313
330
2
100
AcDbEntity
  8
0010010007
100
AcDbLine
 10
4081.248720735509
 20
4276.912189342777
 30
0.0
 11
4081.248720735509
 21
4276.808859779523
 31
0.0
  0
LINE
  5
314
330
2
100
AcDbEntity
  8
0010010007
100
AcDbLine
 10
4081.248720735509
 20
4276.808859779523
 30
0.0
 11
4081.278720735509
 21
4276.826180287598
 31
0.0
  0
LINE
  5
315
330
2
100
AcDbEntity
  8
0010010007
100
AcDbLine
 10
4081.278720735509
 20
4276.826180287598
 30
0.0
 11
4081.278720735509
 21
4276.809509850853
 31
0.0
  0
LINE
  5
316
330
2
100
AcDbEntity
  8
0010010007
100
AcDbLine
 10
4081.278720735509
 20
4276.809509850853
 30
0.0
 11
4081.248720735509
 21
4276.792189342777
 31
0.0
  0
LINE
  5
317
330
2
100
AcDbEntity
  8
0010010007
100
AcDbLine
 10
4081.248720735509
 20
4276.792189342777
 30
0.0
 11
4081.248720735509
 21
4276.73964041524
 31
0.0
  0
LINE
  5
318
330
2
100
AcDbEntity
  8
0010010007
100
AcDbLine
 10
4081.248720735509
 20
4276.73964041524
 30
0.0
 11
4081.278720735509
 21
4276.756960923317
 31
0.0
  0
LINE
  5
319
330
2
100
AcDbEntity
  8
0010010007
100
AcDbLine
 10
4081.278720735509
 20
4276.756960923317
 30
0.0
 11
4081.278720735509
 21
4276.739509850852
 31
0.0
  0
LINE
  5
31A
330
2
100
AcDbEntity
  8
0010010007
100
AcDbLine
 10
4081.278720735509
 20
4276.739509850852
 30
0.0
 11
4081.248720735509
 21
4276.722189342776
 31
0.0
  0
LINE
  5
31B
330
2
100
AcDbEntity
  8
0010010007
100
AcDbLine
 10
4081.248720735509
 20
4276.722189342776
 30
0.0
 11
4081.248720735509
 21
4276.682189342777
 31
0.0
  0
LINE
  5
31C
330
2
100
AcDbEntity
  8
0010010007
100
AcDbLine
 10
4081.248720735509
 20
4276.682189342777
 30
0.0
 11
4081.228720735508
 21
4276.682189342777
 31
0.0
  0
LINE
  5
31D
330
2
100
AcDbEntity
  8
0010010007
100
AcDbLine
 10
4081.228720735508
 20
4276.682189342777
 30
0.0
 11
4081.228720735508
 21
4276.722189342776
 31
0.0
  0
LINE
  5
31E
330
2
100
AcDbEntity
  8
0010010007
100
AcDbLine
 10
4081.228720735508
 20
4276.722189342776
 30
0.0
 11
4081.19872073551
 21
4276.739509850852
 31
0.0
  0
LINE
  5
31F
330
2
100
AcDbEntity
  8
0010010007
100
AcDbLine
 10
4081.19872073551
 20
4276.739509850852
 30
0.0
 11
4081.19872073551
 21
4276.756413566841
 31
0.0
  0
LINE
  5
320
330
2
100
AcDbEntity
  8
0010010007
100
AcDbLine
 10
4081.19872073551
 20
4276.756413566841
 30
0.0
 11
4081.228720735508
 21
4276.739093058766
 31
0.0
  0
LINE
  5
321
330
2
100
AcDbEntity
  8
0010010007
100
AcDbLine
 10
4081.228720735508
 20
4276.739093058766
 30
0.0
 11
4081.228720735508
 21
4276.791564342777
 31
0.0
  0
LINE
  5
322
330
2
100
AcDbEntity
  8
0010010007
100
AcDbLine
 10
4081.228720735508
 20
4276.791564342777
 30
0.0
 11
4081.19872073551
 21
4276.808884850852
 31
0.0
  0
LINE
  5
323
330
2
100
AcDbEntity
  8
0010010007
100
AcDbLine
 10
4081.19872073551
 20
4276.808884850852
 30
0.0
 11
4081.19872073551
 21
4276.82545102481
 31
0.0
  0
LINE
  5
324
330
2
100
AcDbEntity
  8
0010010007
100
AcDbLine
 10
4081.19872073551
 20
4276.82545102481
 30
0.0
 11
4081.228720735508
 21
4276.808130516734
 31
0.0
  0
LINE
  5
325
330
2
100
AcDbEntity
  8
0010010007
100
AcDbLine
 10
4081.228720735508
 20
4276.808130516734
 30
0.0
 11
4081.228720735508
 21
4276.932189342777
 31
0.0
  0
LINE
  5
326
330
2
100
AcDbEntity
  8
0010010007
100
AcDbLine
 10
4081.228720735508
 20
4276.932189342777
 30
0.0
 11
4081.336737982016
 21
4276.932189342777
 31
0.0
  0
LINE
  5
327
330
2
100
AcDbEntity
  8
0
100
AcDbLine
 10
4081.365720735509
 20
4277.017497988661
 30
0.0
 11
4081.591778405102
 21
4277.017497988661
 31
0.0
  0
INSERT
  5
328
330
2
100
AcDbEntity
  8
0
100
AcDbBlockReference
  2
86NPF141
 10
4081.42595528468
 20
4277.786905702432
 30
0.0
 41
-1.0
 43
2.0
  0
INSERT
  5
329
330
2
100
AcDbEntity
  8
0
100
AcDbBlockReference
  2
11HINGE
 10
4080.898720735508
 20
4277.01849798866
 30
0.0
 41
-1.0
 42
-1.0
 43
2.0
 50
180.0
  0
LWPOLYLINE
  5
32A
330
2
100
AcDbEntity
  8
0
100
AcDbPolyline
 90
        8
 70
     0
 43
0.0
 10
4082.571863157055
 20
4277.33224798867
 10
4082.571863157055
 20
4277.974497988672
 10
4082.680863157055
 20
4277.974497988672
 10
4082.680863157055
 20
4277.33224798867
 10
4082.571863157055
 20
4277.33224798867
 10
4082.680863157055
 20
4277.974497988671
 10
4082.571863157055
 20
4277.974497988672
 10
4082.680863157055
 20
4277.33224798867
  0
HATCH
  5
32B
330
2
100
AcDbEntity
  8
0
  6
Continuous
100
AcDbHatch
 10
0.0
 20
0.0
 30
0.0
210
0.0
220
0.0
230
1.0
  2
DASH
 70
     0
 71
     0
 91
        1
 92
        7
 72
     1
 73
     1
 93
       16
 10
4082.902329507803
 20
4277.450247988674
 42
0.0
 10
4082.902329507803
 20
4277.475622988673
 42
-0.414213562373094
 10
4082.886704507803
 20
4277.491247988673
 42
0.0
 10
4082.910892007804
 20
4277.526735776731
 42
0.3208708054700796
 10
4082.89016633967
 20
4277.559622988673
 42
0.0
 10
4082.833329507803
 20
4277.559622988673
 42
-0.4142135623730951
 10
4082.817704507803
 20
4277.575247988673
 42
0.0
 10
4082.817704507803
 20
4277.731497988673
 42
-0.4142135623730951
 10
4082.833329507803
 20
4277.747122988674
 42
0.0
 10
4082.890529248752
 20
4277.747122988674
 42
0.3359746306540742
 10
4082.910892007804
 20
4277.77962689842
 42
0.0
 10
4082.886704507803
 20
4277.815497988674
 42
-0.4142135623730951
 10
4082.902329507803
 20
4277.831122988674
 42
0.0
 10
4082.902329507803
 20
4277.856497988673
 42
0.0
 10
4082.680704507803
 20
4277.856497988673
 42
0.0
 10
4082.680704507803
 20
4277.450247988674
 42
0.0
 97
        0
 75
     0
 76
     1
 52
270.0
 41
0.1
 77
     0
 78
     1
 53
270.0
 43
4079.845168352925
 44
4295.335504453981
 45
0.0125
 46
-0.0125
 79
     2
 49
0.0125
 49
-0.0125
 47
0.0022535086831111
 98
        1
 10
4082.780829768387
 20
4277.543105806164
  0
HATCH
  5
32C
330
2
100
AcDbEntity
  8
0
  6
Continuous
100
AcDbHatch
 10
0.0
 20
0.0
 30
0.0
210
0.0
220
0.0
230
1.0
  2
DOTS
 70
     0
 71
     0
 91
        2
 92
        7
 72
     0
 73
     1
 93
        4
 10
4083.055704507803
 20
4277.450247988674
 10
4083.055704507803
 20
4277.475622988673
 10
4082.902329507803
 20
4277.475622988673
 10
4082.902329507803
 20
4277.450247988674
 97
        0
 92
        7
 72
     0
 73
     1
 93
        4
 10
4083.055704507803
 20
4277.831122988674
 10
4083.055704507803
 20
4277.856497988673
 10
4082.902329507803
 20
4277.856497988673
 10
4082.902329507803
 20
4277.831122988674
 97
        0
 75
     0
 76
     1
 52
270.0
 41
0.1
 77
     0
 78
     1
 53
270.0
 43
4079.845168352925
 44
4295.335504453981
 45
0.00625
 46
-0.003125
 79
     2
 49
0.0
 49
-0.00625
 47
0.0009915749623601
 98
        2
 10
4082.98534772412
 20
4277.465772889939
 10
4083.00022135513
 20
4277.848816383321
  0
LWPOLYLINE
  5
32D
330
2
100
AcDbEntity
  8
0
100
AcDbPolyline
 90
       14
 70
     1
 43
0.0
 10
4082.890529248752
 20
4277.747122988674
 42
0.3359746306540741
 10
4082.910892007804
 20
4277.77962689842
 10
4082.886704507803
 20
4277.815497988674
 42
-0.4142135623730951
 10
4082.902329507803
 20
4277.831122988674
 10
4083.083954507804
 20
4277.831122988674
 10
4083.083954507804
 20
4277.475622988673
 10
4082.902329507803
 20
4277.475622988673
 42
-0.414213562373094
 10
4082.886704507803
 20
4277.491247988673
 10
4082.910892007804
 20
4277.526735776731
 42
0.3208708054700532
 10
4082.89016633967
 20
4277.559622988673
 10
4082.833329507803
 20
4277.559622988673
 42
-0.4142135623730951
 10
4082.817704507803
 20
4277.575247988673
 10
4082.817704507803
 20
4277.731497988673
 42
-0.4142135623730951
 10
4082.833329507803
 20
4277.747122988674
1001
ACAD
1000
ASC_BOUNDS
1002
{
1070
    19
1002
}
  0
LWPOLYLINE
  5
32E
330
2
100
AcDbEntity
  8
0
100
AcDbPolyline
 90
       14
 70
     1
 43
0.0
 10
4082.891747648896
 20
4277.740122988674
 42
0.3593608004949541
 10
4082.917651664777
 20
4277.782122875997
 10
4082.893903898058
 20
4277.817341823109
 42
-0.3524310491054993
 10
4082.902329507803
 20
4277.824122988674
 10
4083.083954507804
 20
4277.824122988674
 10
4083.083954507804
 20
4277.482622988673
 10
4082.902329507803
 20
4277.482622988673
 42
-0.3518693664465323
 10
4082.893907600442
 20
4277.489387316375
 10
4082.917711104621
 20
4277.524311707542
 42
0.3446308864324803
 10
4082.891472190619
 20
4277.566622988673
 10
4082.833329507803
 20
4277.566622988673
 42
-0.4142135623730946
 10
4082.824704507803
 20
4277.575247988673
 10
4082.824704507803
 20
4277.731497988673
 42
-0.4142135623730946
 10
4082.833329507803
 20
4277.740122988674
  0
LWPOLYLINE
  5
32F
330
2
100
AcDbEntity
  8
0
100
AcDbPolyline
 90
       10
 70
     1
 43
0.0
 10
4082.895267007804
 20
4277.715872988673
 42
0.3584554666094669
 10
4082.942142007804
 20
4277.780776834827
 10
4082.942142007804
 20
4277.799872988674
 10
4083.052704507803
 20
4277.799872988674
 10
4083.052704507803
 20
4277.506872988673
 10
4082.942142007804
 20
4277.506872988673
 10
4082.942142007804
 20
4277.525969142518
 42
0.3467993108968364
 10
4082.895267007804
 20
4277.590872988673
 10
4082.848954507803
 20
4277.590872988673
 10
4082.848954507803
 20
4277.715872988673
  0
LWPOLYLINE
  5
330
330
2
100
AcDbEntity
  8
0
100
AcDbPolyline
 90
        6
 70
     0
 43
0.0
 10
4083.055704507803
 20
4277.831122988674
 10
4083.055704507803
 20
4277.840872988673
 10
4083.093704507803
 20
4277.840872988673
 10
4083.093704507803
 20
4277.465872988673
 10
4083.055704507803
 20
4277.465872988673
 10
4083.055704507803
 20
4277.475622988673
  0
LINE
  5
331
330
2
100
AcDbEntity
  8
0
100
AcDbLine
 10
4082.902329507803
 20
4277.475622988673
 30
0.0
 11
4082.902329507803
 21
4277.450247988674
 31
0.0
  0
LINE
  5
332
330
2
100
AcDbEntity
  8
0
100
AcDbLine
 10
4083.055704507803
 20
4277.475622988673
 30
0.0
 11
4083.055704507803
 21
4277.450247988674
 31
0.0
  0
LINE
  5
333
330
2
100
AcDbEntity
  8
0
100
AcDbLine
 10
4082.902329507803
 20
4277.831122988674
 30
0.0
 11
4082.902329507803
 21
4277.856497988673
 31
0.0
  0
LINE
  5
334
330
2
100
AcDbEntity
  8
0
100
AcDbLine
 10
4083.055704507803
 20
4277.831122988674
 30
0.0
 11
4083.055704507803
 21
4277.856497988673
 31
0.0
  0
HATCH
  5
335
330
2
100
AcDbEntity
  8
0
100
AcDbHatch
 10
0.0
 20
0.0
 30
0.0
210
0.0
220
0.0
230
1.0
  2
SOLID
 70
     1
 71
     0
 91
        1
 92
        7
 72
     1
 73
     1
 93
        2
 10
4082.821530464278
 20
4277.974497988671
 42
0.0
 10
4083.009030464278
 20
4277.974497988672
 42
0.6666666666677566
 97
        0
 75
     1
 76
     1
 47
0.0043890848272954
 98
        1
 10
4082.907730399543
 20
4278.015085215328
1001
GradientColor1ACI
1070
     5
1001
GradientColor2ACI
1070
     2
1001
ACAD
1010
0.0
1020
0.0
1030
0.0
  0
LWPOLYLINE
  5
336
330
2
100
AcDbEntity
  8
0
100
AcDbPolyline
 90
        4
 70
     0
 43
0.0
 10
4083.600002796044
 20
4277.856497988675
 10
4082.680704507803
 20
4277.856497988671
 10
4082.680704507803
 20
4277.974497988671
 10
4083.600002796044
 20
4277.974497988673
  0
LWPOLYLINE
  5
337
330
2
100
AcDbEntity
  8
0
100
AcDbPolyline
 90
        4
 70
     0
 43
0.0
 10
4083.600002796044
 20
4277.450247988676
 10
4082.680704507803
 20
4277.450247988674
 10
4082.680704507803
 20
4277.332247988673
 10
4083.600002796044
 20
4277.332247988676
  0
LINE
  5
338
330
2
100
AcDbEntity
  8
0
  6
HIDDEN2
100
AcDbLine
 10
4083.600002796044
 20
4275.475662130195
 30
0.0
 11
4083.600002796044
 21
4277.974497988673
 31
0.0
  0
LWPOLYLINE
  5
339
330
2
100
AcDbEntity
  8
0
  6
Continuous
100
AcDbPolyline
 90
        2
 70
     0
 43
0.0
 10
4083.134030464279
 20
4277.974497988672
 10
4083.009030464278
 20
4277.974497988672
  0
LWPOLYLINE
  5
33A
330
2
100
AcDbEntity
  8
0
  6
Continuous
100
AcDbPolyline
 90
       20
 70
     0
 43
0.0
 10
4082.821530464278
 20
4277.974497988672
 10
4082.571863157055
 20
4277.974497988672
 10
4082.571863157055
 20
4277.787497988677
 42
0.9999999999999998
 10
4082.571863157055
 20
4277.599497988672
 10
4082.571863157055
 20
4277.037497988674
 10
4081.384940339083
 20
4277.037497988667
 10
4081.384009017164
 20
4277.78749798867
 10
4081.134008824424
 20
4277.78749798867
 10
4081.133720735509
 20
4278.019497988677
 10
4081.445720735507
 20
4278.019497988677
 10
4081.445720735507
 20
4278.099497988672
 10
4081.133720735509
 20
4278.099497988672
 10
4081.133720735509
 20
4278.287497988674
 42
-0.4142135623730951
 10
4081.195720735506
 20
4278.349497988672
 10
4082.883250387173
 20
4278.349497988668
 10
4082.883250387181
 20
4278.254459041554
 42
-0.3899024490768579
 10
4083.084423238505
 20
4278.069459041552
 10
4083.134030464279
 20
4278.069459041552
 10
4083.134030464279
 20
4277.974497988672
 10
4083.009030464278
 20
4277.974497988672
  0
LWPOLYLINE
  5
33B
330
2
100
AcDbEntity
  8
0
100
AcDbPolyline
 90
       11
 70
     1
 43
0.0
 10
4082.821863157056
 20
4277.33224798867
 10
4082.571863157055
 20
4277.33224798867
 10
4082.571863157055
 20
4276.958247988671
 10
4082.85336315706
 20
4276.958247988671
 42
0.4142135623731695
 10
4082.884363157055
 20
4276.989247988674
 10
4082.884363157055
 20
4277.035772756958
 42
-0.235730494161761
 10
4082.896731458734
 20
4277.060548951534
 10
4083.121994855376
 20
4277.229947025808
 42
0.235730494161718
 10
4083.134363157055
 20
4277.254723220384
 10
4083.134363157055
 20
4277.33224798867
 10
4083.009363157056
 20
4277.33224798867
 42
-0.6666666666666588
  0
ARC
  5
33C
330
2
100
AcDbEntity
  8
0
100
AcDbCircle
 10
4082.915280464279
 20
4277.935435488672
 30
0.0
 40
0.1015624999999893
100
AcDbArc
 50
22.61986494808644
 51
157.3801350519135
  0
HATCH
  5
33D
330
2
100
AcDbEntity
  8
0
100
AcDbHatch
 10
0.0
 20
0.0
 30
0.0
210
0.0
220
0.0
230
1.0
  2
SOLID
 70
     1
 71
     0
 91
        1
 92
        7
 72
     1
 73
     1
 93
        2
 10
4082.821530464278
 20
4277.332247988676
 42
0.0
 10
4083.009030464278
 20
4277.332247988676
 42
-0.6666666666677566
 97
        0
 75
     1
 76
     1
 47
0.0043890848272954
 98
        1
 10
4082.907730399543
 20
4277.291660762017
1001
GradientColor1ACI
1070
     5
1001
GradientColor2ACI
1070
     2
1001
ACAD
1010
0.0
1020
0.0
1030
0.0
  0
ENDSEC
  0
SECTION
  2
OBJECTS
  0
DICTIONARY
  5
B
330
0
100
AcDbDictionary
281
     1
  3
ACAD_COLOR
350
50
  3
ACAD_GROUP
350
3D
  3
ACAD_LAYOUT
350
18
  3
ACAD_MATERIAL
350
D
  3
ACAD_MLEADERSTYLE
350
53
  3
ACAD_MLINESTYLE
350
3E
  3
ACAD_PLOTSETTINGS
350
3F
  3
ACAD_PLOTSTYLENAME
350
A
  3
ACAD_SCALELIST
350
51
  3
ACAD_TABLESTYLE
350
52
  3
ACAD_VISUALSTYLE
350
31
  3
ACDB_RECOMPOSE_DATA
350
34B
  3
AcDbVariableDictionary
350
341
  0
DICTIONARY
  5
33
330
2E
100
AcDbDictionary
280
     1
281
     1
  0
DICTIONARY
  5
23
330
22
100
AcDbDictionary
280
     1
281
     1
  3
ACAD_LAYERSTATES
360
24
  0
DICTIONARY
  5
7
330
6
100
AcDbDictionary
280
     1
281
     1
  3
ADSK_XREC_LAYER_RECONCILED
360
8
  0
DICTIONARY
  5
83
330
82
100
AcDbDictionary
280
     1
281
     1
  3
ADSK_XREC_LAYER_RECONCILED
360
84
  0
DICTIONARY
  5
3
330
2
100
AcDbDictionary
280
     1
281
     1
  3
ACAD_SORTENTS
360
33E
  0
DICTIONARY
  5
ED
330
EC
100
AcDbDictionary
280
     1
281
     1
  3
ACAD_DIMASSOC
360
EE
  0
DICTIONARY
  5
FE
330
FD
100
AcDbDictionary
280
     1
281
     1
  3
ACAD_DIMASSOC
360
FF
  0
DICTIONARY
  5
15D
330
15C
100
AcDbDictionary
280
     1
281
     1
  3
ACAD_DIMASSOC
360
15E
  0
DICTIONARY
  5
16E
330
16D
100
AcDbDictionary
280
     1
281
     1
  3
ACAD_DIMASSOC
360
16F
  0
DICTIONARY
  5
180
330
17F
100
AcDbDictionary
280
     1
281
     1
  3
ACAD_DIMASSOC
360
181
  0
DICTIONARY
  5
194
330
193
100
AcDbDictionary
280
     1
281
     1
  3
ACAD_DIMASSOC
360
195
  0
DICTIONARY
  5
1A5
330
1A4
100
AcDbDictionary
280
     1
281
     1
  3
ACAD_DIMASSOC
360
1A6
  0
DICTIONARY
  5
22D
330
22C
100
AcDbDictionary
280
     1
281
     1
  3
ACAD_DIMASSOC
360
22E
  0
DICTIONARY
  5
23E
330
23D
100
AcDbDictionary
280
     1
281
     1
  3
ACAD_DIMASSOC
360
23F
  0
DICTIONARY
  5
295
330
294
100
AcDbDictionary
280
     1
281
     1
  3
ACAD_DIMASSOC
360
296
  0
DICTIONARY
  5
2A7
330
2A6
100
AcDbDictionary
280
     1
281
     1
  3
ACAD_DIMASSOC
360
2A8
  0
DICTIONARY
  5
2B8
330
2B7
100
AcDbDictionary
280
     1
281
     1
  3
ACAD_DIMASSOC
360
2B9
  0
DICTIONARY
  5
2C8
330
2C7
100
AcDbDictionary
280
     1
281
     1
  3
ACAD_DIMASSOC
360
2C9
  0
DICTIONARY
  5
2DA
330
2D9
100
AcDbDictionary
280
     1
281
     1
  3
ACAD_DIMASSOC
360
2DB
  0
DICTIONARY
  5
2EB
330
2EA
100
AcDbDictionary
280
     1
281
     1
  3
ACAD_DIMASSOC
360
2EC
  0
DICTIONARY
  5
50
102
{ACAD_REACTORS
330
B
102
}
330
B
100
AcDbDictionary
281
     1
  0
DICTIONARY
  5
3D
102
{ACAD_REACTORS
330
B
102
}
330
B
100
AcDbDictionary
281
     1
  0
DICTIONARY
  5
18
102
{ACAD_REACTORS
330
B
102
}
330
B
100
AcDbDictionary
281
     1
  3
Layout1
350
1F
  3
Model
350
17
  0
DICTIONARY
  5
D
102
{ACAD_REACTORS
330
B
102
}
330
B
100
AcDbDictionary
281
     1
  3
ByBlock
350
48
  3
ByLayer
350
40
  3
Global
350
C
  0
DICTIONARY
  5
53
102
{ACAD_REACTORS
330
B
102
}
330
B
100
AcDbDictionary
281
     1
  0
DICTIONARY
  5
3E
102
{ACAD_REACTORS
330
B
102
}
330
B
100
AcDbDictionary
281
     1
  3
Standard
350
54
  0
DICTIONARY
  5
3F
102
{ACAD_REACTORS
330
B
102
}
330
B
100
AcDbDictionary
281
     1
  0
ACDBDICTIONARYWDFLT
  5
A
102
{ACAD_REACTORS
330
B
102
}
330
B
100
AcDbDictionary
281
     1
  3
Normal
350
9
100
AcDbDictionaryWithDefault
340
9
  0
DICTIONARY
  5
51
102
{ACAD_REACTORS
330
B
102
}
330
B
100
AcDbDictionary
281
     1
  3
A0
350
59
  3
A1
350
5A
  3
A2
350
5B
  3
A3
350
5C
  3
A4
350
5D
  3
A5
350
5E
  3
A6
350
5F
  3
A7
350
60
  3
A8
350
61
  3
A9
350
62
  3
B0
350
63
  3
B1
350
64
  3
B2
350
65
  3
B3
350
66
  3
B4
350
67
  3
B5
350
68
  3
B6
350
69
  0
DICTIONARY
  5
52
102
{ACAD_REACTORS
330
B
102
}
330
B
100
AcDbDictionary
281
     1
  3
Standard
350
55
  0
DICTIONARY
  5
31
102
{ACAD_REACTORS
330
B
102
}
330
B
100
AcDbDictionary
281
     1
  3
2dWireframe
350
30
  3
Realistic
350
57
  3
Wireframe
350
58
  0
XRECORD
  5
34B
102
{ACAD_REACTORS
330
B
102
}
330
B
100
AcDbXrecord
280
     1
 90
        1
330
55
  0
DICTIONARY
  5
341
102
{ACAD_REACTORS
330
B
102
}
330
B
100
AcDbDictionary
281
     1
  3
CANNOSCALE
350
344
  3
CMLEADERSTYLE
350
343
  3
CTABLESTYLE
350
342
  3
DIMASSOC
350
349
  3
HIDETEXT
350
347
  3
INDEXCTL
350
346
  3
SORTENTS
350
345
  3
XCLIPFRAME
350
348
  0
DICTIONARY
  5
24
102
{ACAD_REACTORS
330
23
102
}
330
23
100
AcDbDictionary
281
     1
  0
XRECORD
  5
8
102
{ACAD_REACTORS
330
7
102
}
330
7
100
AcDbXrecord
280
     1
290
     1
  0
XRECORD
  5
84
102
{ACAD_REACTORS
330
83
102
}
330
83
100
AcDbXrecord
280
     1
290
     1
  0
SORTENTSTABLE
  5
33E
102
{ACAD_REACTORS
330
3
102
}
330
3
100
AcDbSortentsTable
330
2
  0
DIMASSOC
  5
EE
102
{ACAD_REACTORS
330
ED
102
}
330
ED
100
AcDbDimAssoc
330
EC
 90
        3
 70
     0
 71
     0
  1
AcDbOsnapPointRef
 72
     1
331
EA
 73
     2
 91
       10
 40
1.0
 10
0.0
 20
0.0
 30
2.000000000000000E+50
 75
     0
  1
AcDbOsnapPointRef
 72
     1
331
EA
 73
     2
 91
        2
 40
0.0
 10
0.0
 20
0.0
 30
2.000000000000000E+50
 75
     0
  0
DIMASSOC
  5
FF
102
{ACAD_REACTORS
330
FE
102
}
330
FE
100
AcDbDimAssoc
330
FD
 90
        3
 70
     0
 71
     0
  1
AcDbOsnapPointRef
 72
     1
331
E9
 73
     2
 91
        6
 40
4.712388980384689
 10
0.0
 20
0.0
 30
2.000000000000000E+50
 75
     0
  1
AcDbOsnapPointRef
 72
     1
331
E9
 73
     2
 91
        3
 40
1.0
 10
0.0
 20
0.0
 30
2.000000000000000E+50
 75
     0
  0
DIMASSOC
  5
15E
102
{ACAD_REACTORS
330
15D
102
}
330
15D
100
AcDbDimAssoc
330
15C
 90
        2
 70
     0
 71
     0
  1
AcDbOsnapPointRef
 72
     1
331
15B
 73
     2
 91
        5
 40
1.0
 10
0.0
 20
0.0
 30
2.000000000000000E+50
 75
     0
  0
DIMASSOC
  5
16F
102
{ACAD_REACTORS
330
16E
102
}
330
16E
100
AcDbDimAssoc
330
16D
 90
        3
 70
     0
 71
     0
  1
AcDbOsnapPointRef
 72
     1
331
15B
 73
     2
 91
        6
 40
4.712388980384689
 10
0.0
 20
0.0
 30
2.000000000000000E+50
 75
     0
  1
AcDbOsnapPointRef
 72
     1
331
15B
 73
     2
 91
        3
 40
1.0
 10
0.0
 20
0.0
 30
2.000000000000000E+50
 75
     0
  0
DIMASSOC
  5
181
102
{ACAD_REACTORS
330
180
102
}
330
180
100
AcDbDimAssoc
330
17F
 90
        1
 70
     0
 71
     0
  1
AcDbOsnapPointRef
 72
     2
331
146
 73
     2
 91
        3
 40
0.5
 10
0.0
 20
0.0
 30
0.0
 75
     0
  0
DIMASSOC
  5
195
102
{ACAD_REACTORS
330
194
102
}
330
194
100
AcDbDimAssoc
330
193
 90
        2
 70
     0
 71
     0
  1
AcDbOsnapPointRef
 72
     1
331
191
 73
     2
 91
        4
 40
4.712388980384689
 10
0.0
 20
0.0
 30
2.000000000000000E+50
 75
     0
  0
DIMASSOC
  5
1A6
102
{ACAD_REACTORS
330
1A5
102
}
330
1A5
100
AcDbDimAssoc
330
1A4
 90
        3
 70
     0
 71
     0
  1
AcDbOsnapPointRef
 72
    13
331
191
 73
     2
 91
        1
 40
0.0
 10
0.0
 20
0.0
 30
2.000000000000000E+50
 75
     0
  1
AcDbOsnapPointRef
 72
     1
331
191
 73
     2
 91
        2
 40
0.0
 10
0.0
 20
0.0
 30
2.000000000000000E+50
 75
     0
  0
DIMASSOC
  5
22E
102
{ACAD_REACTORS
330
22D
102
}
330
22D
100
AcDbDimAssoc
330
22C
 90
        3
 70
     0
 71
     0
  1
AcDbOsnapPointRef
 72
     1
331
EA
 73
     2
 91
        1
 40
1.0
 10
0.0
 20
0.0
 30
2.000000000000000E+50
 75
     0
  1
AcDbOsnapPointRef
 72
     1
331
EA
 73
     2
 91
        4
 40
0.0
 10
0.0
 20
0.0
 30
2.000000000000000E+50
 75
     0
  0
DIMASSOC
  5
23F
102
{ACAD_REACTORS
330
23E
102
}
330
23E
100
AcDbDimAssoc
330
23D
 90
        3
 70
     0
 71
     0
  1
AcDbOsnapPointRef
 72
     1
331
E9
 73
     2
 91
        2
 40
1.0
 10
0.0
 20
0.0
 30
2.000000000000000E+50
 75
     0
  1
AcDbOsnapPointRef
 72
     1
331
E9
 73
     2
 91
        4
 40
4.712388980384689
 10
0.0
 20
0.0
 30
2.000000000000000E+50
 75
     0
  0
DIMASSOC
  5
296
102
{ACAD_REACTORS
330
295
102
}
330
295
100
AcDbDimAssoc
330
294
 90
        3
 70
     0
 71
     0
  1
AcDbOsnapPointRef
 72
     1
331
12A
 73
     2
 91
        2
 40
1.0
 10
0.0
 20
0.0
 30
2.000000000000000E+50
 75
     0
  1
AcDbOsnapPointRef
 72
    13
331
12A
 73
     2
 91
        5
 40
0.0
 10
0.0
 20
0.0
 30
2.000000000000000E+50
 75
     0
  0
DIMASSOC
  5
2A8
102
{ACAD_REACTORS
330
2A7
102
}
330
2A7
100
AcDbDimAssoc
330
2A6
 90
        3
 70
     0
 71
     0
  1
AcDbOsnapPointRef
 72
     1
331
12A
 73
     2
 91
        3
 40
1.0
 10
0.0
 20
0.0
 30
2.000000000000000E+50
 75
     0
  1
AcDbOsnapPointRef
 72
     1
331
12A
 73
     2
 91
        6
 40
6.283185307179586
 10
0.0
 20
0.0
 30
2.000000000000000E+50
 75
     0
  0
DIMASSOC
  5
2B9
102
{ACAD_REACTORS
330
2B8
102
}
330
2B8
100
AcDbDimAssoc
330
2B7
 90
        3
 70
     0
 71
     0
  1
AcDbOsnapPointRef
 72
    13
331
12E
 73
     2
 91
        0
 40
0.0
 10
0.0
 20
0.0
 30
2.000000000000000E+50
 75
     0
  1
AcDbOsnapPointRef
 72
    13
331
12D
 73
     2
 91
        1
 40
0.0
 10
0.0
 20
0.0
 30
2.000000000000000E+50
 75
     0
  0
DIMASSOC
  5
2C9
102
{ACAD_REACTORS
330
2C8
102
}
330
2C8
100
AcDbDimAssoc
330
2C7
 90
        3
 70
     0
 71
     0
  1
AcDbOsnapPointRef
 72
     1
331
12B
 73
     2
 91
        2
 40
1.570796326794896
 10
0.0
 20
0.0
 30
2.000000000000000E+50
 75
     0
  1
AcDbOsnapPointRef
 72
     1
331
12B
 73
     2
 91
       10
 40
1.0
 10
0.0
 20
0.0
 30
2.000000000000000E+50
 75
     0
  0
DIMASSOC
  5
2DB
102
{ACAD_REACTORS
330
2DA
102
}
330
2DA
100
AcDbDimAssoc
330
2D9
 90
        3
 70
     0
 71
     0
  1
AcDbOsnapPointRef
 72
     1
331
12B
 73
     2
 91
        1
 40
1.0
 10
0.0
 20
0.0
 30
2.000000000000000E+50
 75
     0
  1
AcDbOsnapPointRef
 72
     1
331
12B
 73
     2
 91
        4
 40
0.0
 10
0.0
 20
0.0
 30
2.000000000000000E+50
 75
     0
  0
DIMASSOC
  5
2EC
102
{ACAD_REACTORS
330
2EB
102
}
330
2EB
100
AcDbDimAssoc
330
2EA
 90
        2
 70
     0
 71
     0
  1
AcDbOsnapPointRef
 72
     1
331
291
 73
     2
 91
        8
 40
6.283185307179586
 10
0.0
 20
0.0
 30
2.000000000000000E+50
 75
     0
  0
LAYOUT
  5
1F
102
{ACAD_XDICTIONARY
360
20
102
}
102
{ACAD_REACTORS
330
18
102
}
330
18
100
AcDbPlotSettings
  1

  2
Default Windows System Printer.pc3
  4
Letter
  6

 40
4.857749938964843
 41
4.857734680175781
 42
4.011077880859375
 43
4.857757568359375
 44
215.8999938964844
 45
279.3999938964844
 46
-3.864487472723795
 47
-0.730866326802785
 48
0.0
 49
0.0
140
0.0
141
0.0
142
1.0
143
1.0
 70
   692
 72
     0
 73
     0
 74
     1
  7
monochrome.ctb
 75
    16
147
1.0
148
0.0132933696343265
149
0.0163556920790192
100
AcDbLayout
  1
Layout1
 70
     1
 71
     1
 10
-0.0396281825147785
 20
-0.1631190569075597
 11
8.460371577189331
 21
10.83688070279655
 12
0.0
 22
0.0
 32
0.0
 14
-0.0003291525589439
 24
-0.00064344871884
 34
-0.0000000000000053
 15
8.454146011211186
 25
10.67440514583056
 35
0.0000000000000099
146
0.0
 13
0.0
 23
0.0
 33
0.0
 16
1.0
 26
0.0
 36
0.0
 17
0.0
 27
1.0
 37
0.0
 76
     0
330
1C
1001
ACAD_PSEXT
1000
Default Windows System Printer.pc3
1000
HP LaserJet Professional M1212nf MFP
1000
USB001
1000

1070
     0
  0
LAYOUT
  5
17
102
{ACAD_XDICTIONARY
360
19
102
}
102
{ACAD_REACTORS
330
18
102
}
330
18
100
AcDbPlotSettings
  1

  2
hp LaserJet 1000
  4
Letter
  6

 40
5.111750125885009
 41
5.11176061630249
 42
5.111740112304687
 43
5.11175537109375
 44
215.8999938964844
 45
279.3999938964844
 46
-1737.727141600119
 47
-1443.590822120185
 48
0.0
 49
0.0
140
0.0
141
0.0
142
1.0
143
1.0
 70
 11956
 72
     0
 73
     1
 74
     1
  7
monochrome.ctb
 75
    16
147
1.0
148
-1178909.293504616
149
-716480.0773740626
100
AcDbLayout
  1
Model
 70
     1
 71
     0
 10
0.0
 20
0.0
 11
12.0
 21
9.0
 12
0.0
 22
0.0
 32
0.0
 14
0.0
 24
0.0
 34
0.0
 15
0.0
 25
0.0
 35
0.0
146
0.0
 13
0.0
 23
0.0
 33
0.0
 16
1.0
 26
0.0
 36
0.0
 17
0.0
 27
1.0
 37
0.0
 76
     0
330
2
331
2F
1001
ACAD_PSEXT
1000
hp LaserJet 1000
1000
hp LaserJet 1000
1000
USB001
1000

1070
     0
  0
MATERIAL
  5
48
102
{ACAD_XDICTIONARY
360
49
102
}
102
{ACAD_REACTORS
330
D
102
}
330
D
100
AcDbMaterial
  1
ByBlock
 72
     0
 43
0.0208333333333333
 43
0.0
 43
0.0
 43
0.0
 43
0.0
 43
0.0208333333333333
 43
0.0
 43
0.0
 43
0.0
 43
0.0
 43
1.0
 43
0.0
 43
0.0
 43
0.0
 43
0.0
 43
1.0
 77
     0
 47
0.0208333333333333
 47
0.0
 47
0.0
 47
0.0
 47
0.0
 47
0.0208333333333333
 47
0.0
 47
0.0
 47
0.0
 47
0.0
 47
1.0
 47
0.0
 47
0.0
 47
0.0
 47
0.0
 47
1.0
171
     0
 49
0.0208333333333333
 49
0.0
 49
0.0
 49
0.0
 49
0.0
 49
0.0208333333333333
 49
0.0
 49
0.0
 49
0.0
 49
0.0
 49
1.0
 49
0.0
 49
0.0
 49
0.0
 49
0.0
 49
1.0
175
     0
142
0.0208333333333333
142
0.0
142
0.0
142
0.0
142
0.0
142
0.0208333333333333
142
0.0
142
0.0
142
0.0
142
0.0
142
1.0
142
0.0
142
0.0
142
0.0
142
0.0
142
1.0
179
     0
144
0.0208333333333333
144
0.0
144
0.0
144
0.0
144
0.0
144
0.0208333333333333
144
0.0
144
0.0
144
0.0
144
0.0
144
1.0
144
0.0
144
0.0
144
0.0
144
0.0
144
1.0
147
0.0208333333333333
147
0.0
147
0.0
147
0.0
147
0.0
147
0.0208333333333333
147
0.0
147
0.0
147
0.0
147
0.0
147
1.0
147
0.0
147
0.0
147
0.0
147
0.0
147
1.0
  0
MATERIAL
  5
40
102
{ACAD_XDICTIONARY
360
41
102
}
102
{ACAD_REACTORS
330
D
102
}
330
D
100
AcDbMaterial
  1
ByLayer
 72
     0
 43
0.0208333333333333
 43
0.0
 43
0.0
 43
0.0
 43
0.0
 43
0.0208333333333333
 43
0.0
 43
0.0
 43
0.0
 43
0.0
 43
1.0
 43
0.0
 43
0.0
 43
0.0
 43
0.0
 43
1.0
 77
     0
 47
0.0208333333333333
 47
0.0
 47
0.0
 47
0.0
 47
0.0
 47
0.0208333333333333
 47
0.0
 47
0.0
 47
0.0
 47
0.0
 47
1.0
 47
0.0
 47
0.0
 47
0.0
 47
0.0
 47
1.0
171
     0
 49
0.0208333333333333
 49
0.0
 49
0.0
 49
0.0
 49
0.0
 49
0.0208333333333333
 49
0.0
 49
0.0
 49
0.0
 49
0.0
 49
1.0
 49
0.0
 49
0.0
 49
0.0
 49
0.0
 49
1.0
175
     0
142
0.0208333333333333
142
0.0
142
0.0
142
0.0
142
0.0
142
0.0208333333333333
142
0.0
142
0.0
142
0.0
142
0.0
142
1.0
142
0.0
142
0.0
142
0.0
142
0.0
142
1.0
179
     0
144
0.0208333333333333
144
0.0
144
0.0
144
0.0
144
0.0
144
0.0208333333333333
144
0.0
144
0.0
144
0.0
144
0.0
144
1.0
144
0.0
144
0.0
144
0.0
144
0.0
144
1.0
147
0.0208333333333333
147
0.0
147
0.0
147
0.0
147
0.0
147
0.0208333333333333
147
0.0
147
0.0
147
0.0
147
0.0
147
1.0
147
0.0
147
0.0
147
0.0
147
0.0
147
1.0
  0
MATERIAL
  5
C
102
{ACAD_XDICTIONARY
360
E
102
}
102
{ACAD_REACTORS
330
D
102
}
330
D
100
AcDbMaterial
  1
Global
 72
     0
 43
0.0208333333333333
 43
0.0
 43
0.0
 43
0.0
 43
0.0
 43
0.0208333333333333
 43
0.0
 43
0.0
 43
0.0
 43
0.0
 43
1.0
 43
0.0
 43
0.0
 43
0.0
 43
0.0
 43
1.0
 77
     0
 47
0.0208333333333333
 47
0.0
 47
0.0
 47
0.0
 47
0.0
 47
0.0208333333333333
 47
0.0
 47
0.0
 47
0.0
 47
0.0
 47
1.0
 47
0.0
 47
0.0
 47
0.0
 47
0.0
 47
1.0
171
     0
 49
0.0208333333333333
 49
0.0
 49
0.0
 49
0.0
 49
0.0
 49
0.0208333333333333
 49
0.0
 49
0.0
 49
0.0
 49
0.0
 49
1.0
 49
0.0
 49
0.0
 49
0.0
 49
0.0
 49
1.0
175
     0
142
0.0208333333333333
142
0.0
142
0.0
142
0.0
142
0.0
142
0.0208333333333333
142
0.0
142
0.0
142
0.0
142
0.0
142
1.0
142
0.0
142
0.0
142
0.0
142
0.0
142
1.0
179
     0
144
0.0208333333333333
144
0.0
144
0.0
144
0.0
144
0.0
144
0.0208333333333333
144
0.0
144
0.0
144
0.0
144
0.0
144
1.0
144
0.0
144
0.0
144
0.0
144
0.0
144
1.0
147
0.0208333333333333
147
0.0
147
0.0
147
0.0
147
0.0
147
0.0208333333333333
147
0.0
147
0.0
147
0.0
147
0.0
147
1.0
147
0.0
147
0.0
147
0.0
147
0.0
147
1.0
  0
MLINESTYLE
  5
54
102
{ACAD_REACTORS
330
3E
102
}
330
3E
100
AcDbMlineStyle
  2
STANDARD
 70
     0
  3

 62
   256
 51
90.0
 52
90.0
 71
     2
 49
0.5
 62
   256
  6
BYLAYER
 49
-0.5
 62
   256
  6
BYLAYER
  0
ACDBPLACEHOLDER
  5
9
102
{ACAD_REACTORS
330
A
102
}
330
A
  0
SCALE
  5
59
102
{ACAD_REACTORS
330
51
102
}
330
51
100
AcDbScale
 70
     0
300
1:1
140
1.0
141
1.0
290
     1
  0
SCALE
  5
5A
102
{ACAD_REACTORS
330
51
102
}
330
51
100
AcDbScale
 70
     0
300
1/128" = 1'-0"
140
0.0078125
141
12.0
290
     0
  0
SCALE
  5
5B
102
{ACAD_REACTORS
330
51
102
}
330
51
100
AcDbScale
 70
     0
300
1/64" = 1'-0"
140
0.015625
141
12.0
290
     0
  0
SCALE
  5
5C
102
{ACAD_REACTORS
330
51
102
}
330
51
100
AcDbScale
 70
     0
300
1/32" = 1'-0"
140
0.03125
141
12.0
290
     0
  0
SCALE
  5
5D
102
{ACAD_REACTORS
330
51
102
}
330
51
100
AcDbScale
 70
     0
300
1/16" = 1'-0"
140
0.0625
141
12.0
290
     0
  0
SCALE
  5
5E
102
{ACAD_REACTORS
330
51
102
}
330
51
100
AcDbScale
 70
     0
300
3/32" = 1'-0"
140
0.09375
141
12.0
290
     0
  0
SCALE
  5
5F
102
{ACAD_REACTORS
330
51
102
}
330
51
100
AcDbScale
 70
     0
300
1/8" = 1'-0"
140
0.125
141
12.0
290
     0
  0
SCALE
  5
60
102
{ACAD_REACTORS
330
51
102
}
330
51
100
AcDbScale
 70
     0
300
3/16" = 1'-0"
140
0.1875
141
12.0
290
     0
  0
SCALE
  5
61
102
{ACAD_REACTORS
330
51
102
}
330
51
100
AcDbScale
 70
     0
300
1/4" = 1'-0"
140
0.25
141
12.0
290
     0
  0
SCALE
  5
62
102
{ACAD_REACTORS
330
51
102
}
330
51
100
AcDbScale
 70
     0
300
3/8" = 1'-0"
140
0.375
141
12.0
290
     0
  0
SCALE
  5
63
102
{ACAD_REACTORS
330
51
102
}
330
51
100
AcDbScale
 70
     0
300
1/2" = 1'-0"
140
0.5
141
12.0
290
     0
  0
SCALE
  5
64
102
{ACAD_REACTORS
330
51
102
}
330
51
100
AcDbScale
 70
     0
300
3/4" = 1'-0"
140
0.75
141
12.0
290
     0
  0
SCALE
  5
65
102
{ACAD_REACTORS
330
51
102
}
330
51
100
AcDbScale
 70
     0
300
1" = 1'-0"
140
1.0
141
12.0
290
     0
  0
SCALE
  5
66
102
{ACAD_REACTORS
330
51
102
}
330
51
100
AcDbScale
 70
     0
300
1-1/2" = 1'-0"
140
1.5
141
12.0
290
     0
  0
SCALE
  5
67
102
{ACAD_REACTORS
330
51
102
}
330
51
100
AcDbScale
 70
     0
300
3" = 1'-0"
140
3.0
141
12.0
290
     0
  0
SCALE
  5
68
102
{ACAD_REACTORS
330
51
102
}
330
51
100
AcDbScale
 70
     0
300
6" = 1'-0"
140
6.0
141
12.0
290
     0
  0
SCALE
  5
69
102
{ACAD_REACTORS
330
51
102
}
330
51
100
AcDbScale
 70
     0
300
1'-0" = 1'-0"
140
12.0
141
12.0
290
     0
  0
TABLESTYLE
  5
55
102
{ACAD_XDICTIONARY
360
56
102
}
102
{ACAD_REACTORS
330
52
102
}
330
52
100
AcDbTableStyle
  3
Standard
 70
     0
 71
     0
 40
0.06
 41
0.06
280
     0
281
     0
  7
Standard
140
0.18
170
     2
 62
     0
 63
     7
283
     0
274
    -2
284
     1
 64
     0
275
    -2
285
     1
 65
     0
276
    -2
286
     1
 66
     0
277
    -2
287
     1
 67
     0
278
    -2
288
     1
 68
     0
279
    -2
289
     1
 69
     0
  7
Standard
140
0.25
170
     5
 62
     0
 63
     7
283
     0
274
    -2
284
     1
 64
     0
275
    -2
285
     1
 65
     0
276
    -2
286
     1
 66
     0
277
    -2
287
     1
 67
     0
278
    -2
288
     1
 68
     0
279
    -2
289
     1
 69
     0
  7
Standard
140
0.18
170
     5
 62
     0
 63
     7
283
     0
274
    -2
284
     1
 64
     0
275
    -2
285
     1
 65
     0
276
    -2
286
     1
 66
     0
277
    -2
287
     1
 67
     0
278
    -2
288
     1
 68
     0
279
    -2
289
     1
 69
     0
  0
VISUALSTYLE
  5
30
102
{ACAD_XDICTIONARY
360
34F
102
}
102
{ACAD_REACTORS
330
31
102
}
330
31
100
AcDbVisualStyle
  2
2dWireframe
 70
     4
 71
     0
 72
     2
 73
     0
 90
        0
 40
-0.6
 41
-30.0
 62
     5
 63
     7
 74
     1
 91
        4
 64
     7
 65
   257
 75
     1
175
     1
 42
1.0
 92
        0
 66
   257
 43
1.0
 76
     1
 77
     6
 78
     2
 67
     7
 79
     5
170
     0
171
     0
290
     0
174
     0
 93
        1
 44
0.0
173
     0
291
     0
 45
0.0
1001
ACAD
1000
AcDbSavedByObjectVersion
1070
     0
  0
VISUALSTYLE
  5
57
102
{ACAD_XDICTIONARY
360
354
102
}
102
{ACAD_REACTORS
330
31
102
}
330
31
100
AcDbVisualStyle
  2
Realistic
 70
     8
 71
     2
 72
     2
 73
     0
 90
        2
 40
-0.6
 41
30.0
 62
     5
 63
     7
 74
     0
 91
        0
 64
     7
 65
   257
 75
     1
175
     1
 42
1.0
 92
        8
 66
   257
 43
1.0
 76
     1
 77
     6
 78
     2
 67
     7
 79
     3
170
     0
171
     0
290
     0
174
     0
 93
       13
 44
0.0
173
     0
291
     0
 45
0.0
1001
ACAD
1000
AcDbSavedByObjectVersion
1070
     0
  0
VISUALSTYLE
  5
58
102
{ACAD_XDICTIONARY
360
356
102
}
102
{ACAD_REACTORS
330
31
102
}
330
31
100
AcDbVisualStyle
  2
Wireframe
 70
     5
 71
     0
 72
     2
 73
     0
 90
        0
 40
-0.6
 41
-30.0
 62
     5
 63
     7
 74
     1
 91
        4
 64
     7
 65
   257
 75
     1
175
     1
 42
1.0
 92
        0
 66
   257
 43
1.0
 76
     1
 77
     6
 78
     2
 67
     7
 79
     3
170
     0
171
     0
290
     0
174
     0
 93
        1
 44
0.0
173
     0
291
     0
 45
0.0
1001
ACAD
1000
AcDbSavedByObjectVersion
1070
     0
  0
DICTIONARYVAR
  5
344
102
{ACAD_REACTORS
330
341
102
}
330
341
100
DictionaryVariables
280
     0
  1
1:1
  0
DICTIONARYVAR
  5
343
102
{ACAD_REACTORS
330
341
102
}
330
341
100
DictionaryVariables
280
     0
  1
STANDARD
  0
DICTIONARYVAR
  5
342
102
{ACAD_REACTORS
330
341
102
}
330
341
100
DictionaryVariables
280
     0
  1
STANDARD
  0
DICTIONARYVAR
  5
349
102
{ACAD_REACTORS
330
341
102
}
330
341
100
DictionaryVariables
280
     0
  1
2
  0
DICTIONARYVAR
  5
347
102
{ACAD_REACTORS
330
341
102
}
330
341
100
DictionaryVariables
280
     0
  1
1
  0
DICTIONARYVAR
  5
346
102
{ACAD_REACTORS
330
341
102
}
330
341
100
DictionaryVariables
280
     0
  1
0
  0
DICTIONARYVAR
  5
345
102
{ACAD_REACTORS
330
341
102
}
330
341
100
DictionaryVariables
280
     0
  1
127
  0
DICTIONARYVAR
  5
348
102
{ACAD_REACTORS
330
341
102
}
330
341
100
DictionaryVariables
280
     0
  1
0
  0
DICTIONARY
  5
20
330
1F
100
AcDbDictionary
280
     1
281
     1
  3
ACAD_XREC_ROUNDTRIP
360
34E
  3
ADSK_XREC_LAYOUTTHUMBNAIL
360
21
  0
DICTIONARY
  5
19
330
17
100
AcDbDictionary
280
     1
281
     1
  3
ACAD_XREC_ROUNDTRIP
360
34D
  3
ADSK_XREC_LAYOUTTHUMBNAIL
360
1A
  0
DICTIONARY
  5
49
330
48
100
AcDbDictionary
280
     1
281
     1
  3
ACAD_XREC_ROUNDTRIP
360
352
  3
BUMPTILE
360
4A
  3
DIFFUSETILE
360
4B
  3
OPACITYTILE
360
4C
  3
REFLECTIONTILE
360
4D
  3
REFRACTIONTILE
360
4E
  3
SPECULARTILE
360
4F
  0
DICTIONARY
  5
41
330
40
100
AcDbDictionary
280
     1
281
     1
  3
ACAD_XREC_ROUNDTRIP
360
351
  3
BUMPTILE
360
42
  3
DIFFUSETILE
360
43
  3
OPACITYTILE
360
44
  3
REFLECTIONTILE
360
45
  3
REFRACTIONTILE
360
46
  3
SPECULARTILE
360
47
  0
DICTIONARY
  5
E
330
C
100
AcDbDictionary
280
     1
281
     1
  3
ACAD_XREC_ROUNDTRIP
360
34C
  3
BUMPTILE
360
F
  3
DIFFUSETILE
360
10
  3
OPACITYTILE
360
11
  3
REFLECTIONTILE
360
12
  3
REFRACTIONTILE
360
13
  3
SPECULARTILE
360
14
  0
DICTIONARY
  5
56
330
55
100
AcDbDictionary
280
     1
281
     1
  3
ACAD_ROUNDTRIP_2008_TABLESTYLE_CELLSTYLEMAP
360
34A
  3
ACAD_XREC_ROUNDTRIP
360
353
  0
DICTIONARY
  5
34F
330
30
100
AcDbDictionary
280
     1
281
     1
  3
ACAD_XREC_ROUNDTRIP
360
350
  0
DICTIONARY
  5
354
330
57
100
AcDbDictionary
280
     1
281
     1
  3
ACAD_XREC_ROUNDTRIP
360
355
  0
DICTIONARY
  5
356
330
58
100
AcDbDictionary
280
     1
281
     1
  3
ACAD_XREC_ROUNDTRIP
360
357
  0
XRECORD
  5
34E
102
{ACAD_REACTORS
330
20
102
}
330
20
100
AcDbXrecord
280
     1
102
SHADEPLOT
 70
     1
102
SHADEPLOTRESLEVEL
 70
     2
102
SHADEPLOTCUSTOMDPI
 70
   300
  0
XRECORD
  5
21
102
{ACAD_REACTORS
330
20
102
}
330
20
100
AcDbXrecord
280
     1
310
280000006B0000008C0000000100080000000000103B000000000000000000000001000000000000FFFFFF0000000000C8C8C8000000000000000000000000000000000000000000000000000000000000000000330000006600000099000000CC000000FF00000000330000333300006633000099330000CC330000FF3300
310
0000660000336600006666000099660000CC660000FF66000000990000339900006699000099990000CC990000FF99000000CC000033CC000066CC000099CC0000CCCC0000FFCC000000FF000033FF000066FF000099FF0000CCFF0000FFFF000000003300330033006600330099003300CC003300FF003300003333003333
310
33006633330099333300CC333300FF33330000663300336633006666330099663300CC663300FF66330000993300339933006699330099993300CC993300FF99330000CC330033CC330066CC330099CC3300CCCC3300FFCC330000FF330033FF330066FF330099FF3300CCFF3300FFFF330000006600330066006600660099
310
006600CC006600FF00660000336600333366006633660099336600CC336600FF33660000666600336666006666660099666600CC666600FF66660000996600339966006699660099996600CC996600FF99660000CC660033CC660066CC660099CC6600CCCC6600FFCC660000FF660033FF660066FF660099FF6600CCFF6600
310
FFFF660000009900330099006600990099009900CC009900FF00990000339900333399006633990099339900CC339900FF33990000669900336699006666990099669900CC669900FF66990000999900339999006699990099999900CC999900FF99990000CC990033CC990066CC990099CC9900CCCC9900FFCC990000FF99
310
0033FF990066FF990099FF9900CCFF9900FFFF99000000CC003300CC006600CC009900CC00CC00CC00FF00CC000033CC003333CC006633CC009933CC00CC33CC00FF33CC000066CC003366CC006666CC009966CC00CC66CC00FF66CC000099CC003399CC006699CC009999CC00CC99CC00FF99CC0000CCCC0033CCCC0066CC
310
CC0099CCCC00CCCCCC00FFCCCC0000FFCC0033FFCC0066FFCC0099FFCC00CCFFCC00FFFFCC000000FF003300FF006600FF009900FF00CC00FF00FF00FF000033FF003333FF006633FF009933FF00CC33FF00FF33FF000066FF003366FF006666FF009966FF00CC66FF00FF66FF000099FF003399FF006699FF009999FF00CC
310
99FF00FF99FF0000CCFF0033CCFF0066CCFF0099CCFF00CCCCFF00FFCCFF0000FFFF0033FFFF0066FFFF0099FFFF00CCFFFF00FFFFFF00000000000D0D0D001A1A1A00282828003535350043434300505050005D5D5D006B6B6B00787878008686860093939300A1A1A100AEAEAE00BBBBBB00C9C9C900D6D6D600E4E4E400
310
F1F1F100FFFFFF0000000000000000000000000000000000000000000000000000000000000000000000000000000000E2E2E2E2E2E2E2E2E2E2E2E2E2E2E2E2E2E2E2E2E2E2E2E2E2E2E2E2E2E2E2E2E2E2E2E2E2E2E2E2E2E2E2E2E2E2E2E2E2E2E2E2E2E2E2E2E2E2E2E2E2E2E2E2E2E2E2E2E2E2E2E2E2E2E2E2E2E2E2
310
E2E2E2E2E2E2E2E2E2E2E2E2E2E2E2E2E2E2E2E2E2E2E2E2E2E2E2E200E200000000000000000000000000000000000000000000000000000000000000000000000000000000000000000000000000000000000000000000000000000000000000000000000000000000000000000000000000000000000000000000000000
310
00000000000000000000E2000000000000000000000000000000000000000000000000000000000000000000000000000000000000000000000000000000000000000000000000000000000000000000000000000000000000000000000000000000000000000000000000000000000000000000007FE2E2E2E2E2E2E2E2E2
310
E2E2000000000000000000E2E2E2E2E2E2E2E2E2E2E2E2E2E2E2E200000000000000000000E2E2E2E2E2E2E2E2E2E2E2E2E2E2E2E200000000000000000000E2E2E2E2E2E2E2E2E2E2E2E2E2E2E2E2000000000000000000E2E2E2E2E2E2E2E2E200E2E200E200000000000000000000000000000000000000000000000000
310
0000000000000000000000000000000000000000000000000000000000000000000000000000000000000000000000000000000000000000000000000000000000000000000000000000000000E20000E200E20000000000000000000000000000000000000000000000000000000000000000000000000000000000000000
310
0000000000E2E2E20000000000000000000000000000000000000000000000000000000000000000000000000000000000000000000000000000E200E2E200E200000000000000000000000000000000000000000000000000000000000000000000000000000000000000000000000000E2E2E20000000000000000000000
310
000000000000000000000000000000000000000000000000000000000000000000000000000000E200E2E200E200000000000000000000000000000000000000000000000000000000000000000000000000000000000000000000000000000000000000000000000000000000000000000000000000000000000000000000
310
0000000000000000000000000000000000000000E20000E200E2000000000000000000000000000000000000000000000000000000000000000000000000000000000000000000000000E2E2E2E2E2000000000000000000000000000000000000000000000000000000000000000000000000000000000000000000000000
310
00E20036E200E2000000000000000000000000000000000000000000000000000000000000000000000000000000000000000000000000E2E2E2E2E200000000000000000000000000000000000000000000000000000000000000000000000000000000000000000000000000E20000E200E2000000000000000000000000
310
000000000000000000000000000000000000000000000000000000000000000000000000000000000000000000000000000000000000000000000000000000000000000000000000000000000000000000000000000000000000E20000E200E200000000000000000000000000000000000000000000000000000000000000
310
0000000000000000000000000000000000000000000000000000000000000000000000000000000000000000000000000000000000000000000000000000000000000000000000E20000E200000000000000000000000000000000000000000000000000000000000000000000000000000000000000000000000000000000
310
00000000000000000000000000000000000000000000000000000000000000000000000000000000000000000000000000000000000000E20000000000000000000000000000000000000000000000000000000000000000000000000000000000000000000000000000000000000000000000000000000000000000000000
310
000000000000000000000000000000000000000000000000000000000000000000000000E2000000000000000000000000000000000000000000000000000000000000000000000000000000000000000000E2E2E2E2E2E2E2E2E2E2E2E2E2E2E2E2E200000000000000000000000000000000000000000000000000000000
310
0000000000000000000000000000000000E2000000000000000000000000000000000000000000000000000000000000000000000000000000000000000000E2E2E2E2E2E2E2E2E2E2E2E2E2E2E2E2E2000000000000000000000000000000000000000000000000000000000000000000000000000000000000000000E200
310
0000000000000000000000000000000000000000000000000000000000000000000000000000000000000000E2E2E2E2E2E2E2E2E2E2E2E2E2E2E2E2E2E20000000000000000000000000000000000000000000000000000000000000000000000000000000000000000E20000000000000000000000000000000000000000
310
00000000000000000000000000000000000000000000000000E2E2E2E2E2E2E2E2E2E2E2E2E2E2E2E2E2E200000000000000000000000000000000000000000000000000000000000000000000000000000000000000E2E2000000000000000000000000000000000000000000000000000000000000000000000000000000
310
000000000000E2E2E2E2E2E2E2E2E2E2E2E2E2E2E2E2E20000000000000000000000000000000000000000000000000000000000000000000000000000000000000000E2E200000000000000000000000000000000000000000000000000000000000000000000000000000000000000000000E2E2E2E2E2E2E2E2E2E2E2E2
310
E2E2E2E20000000000000000000000000000000000000000000000000000000000000000000000000000000000000000E2E20000000000000000000000000000000000000000000000000000000000000000000000000000000000000000000000000000000000000000000000000000000000000000000000000000000000
310
0000000000000000000000000000000000000000000000000000000000E2E2000000000000000000000000000000000000000000000000000000000000000000000000000000000000000000000000000000000000000000000000000000000000000000000000000000000000000000000000000000000000000000000000
310
00000000000000000000E2E200E20000000000000000000000000000000000000000000000000000000000000000000000000000000000000000000000000000E2E2E2E2000000000000000000000000000000000000000000000000000000000000000000000000000000000000000000000000E20000E200E20000000000
310
000000000000000000000000000000000000000000000000000000000000000000000000000000000000000000E2E2E2E2000000000000000000000000000000000000000000000000000000000000000000000000000000000000000000000000E20000E200E2000000000000000000000000000000000000000000000000
310
0000000000000000E2E2E2E2E2E2E2E2E2E2E2E2E2E2E2E2E2E2E2E2E200E2E2E2E2E2E2E2E2E2E2E2E2E2E2E2E2E2E2E20000000000000000000000000000000000000000000000000000000000E20000E200E20000000000000000000000000000000000000000000000000000000000000000E200000000000000000000
310
00000000000000E2E2E2E20000000000000000000000000000000000E2000000000000000000000000000000000000000000000000000000000000E20000E200E20000000000000000000000000000000000000000000000000000000000000000E200000000000000000000000000000000E2E2E2E2000000000000000000
310
000000000000000000E2000000000000000000000000000000000000000000000000000000000000E20000E200E20000000000000000000000000000000000000000000000000000000000000000E200000000000000000000000000000000E2E2E2E2000000000000000000000000000000000000E2000000000000000000
310
000000000000000000000000000000000000000000E200E2E200E20000000000000000000000000000000000000000000000000000000000000000E200000000000000E2E2E2E2E2E2E2E2E2E2E2E200E2E2E2E2E2E2E2E2E2E20000000000000000E200000000000000000000000000000000000000000000000000000000
310
0000E200E2E200E20000000000000000000000000000000000000000000000000000000000000000E200000000000000E20000000000000000E2E2E2E20000000000000000E2E20000000000000000E2000000000000000000000000000000000000000000000000000000000000E20000E200E20000000000000000000000
310
000000000000000000000000000000000000000000E200000000000000E20000000000000000000000000000000000000000E2000000000000000000E2000000000000000000000000000000000000000000000000000000000000E20000E200E2000000000000000000000000000000000000000000000000000000000000
310
0000E200000000000000E2E2E2E2E2E2E2E2E2E2E2E2E2E2E2E2E2E2E2E2E2E2000000000000000000E2000000000000000000000000000000000000000000000000000000000000E20000E200E20000000000000000000000000000000000000000000000000000000000000000E200000000000000E20000000000000000
310
00000000E200000000000000E2000000000000000000E2000000000000000000000000000000000000000000000000000000000000E200E2E200E20000000000000000000000000000000000000000000000000000000000000000E200E2E2E2E2E200E2E2E2E2E2E2E2E2E2E2E2E2E2E2E2E2E2E2E2E2E2E2E20000000000
310
000000E2000000000000000000000000000000000000000000000000000000000000E20000E200E20000000000000000000000000000000000000000000000000000000000000000E2E2E20000E2E2E2E200E200000000000000000000E2E2E2E2E200E20000E2E2E2E20000000000E2000000000000000000000000000000
310
000000000000000000000000000000E20000E200E2000000000000000000000000000000000000000000000000000000000000E2E2E2E2E20000E2E2E2E200E200000000000000000000E2E2E2E2E2E2E20000E20000E20000000000E2000000000000000000000000000000000000000000000000000000000000E20000E2
310
00E2000000000000000000000000000000000000000000000000000000000000E2E2E2E2E200000000E2E200E2000000000000000000000000E2E20000E20000E20000E2E2E2E2E2E2E2E2E200000000000000000000000000000000000000000000000000000000E200E2E200E20000000000000000000000000000000000
310
00000000000000000000000000E200E2E2E2E20000E2E2E200E2000000000000000000000000E2E2E200E20000E200E2E2E2E2E2E2E2E200E200000000000000000000000000000000000000000000000000000000E20000E200E2000000000000000000000000000000000000000000000000000000000000E2E2E2E2E2E2
310
0000E2E2E200E200000000000000000000000000000000E20000E200E2E2E2E2E2E2E2E200E200000000000000000000000000000000000000000000000000000000E2007CE20000000000000000000000000000000000000000000000000000000000000000E2E2E2E2E2000000E200E200E2000000000000000000000000
310
00000000E20000E2000000E200000000E200E200000000000000000000000000000000000000000000000000000000000000E20000000000000000000000000000000000000000000000000000000000000000000000E2E2E2E2E2E2E2E200E2000000000000E2E2E2E2000000000000E20000E2000000E200000000E200E2
310
00000000000000000000000000000000000000000000000000000000000000E200000000000000000000000000000000000000000000000000000000000000000000000000E2E2E2E2E2E200E2000000000000E2E2E2E2000000000000E20000E2E20000E200000000E200E200000000000000000000000000000000000000
310
000000000000000000000000E200000000000000000000000000000000000000000000000000000000000000000000000000E20000E2E2E200E2E2E2E2E2E2E2E2E2E2E2E2E2E2E2E2E2E20000E2E2E2E2E20000E2E2E200E20000000000000000000000000000000000000000000000000000000000008DE2000000000000
310
00000000000000000000000000000000000000000000000000000000000000E200000000E200E2E2000000000000E20000000000000000E20000E2E2E2E2E2E2E2E2E2E200E200000000000000000000000000000000000000000000000000000000000070E200000000000000000000000000000000000000000000000000
310
000000000000000000000000E200000000E200E200000000000000000000000000000000E20000E2E2E200000000E2E2E2E2E200000000000000000000000000000000000000000000000000000000000000E200000000000000000000000000000000000000000000000000000000000000000000000000E2E2000000E200
310
E200000000000000000000000000000000E20000E2E2E2000000E2E2E2E200E200000000000000000000000000000000000000000000000000000000000012E20000000000000000000000000000000000000000000000000000000000000000000000000000E2000000E200E200000000000000000000000000000000E200
310
00E2E2E200000000E2E2E2E2E200000000000000000000000000000000000000000000000000000000000000E20000000000000000000000000000000000000000000000000000000000000000000000000000E2000000E200E200000000000000000000000000000000E20000E2E2E20000000000E2E20000000000000000
310
00000000000000000000000000000000000000000000000000E200E2000000000000000000000000000000000000000000000000000000000000000000000000E2000000E2E2E200000000000000000000000000000000E20000E2E2E2E2E2E2E2E2E2E2000000000000000000000000000000000000000000000000000000
310
000000E20000E200E2000000000000000000000000000000000000000000000000000000000000000000000000E2E2E2E2E200E200000000000000000000000000000000E20000E2000000000000000000000000000000000000000000000000000000000000000000000000000000E20000E200E200000000000000000000
310
000000000000000000000000000000000000000000000000000000000000E200E200000000000000000000000000000000E20000E2000000000000000000000000000000000000000000000000000000000000000000000000000000E20000E200E20000000000000000000000000000000000000000000000000000000000
310
0000000000000000000000E200E200000000000000000000000000000000E20000E2000000000000000000000000000000000000000000000000000000000000000000000000000000E20010E200E200000000000000000000000000000000000000000000000000000000000000000000000000000000E2E2E20000000000
310
0000000000000000000000E2E2E2E2000000000000000000000000000000000000000000000000000000000000000000000000000000E20000E200E200000000000000000000000000000000000000000000000000000000000000000000000000000000E2E20000000000000000000000000000000000E2E2E2E200000000
310
0000000000000000000000000000000000000000000000000000000000000000000000E2005DE200E200000000000000000000000000000000000000000000000000000000000000000000000000000000E2E20000000000000000000000000000000000E20000E20000000000000000000000000000000000000000000000
310
00000000000000000000000000000000E20080E200E200000000000000000000000000000000000000000000000000000000000000000000000000000000E2E20000000000000000000000000000000000E20000E2000000000000000000000000000000000000000000000000000000000000000000000000000000E20040
310
E200E200000000000000000000000000000000000000000000000000000000000000000000000000000000E200E200000000000000000000000000000000E2E200E2000000000000000000000000000000000000000000000000000000000000000000000000000000E20001E200E200000000000000000000000000000000
310
000000000000000000000000000000000000000000000000E200E20000000000000000000000000000000000E200E2000000000000000000000000000000000000000000000000000000000000000000000000000000E20000E200E200000000000000000000000000000000000000000000000000000000000000000000E2
310
E2E2E20000E200E20000000000000000000000000000000000E200E2000000000000000000000000000000000000000000000000000000000000000000000000000000E20015E200E200000000000000000000000000000000000000000000000000000000000000000000E2E2E2E20000E200E20000000000000000000000
310
0000000000E20000E2000000000000000000000000000000000000000000000000000000000000000000000000000000E20022E200E20000000000000000000000000000000000000000000000000000000000000000000000E2E200E200E200E200000000000000000000000000000000E20000E200000000000000000000
310
0000000000000000000000000000000000000000000000000000000000E20089E200E20000000000000000000000000000000000000000000000000000000000000000000000E2E200E2E2E2E2E2E2E2E2E2E2E2E2E2E2E2E2E2E2E2E2E2E2E2E2E20000000000000000000000000000000000000000000000000000000000
310
00000000000000000000E20000E200E20000000000000000000000000000000000000000000000000000000000000000000000E2E200E2E2E2E2E2E2E2E2E2E2E2E2E2E2E2E2E2E2E2E2E2E2E2E200000000000000000000000000000000000000000000000000000000000000000000000000000000E20000E200E2000000
310
0000000000000000000000000000000000000000000000000000000000000000000000E200E20000000000000000E2E2E2E20000000000000000E200000000000000000000000000000000000000000000000000000000000000000000000000000000E20000E200E200000000000000000000000000000000000000000000
310
000000000000000000000000000000000000E20000000000000000E2E2E2E20000000000000000E200000000000000000000000000000000000000000000000000000000000000000000000000000000E20000E2000000000000000000000000000000000000000000000000000000000000000000000000000000000000E2
310
E2E2E2E2E2E2E2E2E2E2E200E2E2E2E2E2E2E2E2E2E20000000000000000000000000000000000000000000000000000000000000000000000000000000000F6E2000000000000000000000000000000000000000000000000000000000000000000000000000000000000000000000000000000E2E2E2E200000000000000
310
000000000000000000000000000000000000000000000000000000000000000000000000000000000000000091E2000000000000000000000000000000000000000000000000000000000000000000000000000000000000000000000000000000000000000000000000000000000000000000000000000000000000000000
310
0000000000000000000000000000000000000000000000000000E200000000000000000000000000000000000000000000000000000000000000000000000000000000000000000000000000000000000000000000000000000000000000000000000000000000000000000000000000000000000000000000000000000000
310
00000000000049E20000000000000000000000000000000000000000000000000000000000000000000000000000000000000000000000000000000000000000000000000000000000000000000000000000000000000000000000000000000000000000000000000000000000000000000000E20000000000000000000000
310
00000000000000000000E2E2E2E2E2E2E2E2E20000000000000000000000000000000000000000000000000000000000000000000000000000000000E2E2E2E2E2E2E2E2E2E2E2E2E2E2E2E2E2E2000000000000000000000000000000000000E2000000000000000000000000000000000000000000E2E2E2E2E2E2E2E2E2
310
0000000000000000000000000000000000000000000000000000000000000000000000000000000000E2E2E2E2E2E2E2E2E2E2E2E2E2E2E2E2E2E2000000000000000000000000000000000048E2000000000000000000000000000000000000000000E2E2E2E2E2E2E2E2E2E2000000000000000000000000000000000000
310
00000000000000000000000000000000000000000000E2E2E2E2E2E2E2E2E2E2E2E2E2E2E2E2E2E2000000000000000000000000000000000000E20000000000000000000000000000000000E2E2E2E2E2E2E2E2E2E2E2E2E2E2E2E2E2E2000000000000000000000000000000000000000000000000000000000000000000
310
00000000E2E2E2E2E2E2E2E2E2E2E2E2E2E2E2E2E2000000000000000000000000000000000000E20000000000000000000000000000000000E2E2E2E2E2E2E2E2E2E2E2E2E2E2E2E2E20000000000000000000000000000000000000000000000000000000000000000000000000000E2E2E2E2E2E2E2E2E2E2E2E2E2E2E2
310
E200000000000000000000000000000000000000E200E200000000000000000000000000000000E2E2E2E2E2E2E2E2E2E2E2E2E2E2E2E20000000000000000000000000000000000000000000000000000000000000000000000000000E2E2E2E2E2E2E2E2E2E2E2E2E2E2E2E200000000000000000000000000000000E200
310
00E200E200000000000000000000000000000000000000000000000000000000000000000000000000000000000000000000000000000000000000000000000000000000000000000000000000000000E2E2E2E200000000000000000000000000000000000000000000E200F0E200E2000000000000000000000000000000
310
0000000000000000000000000000000000000000000000000000000000000000000000000000000000000000000000000000E200000000000000000000E2E2E2E200000000000000000000E20000000000000000000000E20000E200E2000000000000000000000000000000000000000000E2E2E2E2000000000000000000
310
00000000000000000000000000000000000000000000000000000000000000E2E2E2E2E2E2E2E2E2E2E2E2E2E2E2E2E2E2E2E2E2E2E2E2E2E2E200000000000000000000E20023E200E2000000000000000000000000000000000000000000E2E2E2E2E2000000000000000000000000000000000000000000000000000000
310
000000000000000000000000E200000000000000000000E2E2E2E20000000000000000000000E200000000000000000000E20000E200E2000000000000000000000000E2E2E2E2E2E2E2E2E2E2E2E2E200E2E2E2E2E2E2E2E2E2E20000000000000000000000000000000000000000000000000000000000E2000000000000
310
000000E2E2E2E2000000000000000000000000E200000000000000000000E20000E200E2000000000000000000000000E2000000000000000000E2E2E200000000000000000000E20000000000000000000000000000000000000000000000000000000000E2000000000000000000E2E2E2E2000000000000000000000000
310
E200000000000000000000E20000E200E2000000000000000000000000E200000000000000000000000000000000000000000000E20000000000000000000000000000000000000000000000000000000000E200000000000000E2E2E2E2E2E200E2E2000000000000000000E200000000000000000000E20000E200E20000
310
00000000000000000000E20000000000000000E2E2E20000000000000000000000E20000000000000000000000000000000000000000000000000000000000E200000000000000E2E2E2E2E2E2E200E2000000000000000000E200000000000000000000E20000E200E2000000000000000000000000E20000000000000000
310
E2E2E20000000000000000000000E20000000000000000000000000000000000000000000000000000000000E200000000000000E200000000000000E2E2E2E2E20000000000E200000000000000000000E20000E200E2000000000000000000000000E2E2E2E2E2000000E2E2E2E2E2E2000000000000000000E200000000
310
00000000000000000000000000000000000000000000000000E200E2E2E2000000E200000000000000E2E2E2E2E20000000000E200000000000000000000E200DCE200E2000000000000000000000000E200E2E2E2000000E2E2E2E200E2000000000000000000E20000000000000000000000000000000000000000000000
310
000000000000E200E2E2E2000000E200E2E2E2E2E2E2E2E2E2E2E20000000000E200000000000000000000E20000E200E2000000000000000000000000E200E2E200E2E2E2E2E2E2E2E2E2000000000000000000E20000000000000000000000000000000000000000000000000000000000E200E2E2E2E2E2E2E2E2E2E2E2
310
E2E2E2E2E2E2E2E20000000000E200000000000000000000E200F5E200E2000000000000000000000000E200E2E2E2E2E200E200000000E2000000000000000000E20000000000000000000000000000000000000000000000000000000000E20000E2E200E200E20000E20000E200E2000000000000000000E20000000000
310
0000000000E2007EE200E2000000000000000000000000E20000E2E2E2E2E2E2E2E2E2E2E2000000000000000000E20000000000000000000000000000000000000000000000000000000000E20000E2E2E2E2E2E2E2E2E2E2E2E2E2E2000000000000000000E200000000000000000000E200D6E200E20000000000000000
310
00000000E2E2E2E200E2E2E2E200E2E200E2E2E2E2E20000000000E20000000000000000000000000000000000000000000000000000000000E2E2E2E20000E2E2E200E2E2E2E2E200E2E2E2E2E20000000000E200000000000000000000E20000E200E200000000000000000000E2E2E2E2E2E200E2E2E2E200E2E200E200
310
0000E20000000000E2000000000000000000000000000000000000000000000000000000E2E2E2E2E2E20000E2E2E200E2E20000E200E2000000E20000000000E200000000000000000000E2008FE2000000000000000000000000E2E2E2E2E2E2000000E2E200E2E200E2000000E2E2E2E2E2E2E2E2E20000000000000000
310
0000000000000000000000000000000000E2E2E2E2E2E2000000E2E200E2E20000E200E2000000E2E2E2E2E2E2E2E2E20000000000000000000000E2000000000000000000000000E200E2E2E2E20000E2E2E200E20000E20000E2E2E2E2E2E200E200E200000000000000000000000000000000000000000000000000E200
310
00E2E2E20000E2E2E20000E20000E200E20000E2E2E2E2E2E2E2E200E20000000000000000000040E2000000000000000000000000E2E2E2E2E2E20000E2E2E200E20000E20000E2E2E2E2E2E200E200E200000000000000000000000000000000000000000000000000E2E2E2E2E2E20000E2E2E20000E2E2E2E200E20000
310
E2E2E2E2E2E2E2E200E20000000000000000000000E2000000000000000000000000E2E2E2E2E2E20000E200E200E20000E200000000E200000000E200E200000000000000000000000000000000000000000000000000E2E2E2E2E2E20000E200E20000E2E2E2E200E200000000E200000000E200E2000000000000000000
310
0000E2000000000000000000000000000000E2E2E2E2E2E2E2E200E20000E200000000E200000000E200E200000000000000000000000000000000000000000000000000000000E2E2E2E2E2E2E2E20000E2E2E2E200E200000000E200000000E200E20000000000000000000000E200000000000000000000000000000000
310
00E2E2E2E200E200E20000E200E20000E200000000E200E2000000000000000000000000000000000000000000000000000000000000E2E2E2E2E2E20000E2E2E2E200E200E20000E200000000E200E200000000000000000000F0E20000000000000000000000000000000000E20000E200E200E20000E200E2E2E2E200E2
310
E2E2E200E2000000000000000000000000000000000000000000000000000000000000E20000E2E2E20000E2E2E2E200E200E2E2E2E200E2E2E2E200E20000000000000000000000E20000000000000000000000000000000000E200000000E200E20000E2E2E2E2E2E2E2E200E2E200E20000000000000000000000000000
310
00000000000000000000000000000000E200000000E200E2E2E2E2E200E2E2E2E2E2E2E2E200E2E200E2000000000000000000003FE20000000000000000000000000000000000E200000000E200E20000E2E2E200000000E2E2E2E2E2E2000000000000000000000000000000000000000000000000000000000000E20000
310
0000E200E2E2E2E2E200E2E2E200000000E2E2E2E2E2E20000000000000000000000E200E2000000000000000000000000000000E2E2000000E200E20000E2E2E200000000E2E2E20000E2000000000000000000000000000000000000000000000000000000000000E2E2000000E20000E2E2E2E200E2E2E200000000E2E2
310
E20000E20000000000000000E20000E200E200000000000000000000000000000000E2000000E200E20000E2E2E200000000E2E2E2E2E2E200000000000000000000000000000000000000000000000000000000000000E2000000E20000E2E2E2E200E2E2E200000000E2E2E2E2E2E20000000000000000E20000E200E200
310
000000000000000000000000000000E2000000E200E20000E2E2E2E2000000E2E2E2E2E2E200000000000000000000000000000000000000000000000000000000000000E2000000E20000E2E2E2E200E2E2E2E2000000E2E2E2E2E2E20000000000000000E20000E200E200000000000000000000000000000000E2000000
310
E2E2E20000E2E2E2E2E2E2E2E2E2E200000000000000000000000000000000000000000000000000000000000000000000E2000000E2E2E2E2E2E2E200E2E2E2E2E2E2E2E2E2E20000000000000000000000E20049E200E200000000000000000000000000000000E2E2E2E2E2E2E20000E200000000000000000000000000
310
000000000000000000000000000000000000000000000000000000000000E2E2E2E2E2E2E2E2E2E2E200E20000000000000000000000000000000000000000E20000E200E20000000000000000000000000000E2E2E2000000E200E20000E20000000000000000000000000000000000000000000000000000000000000000
310
00000000000000000000E2E2E20000E20000E20000E200E20000000000000000000000000000000000000000E20000E200E20000000000000000000000000000E2E2E2000000E200E20000E2000000000000000000000000000000000000000000000000000000000000000000000000000000000000E2E2E20000E20000E2
310
0000E200E20000000000000000000000000000000000000000E20003E200E20000000000000000000000000000E2E200E2E200E200E200E2E2000000000000000000000000000000000000000000000000000000000000000000000000000000000000E2E2E2E200E20000E20000E2E2E20000000000000000000000000000
310
000000000000E20000E200E20000000000000000000000000000E2E20000E2E2E2E2E2E2E2E2000000000000000000000000000000000000000000000000000000000000000000000000000000000000E2E2E2E2E2E2E2E2E2E2E2E2E2E20000000000000000000000000000000000000000E20000E200E200000000000000
310
00000000000000E2E2E200E2E2E2E2E2E2E2E2000000000000000000000000000000000000000000000000000000000000000000000000000000000000000000E2E2E2E2E2E2E2E2E2E2E20000000000000000000000000000000000000000E20000E200E20000000000000000000000000000000000000000E2E2E2E200E2
310
0000000000000000000000000000000000000000000000000000000000000000000000000000000000000000000000E200E2E2E2E20000E20000000000000000000000000000000000000000E20000E200E20000000000000000000000000000000000000000E2E2E2E2E2E200000000000000000000000000000000000000
310
00000000000000000000000000000000000000000000000000000000E2E2E2E2E2E200E2E20000000000000000000000000000000000000000E200F0E200E2000000000000000000000000000000000000000000E2E2E200000000000000000000000000000000000000000000000000000000000000000000000000000000
310
0000000000000000000000E2E2E2E2E200000000000000000000000000000000000000000000E20000E200E20000000000000000000000000000000000000000000000000000000000000000000000000000000000000000000000000000000000000000000000000000000000000000000000000000000000000000000000
310
00000000000000000000000000000000000000E20018E200E2000000000000000000000000000000000000000000000000000000000000000000000000000000000000000000000000000000000000000000000000000000000000000000000000000000000000000000000000000000000000000000000000000000000000
310
E20000E200E2000000000000000000000000000000000000000000000000000000000000000000000000000000000000000000000000000000000000000000000000000000000000000000000000000000000000000000000000000000000000000000000000000000000000E20000E200E200000000E2E2E2E2E2E2E2E2E2
310
E2E2E20000000000000000000000000000000000000000000000000000000000000000000000000000000000000000000000000000000000000000000000000000000000000000000000000000000000000000000000000000E20000E2000000000000E2E2E2E2E2E2E2E2E2E2E2E200000000000000000000000000000000
310
00000000000000000000000000000000000000000000000000000000000000000000000000000000000000000000000000000000000000000000000000000000000000000000000000E2000000000000E2E2E2E2E2E2E2E2E2E2E2E20000000000000000000000000000000000000000000000000000000000000000000000
310
000000000000000000000000000000000000000000000000000000000000000000000000000000000000000000000000000000000000E2000000000000E2E2E2E2E2E2E2E2E2E2E2E2000000000000000000000000000000000000000000000000000000000000000000000000000000000000000000000000000000000000
310
00000000000000000000000000000000000000000000000000000000000000000000F5E2000000000000E2E2E2E2E2E2E2E2E2E2E2E2E2E2E2E2E2E2E2E2E2E2E2E2E2E2E2E2E2E2E2E2E2E2E2E2E2E2E2E2E2E2E2E2E2E2E2E2E2E2E2E2E2E2E2E2E2E2E2E2E2E2E2E2E2E2E2E2E2E2E2E2E2E2E2E2E2E2E2E2E2E2E2E2E2
310
E2E2E2E2E2E2E2E2E2E2E2E2E2000000E2000000000000E2E2E2E2E2E2E2E2E2E2E2E2E2E2E2E2E2E2E2E2E2E2E2E2E2E2E2E2E2E2E2E2000000000000000000000000000000000000000000000000000000000000000000000000000000000000000000000000000000000000000000000000000000000000000000E20000
310
00000000E2E2E2E2E2E2E2E2E2E2E2E2E2E2E2E2E2E2E2E2E2E2E2E2E2E2E2E2E2E2E2E2000000000000000000000000000000000000000000000000000000000000000000000000000000000000000000000000000000000000000000000000000000000000000000E2000000000000E2E2E2E2E2E2E2E2E2E2E2E2E2E2E2
310
E2E2E2E2E2E2E2E2E2E2E2E2E2E2E2E2E2000000000000000000000000000000000000000000000000000000000000000000000000E2E2E2E2E2E2E2E2E2E2E2E2E2E2E2E2E2E2E2E2E2E2E2E2E2E2E2E2E2E2000000E2000000000000E2E2E2E2E2E2E2E2E2E2E2E2E2E2E2E2E2E2E2E2E2E2E2E2E2E2E2E2E2E2E2E20000
310
00000000000000000000000000000000000000000000000000000000000000000000E200000000000000000000000000000000000000000000000000000000E2000000E20000000000000000000000000000000000000000000000000000000000000000000000000000000000000000000000000000000000000000000000
310
000000000000000000000000000000E20000E5E5E5E5E50000E5E5E5E5E5E5E5E5E500002000E5E525E5E500E2000000E20000000000000000000000000000000000000000000000000000000000000000000000000000000000000000000000000000000000000000000000000000000000000000000000000000E200E500
310
000000000000000000000000000000000000000000000000E5E2000000E200E2000000000000000000000000000000000000000000000000000000000000000000000000000000000000000000000000000000000000000000000000000000000000000000000000E2E5E500E5000000E500000000000000000000E50000E5
310
000000E50000E2E20001E200E2000000000000000000000000000000000000000000000000000000000000000000000000000000000000000000000000000000000000000000000000000000000000000000000000E2E5E50000000000E500000000000000000000E50000E5000000E50000E2E20000E200E2000000000000
310
000000000000000000000000000000000000000000000000000000000000000000000000000000000000000000000000000000000000000000000000000000000000E2E5E50000000000000000000000000000000000000000000000000000E2E20000E200E200000000000000000000000000000000000000000000000000
310
0000000000000000000000000000000000000000000000000000000000000000000000000000000000000000000000E2000000000000E500E00004040000E50000040400E000E50000000000E2E20004E200E20000000000000000000000000000000000000000000000000000000000000000000000000000000000000000
310
00000000000000000000000000000000000000000000000000000000E20000000000000000E0C0000000000000000000C0E000000000000000E2E20000E200E2000000000000000000000000000000000000000000000000000000000000000000000000000000000000000000000000000000000000000000000000000000
310
000000000000000000E200000000000000000000000000000000000000000000000000000000E2E20000E200E2000000000000000000000000000000000000000000000000000000000000000000000000000000000000000000000000000000000000000000000000000000000000000000000000E2000000000000000000
310
00000000C00000000000000000000000000000E2E20000E200E2000000000000000000000000000000000000000000000000000000000000000000000000000000000000000000000000000000000000000000000000000000000000000000000000E2E2E2E2E2E2E2E2E2E2E2E2E2E2E2E2E2E2E2E2E2E2E2E2E2E2E2E2E2
310
E2E20000E200E2E2E2E2E2E2E2E2E2000000000000000000E2E2E2E2E2E2E2E2E2E2E2E2E2E2E2E200000000000000000000E2E2E2E2E2E2E2E2E2E2E2E2E2E2E2E200000000000000000000E2E2E2E2E2E2E2E2E2E2E2E2E2E2E2E2000000000000000000E2E2E2E2E2E2E2E2E2E202E20000000000000000000000000000
310
00000000000000000000000000000000000000000000000000000000000000000000000000000000000000000000000000000000000000000000000000000000000000000000000000000000000000000000000000000000000000E200E2000000000000000000000000000000000000000000000000000000000000000000
310
0000000000000000000000000000000000000000000000000000000000000000000000000000000000000000000000000000000000000000000000000000000000000000000000000008E2E2E2E2E2E2E2E2E2E2E2E2E2E2E2E2E2E2E2E2E2E2E2E2E2E2E2E2E2E2E2E2E2E2E2E2E2E2E2E2E2E2E2E2E2E2E2E2E2E2E2E2E2
310
E2E2E2E2E2E2E2E2E2E2E2E2E2E2E2E2E2E2E2E2E2E2E2E2E2E2E2E2E2E2E2E2E2E2E2E2E2E2E2E2E2E2E2E2E2E2E2E2E2E2E2E2E2E27E
  0
XRECORD
  5
34D
102
{ACAD_REACTORS
330
19
102
}
330
19
100
AcDbXrecord
280
     1
102
SHADEPLOT
 70
     0
102
SHADEPLOTRESLEVEL
 70
     2
102
SHADEPLOTCUSTOMDPI
 70
   300
  0
XRECORD
  5
1A
102
{ACAD_REACTORS
330
19
102
}
330
19
100
AcDbXrecord
280
     1
310
280000000001000086000000010008000000000000860000000000000000000000010000000000000000000000000000C8C8C8000000000000000000000000000000000000000000000000000000000000000000330000006600000099000000CC000000FF00000000330000333300006633000099330000CC330000FF3300
310
0000660000336600006666000099660000CC660000FF66000000990000339900006699000099990000CC990000FF99000000CC000033CC000066CC000099CC0000CCCC0000FFCC000000FF000033FF000066FF000099FF0000CCFF0000FFFF000000003300330033006600330099003300CC003300FF003300003333003333
310
33006633330099333300CC333300FF33330000663300336633006666330099663300CC663300FF66330000993300339933006699330099993300CC993300FF99330000CC330033CC330066CC330099CC3300CCCC3300FFCC330000FF330033FF330066FF330099FF3300CCFF3300FFFF330000006600330066006600660099
310
006600CC006600FF00660000336600333366006633660099336600CC336600FF33660000666600336666006666660099666600CC666600FF66660000996600339966006699660099996600CC996600FF99660000CC660033CC660066CC660099CC6600CCCC6600FFCC660000FF660033FF660066FF660099FF6600CCFF6600
310
FFFF660000009900330099006600990099009900CC009900FF00990000339900333399006633990099339900CC339900FF33990000669900336699006666990099669900CC669900FF66990000999900339999006699990099999900CC999900FF99990000CC990033CC990066CC990099CC9900CCCC9900FFCC990000FF99
310
0033FF990066FF990099FF9900CCFF9900FFFF99000000CC003300CC006600CC009900CC00CC00CC00FF00CC000033CC003333CC006633CC009933CC00CC33CC00FF33CC000066CC003366CC006666CC009966CC00CC66CC00FF66CC000099CC003399CC006699CC009999CC00CC99CC00FF99CC0000CCCC0033CCCC0066CC
310
CC0099CCCC00CCCCCC00FFCCCC0000FFCC0033FFCC0066FFCC0099FFCC00CCFFCC00FFFFCC000000FF003300FF006600FF009900FF00CC00FF00FF00FF000033FF003333FF006633FF009933FF00CC33FF00FF33FF000066FF003366FF006666FF009966FF00CC66FF00FF66FF000099FF003399FF006699FF009999FF00CC
310
99FF00FF99FF0000CCFF0033CCFF0066CCFF0099CCFF00CCCCFF00FFCCFF0000FFFF0033FFFF0066FFFF0099FFFF00CCFFFF00FFFFFF00000000000D0D0D001A1A1A00282828003535350043434300505050005D5D5D006B6B6B00787878008686860093939300A1A1A100AEAEAE00BBBBBB00C9C9C900D6D6D600E4E4E400
310
F1F1F100FFFFFF000000000000000000000000000000000000000000000000000000000000000000000000000000000000000000000000000000000000000000000000000000000000000000000000000000000000000000000000000000000000000000000000000000000000000000000000000000000000000000000000
310
00000000000000000000000000000000000000000000000000000000000000000000000000000000000000000000000000000000000000000000000000000000000000000000000000000000000000000000000000000000000000000000000000000000000000000000000000000000000000000000000000000000000000
310
00000000000000000000000000000000000000000000000000000000000000000000000000000000000000000000000000000000000000000000000000000000000000000000000000000000000000000000000000000000000000000000000000000000000000000000000000000000000000000000000000000000000000
310
00000000000000000000000000000000000000000000000000000000000000000000000000000000000000000000000000000000000000000000000000000000000000000000000000000000000000000000000000000000000000000000000000000000000000000000000000000000000000000000000000000000000000
310
00000000000000000000000000000000000000000000000000000000000000000000000000000000000000000000000000000000000000000000000000000000000000000000000000000000000000000000000000000000000000000000000000000000000000000000000000000000000000000000000000000000000000
310
00000000000000000000000000000000000000000000000000000000000000000000000000000000000000000000000000000000000000000000000000000000000000000000000000000000000000000000000000000000000000000000000000000000000000000000000000000000000000000000000000000000000000
310
00000000000000000000000000000000000000000000000000000000000000000000000000000000000000000000000000000000000000000000000000000000000000000000000000000000000000000000000000000000000000000000000000000000000000000000000000000000000000000000000000000000000000
310
00000000000000000000000000000000000000000000000000000000000000000000000000000000000000000000000000000000000000000000000000000000000000000000000000000000000000000000000000000000000000000000000000000000000000000000000000000000000000000000000000000000000000
310
00000000000000000000000000000000000000000000000000000000000000000000000000000000000000000000000000000000000000000000000000000000000000000000000000000000000000000000000000000000000000000000000000000000000000000000000000000000000000000000000000000000000000
310
00000000000000000000000000000000000000000000000000000000000000000000000000000000000000000000000000000000000000000000000000000000000000000000000000000000000000000000000000000000000000000000000000000000000000000000000000000000000000000000000000000000000000
310
00000000000000000000000000000000000000000000000000000000000000000000000000000000000000000000000000000000000000000000000000000000000000000000000000000000000000000000000000000000000000000000000000000000000000000000000000000000000000000000000000000000000000
310
00000000000000000000000000000000000000000000000000000000000000000000000000000000000000000000000000000000000000000000000000000000000000000000000000000000000000000000000000000000000000000000000000000000000000000000000000000000000000000000000000000000000000
310
00000000000000000000000000000000000000000000000000000000000000000000000000000000000000000000000000000000000000000000000000000000000000000000000000000000000000000000000000000000000000000000000000000000000000000000000000000000000000000000000000000000000000
310
00000000000000000000000000000000000000000000000000000000000000000000000000000000000000000000000000000000000000000000000000000000000000000000000000000000000000000000000000000000000000000000000000000000000000000000000000000000000000000000000000000000000000
310
00000000000000000000000000000000000000000000000000000000000000000000000000000000000000000000000000000000000000000000000000000000000000000000000000000000000000000000000000000000000000000000000000000000000000000000000000000000000000000000000000000000000000
310
00000000000000000000000000000000000000000000000000000000000000000000000000000000000000000000000000000000000000000000000000000000000000000000000000000000000000000000000000000000000000000000000000000000000000000000000000000000000000000000000000000000000000
310
00000000000000000000000000000000000000000000000000000000000000000000000000000000000000000000000000000000000000000000000000000000000000000000000000000000000000000000000000000000000000000000000000000000000000000000000000000000000000000000000000000000000000
310
00000000000000000000000000000000000000000000000000000000000000000000000000000000000000000000000000000000000000000000000000000000000000000000000000000000000000000000000000000000000000000000000000000000000000000000000000000000000000000000000000000000000000
310
00000000000000000000000000000000000000000000000000000000000000000000000000000000000000000000000000000000000000000000000000000000000000000000000000000000000000000000000000000000000000000000000000000000000000000000000000000000000000000000000000000000000000
310
00000000000000000000000000000000000000000000000000000000000000000000000000000000000000000000000000000000000000000000000000000000000000000000000000000000000000000000000000000000000000000000000000000000000000000000000000000000000000000000000000000000000000
310
00000000000000000000000000000000000000000000000000000000000000000000000000000000000000000000000000000000000000000000000000000000000000000000000000000000000000000000000000000000000000000000000000000000000000000000000000000000000000000000000000000000000000
310
00000000000000000000000000000000000000000000000000000000000000000000000000000000000000000000000000000000000000000000000000000000000000000000000000000000000000000000000000000000000000000000000000000000000000000000000000000000000000000000000000000000000000
310
00000000000000000000000000000000000000000000000000000000000000000000000000000000000000000000000000000000000000000000000000000000000000000000000000000000000000000000000000000000000000000000000000000000000000000000000000000000000000000000000000000000000000
310
00000000000000000000000000000000000000000000000000000000000000000000000000000000000000000000000000000000000000000000000000000000000000000000000000000000000000000000000000000000000000000000000000000000000000000000000000000000000000000000000000000000000000
310
00000000000000000000000000000000000000000000000000000000000000000000000000000000000000000000000000000000000000000000000000000000000000000000000000000000000000000000000000000000000000000000000000000000000000000000000000000000000000000000000000000000000000
310
00000000000000000000000000000000000000000000000000000000000000000000000000000000000000000000000000000000000000000000000000000000000000000000000000000000000000000000000000000000000000000000000000000000000000000000000000000000000000000000000000000000000000
310
00000000000000000000000000000000000000000000000000000000000000000000000000000000000000000000000000000000000000000000000000000000000000000000000000000000000000000000000000000000000000000000000000000000000000000000000000000000000000000000000000000000000000
310
00000000000000000000000000000000000000000000000000000000000000000000000000000000000000000000000000000000000000000000000000000000000000000000000000000000000000000000000000000000000000000000000000000000000000000000000000000000000000000000000000000000000000
310
00000000000000000000000000000000000000000000000000000000000000000000000000000000000000000000000000000000000000000000000000000000000000000000000000000000000000000000000000000000000000000000000000000000000000000000000000000000000000000000000000000000000000
310
00000000000000000000000000000000000000000000000000000000000000000000000000000000000000000000000000000000000000000000000000000000000000000000000000000000000000000000000000000000000000000000000000000000000000000000000000000000000000000000000000000000000000
310
00000000000000000000000000000000000000000000000000000000000000000000000000000000000000000000000000000000000000000000000000000000000000000000000000000000000000000000000000000000000000000000000000000000000000000000000000000000000000000000000000000000000000
310
00000000000000000000000000000000000000000000000000000000000000000000000000000000000000000000000000000000000000000000000000000000000000000000000000000000000000000000000000000000000000000000000000000000000000000000000000000000000000000000000000000000000000
310
00000000000000000000000000000000000000000000000000000000000000000000000000000000000000000000000000000000000000000000000000000000000000000000000000000000000000000000000000000000000000000000000000000000000000000000000000000000000000000000000000000000000000
310
00000000000000000000000000000000000000000000000000000000000000000000000000000000000000000000000000000000000000000000000000000000000000000000000000000000000000000000000000000000000000000000000000000000000000000000000000000000000000000000000000000000000000
310
00000000000000000000000000000000000000000000000000000000000000000000000000000000000000000000000000000000000000000000000000000000000000000000000000000000000000000000000000000000000000000000000000000000000000000000000000000000000000000000000000000000000000
310
00000000000000000000000000000000000000000000000000000000000000000000000000000000000000000000000000000000000000000000000000000000000000000000000000000000000000000000000000000000000000000000000000000000000000000000000000000000000000000000000000000000000000
310
00000000000000000000000000000000000000000000000000000000000000000000000000000000000000000000000000000000000000000000000000000000000000000000000000000000000000000000000000000000000000000000000000000000000000000000000000000000000000000000000000000000000000
310
00000000000000000000000000000000000000000000000000000000000000000000000000000000000000000000000000000000000000000000000000000000000000000000000000000000000000000000000000000000000000000000000000000000000000000000000000000000000000000000000000000000000000
310
00000000000000000000000000000000000000000000000000000000000000000000000000000000000000000000000000000000000000000000000000000000000000000000000000000000000000000000000000000000000000000000000000000000000000000000000000000000000000000000000000000000000000
310
00000000000000000000000000000000000000000000000000000000000000000000000000000000000000000000000000000000000000000000000000000000000000000000000000000000000000000000000000000000000000000000000000000000000000000000000000000000000000000000000000000000000000
310
00000000000000000000000000000000000000000000000000000000000000000000000000000000000000000000000000000000000000000000000000000000000000000000000000000000000000000000000000000000000000000000000000000000000000000000000000000000000000000000000000000000000000
310
00000000000000000000000000000000000000000000000000000000000000000000000000000000000000000000000000000000000000000000000000000000000000000000000000000000000000000000000000000000000000000000000000000000000000000000000000000000000000000000000000000000000000
310
00000000000000000000000000000000000000000000000000000000000000000000000000000000000000000000000000000000000000000000000000000000000000000000000000000000000000000000000000000000000000000000000000000000000000000000000000000000000000000000000000000000000000
310
000000000000000000000000000000000000000000000000000000000000000000000000000000000000000000000000000000000000000000F5F5F5F5F5F5F5F5F5F5F5F5F5F5F5F5F5F5F5F5F5F5F5F500000000000000000000000000000000000000000000000000000000000000000000000000000000000000000000
310
00000000000000000000000000000000000000000000000000000000000000000000000000000000000000000000000000000000000000000000000000000000000000000000000000000000000000000000000000000000000000000000000000000000000000000000000000000000000000000000000000000000000000
310
0000000000000000000000000000000000000000000000000000000000000000000000000000000000000000000000000000000000000000000000F5F5F5F5F5F5F5F5F5F5F5F5F5F5F5F5F5F5F5F5F5F5F5F50000000000000000000000000000000000000000000000000000000000000000000000000000000000000000
310
00000000000000000000000000000000000000000000000000000000000000000000000000000000000000000000000000000000000000000000000000000000000000000000000000000000000000000000000000000000000000000000000000000000000000000000000000000000000000000000000000000000000000
310
00000000000000000000000000000000000000000000000000000000000000000000000000000000000000000000000000000000000000000000000000F5F5F5F5F5F5F5F5F5F5F5F5F5F5F5F5F5F5F5F5F5F5F5F5F50000000000000000000000000000000000000000000000000000000000000000000000000000000000
310
00000000000000000000000000000000000000000000000000000000000000000000000000000000000000000000000000000000000000000000000000000000000000000000000000000000000000000000000000000000000000000000000000000000000000000000000000000000000000000000000000000000000000
310
000000000000000000000000000000000000000000000000000000000000000000000000000000000000000000000000000000000000000000000000000000F5F5F5F5F5F5F5F5F5F5F5F5F5F5F5F5F5F5F5F5F5F5F5F5F5000000000000000000000000000000000000000000000000000000000000000000000000000000
310
00000000000000000000000000000000000000000000000000000000000000000000000000000000000000000000000000000000000000000000000000000000000000000000000000000000000000000000000000000000000000000000000000000000000000000000000000000000000000000000000000000000000000
310
00000000000000000000000000000000000000000000000000000000000000000000000000000000000000000000000000000000000000000000000000000000000000000000000000000000000000000000000000000000000000000000000000000000000000000000000000000000000000000000000000000000000000
310
00000000000000000000000000000000000000000000000000000000000000000000000000000000000000000000000000000000000000000000000000000000000000000000000000000000000000000000000000000000000000000000000000000000000000000000000000000000000000000000000000000000000000
310
0000000000000000000000000000000000000000000000000000000000000000000000000000000000000000000000000000000000000000000000000000000000000000F5F5F5F5F5F5F5F5F5F5F5F5F5F5F5F5F5F5F5F5F5F5F5000000000000000000000000000000000000000000000000000000000000000000000000
310
00000000000000000000000000000000000000000000000000000000000000000000000000000000000000000000000000000000000000000000000000000000000000000000000000000000000000000000000000000000000000000000000000000000000000000000000000000000000000000000000000000000000000
310
00000000000000000000000000000000000000000000000000000000000000000000000000000000000000000000000000000000000000000000000000000000000000000000F5F5F5F5F5F5F5F5F5F5F5F5F5F5F5F5F5F5F5F5F5F50000000000000000000000000000000000000000000000000000000000000000000000
310
00000000000000000000000000000000000000000000000000000000000000000000000000000000000000000000000000000000000000000000000000000000000000000000000000000000000000000000000000000000000000000000000000000000000000000000000000000000000000000000000000000000000000
310
000000000000000000000000000000000000000000000000000000000000000000000000000000000000000000000000000000000000000000000000000000000000000000000000F5F5F5F5F5F5F5F5F5F5F5F5F5F5F5F5F5F5F5F5F5F5F50000000000000000000000000000000000000000000000000000000000000000
310
00000000000000000000000000000000000000000000000000000000000000000000000000000000000000000000000000000000000000000000000000000000000000000000000000000000000000000000000000000000000000000000000000000000000000000000000000000000000000000000000000000000000000
310
00000000000000000000000000000000000000000000000000000000000000000000000000000000000000000000000000000000000000000000000000000000000000000000000000000000000000000000000000000000000000000000000000000000000000000000000000000000000000000000000000000000000000
310
00000000000000000000000000000000000000000000000000000000000000000000000000000000000000000000000000000000000000000000000000000000000000000000000000000000000000000000000000000000000000000000000000000000000000000000000000000000000000000000000000000000000000
310
00000000000000000000000000000000000000000000000000000000000000000000000000000000000000000000000000000000000000000000000000000000000000000000000000000000000000000000000000000000000000000000000000000000000000000000000000000000000000000000000000000000000000
310
00000000000000000000000000000000000000000000000000000000000000000000000000000000000000000000000000000000000000000000000000000000000000000000000000000000000000000000000000000000000000000000000000000000000000000000000000000000000000000000000000000000000000
310
00000000000000000000000000000000000000000000000000000000000000000000000000000000000000000000000000000000000000000000000000000000000000000000000000000000000000000000000000000000000000000000000000000000000000000000000000000000000000000000000000000000000000
310
00000000000000000000000000000000000000000000000000000000000000000000000000000000000000000000000000000000000000000000000000000000000000000000000000000000000000000000000000000000000000000000000000000000000000000000000000000000000000000000000000000000000000
310
00000000000000000000000000000000000000000000000000000000000000000000000000000000000000000000000000000000000000000000000000000000000000000000000000000000000000000000000000000000F5F5F5F5F5F5000000000000000000000000000000000000000000000000000000000000000000
310
00000000000000000000000000000000000000000000000000000000000000000000000000000000000000000000000000000000000000000000000000000000000000000000000000000000000000000000000000000000000000000000000000000000000000000000000000000000000000000000000000000000000000
310
000000000000000000000000000000000000000000000000000000000000000000000000000000000000000000000000000000000000000000000000000000000000000000000000000000000000000000000000000000000000F5F5F5F5F5F500000000000000000000000000000000000000000000000000000000000000
310
00000000000000000000000000000000000000000000000000000000000000000000000000000000000000000000000000000000000000000000000000000000000000000000000000000000000000000000000000000000000000000000000000000000000000000000000000000000000000000000000000000000000000
310
0000000000000000000000000000000000000000000000000000000000000000000000000000000000000000000000000000000000000000000000000000000000000000F5F5F5F5F5F5F5F5F5F5F5F5F5F5F5F5F5F5F5F5F5F5F5F5F5F5F5F5F5F5F5F5F5F5F5F5F5F5F5F5F5F5F5F5F5F5F5F5F5F5F5F5F5F5F500000000
310
00000000000000000000000000000000000000000000000000000000000000000000000000000000000000000000000000000000000000000000000000000000000000000000000000000000000000000000000000000000000000000000000000000000000000000000000000000000000000000000000000000000000000
310
00000000000000000000000000000000000000000000000000000000000000000000000000000000000000000000000000000000000000000000000000000000000000000000F5F50000000000000000000000000000000000000000000000F5F5F5F5F5000000000000000000000000000000000000000000000000F5F500
310
00000000000000000000000000000000000000000000000000000000000000000000000000000000000000000000000000000000000000000000000000000000000000000000000000000000000000000000000000000000000000000000000000000000000000000000000000000000000000000000000000000000000000
310
000000000000000000000000000000000000000000000000000000000000000000000000000000000000000000000000000000000000000000000000000000000000000000000000F5000000000000000000000000000000000000000000000000F5F5F5F5F5000000000000000000000000000000000000000000000000F5
310
00000000000000000000000000000000000000000000000000000000000000000000000000000000000000000000000000000000000000000000000000000000000000000000000000000000000000000000000000000000000000000000000000000000000000000000000000000000000000000000000000000000000000
310
0000000000000000000000000000000000000000000000000000000000000000000000000000000000000000000000000000000000000000000000000000000000000000000000000000F500000000000000000000000000000000000000000000000000000000000000000000000000000000000000000000000000000000
310
00F50000000000000000000000000000000000000000000000000000000000000000000000000000000000000000000000000000000000000000000000000000000000000000000000000000000000000000000000000000000000000000000000000000000000000000000000000000000000000000000000000000000000
310
00000000000000000000000000000000000000000000000000000000000000000000000000000000000000000000000000000000000000000000000000000000000000000000000000000000F500000000000000000000000000000000000000000000F5F5F5F5F5F500000000000000000000000000000000000000000000
310
000000F5000000000000000000000000000000000000000000000000000000000000000000000000000000000000000000000000000000000000000000000000000000000000000000000000000000000000000000000000000000000000000000000000000000000000000000000000000000000000000000000000000000
310
000000000000000000000000000000000000000000000000000000000000000000000000000000000000000000000000000000000000000000000000000000000000000000000000000000000000F500000000000000000000000000000000000000000000F5F5F5F5F5F50000000000000000000000000000000000000000
310
0000000000F500000000000000000000000000000000000000000000000000000000000000000000000000000000000000000000000000000000000000000000000000000000000000000000000000000000000000000000000000000000000000000000000000000000000000000000000000000000000000000000000000
310
0000000000000000000000000000000000000000000000000000000000000000000000000000000000000000000000000000000000000000000000000000000000000000000000000000000000000000F500000000000000000000F5F5F5F5F5F5F5F5F5F5F5F5F5F5F5F5F5F5F5F5F5F5F5F5F5F5F5F5F5F5F50000000000
310
00000000000000F50000000000000000000000000000000000000000000000000000000000000000000000000000000000000000000000000000000000000000000000000000000000000000000000000000000000000000000000000000000000000000000000000000000000000000000000000000000000000000000000
310
00000000000000000000000000000000000000000000000000000000000000000000000000000000000000000000000000000000000000000000000000000000000000000000000000000000000000000000F500000000000000000000F5F50000000000000000000000F5F5F5F500000000000000000000000000F5000000
310
000000000000000000F5000000000000000000000000000000000000000000000000000000000000000000000000000000000000000000000000000000000000000000000000000000000000000000000000000000000000000000000000000000000000000000000000000000000000000000000000000000000000000000
310
000000000000000000000000000000000000000000000000000000000000000000000000000000000000000000000000000000000000000000000000000000000000000000000000000000000000000000000000F500000000000000000000F5000000000000000000000000F5F5F5F5F5000000000000000000000000F500
310
0000000000000000000000F500000000000000000000000000000000000000000000000000000000000000000000000000000000000000000000000000000000000000000000000000000000000000000000000000000000000000000000000000000000000000000000000000000000000000000000000000000000000000
310
0000000000000000000000000000000000000000000000000000000000000000000000000000000000000000000000000000000000000000000000000000000000000000000000000000000000000000000000000000F500000000000000000000F50000000000000000000000000000000000000000000000000000000000
310
F5000000000000000000000000F50000000000000000000000000000000000000000000000000000000000000000000000000000000000000000000000000000000000000000000000000000000000000000000000000000000000000000000000000000000000000000000000000000000000000000000000000000000000
310
00000000000000000000000000000000000000000000000000000000000000000000000000000000000000000000000000000000000000000000000000000000000000000000000000000000000000000000000000000000F500000000000000000000F5F5F5F5F5F5F5F5F5F5F5F5F5F5F5F5F5F5F5F5F5F5F5F5F5F5F5F5
310
F5F5F5000000000000000000000000F5000000000000000000000000000000000000000000000000000000000000000000000000000000000000000000000000000000000000000000000000000000000000000000000000000000000000000000000000000000000000000000000000000000000000000000000000000000
310
000000000000000000000000000000000000000000000000000000000000000000000000000000000000000000000000000000000000000000000000000000000000000000000000000000000000000000000000000000000000F500000000000000000000F50000000000000000000000000000000000F5F5000000000000
310
00000000F5000000000000000000000000F500000000000000000000000000000000000000000000000000000000000000000000000000000000000000000000000000000000000000000000000000000000000000000000000000000000000000000000000000000000000000000000000000000000000000000000000000
310
0000000000000000000000000000000000000000000000000000000000000000000000000000000000000000000000000000000000000000000000000000000000000000000000000000000000000000000000000000000000000000F500000000000000000000F5000000000000000000000000000000000000F500000000
310
000000000000F5000000000000000000000000F50000000000000000000000000000000000000000000000000000000000000000000000000000000000000000000000000000000000000000000000000000000000000000000000000000000000000000000000000000000000000000000000000000000000000000000000
310
00000000000000000000000000000000000000000000000000000000000000000000000000000000000000000000000000000000000000000000000000000000000000000000000000000000000000000000000000000000000000000000F5000000F5F5F5F5F5F500F5F5F5F5F5F5F5F5F5F5F5F5F5F5F5F5F5F5F5F5F5F5
310
F5F5F5F5F5F5F5F5F5000000000000000000000000F5000000000000000000000000000000000000000000000000000000000000000000000000000000000000000000000000000000000000000000000000000000000000000000000000000000000000000000000000000000000000000000000000000000000000000000
310
000000000000000000000000000000000000000000000000000000000000000000000000000000000000000000000000000000000000000000000000000000000000000000000000000000000000000000000000000000000000000000000000F500F5F5F500000000F500F50000F50000000000000000000000000000F5F5
310
F5F5F5F5F5F500F50000F5F5F5F5F5F500000000000000F500000000000000000000000000000000000000000000000000000000000000000000000000000000000000000000000000000000000000000000000000000000000000000000000000000000000000000000000000000000000000000000000000000000000000
310
0000000000000000000000000000000000000000000000000000000000000000000000000000000000000000000000000000000000000000000000000000000000000000000000000000000000000000000000000000000000000000000000000000F5F5F500F5000000F5F5F5F50000F50000000000000000000000000000
310
00F5F5F5F5F5F5F500F50000F500000000F500000000000000F50000000000000000000000000000000000000000000000000000000000000000000000000000000000000000000000000000000000000000000000000000000000000000000000000000000000000000000000000000000000000000000000000000000000
310
0000000000000000000000000000000000000000000000000000000000000000000000000000000000000000000000000000000000000000000000000000000000000000000000000000000000000000000000000000000000000000000000000000F5F5F5F5F5F5F500000000F5F5F50000F5000000000000000000000000
310
000000F5F5F5F5F5000000F50000F500000000F500000000000000F5000000000000000000000000000000000000000000000000000000000000000000000000000000000000000000000000000000000000000000000000000000000000000000000000000000000000000000000000000000000000000000000000000000
310
00000000000000000000000000000000000000000000000000000000000000000000000000000000000000000000000000000000000000000000000000000000000000000000000000000000000000000000000000000000000000000000000000000000F50000F5F5F5F500000000F5F5F50000F5F5000000000000000000
310
00000000000000F5F5F5000000F50000F500000000F5F5F5F5F5F5F5F5F5F5F5F500000000000000000000000000000000000000000000000000000000000000000000000000000000000000000000000000000000000000000000000000000000000000000000000000000000000000000000000000000000000000000000
310
000000000000000000000000000000000000000000000000000000000000000000000000000000000000000000000000000000000000000000000000000000000000000000000000000000000000000000000000000000000000000000000000000000000000F50000F5F5F5F500000000F500F5000000F500000000000000
310
000000000000000000F5F5F5F50000F50000F5000000F5F5F500F5F5F5F5F5F50000F50000000000000000000000000000000000000000000000000000000000000000000000000000000000000000000000000000000000000000000000000000000000000000000000000000000000000000000000000000000000000000
310
0000000000000000000000000000000000000000000000000000000000000000000000000000000000000000000000000000000000000000000000000000000000000000000000000000000000000000000000000000000000000000000000000000000000000000F50000F5F5F5F5000000F5F5F5F5000000F50000000000
310
0000000000000000000000000000000000F50000F5000000F5F5F5F5F5F5F5F5F5F50000F5000000000000000000000000000000000000000000000000000000000000000000000000000000000000000000000000000000000000000000000000000000000000000000000000000000000000000000000000000000000000
310
00000000000000000000000000000000000000000000000000000000000000000000000000000000000000000000000000000000000000000000000000000000000000000000000000000000000000000000000000000000000000000000000000000000000000000000F5F5F5F5F5F5F5000000F50000F5000000F5000000
310
00000000000000000000000000000000000000F50000F5000000000000F50000000000F50000F500000000000000000000000000000000000000000000000000000000000000000000000000000000000000000000000000000000000000000000000000000000000000000000000000000000000000000000000000000000
310
0000000000000000000000000000000000000000000000000000000000000000000000000000000000000000000000000000000000000000000000000000000000000000000000000000000000000000000000000000000000000000000000000000000000000000000000000000F5F5F50000000000F50000F5000000F500
310
000000000000000000000000000000000000000000F50000F5000000000000F50000000000F50000F50000000000000000000000000000000000000000000000000000000000000000000000000000000000000000000000000000000000000000000000000000000000000000000000000000000000000000000000000000
310
0000000000000000000000000000000000000000000000000000000000000000000000000000000000000000000000000000000000000000000000000000000000000000000000000000000000000000000000000000000000000000000000000000000000000000000000000000000000F5F50000000000F50000F5000000
310
F500000000000000000000000000000000000000000000F50000F5000000000000F50000000000F50000F5000000000000000000000000000000000000000000000000000000000000000000000000000000000000000000000000000000000000000000000000000000000000000000000000000000000000000000000000
310
0000000000000000000000000000000000000000000000000000000000000000000000000000000000000000000000000000000000000000000000000000000000000000000000000000000000000000000000000000000000000000000000000000000000000000000000000000000000000000F5F5F5F5F5F5F5F5F5F500
310
0000F500000000000000F5F5F5F5F5F5000000000000000000F50000F5000000000000F50000000000F50000F500000000000000000000000000000000000000000000000000000000000000000000000000000000000000000000000000000000000000000000000000000000000000000000000000000000000000000000
310
000000000000000000000000000000000000000000000000000000000000000000000000000000000000000000000000000000000000000000000000000000000000000000000000000000000000000000000000000000000000000000000000000000000000000000000000000000000000000000000000F500000000F500
310
F5000000F500000000000000F5F5F5F5F5F5000000000000000000F50000F500F5F5000000F50000000000F50000F50000000000000000000000000000000000000000000000000000000000000000000000000000000000000000000000000000000000000000000000000000000000000000000000000000000000000000
310
0000000000000000000000000000000000000000000000000000000000000000000000000000000000000000000000000000000000000000000000000000000000000000000000000000000000000000000000000000000000000000000000000000000000000000000000000000000000000000000000000000F500000000
310
F500F50000F5F500000000000000F5F5F5F5F5F50000000000000000F5F50000F500F5F5F5F500F50000F5F5F5F50000F5000000000000000000000000000000000000000000000000000000000000000000000000000000000000000000000000000000000000000000000000000000000000000000000000000000000000
310
00000000000000000000000000000000000000000000000000000000000000000000000000000000000000000000000000000000000000000000000000000000000000000000000000000000000000000000000000000000000000000000000000000000000000000000000000000000000000000000000000000000F50000
310
00000000F5000000F5F5F5F5F5F5F5F5F500F5F50000F5F5F5F5F5F5F5F5F5F50000F5F5F5F5F5F5F5F5F5F5F500F5F50000F500000000000000000000000000000000000000000000000000000000000000000000000000000000000000000000000000000000000000000000000000000000000000000000000000000000
310
000000000000000000000000000000000000000000000000000000000000000000000000000000000000000000000000000000000000000000000000000000000000000000000000000000000000000000000000000000000000000000000000000000000000000000000000000000000000000000000000000000000000F5
310
000000000000F50000F5F5000000000000000000F5F50000000000000000000000F50000F5F5F5F5000000000000F500F5F50000F50000000000000000000000000000000000000000000000000000000000000000000000000000000000000000000000000000000000000000000000000000000000000000000000000000
310
00000000000000000000000000000000000000000000000000000000000000000000000000000000000000000000000000000000000000000000000000000000000000000000000000000000000000000000000000000000000000000000000000000000000000000000000000000000000000000000000000000000000000
310
00F5000000000000F50000F5F500000000000000000000000000000000000000000000F50000F5F5F5F5000000000000F5F5F5F5F5F5F5000000000000000000000000000000000000000000000000000000000000000000000000000000000000000000000000000000000000000000000000000000000000000000000000
310
00000000000000000000000000000000000000000000000000000000000000000000000000000000000000000000000000000000000000000000000000000000000000000000000000000000000000000000000000000000000000000000000000000000000000000000000000000000000000000000000000000000000000
310
000000F5F50000000000F5000000F500000000000000000000000000000000000000000000F50000F5F5F5F5000000000000F5F5F5F50000F500000000000000000000000000000000000000000000000000000000000000000000000000000000000000000000000000000000000000000000000000000000000000000000
310
00000000000000000000000000000000000000000000000000000000000000000000000000000000000000000000000000000000000000000000000000000000000000000000000000000000000000000000000000000000000000000000000000000000000000000000000000000000000000000000000000000000000000
310
000000000000F50000000000F5000000F500000000000000000000000000000000000000000000F50000F5F5F5F5000000000000F5F5F5F50000F50000000000000000000000000000000000000000000000000000000000000000000000000000000000000000000000000000000000000000000000000000000000000000
310
00000000000000000000000000000000000000000000000000000000000000000000000000000000000000000000000000000000000000000000000000000000000000000000000000000000000000000000000000000000000000000000000000000000000000000000000000000000000000000000000000000000000000
310
0000000000000000F50000000000F5000000F500000000000000000000000000000000000000000000F50000F5F5F5F5F50000000000F5F5F5F5F5F5F5000000000000000000000000000000000000000000000000000000000000000000000000000000000000000000000000000000000000000000000000000000000000
310
00000000000000000000000000000000000000000000000000000000000000000000000000000000000000000000000000000000000000000000000000000000000000000000000000000000000000000000000000000000000000000000000000000000000000000000000000000000000000000000000000000000000000
310
00000000000000000000F50000000000F5000000F500000000000000000000000000000000000000000000F50000F5F5F5F5F500000000000000F5F500000000000000000000000000000000000000000000000000000000000000000000000000000000000000000000000000000000000000000000000000000000000000
310
00000000000000000000000000000000000000000000000000000000000000000000000000000000000000000000000000000000000000000000000000000000000000000000000000000000000000000000000000000000000000000000000000000000000000000000000000000000000000000000000000000000000000
310
000000000000000000000000F50000000000F5000000F500000000000000000000000000000000000000000000F50000F500F5F5F5F5F5F5F5F5F5F5F5F50000000000000000000000000000000000000000000000000000000000000000000000000000000000000000000000000000000000000000000000000000000000
310
00000000000000000000000000000000000000000000000000000000000000000000000000000000000000000000000000000000000000000000000000000000000000000000000000000000000000000000000000000000000000000000000000000000000000000000000000000000000000000000000000000000000000
310
0000000000000000000000000000F50000000000F5F5F5F5F500000000000000000000000000000000000000000000F50000F500000000000000000000000000000000000000000000000000000000000000000000000000000000000000000000000000000000000000000000000000000000000000000000000000000000
310
00000000000000000000000000000000000000000000000000000000000000000000000000000000000000000000000000000000000000000000000000000000000000000000000000000000000000000000000000000000000000000000000000000000000000000000000000000000000000000000000000000000000000
310
00000000000000000000000000000000F5F5F5F5F5F5F50000F50000000000000000000000000000000000000000000000F50000F50000000000000000000000000000000000000000000000000000000000000000000000000000000000000000000000000000000000000000000000000000000000000000000000000000
310
00000000000000000000000000000000000000000000000000000000000000000000000000000000000000000000000000000000000000000000000000000000000000000000000000000000000000000000000000000000000000000000000000000000000000000000000000000000000000000000000000000000000000
310
000000000000000000000000000000000000000000000000F50000F50000000000000000000000000000000000000000000000F50000F5000000000000000000000000000000000000000000000000000000000000000000000000000000000000000000000000000000000000000000000000000000000000000000000000
310
00000000000000000000000000000000000000000000000000000000000000000000000000000000000000000000000000000000000000000000000000000000000000000000000000000000000000000000000000000000000000000000000000000000000000000000000000000000000000000000000000000000000000
310
0000000000000000000000000000000000000000000000000000F50000F50000000000000000000000000000000000000000000000F50000F500000000000000000000000000000000000000000000000000000000000000000000000000000000000000000000000000000000000000000000000000000000000000000000
310
00000000000000000000000000000000000000000000000000000000000000000000000000000000000000000000000000000000000000000000000000000000000000000000000000000000000000000000000000000000000000000000000000000000000000000000000000000000000000000000000000000000000000
310
00000000000000000000000000000000000000000000000000000000F50000F50000000000000000000000000000000000000000000000F50000F50000000000000000000000000000000000000000000000000000000000000000000000000000000000000000000000000000000000000000000000000000000000000000
310
00000000000000000000000000000000000000000000000000000000000000000000000000000000000000000000000000000000000000000000000000000000000000000000000000000000000000000000000000000000000000000000000000000000000000000000000000000000000000000000000000000000000000
310
000000000000000000000000000000000000000000000000000000000000F500F5000000000000000000000000000000000000000000000000F5F5F5F5000000000000000000000000000000000000000000000000000000000000000000000000000000000000000000000000000000000000000000000000000000000000
310
00000000000000000000000000000000000000000000000000000000000000000000000000000000000000000000000000000000000000000000000000000000000000000000000000000000000000000000000000000000000000000000000000000000000000000000000000000000000000000000000000000000000000
310
0000000000000000000000000000000000000000000000000000000000000000F500F50000000000000000000000000000000000000000000000F5F5F5F5F500000000000000000000000000000000000000000000000000000000000000000000000000000000000000000000000000000000000000000000000000000000
310
00000000000000000000000000000000000000000000000000000000000000000000000000000000000000000000000000000000000000000000000000000000000000000000000000000000000000000000000000000000000000000000000000000000000000000000000000000000000000000000000000000000000000
310
00000000000000000000000000000000000000000000000000000000000000000000F500F50000000000000000000000000000000000000000000000F5000000F50000000000000000000000000000000000000000000000000000000000000000000000000000000000000000000000000000000000000000000000000000
310
00000000000000000000000000000000000000000000000000000000000000000000000000000000000000000000000000000000000000000000000000000000000000000000000000000000000000000000000000000000000000000000000000000000000000000000000000000000000000000000000000000000000000
310
000000000000000000000000000000000000000000000000000000000000000000000000F500F50000000000000000000000000000000000000000000000F5000000F5000000000000000000000000000000000000000000000000000000000000000000000000000000000000000000000000000000000000000000000000
310
00000000000000000000000000000000000000000000000000000000000000000000000000000000000000000000000000000000000000000000000000000000000000000000000000000000000000000000000000000000000000000000000000000000000000000000000000000000000000000000000000000000000000
310
0000000000000000000000000000000000000000000000000000000000000000000000000000F50000F500000000000000000000000000000000000000000000F5000000F500000000000000000000000000000000000000000000000000000000000000000000000000000000000000000000000000000000000000000000
310
00000000000000000000000000000000000000000000000000000000000000000000000000000000000000000000000000000000000000000000000000000000000000000000000000000000000000000000000000000000000000000000000000000000000000000000000000000000000000000000000000000000000000
310
00000000000000000000000000000000000000000000000000000000000000000000000000000000F50000F500000000000000000000000000000000000000000000F5000000F50000000000000000000000000000000000000000000000000000000000000000000000000000000000000000000000000000000000000000
310
00000000000000000000000000000000000000000000000000000000000000000000000000000000000000000000000000000000000000000000000000000000000000000000000000000000000000000000000000000000000000000000000000000000000000000000000000000000000000000000000000000000000000
310
000000000000000000000000000000000000000000000000000000000000000000000000000000000000F50000F50000000000000000000000000000000000000000000000F5F500F5000000000000000000000000000000000000000000000000000000000000000000000000000000000000000000000000000000000000
310
00000000000000000000000000000000000000000000000000000000000000000000000000000000000000000000000000000000000000000000000000000000000000000000000000000000000000000000000000000000000000000000000000000000000000000000000000000000000000000000000000000000000000
310
0000000000000000000000000000000000000000000000000000000000000000000000000000000000000000F50000F5000000000000000000000000000000000000000000000000F500F500000000000000000000000000000000000000000000000000000000000000000000000000000000000000000000000000000000
310
00000000000000000000000000000000000000000000000000000000000000000000000000000000000000000000000000000000000000000000000000000000000000000000000000000000000000000000000000000000000000000000000000000000000000000000000000000000000000000000000000000000000000
310
0000000000000000000000000000000000000000000000000000000000000000000000000000F5F5F5F5F5000000F50000F5000000000000000000000000000000000000000000000000F500F50000000000000000000000000000000000000000000000000000000000000000000000000000000000000000000000000000
310
00000000000000000000000000000000000000000000000000000000000000000000000000000000000000000000000000000000000000000000000000000000000000000000000000000000000000000000000000000000000000000000000000000000000000000000000000000000000000000000000000000000000000
310
00000000000000000000000000000000000000000000000000000000000000000000000000000000F5F5F5F5F5000000F50000F5000000000000000000000000000000000000000000000000F500F5000000000000000000000000000000000000000000000000000000000000000000000000000000000000000000000000
310
00000000000000000000000000000000000000000000000000000000000000000000000000000000000000000000000000000000000000000000000000000000000000000000000000000000000000000000000000000000000000000000000000000000000000000000000000000000000000000000000000000000000000
310
000000000000000000000000000000000000000000000000000000000000000000000000000000000000F5F5F5F5F5000000F50000F50000000000000000000000000000000000000000000000F50000F500000000000000000000000000000000000000000000000000000000000000000000000000000000000000000000
310
00000000000000000000000000000000000000000000000000000000000000000000000000000000000000000000000000000000000000000000000000000000000000000000000000000000000000000000000000000000000000000000000000000000000000000000000000000000000000000000000000000000000000
310
000000000000000000000000000000000000000000000000000000000000000000000000000000000000000000F5F5F500F5F500F50000F50000000000000000000000000000000000000000000000F50000F50000000000000000000000000000000000000000000000000000000000000000000000000000000000000000
310
00000000000000000000000000000000000000000000000000000000000000000000000000000000000000000000000000000000000000000000000000000000000000000000000000000000000000000000000000000000000000000000000000000000000000000000000000000000000000000000000000000000000000
310
0000000000000000000000000000000000000000000000000000000000000000000000000000000000000000000000F5F5F50000F5F5F5F5F5F50000000000000000000000000000000000000000000000F5F5F5F5000000000000000000000000000000000000000000000000000000000000000000000000000000000000
310
00000000000000000000000000000000000000000000000000000000000000000000000000000000000000000000000000000000000000000000000000000000000000000000000000000000000000000000000000000000000000000000000000000000000000000000000000000000000000000000000000000000000000
310
00000000000000000000000000000000000000000000000000000000000000000000000000000000000000000000000000F5F5F500F5F500F500F5F5F5F5F5F5F5F5F5F5F5F5F5F5F5F5F5F5F5F5F5F5F5F5F5F5F500F500000000000000000000000000000000000000000000000000000000000000000000000000000000
310
00000000000000000000000000000000000000000000000000000000000000000000000000000000000000000000000000000000000000000000000000000000000000000000000000000000000000000000000000000000000000000000000000000000000000000000000000000000000000000000000000000000000000
310
00000000000000000000000000000000000000000000000000000000000000000000000000000000000000000000000000000000000000F5F5F5F5F5F5F5F5F5F5F5F5F5F5F5F5F5F5F5F5F5F5F5F5F5F5F5F5F5F5F5F5F5F50000000000000000000000000000000000000000000000000000000000000000000000000000
310
00000000000000000000000000000000000000000000000000000000000000000000000000000000000000000000000000000000000000000000000000000000000000000000000000000000000000000000000000000000000000000000000000000000000000000000000000000000000000000000000000000000000000
310
000000000000000000000000000000000000000000000000000000000000000000000000000000000000000000000000000000000000000000000000F50000000000000000000000F5F5F5F5F5F5000000000000000000000000F5000000000000000000000000000000000000000000000000000000000000000000000000
310
00000000000000000000000000000000000000000000000000000000000000000000000000000000000000000000000000000000000000000000000000000000000000000000000000000000000000000000000000000000000000000000000000000000000000000000000000000000000000000000000000000000000000
310
0000000000000000000000000000000000000000000000000000000000000000000000000000000000000000000000000000000000000000000000000000F50000000000000000000000F5F5F5F5F5F5000000000000000000000000F500000000000000000000000000000000000000000000000000000000000000000000
310
00000000000000000000000000000000000000000000000000000000000000000000000000000000000000000000000000000000000000000000000000000000000000000000000000000000000000000000000000000000000000000000000000000000000000000000000000000000000000000000000000000000000000
310
00000000000000000000000000000000000000000000000000000000000000000000000000000000000000000000000000000000000000000000000000000000F50000000000000000000000F5F5F5F5F5F50000000000000000000000F5F50000000000000000000000000000000000000000000000000000000000000000
310
00000000000000000000000000000000000000000000000000000000000000000000000000000000000000000000000000000000000000000000000000000000000000000000000000000000000000000000000000000000000000000000000000000000000000000000000000000000000000000000000000000000000000
310
000000000000000000000000000000000000000000000000000000000000000000000000000000000000000000000000000000000000000000000000000000000000F5F5F5F5F5F5F5F5F5F5F5F5F5F5F5F5F500F5F5F5F5F5F5F5F5F5F5F5F5F5000000000000000000000000000000000000000000000000000000000000
310
00000000000000000000000000000000000000000000000000000000000000000000000000000000000000000000000000000000000000000000000000000000000000000000000000000000000000000000000000000000000000000000000000000000000000000000000000000000000000000000000000000000000000
310
000000000000000000000000000000000000000000000000000000000000000000000000000000000000000000000000000000000000000000000000000000000000000000000000000000000000000000F5F5F5F5F50000000000000000000000000000000000000000000000000000000000000000000000000000000000
310
00000000000000000000000000000000000000000000000000000000000000000000000000000000000000000000000000000000000000000000000000000000000000000000000000000000000000000000000000000000000000000000000000000000000000000000000000000000000000000000000000000000000000
310
00000000000000000000000000000000000000000000000000000000000000000000000000000000000000000000000000000000000000000000000000000000000000000000000000000000000000000000000000000000000000000000000000000000000000000000000000000000000000000000000000000000000000
310
00000000000000000000000000000000000000000000000000000000000000000000000000000000000000000000000000000000000000000000000000000000000000000000000000000000000000000000000000000000000000000000000000000000000000000000000000000000000000000000000000000000000000
310
00000000000000000000000000000000000000000000000000000000000000000000000000000000000000000000000000000000000000000000000000000000000000000000000000000000000000000000000000000000000000000000000000000000000000000000000000000000000000000000000000000000000000
310
00000000000000000000000000000000000000000000000000000000000000000000000000000000000000000000000000000000000000000000000000000000000000000000000000000000000000000000000000000000000000000000000000000000000000000000000000000000000000000000000000000000000000
310
00000000000000000000000000000000000000000000000000000000000000000000000000000000000000000000000000000000000000000000000000000000000000000000000000000000000000000000000000000000000000000000000000000000000000000000000000000000000000000000000000000000000000
310
00000000000000000000000000000000000000000000000000000000000000000000000000000000000000000000000000000000000000000000000000000000000000000000000000000000000000000000000000000000000000000000000000000000000000000000000000000000000000000000000000000000000000
310
00000000000000000000000000000000000000000000000000000000000000000000000000000000000000000000000000000000000000000000000000000000000000000000000000000000000000000000000000000000000000000000000000000000000000000000000000000000000000000000000000000000000000
310
00000000000000000000000000000000000000000000000000000000000000000000000000000000000000000000000000000000000000000000000000000000000000000000000000000000000000000000000000000000000000000000000000000000000000000000000000000000000000000000000000000000000000
310
0000000000000000000000000000000000000000000000000000000000000000000000000000000000000000000000000000000000000000F5F5F5F5F5F5F5F5F5F5F5F5F5000000000000000000000000000000000000000000000000000000000000000000000000000000000000F5F5F5F5F5F5F5F5F5F5F5F5F5F5F5F5
310
F5F5F5F5F5F5F5F50000000000000000000000000000000000000000000000000000000000000000000000000000000000000000000000000000000000000000000000000000000000000000000000000000000000000000000000000000000000000000000000000000000000000000000000000000000000000000000000
310
00000000000000000000000000000000000000000000000000000000000000000000000000000000000000000000000000000000000000000000F5F5F5F5F5F5F5F5F5F5F5F5F5000000000000000000000000000000000000000000000000000000000000000000000000000000000000F5F5F5F5F5F5F5F5F5F5F5F5F5F5
310
F5F5F5F5F5F5F5F5F5F5000000000000000000000000000000000000000000000000000000000000000000000000000000000000000000000000000000000000000000000000000000000000000000000000000000000000000000000000000000000000000000000000000000000000000000000000000000000000000000
310
00000000000000000000000000000000000000000000000000000000000000000000000000000000000000000000000000000000000000000000000000F5F5F5F5F5F5F5F5F5F5F5F5F50000000000000000000000000000000000000000000000000000000000000000000000000000000000F5F5F5F5F5F5F5F5F5F5F5F5
310
F5F5F5F5F5F5F5F5F5F5F5F5F5000000000000000000000000000000000000000000000000000000000000000000000000000000000000000000000000000000000000000000000000000000000000000000000000000000000000000000000000000000000000000000000000000000000000000000000000000000000000
310
000000000000000000000000000000000000000000000000000000000000000000000000000000000000000000000000000000000000000000000000000000F5F5F5F5F5F5F5F5F5F5F5F5F50000000000000000000000000000000000000000000000000000000000000000000000000000000000F5F5F5F5F5F5F5F5F5F5
310
F5F5F5F5F5F5F5F5F5F5F5F5F5F5F500000000000000000000000000000000000000000000000000000000000000000000000000000000000000000000000000000000000000000000000000000000000000000000000000000000000000000000000000000000000000000000000000000000000000000000000000000000
310
00000000000000000000000000000000000000000000000000000000000000000000000000000000000000000000000000000000000000000000000000000000000000000000000000000000000000000000000000000000000000000000000000000000000000000000000000000000000000000000000000000000000000
310
00000000000000000000000000000000000000000000000000000000000000000000000000000000000000000000000000000000000000000000000000000000000000000000000000000000000000000000000000000000000000000000000000000000000000000000000000000000000000000000000000000000000000
310
0000000000000000000000000000000000000000000000000000000000000000000000000000000000000000000000000000000000000000000000000000F5F5F5F5F5F5F5F5F5F5F5F5F5F5F5F5F5F5F5F5F5F5F500000000000000000000000000000000000000000000000000000000000000000000000000F5F5F5F5F5
310
F5F5F5F5F5F5F5F5F5F5F5F5F5F5F5F5F5F500000000000000000000000000000000000000000000000000000000000000000000000000000000000000000000000000000000000000000000000000000000000000000000000000000000000000000000000000000000000000000000000000000000000000000000000000
310
00000000000000000000000000000000000000000000000000000000000000000000000000000000000000000000000000000000000000000000000000000000F5F5F5F5F5F5F5F5F5F5F5F5F5F5F5F5F5F5F5F5F5F50000000000000000000000000000000000000000000000000000000000000000000000000000F5F5F5
310
F5F5F5F5F5F5F5F5F5F5F5F5F5F5F5F5F5F5F5000000000000000000000000000000000000000000000000000000000000000000000000000000000000000000000000000000000000000000000000000000000000000000000000000000000000000000000000000000000000000000000000000000000000000000000000
310
000000000000000000000000000000000000000000000000000000000000000000000000000000000000000000000000000000000000000000000000000000000000F5F5F5F5F5F5F5F5F5F5F5F5F5F5F5F5F5F5F5F5F5F50000000000000000000000000000000000000000000000000000000000000000000000000000F5
310
F5F5F5F5F5F5F5F5F5F5F5F5F5F5F5F5F5F5F5F5F5F5000000000000000000000000000000000000000000000000000000000000000000000000000000000000000000000000000000000000000000000000000000000000000000000000000000000000000000000000000000000000000000000000000000000000000000
310
00000000000000000000000000000000000000000000000000000000000000000000000000000000000000000000000000000000000000000000000000000000000000000000000000000000000000000000000000000000000000000000000000000000000000000000000000000000000000000000000000000000000000
310
000000000000000000F5F5F5F5F5F500000000000000000000000000000000000000000000000000000000000000000000000000000000000000000000000000000000000000000000000000000000000000000000000000000000000000000000000000000000000000000000000000000000000000000000000000000000
310
00000000000000000000000000000000000000000000000000000000000000000000000000000000000000000000000000000000000000000000000000000000000000000000000000000000000000000000000000000000000000000000000000000000000000000000000000000000000000000000000000000000000000
310
0000000000000000000000F5F5F5F5F5F50000000000000000000000000000000000000000000000000000000000000000000000000000000000000000000000000000000000000000000000000000000000000000000000000000000000000000000000000000000000000000000000000000000000000000000000000000
310
0000000000000000000000000000000000000000000000000000000000000000000000000000000000000000000000000000000000000000000000000000000000000000000000000000000000000000000000000000000000000000000000000000000000000000000000000000000000000000000000000000000000F5F5
310
0000000000000000000000000000F5F5F5F5F50000000000000000000000000000F5000000000000000000000000000000000000000000000000000000000000000000000000000000000000000000000000000000000000000000000000000000000000000000000000000000000000000000000000000000000000000000
310
00000000000000000000000000000000000000000000000000000000000000000000000000000000000000000000000000000000000000000000000000000000000000000000000000000000000000000000000000000000000000000000000000000000000000000000000000000000000000000000000000000000000000
310
00F5F5F5F5F5F5F5F5F5F5F5F5F5F5F5F5F5F5F5F5F5F5F5F5F5F5F5F5F5F5F5F5F5F5F5F5000000000000000000000000000000000000000000000000000000000000000000000000000000000000000000000000000000000000000000000000000000000000000000000000000000000000000000000000000000000000
310
000000000000000000000000000000000000000000000000000000000000000000000000000000000000000000000000000000000000000000000000000000000000000000000000000000000000000000000000F5F5F5F5F50000000000000000000000000000000000000000000000000000000000000000000000000000
310
000000F500000000000000000000000000F5F5F5F5F5F5000000000000000000000000000000F500000000000000000000000000000000000000000000000000000000000000000000000000000000000000000000000000000000000000000000000000000000000000000000000000000000000000000000000000000000
310
0000000000000000000000000000000000000000000000000000000000000000000000000000000000000000000000000000000000000000000000000000000000000000000000000000000000000000000000000000F5F5F5F5F5000000000000000000000000000000000000000000000000000000000000000000000000
310
0000000000F50000000000000000000000000000F5F5F5F5F5000000000000000000000000000000F50000000000000000000000000000000000000000000000000000000000000000000000000000000000000000000000000000000000000000000000000000000000000000000000000000000000000000000000000000
310
000000000000000000000000000000000000000000000000000000000000000000000000000000000000000000000000000000000000000000000000000000000000000000000000000000F5F5F5F5F5F5F5F5F5F5F5F5F5F5F5F5F5F5F5F5F5F5F5F5F5F5F5F5F5F5F5F50000000000000000000000000000000000000000
310
00000000000000F500000000000000000000000000000000000000000000000000000000000000000000F5000000000000000000000000000000000000000000000000000000000000000000000000000000000000000000000000000000000000000000000000000000000000000000000000000000000000000000000000
310
0000000000000000000000000000000000000000000000000000000000000000000000000000000000000000000000000000000000000000000000000000000000000000000000000000000000F5F50000000000000000000000F5F5F5F5F500000000000000000000000000F5000000000000000000000000000000000000
310
000000000000000000F500000000000000000000000000F5F5F5F50000000000000000000000000000000000F500000000000000000000000000000000000000000000000000000000000000000000000000000000000000000000000000000000000000000000000000000000000000000000000000000000000000000000
310
00000000000000000000000000000000000000000000000000000000000000000000000000000000000000000000000000000000000000000000000000000000000000000000000000000000000000F5000000000000000000000000F5F5F5F5F500000000000000000000000000F500000000000000000000000000000000
310
0000000000000000000000F500000000000000000000000000F5F5F5F50000000000000000000000000000000000F50000000000000000000000000000000000000000000000000000000000000000000000000000000000000000000000000000000000000000000000000000000000000000000000000000000000000000
310
000000000000000000000000000000000000000000000000000000000000000000000000000000000000000000000000000000000000000000000000000000000000000000000000000000000000000000F5000000000000000000000000000000000000000000000000000000000000F50000000000000000000000000000
310
00000000000000000000000000F5000000000000000000F5F5F5F5F5F5F5F5F500F5F500000000000000000000000000F5000000000000000000000000000000000000000000000000000000000000000000000000000000000000000000000000000000000000000000000000000000000000000000000000000000000000
310
0000000000000000000000000000000000000000000000000000000000000000000000000000000000000000000000000000000000000000000000000000000000000000000000000000000000000000000000F50000000000000000000000F5F5F5F5F50000000000000000000000000000F5000000000000000000000000
310
000000000000000000000000000000F500000000000000000000F500F5F5F5F5F5F50000F5F5000000000000000000000000F500000000000000000000000000000000000000000000000000000000000000000000000000000000000000000000000000000000000000000000000000000000000000000000000000000000
310
00000000000000000000000000000000000000000000000000000000000000000000000000000000000000000000000000000000000000000000000000000000000000000000000000000000000000000000000000F50000000000000000000000F5F5F5F5F50000000000000000000000000000F500000000000000000000
310
0000000000000000000000000000000000F500000000000000000000F500F5F5F5F5F5F5F500F500F5F5F5F5F500000000000000F50000000000000000000000000000000000000000000000000000000000000000000000000000000000000000000000000000000000000000000000000000000000000000000000000000
310
000000000000000000000000000000000000000000000000000000000000000000000000000000000000000000000000000000000000000000000000000000000000000000000000000000000000000000000000000000F500F5F5F5F5F500000000F5F5F5F5F5F5F500000000000000000000000000F50000000000000000
310
00000000000000000000000000000000000000F500F5F5F5F5F500000000F5000000000000000000F500F5F5F5F5F500000000000000F5000000000000000000000000000000000000000000000000000000000000000000000000000000000000000000000000000000000000000000000000000000000000000000000000
310
0000000000000000000000000000000000000000000000000000000000000000000000000000000000000000000000000000000000000000000000000000000000000000000000000000000000000000000000000000000000F500F5F5F5F5F500000000F5F5F5F5F5F5F5F5000000000000000000000000F5000000000000
310
000000000000000000000000000000000000000000F500F5F5F5F5F500000000F5000000000000000000F500F5F5F5F5F5F5000000000000F500000000000000000000000000000000000000000000000000000000000000000000000000000000000000000000000000000000000000000000000000000000000000000000
310
00000000000000000000000000000000000000000000000000000000000000000000000000000000000000000000000000000000000000000000000000000000000000000000000000000000000000000000000000000000000000F500F5F5F5F5F500000000F5F5F5F5F5F5F500000000000000000000000000F500000000
310
0000000000000000000000000000000000000000000000F500F5F5F5F5F500000000F50000F5F5F5F5F5F5F5F5F5F5F5F5F5F500000000000000F50000000000000000000000000000000000000000000000000000000000000000000000000000000000000000000000000000000000000000000000000000000000000000
310
000000000000000000000000000000000000000000000000000000000000000000000000000000000000000000000000000000000000000000000000000000000000000000000000000000000000000000000000000000000000000000F500F5F5F5F5F5F5F50000F50000000000F500000000000000000000000000F50000
310
00000000000000000000000000000000000000000000000000F500F5F5F5F5F5F5F50000F50000F5F50000F5F500F500F5F5F5F5F500000000000000F5000000000000000000000000000000000000000000000000000000000000000000000000000000000000000000000000000000000000000000000000000000000000
310
0000000000000000000000000000000000000000000000000000000000000000000000000000000000000000000000000000000000000000000000000000000000000000000000000000000000000000000000000000000000000000000000F50000F5F5F500F5F5F5F5F5F5F5F5F5F5F500000000000000000000000000F5
310
000000000000000000000000000000000000000000000000000000F50000F5F5F500F5F5F5F5F5F5F5F5F5F5F5F5F5F5F500F5F5F5F5F500000000000000F500000000000000000000000000000000000000000000000000000000000000000000000000000000000000000000000000000000000000000000000000000000
310
00000000000000000000000000000000000000000000000000000000000000000000000000000000000000000000000000000000000000000000000000000000000000000000000000000000000000000000000000000000000000000000000000F50000F5F5F50000F50000F50000000000F5000000000000000000000000
310
00F5000000000000000000000000000000000000000000000000000000F50000F5F5F50000F50000F50000F5000000F50000F500000000000000000000000000F50000000000000000000000000000000000000000000000000000000000000000000000000000000000000000000000000000000000000000000000000000
310
000000000000000000000000000000000000000000000000000000000000000000000000000000000000000000000000000000000000000000000000000000000000000000000000000000000000000000000000000000000000000000000000000000F500000000000000F50000F50000000000F500000000000000000000
310
000000F5000000000000000000000000000000000000000000000000000000F500000000000000F50000F50000F5000000F50000F500000000000000000000000000F5000000000000000000000000000000000000000000000000000000000000000000000000000000000000000000000000000000000000000000000000
310
0000000000000000000000000000000000000000000000000000000000000000000000000000000000000000000000000000000000000000000000000000000000000000000000000000000000000000000000000000000000000000000000000000000000F5F5F5F5F5F5F5F5F5F5F5F5F5F5F5F5F5F5F5F5F5F5F5F50000
310
0000000000F5000000000000000000000000000000000000000000000000000000F5F5F5F5F5F5F5F5F5F5F5F5F5F5F5F5F5F5F5F5F5F5F5F5F5F5F5F500000000000000F500000000000000000000000000000000000000000000000000000000000000000000000000000000000000000000000000000000000000000000
310
00000000000000000000000000000000000000000000000000000000000000000000000000000000000000000000000000000000000000000000000000000000000000000000000000000000000000000000000000000000000000000000000000000000000000F5F500F5000000F5F5F5F5000000F5F50000F500000000F5
310
00000000000000F5000000000000000000000000000000000000000000000000000000F5F500F5000000F5F5F5F5000000F5000000F5000000F500000000F500000000000000F50000000000000000000000000000000000000000000000000000000000000000000000000000000000000000000000000000000000000000
310
000000000000000000000000000000000000000000000000000000000000000000000000000000000000000000000000000000000000000000000000000000000000000000000000000000000000000000000000000000000000000000000000000000000000F5F5F5F5F5F5F5000000F5F5F5F5000000F5F50000F5000000
310
00F500000000000000F5000000000000000000000000000000000000000000000000F5F5F5F5F5F5F5000000F5F5F5F50000F5F5000000F5F50000F500000000F500000000000000F5000000000000000000000000000000000000000000000000000000000000000000000000000000000000000000000000000000000000
310
0000000000000000000000000000000000000000000000000000000000000000000000000000000000000000000000000000000000000000000000000000000000000000000000000000000000000000000000000000000000000000000000000000000000000000F5F5F5F5F5F5F50000000000F5F5000000F5F50000F500
310
000000F5F5F5F5F5F5F5F5F5F5F5F5000000000000000000000000000000000000000000F5F5F5F5F5F5F50000000000F5F50000F5F5000000F5F50000F500000000F5F5F5F5F5F5F5F5F5F5F5F500000000000000000000000000000000000000000000000000000000000000000000000000000000000000000000000000
310
00000000000000000000000000000000000000000000000000000000000000000000000000000000000000000000000000000000000000000000000000000000000000000000000000000000000000000000000000000000000000000000000000000000000000000000F50000F5F5F5F50000000000F5F5000000F5F50000
310
F500000000F50000F5F5F5F500F50000F5000000000000000000000000000000000000000000F50000F5F5F5F50000000000F5F50000F5F5F500F5F5F500F5F500000000F50000F5F5F5F500F50000F50000000000000000000000000000000000000000000000000000000000000000000000000000000000000000000000
310
000000000000000000000000000000000000000000000000000000000000000000000000000000000000000000000000000000000000000000000000000000000000000000000000000000000000000000000000000000000000000000000000000000000000000000000000F50000F5F5F5F5F5000000F5F5F5000000F500
310
0000F5000000F5F5F5F5F5F5F5F500F50000F5000000000000000000000000000000000000000000F50000F500F5F5F5000000F5F5F5000000F5F500F5F50000F5F50000F5F5F5F5F5F5F5F5F500F50000F5000000000000000000000000000000000000000000000000000000000000000000000000000000000000000000
310
0000000000000000000000000000000000000000000000000000000000000000000000000000000000000000000000000000000000000000000000000000000000000000000000000000000000000000000000000000000000000000000000000000000000000000000000000000F5F5F5F5F5F5F5F5000000F500F5000000
310
F5000000F5000000F5F5F5F5F5F5F5F500F50000F5000000000000000000000000000000000000000000F5F5F5F5F5F5F5F5000000F500F5000000F5F500F5F5000000F50000F5F5F5F5F5F5F5F5F500F50000F500000000000000000000000000000000000000000000000000000000000000000000000000000000000000
310
00000000000000000000000000000000000000000000000000000000000000000000000000000000000000000000000000000000000000000000000000000000000000000000000000000000000000000000000000000000000000000000000000000000000000000000000000000000F5F5F5F5F5F5F500000000F500F500
310
0000F5000000F50000000000F5000000000000F50000F5000000000000000000000000000000000000000000F5F5F5F5F5F5F500000000F500F5000000F5F500F5F5000000F50000000000F5000000000000F50000F50000000000000000000000000000000000000000000000000000000000000000000000000000000000
310
000000000000000000000000000000000000000000000000000000000000000000000000000000000000000000000000000000000000000000000000000000000000000000000000000000000000000000000000000000000000000000000000000000000000000000000000000000000000000000F5F5000000000000F500
310
F5000000F5000000F50000000000F5000000000000F50000F5000000000000000000000000000000000000000000000000F5F5000000000000F500F5000000F5F500F5F5000000F50000000000F5000000000000F50000F5000000000000000000000000000000000000000000000000000000000000000000000000000000
310
000000000000000000000000000000000000000000000000000000000000000000000000000000000000000000000000000000000000000000000000000000000000000000000000000000000000000000000000000000000000000000000000000000000000000000000000000000000000000000000000F5F5F5F5F5F5F5
310
F5F5F5000000F5000000F50000000000F5000000000000F50000F500000000000000000000000000000000000000000000000000F5F5F5F5F5F5F5F5F5F5000000F5F500F5F5000000F50000000000F5000000000000F50000F500000000000000000000000000000000000000000000000000000000000000000000000000
310
0000000000000000000000000000000000000000000000000000000000000000000000000000000000000000000000000000000000000000000000000000
  0
XRECORD
  5
352
102
{ACAD_REACTORS
330
49
102
}
330
49
100
AcDbXrecord
280
     1
102
MATERIAL
148
0.0
149
0.0
149
0.0
 93
        0
 94
      127
282
     0
 72
     0
 77
     0
171
     0
175
     0
179
     0
273
     0
  0
XRECORD
  5
4A
102
{ACAD_REACTORS
330
49
102
}
330
49
100
AcDbXrecord
280
     1
270
     1
271
     1
  0
XRECORD
  5
4B
102
{ACAD_REACTORS
330
49
102
}
330
49
100
AcDbXrecord
280
     1
270
     1
271
     1
  0
XRECORD
  5
4C
102
{ACAD_REACTORS
330
49
102
}
330
49
100
AcDbXrecord
280
     1
270
     1
271
     1
  0
XRECORD
  5
4D
102
{ACAD_REACTORS
330
49
102
}
330
49
100
AcDbXrecord
280
     1
270
     1
271
     1
  0
XRECORD
  5
4E
102
{ACAD_REACTORS
330
49
102
}
330
49
100
AcDbXrecord
280
     1
270
     1
271
     1
  0
XRECORD
  5
4F
102
{ACAD_REACTORS
330
49
102
}
330
49
100
AcDbXrecord
280
     1
270
     1
271
     1
  0
XRECORD
  5
351
102
{ACAD_REACTORS
330
41
102
}
330
41
100
AcDbXrecord
280
     1
102
MATERIAL
148
0.0
149
0.0
149
0.0
 93
        0
 94
      127
282
     0
 72
     0
 77
     0
171
     0
175
     0
179
     0
273
     0
  0
XRECORD
  5
42
102
{ACAD_REACTORS
330
41
102
}
330
41
100
AcDbXrecord
280
     1
270
     1
271
     1
  0
XRECORD
  5
43
102
{ACAD_REACTORS
330
41
102
}
330
41
100
AcDbXrecord
280
     1
270
     1
271
     1
  0
XRECORD
  5
44
102
{ACAD_REACTORS
330
41
102
}
330
41
100
AcDbXrecord
280
     1
270
     1
271
     1
  0
XRECORD
  5
45
102
{ACAD_REACTORS
330
41
102
}
330
41
100
AcDbXrecord
280
     1
270
     1
271
     1
  0
XRECORD
  5
46
102
{ACAD_REACTORS
330
41
102
}
330
41
100
AcDbXrecord
280
     1
270
     1
271
     1
  0
XRECORD
  5
47
102
{ACAD_REACTORS
330
41
102
}
330
41
100
AcDbXrecord
280
     1
270
     1
271
     1
  0
XRECORD
  5
34C
102
{ACAD_REACTORS
330
E
102
}
330
E
100
AcDbXrecord
280
     1
102
MATERIAL
148
0.0
149
0.0
149
0.0
 93
        0
 94
      127
282
     0
 72
     0
 77
     0
171
     0
175
     0
179
     0
273
     0
  0
XRECORD
  5
F
102
{ACAD_REACTORS
330
E
102
}
330
E
100
AcDbXrecord
280
     1
270
     1
271
     1
  0
XRECORD
  5
10
102
{ACAD_REACTORS
330
E
102
}
330
E
100
AcDbXrecord
280
     1
270
     1
271
     1
  0
XRECORD
  5
11
102
{ACAD_REACTORS
330
E
102
}
330
E
100
AcDbXrecord
280
     1
270
     1
271
     1
  0
XRECORD
  5
12
102
{ACAD_REACTORS
330
E
102
}
330
E
100
AcDbXrecord
280
     1
270
     1
271
     1
  0
XRECORD
  5
13
102
{ACAD_REACTORS
330
E
102
}
330
E
100
AcDbXrecord
280
     1
270
     1
271
     1
  0
XRECORD
  5
14
102
{ACAD_REACTORS
330
E
102
}
330
E
100
AcDbXrecord
280
     1
270
     1
271
     1
  0
CELLSTYLEMAP
  5
34A
102
{ACAD_REACTORS
330
56
102
}
330
56
100
AcDbCellStyleMap
 90
        3
300
CELLSTYLE
  1
TABLEFORMAT_BEGIN
 90
        5
170
     1
 91
        0
 92
    32768
 62
   257
 93
        1
300
CONTENTFORMAT
  1
CONTENTFORMAT_BEGIN
 90
        0
 91
        0
 92
        4
 93
        0
300

 40
0.0
140
1.0
 94
        5
 62
     0
340
26
144
0.25
309
CONTENTFORMAT_END
171
     0
 94
        6
 95
        1
302
GRIDFORMAT
  1
GRIDFORMAT_BEGIN
 90
        0
 91
        1
 62
     0
 92
       -2
340
0
 93
        0
 40
0.045
309
GRIDFORMAT_END
 95
        2
302
GRIDFORMAT
  1
GRIDFORMAT_BEGIN
 90
        0
 91
        1
 62
     0
 92
       -2
340
0
 93
        0
 40
0.045
309
GRIDFORMAT_END
 95
        4
302
GRIDFORMAT
  1
GRIDFORMAT_BEGIN
 90
        0
 91
        1
 62
     0
 92
       -2
340
0
 93
        0
 40
0.045
309
GRIDFORMAT_END
 95
        8
302
GRIDFORMAT
  1
GRIDFORMAT_BEGIN
 90
        0
 91
        1
 62
     0
 92
       -2
340
0
 93
        0
 40
0.045
309
GRIDFORMAT_END
 95
       16
302
GRIDFORMAT
  1
GRIDFORMAT_BEGIN
 90
        0
 91
        1
 62
     0
 92
       -2
340
0
 93
        0
 40
0.045
309
GRIDFORMAT_END
 95
       32
302
GRIDFORMAT
  1
GRIDFORMAT_BEGIN
 90
        0
 91
        1
 62
     0
 92
       -2
340
0
 93
        0
 40
0.045
309
GRIDFORMAT_END
309
TABLEFORMAT_END
  1
CELLSTYLE_BEGIN
 90
        1
 91
        1
300
_TITLE
309
CELLSTYLE_END
300
CELLSTYLE
  1
TABLEFORMAT_BEGIN
 90
        5
170
     1
 91
        0
 92
        0
 62
   257
 93
        1
300
CONTENTFORMAT
  1
CONTENTFORMAT_BEGIN
 90
        0
 91
        0
 92
        4
 93
        0
300

 40
0.0
140
1.0
 94
        5
 62
     0
340
26
144
0.18
309
CONTENTFORMAT_END
171
     0
 94
        6
 95
        1
302
GRIDFORMAT
  1
GRIDFORMAT_BEGIN
 90
        0
 91
        1
 62
     0
 92
       -2
340
0
 93
        0
 40
0.045
309
GRIDFORMAT_END
 95
        2
302
GRIDFORMAT
  1
GRIDFORMAT_BEGIN
 90
        0
 91
        1
 62
     0
 92
       -2
340
0
 93
        0
 40
0.045
309
GRIDFORMAT_END
 95
        4
302
GRIDFORMAT
  1
GRIDFORMAT_BEGIN
 90
        0
 91
        1
 62
     0
 92
       -2
340
0
 93
        0
 40
0.045
309
GRIDFORMAT_END
 95
        8
302
GRIDFORMAT
  1
GRIDFORMAT_BEGIN
 90
        0
 91
        1
 62
     0
 92
       -2
340
0
 93
        0
 40
0.045
309
GRIDFORMAT_END
 95
       16
302
GRIDFORMAT
  1
GRIDFORMAT_BEGIN
 90
        0
 91
        1
 62
     0
 92
       -2
340
0
 93
        0
 40
0.045
309
GRIDFORMAT_END
 95
       32
302
GRIDFORMAT
  1
GRIDFORMAT_BEGIN
 90
        0
 91
        1
 62
     0
 92
       -2
340
0
 93
        0
 40
0.045
309
GRIDFORMAT_END
309
TABLEFORMAT_END
  1
CELLSTYLE_BEGIN
 90
        2
 91
        1
300
_HEADER
309
CELLSTYLE_END
300
CELLSTYLE
  1
TABLEFORMAT_BEGIN
 90
        5
170
     1
 91
        0
 92
        0
 62
   257
 93
        1
300
CONTENTFORMAT
  1
CONTENTFORMAT_BEGIN
 90
        0
 91
        0
 92
        4
 93
        0
300

 40
0.0
140
1.0
 94
        2
 62
     0
340
26
144
0.18
309
CONTENTFORMAT_END
171
     0
 94
        6
 95
        1
302
GRIDFORMAT
  1
GRIDFORMAT_BEGIN
 90
        0
 91
        1
 62
     0
 92
       -2
340
0
 93
        0
 40
0.045
309
GRIDFORMAT_END
 95
        2
302
GRIDFORMAT
  1
GRIDFORMAT_BEGIN
 90
        0
 91
        1
 62
     0
 92
       -2
340
0
 93
        0
 40
0.045
309
GRIDFORMAT_END
 95
        4
302
GRIDFORMAT
  1
GRIDFORMAT_BEGIN
 90
        0
 91
        1
 62
     0
 92
       -2
340
0
 93
        0
 40
0.045
309
GRIDFORMAT_END
 95
        8
302
GRIDFORMAT
  1
GRIDFORMAT_BEGIN
 90
        0
 91
        1
 62
     0
 92
       -2
340
0
 93
        0
 40
0.045
309
GRIDFORMAT_END
 95
       16
302
GRIDFORMAT
  1
GRIDFORMAT_BEGIN
 90
        0
 91
        1
 62
     0
 92
       -2
340
0
 93
        0
 40
0.045
309
GRIDFORMAT_END
 95
       32
302
GRIDFORMAT
  1
GRIDFORMAT_BEGIN
 90
        0
 91
        1
 62
     0
 92
       -2
340
0
 93
        0
 40
0.045
309
GRIDFORMAT_END
309
TABLEFORMAT_END
  1
CELLSTYLE_BEGIN
 90
        3
 91
        2
300
_DATA
309
CELLSTYLE_END
  0
XRECORD
  5
353
102
{ACAD_REACTORS
330
56
102
}
330
56
100
AcDbXrecord
280
     1
102
ACAD_ROUNDTRIP_PRE2007_TABLESTYLE
 90
        4
 91
        0
  1

 92
        4
 93
        0
  2

 94
        4
 95
        0
  3

  0
XRECORD
  5
350
102
{ACAD_REACTORS
330
34F
102
}
330
34F
100
AcDbXrecord
280
     1
102
RTVSPropertyOp0
 70
     1
102
RTVSPropertyOp1
 70
     1
102
RTVSPropertyOp2
 70
     1
102
RTVSPropertyOp3
 70
     1
102
RTVSPropertyOp4
 70
     1
102
RTVSPropertyOp5
 70
     1
102
RTVSPropertyOp6
 70
     1
102
RTVSPropertyOp7
 70
     1
102
RTVSPropertyOp8
 70
     1
102
RTVSPropertyOp9
 70
     1
102
RTVSPropertyOp10
 70
     1
102
RTVSPropertyOp11
 70
     1
102
RTVSPropertyOp12
 70
     1
102
RTVSPropertyOp13
 70
     1
102
RTVSPropertyOp14
 70
     1
102
RTVSPropertyOp15
 70
     1
102
RTVSPropertyOp16
 70
     1
102
RTVSPropertyOp17
 70
     1
102
RTVSPropertyOp18
 70
     1
102
RTVSPropertyOp19
 70
     1
102
RTVSPropertyOp20
 70
     1
102
RTVSPropertyOp21
 70
     1
102
RTVSPropertyOp22
 70
     1
102
RTVSPropertyOp23
 70
     1
102
RTVSPropertyOp24
 70
     1
102
RTVSPropertyOp25
 70
     1
102
RTVSPropertyOp26
 70
     1
102
RTVSPropertyOp27
 70
     1
102
RTVSPropertyOp28
 70
     1
102
RTVSPropertyOp29
 70
     1
102
RTVSPropertyOp30
 70
     1
102
RTVSPropertyOp31
 70
     1
102
RTVSPropertyOp32
 70
     1
  0
XRECORD
  5
355
102
{ACAD_REACTORS
330
354
102
}
330
354
100
AcDbXrecord
280
     1
102
RTVSPropertyOp0
 70
     1
102
RTVSPropertyOp1
 70
     1
102
RTVSPropertyOp2
 70
     1
102
RTVSPropertyOp3
 70
     1
102
RTVSPropertyOp4
 70
     1
102
RTVSPropertyOp5
 70
     1
102
RTVSPropertyOp6
 70
     1
102
RTVSPropertyOp7
 70
     1
102
RTVSPropertyOp8
 70
     1
102
RTVSPropertyOp9
 70
     1
102
RTVSPropertyOp10
 70
     1
102
RTVSPropertyOp11
 70
     1
102
RTVSPropertyOp12
 70
     1
102
RTVSPropertyOp13
 70
     1
102
RTVSPropertyOp14
 70
     1
102
RTVSPropertyOp15
 70
     1
102
RTVSPropertyOp16
 70
     1
102
RTVSPropertyOp17
 70
     1
102
RTVSPropertyOp18
 70
     1
102
RTVSPropertyOp19
 70
     1
102
RTVSPropertyOp20
 70
     1
102
RTVSPropertyOp21
 70
     1
102
RTVSPropertyOp22
 70
     1
102
RTVSPropertyOp23
 70
     1
102
RTVSPropertyOp24
 70
     1
102
RTVSPropertyOp25
 70
     1
102
RTVSPropertyOp26
 70
     1
102
RTVSPropertyOp27
 70
     1
102
RTVSPropertyOp28
 70
     1
102
RTVSPropertyOp29
 70
     1
102
RTVSPropertyOp30
 70
     1
102
RTVSPropertyOp31
 70
     1
102
RTVSPropertyOp32
 70
     1
  0
XRECORD
  5
357
102
{ACAD_REACTORS
330
356
102
}
330
356
100
AcDbXrecord
280
     1
102
RTVSPropertyOp0
 70
     1
102
RTVSPropertyOp1
 70
     1
102
RTVSPropertyOp2
 70
     1
102
RTVSPropertyOp3
 70
     1
102
RTVSPropertyOp4
 70
     1
102
RTVSPropertyOp5
 70
     1
102
RTVSPropertyOp6
 70
     1
102
RTVSPropertyOp7
 70
     1
102
RTVSPropertyOp8
 70
     1
102
RTVSPropertyOp9
 70
     1
102
RTVSPropertyOp10
 70
     1
102
RTVSPropertyOp11
 70
     1
102
RTVSPropertyOp12
 70
     1
102
RTVSPropertyOp13
 70
     1
102
RTVSPropertyOp14
 70
     1
102
RTVSPropertyOp15
 70
     1
102
RTVSPropertyOp16
 70
     1
102
RTVSPropertyOp17
 70
     1
102
RTVSPropertyOp18
 70
     1
102
RTVSPropertyOp19
 70
     1
102
RTVSPropertyOp20
 70
     1
102
RTVSPropertyOp21
 70
     1
102
RTVSPropertyOp22
 70
     1
102
RTVSPropertyOp23
 70
     1
102
RTVSPropertyOp24
 70
     1
102
RTVSPropertyOp25
 70
     1
102
RTVSPropertyOp26
 70
     1
102
RTVSPropertyOp27
 70
     1
102
RTVSPropertyOp28
 70
     1
102
RTVSPropertyOp29
 70
     1
102
RTVSPropertyOp30
 70
     1
102
RTVSPropertyOp31
 70
     1
102
RTVSPropertyOp32
 70
     1
  0
ENDSEC
  0
EOF
