  0
SECTION
  2
HEADER
  9
$ACADVER
  1
AC1015
  9
$ACADMAINTVER
 70
    18
  9
$DWGCODEPAGE
  3
ANSI_1252
  9
$INSBASE
 10
4087.651198232637
 20
4285.258941716324
 30
0.0
  9
$EXTMIN
 10
4080.026487814332
 20
4273.734991528553
 30
0.0
  9
$EXTMAX
 10
4099.807579425094
 20
4294.503882854384
 30
0.0
  9
$LIMMIN
 10
0.0
 20
0.0
  9
$LIMMAX
 10
10000.0
 20
10000.0
  9
$ORTHOMODE
 70
     1
  9
$REGENMODE
 70
     1
  9
$FILLMODE
 70
     1
  9
$QTEXTMODE
 70
     0
  9
$MIRRTEXT
 70
     0
  9
$LTSCALE
 40
0.5
  9
$ATTMODE
 70
     1
  9
$TEXTSIZE
 40
3.0
  9
$TRACEWID
 40
0.05
  9
$TEXTSTYLE
  7
Standard
  9
$CLAYER
  8
0
  9
$CELTYPE
  6
ByLayer
  9
$CECOLOR
 62
   256
  9
$CELTSCALE
 40
1.0
  9
$DISPSILH
 70
     0
  9
$DIMSCALE
 40
0.0
  9
$DIMASZ
 40
0.156
  9
$DIMEXO
 40
0.04
  9
$DIMDLI
 40
0.38
  9
$DIMRND
 40
0.0
  9
$DIMDLE
 40
0.0
  9
$DIMEXE
 40
0.03
  9
$DIMTP
 40
0.0
  9
$DIMTM
 40
0.0
  9
$DIMTXT
 40
0.3125
  9
$DIMCEN
 40
0.0
  9
$DIMTSZ
 40
0.0
  9
$DIMTOL
 70
     0
  9
$DIMLIM
 70
     0
  9
$DIMTIH
 70
     1
  9
$DIMTOH
 70
     1
  9
$DIMSE1
 70
     0
  9
$DIMSE2
 70
     0
  9
$DIMTAD
 70
     0
  9
$DIMZIN
 70
     0
  9
$DIMBLK
  1
ArchTick
  9
$DIMASO
 70
     1
  9
$DIMSHO
 70
     1
  9
$DIMPOST
  1
\X
  9
$DIMAPOST
  1
mm
  9
$DIMALT
 70
     1
  9
$DIMALTD
 70
     0
  9
$DIMALTF
 40
25.4
  9
$DIMLFAC
 40
1.0
  9
$DIMTOFL
 70
     0
  9
$DIMTVP
 40
0.0
  9
$DIMTIX
 70
     0
  9
$DIMSOXD
 70
     0
  9
$DIMSAH
 70
     0
  9
$DIMBLK1
  1

  9
$DIMBLK2
  1

  9
$DIMSTYLE
  2
Knife
  9
$DIMCLRD
 70
     0
  9
$DIMCLRE
 70
     0
  9
$DIMCLRT
 70
     0
  9
$DIMTFAC
 40
1.0
  9
$DIMGAP
 40
0.04
  9
$DIMJUST
 70
     0
  9
$DIMSD1
 70
     0
  9
$DIMSD2
 70
     0
  9
$DIMTOLJ
 70
     1
  9
$DIMTZIN
 70
     0
  9
$DIMALTZ
 70
     0
  9
$DIMALTTZ
 70
     0
  9
$DIMUPT
 70
     0
  9
$DIMDEC
 70
     5
  9
$DIMTDEC
 70
     5
  9
$DIMALTU
 70
     2
  9
$DIMALTTD
 70
     0
  9
$DIMTXSTY
  7
Standard
  9
$DIMAUNIT
 70
     0
  9
$DIMADEC
 70
     1
  9
$DIMALTRND
 40
0.0
  9
$DIMAZIN
 70
     0
  9
$DIMDSEP
 70
    46
  9
$DIMATFIT
 70
     3
  9
$DIMFRAC
 70
     2
  9
$DIMLDRBLK
  1

  9
$DIMLUNIT
 70
     4
  9
$DIMLWD
 70
    -2
  9
$DIMLWE
 70
    -2
  9
$DIMTMOVE
 70
     0
  9
$LUNITS
 70
     2
  9
$LUPREC
 70
     4
  9
$SKETCHINC
 40
0.1
  9
$FILLETRAD
 40
0.0
  9
$AUNITS
 70
     0
  9
$AUPREC
 70
     0
  9
$MENU
  1
.
  9
$ELEVATION
 40
0.0
  9
$PELEVATION
 40
0.0
  9
$THICKNESS
 40
0.0
  9
$LIMCHECK
 70
     0
  9
$CHAMFERA
 40
0.0
  9
$CHAMFERB
 40
0.0
  9
$CHAMFERC
 40
0.0
  9
$CHAMFERD
 40
0.0
  9
$SKPOLY
 70
     0
  9
$TDCREATE
 40
2454538.540644179
  9
$TDUCREATE
 40
2454538.665644178
  9
$TDUPDATE
 40
2456100.330957025
  9
$TDUUPDATE
 40
2456100.455957025
  9
$TDINDWG
 40
0.0990566435
  9
$TDUSRTIMER
 40
0.0990566435
  9
$USRTIMER
 70
     1
  9
$ANGBASE
 50
0.0
  9
$ANGDIR
 70
     0
  9
$PDMODE
 70
     3
  9
$PDSIZE
 40
0.0
  9
$PLINEWID
 40
0.0
  9
$SPLFRAME
 70
     0
  9
$SPLINETYPE
 70
     6
  9
$SPLINESEGS
 70
    12
  9
$HANDSEED
  5
352
  9
$SURFTAB1
 70
     6
  9
$SURFTAB2
 70
     6
  9
$SURFTYPE
 70
     6
  9
$SURFU
 70
     6
  9
$SURFV
 70
     6
  9
$UCSBASE
  2

  9
$UCSNAME
  2

  9
$UCSORG
 10
0.0
 20
0.0
 30
0.0
  9
$UCSXDIR
 10
1.0
 20
0.0
 30
0.0
  9
$UCSYDIR
 10
0.0
 20
1.0
 30
0.0
  9
$UCSORTHOREF
  2

  9
$UCSORTHOVIEW
 70
     0
  9
$UCSORGTOP
 10
0.0
 20
0.0
 30
0.0
  9
$UCSORGBOTTOM
 10
0.0
 20
0.0
 30
0.0
  9
$UCSORGLEFT
 10
0.0
 20
0.0
 30
0.0
  9
$UCSORGRIGHT
 10
0.0
 20
0.0
 30
0.0
  9
$UCSORGFRONT
 10
0.0
 20
0.0
 30
0.0
  9
$UCSORGBACK
 10
0.0
 20
0.0
 30
0.0
  9
$PUCSBASE
  2

  9
$PUCSNAME
  2

  9
$PUCSORG
 10
0.0
 20
0.0
 30
0.0
  9
$PUCSXDIR
 10
1.0
 20
0.0
 30
0.0
  9
$PUCSYDIR
 10
0.0
 20
1.0
 30
0.0
  9
$PUCSORTHOREF
  2

  9
$PUCSORTHOVIEW
 70
     0
  9
$PUCSORGTOP
 10
0.0
 20
0.0
 30
0.0
  9
$PUCSORGBOTTOM
 10
0.0
 20
0.0
 30
0.0
  9
$PUCSORGLEFT
 10
0.0
 20
0.0
 30
0.0
  9
$PUCSORGRIGHT
 10
0.0
 20
0.0
 30
0.0
  9
$PUCSORGFRONT
 10
0.0
 20
0.0
 30
0.0
  9
$PUCSORGBACK
 10
0.0
 20
0.0
 30
0.0
  9
$USERI1
 70
     0
  9
$USERI2
 70
     0
  9
$USERI3
 70
     0
  9
$USERI4
 70
     0
  9
$USERI5
 70
     0
  9
$USERR1
 40
0.0
  9
$USERR2
 40
0.0
  9
$USERR3
 40
0.0
  9
$USERR4
 40
0.0
  9
$USERR5
 40
0.0
  9
$WORLDVIEW
 70
     1
  9
$SHADEDGE
 70
     3
  9
$SHADEDIF
 70
    70
  9
$TILEMODE
 70
     1
  9
$MAXACTVP
 70
    64
  9
$PINSBASE
 10
0.0
 20
0.0
 30
0.0
  9
$PLIMCHECK
 70
     0
  9
$PEXTMIN
 10
0.0000000075458644
 20
0.0000000082145277
 30
0.0
  9
$PEXTMAX
 10
8.454000007545857
 20
10.67400000821453
 30
0.0
  9
$PLIMMIN
 10
-0.0396281825147785
 20
-0.1631190569075597
  9
$PLIMMAX
 10
8.460371577189331
 20
10.83688070279655
  9
$UNITMODE
 70
     0
  9
$VISRETAIN
 70
     1
  9
$PLINEGEN
 70
     0
  9
$PSLTSCALE
 70
     1
  9
$TREEDEPTH
 70
  3020
  9
$CMLSTYLE
  2
Standard
  9
$CMLJUST
 70
     0
  9
$CMLSCALE
 40
1.0
  9
$PROXYGRAPHICS
 70
     1
  9
$MEASUREMENT
 70
     0
  9
$CELWEIGHT
370
    -1
  9
$ENDCAPS
280
     0
  9
$JOINSTYLE
280
     0
  9
$LWDISPLAY
290
     0
  9
$INSUNITS
 70
     1
  9
$HYPERLINKBASE
  1

  9
$STYLESHEET
  1

  9
$XEDIT
290
     1
  9
$CEPSNTYPE
380
     0
  9
$PSTYLEMODE
290
     1
  9
$FINGERPRINTGUID
  2
{BB896A04-D918-44E4-BDE7-8D3F8F46779E}
  9
$VERSIONGUID
  2
{BA853EDF-B227-4385-B06C-202152148DF5}
  9
$EXTNAMES
290
     1
  9
$PSVPSCALE
 40
0.0
  9
$OLESTARTUP
290
     0
  0
ENDSEC
  0
SECTION
  2
CLASSES
  0
CLASS
  1
ACDBDICTIONARYWDFLT
  2
AcDbDictionaryWithDefault
  3
ObjectDBX Classes
 90
        0
280
     0
281
     0
  0
CLASS
  1
ACDBPLACEHOLDER
  2
AcDbPlaceHolder
  3
ObjectDBX Classes
 90
        0
280
     0
281
     0
  0
CLASS
  1
LAYOUT
  2
AcDbLayout
  3
ObjectDBX Classes
 90
        0
280
     0
281
     0
  0
CLASS
  1
DICTIONARYVAR
  2
AcDbDictionaryVar
  3
ObjectDBX Classes
 90
        0
280
     0
281
     0
  0
CLASS
  1
TABLESTYLE
  2
AcDbTableStyle
  3
ObjectDBX Classes
 90
     4095
280
     0
281
     0
  0
CLASS
  1
SORTENTSTABLE
  2
AcDbSortentsTable
  3
ObjectDBX Classes
 90
        0
280
     0
281
     0
  0
CLASS
  1
DIMASSOC
  2
AcDbDimAssoc
  3
"AcDbDimAssoc|Product Desc:     AcDim ARX App For Dimension|Company:          Autodesk, Inc.|WEB Address:      www.autodesk.com"
 90
        0
280
     0
281
     0
  0
CLASS
  1
MATERIAL
  2
AcDbMaterial
  3
ObjectDBX Classes
 90
     1153
280
     0
281
     0
  0
CLASS
  1
VISUALSTYLE
  2
AcDbVisualStyle
  3
ObjectDBX Classes
 90
     4095
280
     0
281
     0
  0
CLASS
  1
SCALE
  2
AcDbScale
  3
ObjectDBX Classes
 90
     1153
280
     0
281
     0
  0
CLASS
  1
MLEADERSTYLE
  2
AcDbMLeaderStyle
  3
ACDB_MLEADERSTYLE_CLASS
 90
    36863
280
     0
281
     0
  0
CLASS
  1
CELLSTYLEMAP
  2
AcDbCellStyleMap
  3
ObjectDBX Classes
 90
     1152
280
     0
281
     0
  0
ENDSEC
  0
SECTION
  2
TABLES
  0
TABLE
  2
VPORT
  5
2E
102
{ACAD_XDICTIONARY
360
33
102
}
330
0
100
AcDbSymbolTable
 70
     1
  0
VPORT
  5
2F
330
2E
100
AcDbSymbolTableRecord
100
AcDbViewportTableRecord
  2
*Active
 70
     0
 10
0.0
 20
0.0
 11
1.0
 21
1.0
 12
4092.887437249987
 22
4284.327965925843
 13
0.0
 23
0.0
 14
0.5
 24
0.5
 15
0.5
 25
0.5
 16
0.0
 26
0.0
 36
1.0
 17
0.0
 27
0.0
 37
0.0
 40
25.43425878256676
 41
2.183284457478005
 42
50.0
 43
0.0
 44
0.0
 50
0.0
 51
0.0
 71
     0
 72
  5000
 73
     1
 74
     3
 75
     0
 76
     0
 77
     0
 78
     0
281
     0
 65
     1
110
0.0
120
0.0
130
0.0
111
1.0
121
0.0
131
0.0
112
0.0
122
1.0
132
0.0
 79
     0
146
0.0
1001
ACAD_NAV_VCDISPLAY
1070
     3
  0
ENDTAB
  0
TABLE
  2
LTYPE
  5
29
330
0
100
AcDbSymbolTable
 70
     3
  0
LTYPE
  5
2A
330
29
100
AcDbSymbolTableRecord
100
AcDbLinetypeTableRecord
  2
ByBlock
 70
     0
  3

 72
    65
 73
     0
 40
0.0
  0
LTYPE
  5
2B
330
29
100
AcDbSymbolTableRecord
100
AcDbLinetypeTableRecord
  2
ByLayer
 70
     0
  3

 72
    65
 73
     0
 40
0.0
  0
LTYPE
  5
15
330
29
100
AcDbSymbolTableRecord
100
AcDbLinetypeTableRecord
  2
Continuous
 70
     0
  3
Solid line
 72
    65
 73
     0
 40
0.0
  0
LTYPE
  5
EE
330
29
100
AcDbSymbolTableRecord
100
AcDbLinetypeTableRecord
  2
HIDDEN
 70
     0
  3
Hidden __ __ __ __ __ __ __ __ __ __ __ __ __ _
 72
    65
 73
     2
 40
0.375
 49
0.25
 74
     0
 49
-0.125
 74
     0
  0
LTYPE
  5
B0
330
29
100
AcDbSymbolTableRecord
100
AcDbLinetypeTableRecord
  2
HIDDEN2
 70
     0
  3
Hidden (.5x) _ _ _ _ _ _ _ _ _ _ _ _ _ _ _ _ _
 72
    65
 73
     2
 40
0.1875
 49
0.125
 74
     0
 49
-0.0625
 74
     0
  0
ENDTAB
  0
TABLE
  2
LAYER
  5
22
102
{ACAD_XDICTIONARY
360
23
102
}
330
0
100
AcDbSymbolTable
 70
     3
  0
LAYER
  5
6
102
{ACAD_XDICTIONARY
360
7
102
}
330
22
100
AcDbSymbolTableRecord
100
AcDbLayerTableRecord
  2
0
 70
     0
 62
     7
  6
Continuous
370
    18
390
9
  0
LAYER
  5
E7
330
22
100
AcDbSymbolTableRecord
100
AcDbLayerTableRecord
  2
Defpoints
 70
     0
 62
     7
  6
Continuous
290
     0
370
    18
390
9
  0
LAYER
  5
6E
102
{ACAD_XDICTIONARY
360
6F
102
}
330
22
100
AcDbSymbolTableRecord
100
AcDbLayerTableRecord
  2
0010010007
 70
     0
 62
     7
  6
Continuous
370
    18
390
9
  0
ENDTAB
  0
TABLE
  2
STYLE
  5
25
330
0
100
AcDbSymbolTable
 70
     2
  0
STYLE
  5
26
330
25
100
AcDbSymbolTableRecord
100
AcDbTextStyleTableRecord
  2
Standard
 70
     0
 40
0.0
 41
0.55
 50
5.0
 71
     0
 42
3.0
  3
lc______.ttf
  4

1001
ACAD
1000
Letter Gothic
1071
       50
  0
STYLE
  5
EC
330
25
100
AcDbSymbolTableRecord
100
AcDbTextStyleTableRecord
  2
DIMTXT
 70
     0
 40
0.0
 41
0.6
 50
5.0
 71
     0
 42
0.2
  3
lc______.ttf
  4

1001
ACAD
1000
Letter Gothic
1071
       50
  0
ENDTAB
  0
TABLE
  2
VIEW
  5
2C
330
0
100
AcDbSymbolTable
 70
     0
  0
ENDTAB
  0
TABLE
  2
UCS
  5
2D
330
0
100
AcDbSymbolTable
 70
     0
  0
ENDTAB
  0
TABLE
  2
APPID
  5
34
330
0
100
AcDbSymbolTable
 70
     5
  0
APPID
  5
27
330
34
100
AcDbSymbolTableRecord
100
AcDbRegAppTableRecord
  2
ACAD
 70
     0
  0
APPID
  5
1B
330
34
100
AcDbSymbolTableRecord
100
AcDbRegAppTableRecord
  2
ACAD_PSEXT
 70
     0
  0
APPID
  5
32
330
34
100
AcDbSymbolTableRecord
100
AcDbRegAppTableRecord
  2
ACAD_NAV_VCDISPLAY
 70
     0
  0
APPID
  5
C2
330
34
100
AcDbSymbolTableRecord
100
AcDbRegAppTableRecord
  2
GradientColor1ACI
 70
     0
  0
APPID
  5
C3
330
34
100
AcDbSymbolTableRecord
100
AcDbRegAppTableRecord
  2
GradientColor2ACI
 70
     0
  0
ENDTAB
  0
TABLE
  2
DIMSTYLE
  5
35
330
0
100
AcDbSymbolTable
 70
     2
100
AcDbDimStyleTable
 71
     2
340
36
340
3B
  0
DIMSTYLE
105
3B
330
35
100
AcDbSymbolTableRecord
100
AcDbDimStyleTableRecord
  2
Standard
 70
     0
  3
"
 40
0.0
 41
0.095
 42
0.04
 44
0.04
140
0.125
141
0.0
147
0.04
179
     1
271
     6
272
     6
276
     2
277
     5
340
26
  0
DIMSTYLE
105
36
102
{ACAD_REACTORS
330
DB
330
141
330
152
330
163
330
174
330
208
330
217
330
228
330
1DA
330
239
330
24E
330
2B3
330
2DF
330
2F0
330
302
330
316
330
327
102
}
330
35
100
AcDbSymbolTableRecord
100
AcDbDimStyleTableRecord
  2
Knife
 70
     0
  3
\X
  4
mm
 40
0.0
 41
0.156
 42
0.04
 44
0.03
140
0.3125
141
0.0
147
0.04
170
     1
171
     0
179
     1
271
     5
272
     5
274
     0
276
     2
277
     4
340
26
342
37
  0
ENDTAB
  0
TABLE
  2
BLOCK_RECORD
  5
1
330
0
100
AcDbSymbolTable
 70
    21
  0
BLOCK_RECORD
  5
2
102
{ACAD_XDICTIONARY
360
3
102
}
330
1
100
AcDbSymbolTableRecord
100
AcDbBlockTableRecord
  2
*Model_Space
340
17
  0
BLOCK_RECORD
  5
1C
330
1
100
AcDbSymbolTableRecord
100
AcDbBlockTableRecord
  2
*Paper_Space
340
1F
  0
BLOCK_RECORD
  5
37
330
1
100
AcDbSymbolTableRecord
100
AcDbBlockTableRecord
  2
_ArchTick
340
0
102
{BLKREFS
331
258
331
259
331
2BA
331
2BB
331
2E8
331
2E9
331
2F9
331
2FA
331
30B
331
30C
331
31F
331
320
331
330
331
331
331
E2
331
E3
331
14A
331
14B
331
15B
331
15C
331
16C
331
16D
331
17D
331
17E
331
1E1
331
1E2
331
20F
331
210
331
220
331
221
331
231
331
232
331
242
331
243
102
}
  0
BLOCK_RECORD
  5
F0
330
1
100
AcDbSymbolTableRecord
100
AcDbBlockTableRecord
  2
93OBW
340
0
102
{BLKREFS
331
2C4
331
EF
331
1EB
102
}
  0
BLOCK_RECORD
  5
95
330
1
100
AcDbSymbolTableRecord
100
AcDbBlockTableRecord
  2
86NPF141
340
0
102
{BLKREFS
331
286
331
2C5
331
94
331
118
331
1AD
331
1EC
102
}
  0
BLOCK_RECORD
  5
DC
330
1
100
AcDbSymbolTableRecord
100
AcDbBlockTableRecord
  2
*D3
340
0
  0
BLOCK_RECORD
  5
11C
330
1
100
AcDbSymbolTableRecord
100
AcDbBlockTableRecord
  2
*U4
340
0
102
{BLKREFS
331
2C8
331
11B
331
1EF
102
}
  0
BLOCK_RECORD
  5
144
330
1
100
AcDbSymbolTableRecord
100
AcDbBlockTableRecord
  2
*D5
340
0
  0
BLOCK_RECORD
  5
155
330
1
100
AcDbSymbolTableRecord
100
AcDbBlockTableRecord
  2
*D6
340
0
  0
BLOCK_RECORD
  5
166
330
1
100
AcDbSymbolTableRecord
100
AcDbBlockTableRecord
  2
*D7
340
0
  0
BLOCK_RECORD
  5
177
330
1
100
AcDbSymbolTableRecord
100
AcDbBlockTableRecord
  2
*D8
340
0
  0
BLOCK_RECORD
  5
1DB
330
1
100
AcDbSymbolTableRecord
100
AcDbBlockTableRecord
  2
*D9
340
0
  0
BLOCK_RECORD
  5
209
330
1
100
AcDbSymbolTableRecord
100
AcDbBlockTableRecord
  2
*D10
340
0
  0
BLOCK_RECORD
  5
21A
330
1
100
AcDbSymbolTableRecord
100
AcDbBlockTableRecord
  2
*D11
340
0
  0
BLOCK_RECORD
  5
22B
330
1
100
AcDbSymbolTableRecord
100
AcDbBlockTableRecord
  2
*D12
340
0
  0
BLOCK_RECORD
  5
23C
330
1
100
AcDbSymbolTableRecord
100
AcDbBlockTableRecord
  2
*D13
340
0
  0
BLOCK_RECORD
  5
251
330
1
100
AcDbSymbolTableRecord
100
AcDbBlockTableRecord
  2
*D14
340
0
  0
BLOCK_RECORD
  5
2B4
330
1
100
AcDbSymbolTableRecord
100
AcDbBlockTableRecord
  2
*D15
340
0
  0
BLOCK_RECORD
  5
2E2
330
1
100
AcDbSymbolTableRecord
100
AcDbBlockTableRecord
  2
*D16
340
0
  0
BLOCK_RECORD
  5
2F3
330
1
100
AcDbSymbolTableRecord
100
AcDbBlockTableRecord
  2
*D17
340
0
  0
BLOCK_RECORD
  5
305
330
1
100
AcDbSymbolTableRecord
100
AcDbBlockTableRecord
  2
*D18
340
0
  0
BLOCK_RECORD
  5
319
330
1
100
AcDbSymbolTableRecord
100
AcDbBlockTableRecord
  2
*D19
340
0
  0
BLOCK_RECORD
  5
32A
330
1
100
AcDbSymbolTableRecord
100
AcDbBlockTableRecord
  2
*D20
340
0
  0
ENDTAB
  0
ENDSEC
  0
SECTION
  2
BLOCKS
  0
BLOCK
  5
5
330
2
100
AcDbEntity
  8
0
100
AcDbBlockBegin
  2
*Model_Space
 70
     0
 10
0.0
 20
0.0
 30
0.0
  3
*Model_Space
  1

  0
ENDBLK
  5
16
330
2
100
AcDbEntity
  8
0
100
AcDbBlockEnd
  0
BLOCK
  5
1D
330
1C
100
AcDbEntity
 67
     1
  8
0
100
AcDbBlockBegin
  2
*Paper_Space
 70
     0
 10
0.0
 20
0.0
 30
0.0
  3
*Paper_Space
  1

  0
ENDBLK
  5
1E
330
1C
100
AcDbEntity
 67
     1
  8
0
100
AcDbBlockEnd
  0
BLOCK
  5
38
330
37
100
AcDbEntity
  8
0
100
AcDbBlockBegin
  2
_ArchTick
 70
     0
 10
0.0
 20
0.0
 30
0.0
  3
_ArchTick
  1

  0
LWPOLYLINE
  5
39
330
37
100
AcDbEntity
  8
0
  6
ByBlock
 62
     0
100
AcDbPolyline
 90
        2
 70
     0
 43
0.15
 10
-0.5
 20
-0.5
 10
0.5
 20
0.5
  0
ENDBLK
  5
3A
330
37
100
AcDbEntity
  8
0
100
AcDbBlockEnd
  0
BLOCK
  5
F1
330
F0
100
AcDbEntity
  8
0
100
AcDbBlockBegin
  2
93OBW
 70
     0
 10
0.0
 20
0.0
 30
0.0
  3
93OBW
  1

  0
ARC
  5
F2
330
F0
100
AcDbEntity
  8
0010010007
100
AcDbCircle
 10
0.398000000000001
 20
0.318999999999997
 30
0.0
 40
0.015
100
AcDbArc
 50
0.0
 51
90.0
  0
LINE
  5
F3
330
F0
100
AcDbEntity
  8
0010010007
100
AcDbLine
 10
0.4130000000000022
 20
0.318999999999996
 30
0.0
 11
0.4130000000000022
 21
0.316
 31
0.0
  0
ARC
  5
F4
330
F0
100
AcDbEntity
  8
0010010007
100
AcDbCircle
 10
0.40200000000001
 20
0.323000000000002
 30
0.0
 40
0.031
100
AcDbArc
 50
359.9999999999988
 51
90.0
  0
LINE
  5
F5
330
F0
100
AcDbEntity
  8
0010010007
100
AcDbLine
 10
0.0300000000000011
 20
0.250000000000004
 30
0.0
 11
0.138017246507628
 21
0.250000000000004
 31
0.0
  0
LINE
  5
F6
330
F0
100
AcDbEntity
  8
0010010007
100
AcDbLine
 10
0.0800000000000072
 20
0.0573205080756924
 30
0.0
 11
0.050000000000006
 21
0.0400000000000027
 31
0.0
  0
LINE
  5
F7
330
F0
100
AcDbEntity
  8
0010010007
100
AcDbLine
 10
0.080000000000009
 20
0.127320508075694
 30
0.0
 11
0.0500000000000078
 21
0.110000000000004
 31
0.0
  0
LINE
  5
F8
330
F0
100
AcDbEntity
  8
0010010007
100
AcDbLine
 10
0.0
 20
0.126695508075692
 30
0.0
 11
0.0300000000000011
 21
0.109375000000002
 31
0.0
  0
LINE
  5
F9
330
F0
100
AcDbEntity
  8
0010010007
100
AcDbLine
 10
0.0
 20
0.0573205080756907
 30
0.0
 11
0.0300000000000011
 21
0.0400000000000009
 31
0.0
  0
LINE
  5
FA
330
F0
100
AcDbEntity
  8
0010010007
100
AcDbLine
 10
0.0
 20
0.0742242240651549
 30
0.0
 11
0.0300000000000029
 21
0.0569037159894652
 31
0.0
  0
LINE
  5
FB
330
F0
100
AcDbEntity
  8
0010010007
100
AcDbLine
 10
0.0
 20
0.143261682032593
 30
0.0
 11
0.0300000000000011
 21
0.125941173956903
 31
0.0
  0
LINE
  5
FC
330
F0
100
AcDbEntity
  8
0010010007
100
AcDbLine
 10
0.0800000000000072
 20
0.0747715805396574
 30
0.0
 11
0.050000000000006
 21
0.0574510724639676
 31
0.0
  0
LINE
  5
FD
330
F0
100
AcDbEntity
  8
0010010007
100
AcDbLine
 10
0.0800000000000072
 20
0.143990944821956
 30
0.0
 11
0.050000000000006
 21
0.126670436746268
 31
0.0
  0
LINE
  5
FE
330
F0
100
AcDbEntity
  8
0010010007
100
AcDbLine
 10
0.0
 20
0.143261682032593
 30
0.0
 11
0.0
 21
0.12669550807569
 31
0.0
  0
LINE
  5
FF
330
F0
100
AcDbEntity
  8
0010010007
100
AcDbLine
 10
0.0
 20
0.0573205080756907
 30
0.0
 11
0.0
 21
0.0742242240651532
 31
0.0
  0
LINE
  5
100
330
F0
100
AcDbEntity
  8
0010010007
100
AcDbLine
 10
0.0800000000000072
 20
0.0573205080756924
 30
0.0
 11
0.0800000000000072
 21
0.0747715805396556
 31
0.0
  0
LINE
  5
101
330
F0
100
AcDbEntity
  8
0010010007
100
AcDbLine
 10
0.0800000000000072
 20
0.143990944821956
 30
0.0
 11
0.0800000000000072
 21
0.127320508075691
 31
0.0
  0
LINE
  5
102
330
F0
100
AcDbEntity
  8
0010010007
100
AcDbLine
 10
0.0300000000000011
 20
0.250000000000004
 30
0.0
 11
0.0300000000000011
 21
0.125941173956907
 31
0.0
  0
LINE
  5
103
330
F0
100
AcDbEntity
  8
0010010007
100
AcDbLine
 10
0.0500000000000043
 20
0.126670436746266
 30
0.0
 11
0.0500000000000043
 21
0.23
 31
0.0
  0
LINE
  5
104
330
F0
100
AcDbEntity
  8
0010010007
100
AcDbLine
 10
0.0300000000000011
 20
0.109375
 30
0.0
 11
0.0300000000000011
 21
0.0569037159894617
 31
0.0
  0
LINE
  5
105
330
F0
100
AcDbEntity
  8
0010010007
100
AcDbLine
 10
0.0500000000000043
 20
0.110000000000001
 30
0.0
 11
0.0500000000000043
 21
0.0574510724639659
 31
0.0
  0
LINE
  5
106
330
F0
100
AcDbEntity
  8
0010010007
100
AcDbLine
 10
0.0500000000000078
 20
0.0400000000000027
 30
0.0
 11
0.0500000000000078
 21
0.0
 31
0.0
  0
LINE
  5
107
330
F0
100
AcDbEntity
  8
0010010007
100
AcDbLine
 10
0.0500000000000078
 20
0.0
 30
0.0
 11
0.0300000000000047
 21
0.0
 31
0.0
  0
LINE
  5
108
330
F0
100
AcDbEntity
  8
0010010007
100
AcDbLine
 10
0.0300000000000011
 20
0.0399999999999992
 30
0.0
 11
0.0300000000000011
 21
0.0
 31
0.0
  0
ARC
  5
109
330
F0
100
AcDbEntity
  8
0010010007
100
AcDbCircle
 10
0.171000000000011
 20
0.264999999999998
 30
0.0
 40
0.015
100
AcDbArc
 50
180.0
 51
270.0
  0
LINE
  5
10A
330
F0
100
AcDbEntity
  8
0010010007
100
AcDbLine
 10
0.4130000000000022
 20
0.319000004130271
 30
0.0
 11
0.4130000000000022
 21
0.264999999999999
 31
0.0
  0
ARC
  5
10B
330
F0
100
AcDbEntity
  8
0010010007
100
AcDbCircle
 10
0.398000000000003
 20
0.2650000000000019
 30
0.0
 40
0.015
100
AcDbArc
 50
270.0
 51
0.0
  0
LINE
  5
10C
330
F0
100
AcDbEntity
  8
0010010007
100
AcDbLine
 10
0.397999999999999
 20
0.25
 30
0.0
 11
0.17100000000001
 21
0.25
 31
0.0
  0
LINE
  5
10D
330
F0
100
AcDbEntity
  8
0010010007
100
AcDbLine
 10
0.4330000000000072
 20
0.323000000000003
 30
0.0
 11
0.4330000000000072
 21
0.261000000000005
 31
0.0
  0
ARC
  5
10E
330
F0
100
AcDbEntity
  8
0010010007
100
AcDbCircle
 10
0.402000000000006
 20
0.261000000000001
 30
0.0
 40
0.031
100
AcDbArc
 50
270.0
 51
359.9999999999988
  0
ARC
  5
10F
330
F0
100
AcDbEntity
  8
0010010007
100
AcDbCircle
 10
0.167000000000008
 20
0.260999999999999
 30
0.0
 40
0.031
100
AcDbArc
 50
180.0
 51
200.783559595846
  0
LINE
  5
110
330
F0
100
AcDbEntity
  8
0010010007
100
AcDbLine
 10
0.402000000000008
 20
0.230000000000003
 30
0.0
 11
0.050000000000006
 21
0.230000000000005
 31
0.0
  0
LINE
  5
111
330
F0
100
AcDbEntity
  8
0010010007
100
AcDbLine
 10
0.40200000000001
 20
0.354000000000002
 30
0.0
 11
0.167000000000009
 21
0.354000000000002
 31
0.0
  0
ARC
  5
112
330
F0
100
AcDbEntity
  8
0010010007
100
AcDbCircle
 10
0.167000000000008
 20
0.323000000000002
 30
0.0
 40
0.031
100
AcDbArc
 50
90.0
 51
180.0
  0
LINE
  5
113
330
F0
100
AcDbEntity
  8
0010010007
100
AcDbLine
 10
0.136000000000009
 20
0.323000000000002
 30
0.0
 11
0.136000000000009
 21
0.261
 31
0.0
  0
LINE
  5
114
330
F0
100
AcDbEntity
  8
0010010007
100
AcDbLine
 10
0.398000000000001
 20
0.333999999999997
 30
0.0
 11
0.171000000000011
 21
0.333999999999997
 31
0.0
  0
ARC
  5
115
330
F0
100
AcDbEntity
  8
0010010007
100
AcDbCircle
 10
0.171000000000011
 20
0.318999999999997
 30
0.0
 40
0.015
100
AcDbArc
 50
90.0
 51
180.0
  0
LINE
  5
116
330
F0
100
AcDbEntity
  8
0010010007
100
AcDbLine
 10
0.156000000000013
 20
0.318999999999997
 30
0.0
 11
0.156000000000013
 21
0.265000000000003
 31
0.0
  0
ENDBLK
  5
117
330
F0
100
AcDbEntity
  8
0
100
AcDbBlockEnd
  0
BLOCK
  5
96
330
95
100
AcDbEntity
  8
0
100
AcDbBlockBegin
  2
86NPF141
 70
     0
 10
0.0
 20
0.0
 30
0.0
  3
86NPF141
  1

  0
LINE
  5
97
330
95
100
AcDbEntity
  8
0010010007
100
AcDbLine
 10
0.292234549170809
 20
0.292592286238269
 30
0.0
 11
0.0905816224003475
 21
0.292592286238268
 31
0.0
  0
LINE
  5
98
330
95
100
AcDbEntity
  8
0010010007
100
AcDbLine
 10
0.292234549170809
 20
0.292592286238269
 30
0.0
 11
0.292234549170809
 21
0.0429999999999993
 31
0.0
  0
LINE
  5
99
330
95
100
AcDbEntity
  8
0010010007
100
AcDbLine
 10
0.38175
 20
0.0916250000000005
 30
0.0
 11
0.38175
 21
0.0429999999999993
 31
0.0
  0
LINE
  5
9A
330
95
100
AcDbEntity
  8
0010010007
100
AcDbLine
 10
0.0629975848402324
 20
0.292592286238268
 30
0.0
 11
0.11998804152432
 21
0.232592286238267
 31
0.0
  0
LINE
  5
9B
330
95
100
AcDbEntity
  8
0010010007
100
AcDbLine
 10
0.0
 20
0.3125922862382669
 30
0.0
 11
0.292234549170809
 21
0.312592286238268
 31
0.0
  0
LINE
  5
9C
330
95
100
AcDbEntity
  8
0010010007
100
AcDbLine
 10
0.312234549170809
 20
0.374592286238269
 30
0.0
 11
0.312234549170809
 21
0.0429999999999993
 31
0.0
  0
LINE
  5
9D
330
95
100
AcDbEntity
  8
0010010007
100
AcDbLine
 10
0.3617500000000011
 20
0.100259966132592
 30
0.0
 11
0.3617500000000011
 21
0.046649781204545
 31
0.0
  0
LINE
  5
9E
330
95
100
AcDbEntity
  8
0010010007
100
AcDbLine
 10
0.312234549170809
 20
0.374592286238269
 30
0.0
 11
0.292234549170809
 21
0.374592286238269
 31
0.0
  0
LINE
  5
9F
330
95
100
AcDbEntity
  8
0010010007
100
AcDbLine
 10
0.0905816224003475
 20
0.292592286238268
 30
0.0
 11
0.147572079084434
 21
0.232592286238267
 31
0.0
  0
LINE
  5
A0
330
95
100
AcDbEntity
  8
0010010007
100
AcDbLine
 10
0.0
 20
0.3125922862382669
 30
0.0
 11
0.0
 21
0.292592286238268
 31
0.0
  0
ARC
  5
A1
330
95
100
AcDbEntity
  8
0010010007
100
AcDbCircle
 10
0.483527566184302
 20
0.246
 30
0.0
 40
0.046
100
AcDbArc
 50
312.198599646998
 51
81.43726286549343
  0
LINE
  5
A2
330
95
100
AcDbEntity
  8
0010010007
100
AcDbLine
 10
0.5144258804155121
 20
0.211922233382023
 30
0.0
 11
0.38175
 21
0.0916250000000005
 31
0.0
  0
LINE
  5
A3
330
95
100
AcDbEntity
  8
0010010007
100
AcDbLine
 10
0.3617500000000011
 20
0.100259966132592
 30
0.0
 11
0.5018334986466062
 21
0.227536716524801
 31
0.0
  0
ARC
  5
A4
330
95
100
AcDbEntity
  8
0010010007
100
AcDbCircle
 10
0.483527566184302
 20
0.246
 30
0.0
 40
0.0259999999999999
100
AcDbArc
 50
323.4673418504359
 51
85.7257390740707
  0
LINE
  5
A5
330
95
100
AcDbEntity
  8
0010010007
100
AcDbLine
 10
0.0
 20
0.292592286238268
 30
0.0
 11
0.0629975848402324
 21
0.292592286238268
 31
0.0
  0
LINE
  5
A6
330
95
100
AcDbEntity
  8
0010010007
100
AcDbLine
 10
0.292234549170809
 20
0.374592286238269
 30
0.0
 11
0.292234549170809
 21
0.312592286238268
 31
0.0
  0
LINE
  5
A7
330
95
100
AcDbEntity
  8
0010010007
100
AcDbLine
 10
0.4903766103545081
 20
0.2914872574899241
 30
0.0
 11
0.4854653657418579
 21
0.271927686608619
 31
0.0
  0
ARC
  5
A8
330
95
100
AcDbEntity
  8
0010010007
100
AcDbCircle
 10
0.336992274585405
 20
0.0448248906022721
 30
0.0
 40
0.0248248906022726
100
AcDbArc
 50
184.215645088867
 51
355.784354911133
  0
ARC
  5
A9
330
95
100
AcDbEntity
  8
0010010007
100
AcDbCircle
 10
0.336992274585405
 20
0.0447936509800968
 30
0.0
 40
0.044793650980097
100
AcDbArc
 50
182.294881348948
 51
357.705118651052
  0
LINE
  5
AA
330
95
100
AcDbEntity
  8
0010010007
100
AcDbLine
 10
0.11998804152432
 20
0.232592286238267
 30
0.0
 11
0.147572079084434
 21
0.232592286238267
 31
0.0
  0
ENDBLK
  5
AB
330
95
100
AcDbEntity
  8
0
100
AcDbBlockEnd
  0
BLOCK
  5
DD
330
DC
100
AcDbEntity
  8
0
100
AcDbBlockBegin
  2
*D3
 70
     1
 10
0.0
 20
0.0
 30
0.0
  3
*D3
  1

  0
LINE
  5
DE
330
DC
100
AcDbEntity
  8
0
 62
     0
370
    -2
100
AcDbLine
 10
4083.186552818212
 20
4294.02817744518
 30
0.0
 11
4080.637814399656
 21
4294.02817744518
 31
0.0
  0
LINE
  5
DF
330
DC
100
AcDbEntity
  8
0
 62
     0
370
    -2
100
AcDbLine
 10
4085.243490667348
 20
4288.651617477547
 30
0.0
 11
4080.637814399656
 21
4288.651617477547
 31
0.0
  0
LINE
  5
E0
330
DC
100
AcDbEntity
  8
0
 62
     0
370
    -2
100
AcDbLine
 10
4080.667814399656
 20
4294.02817744518
 30
0.0
 11
4080.667814399656
 21
4291.762134347712
 31
0.0
  0
LINE
  5
E1
330
DC
100
AcDbEntity
  8
0
 62
     0
370
    -2
100
AcDbLine
 10
4080.667814399656
 20
4288.651617477547
 30
0.0
 11
4080.667814399656
 21
4290.917660575015
 31
0.0
  0
INSERT
  5
E2
330
DC
100
AcDbEntity
  8
0
 62
     0
370
    -2
100
AcDbBlockReference
  2
_ArchTick
 10
4080.667814399656
 20
4294.02817744518
 30
0.0
 41
0.156
 42
0.156
 43
0.156
 50
90.0
  0
INSERT
  5
E3
330
DC
100
AcDbEntity
  8
0
 62
     0
370
    -2
100
AcDbBlockReference
  2
_ArchTick
 10
4080.667814399656
 20
4288.651617477547
 30
0.0
 41
0.156
 42
0.156
 43
0.156
 50
270.0
  0
MTEXT
  5
E4
330
DC
100
AcDbEntity
  8
0
 62
     0
100
AcDbMText
 10
4080.667814399656
 20
4291.542241946905
 30
0.0
 40
0.3125
 41
0.0
 71
     5
 72
     1
  1
\A1;5 3/8"
 73
     1
 44
1.0
1001
ACAD
1000
MTEXTBEGIN
1070
    73
1070
     1
1070
    44
1040
1.0
1070
    74
1070
     0
1000
MTEXTEND
  0
MTEXT
  5
E5
330
DC
100
AcDbEntity
  8
0
 62
     0
100
AcDbMText
 10
4080.667814399656
 20
4291.120005060558
 30
0.0
 40
0.3125
 41
0.0
 71
     5
 72
     1
  1
\A1;[137mm]
 73
     1
 44
1.0
1001
ACAD
1000
MTEXTBEGIN
1070
    73
1070
     1
1070
    44
1040
1.0
1070
    74
1070
     0
1000
MTEXTEND
  0
POINT
  5
E6
330
DC
100
AcDbEntity
  8
Defpoints
 62
     0
100
AcDbPoint
 10
4083.226552818212
 20
4294.02817744518
 30
0.0
  0
POINT
  5
E8
330
DC
100
AcDbEntity
  8
Defpoints
 62
     0
100
AcDbPoint
 10
4085.283490667348
 20
4288.651617477547
 30
0.0
  0
POINT
  5
E9
330
DC
100
AcDbEntity
  8
Defpoints
 62
     0
100
AcDbPoint
 10
4080.667814399656
 20
4288.651617477547
 30
0.0
  0
ENDBLK
  5
EA
330
DC
100
AcDbEntity
  8
0
100
AcDbBlockEnd
  0
BLOCK
  5
11D
330
11C
100
AcDbEntity
  8
0
100
AcDbBlockBegin
  2
*U4
 70
     1
 10
0.0
 20
0.0
 30
0.0
  3
*U4
  1

  0
SOLID
  5
11E
330
11C
100
AcDbEntity
  8
0
  6
Continuous
100
AcDbTrace
 10
1.881186878287215
 20
3.346448750095686
 30
0.0
 11
1.881186878287214
 21
3.286225296794519
 31
0.0
 12
1.90951442518562
 22
3.286225296794519
 32
0.0
 13
1.90951442518562
 23
3.286225296794519
 33
0.0
  0
SOLID
  5
11F
330
11C
100
AcDbEntity
  8
0
  6
Continuous
100
AcDbTrace
 10
1.881186878287214
 20
3.286225296794519
 30
0.0
 11
1.881186878287213
 21
3.219672203396846
 31
0.0
 12
1.90951442518562
 22
3.219672203396846
 32
0.0
 13
1.90951442518562
 23
3.219672203396846
 33
0.0
  0
SOLID
  5
120
330
11C
100
AcDbEntity
  8
0
  6
Continuous
100
AcDbTrace
 10
-1.881186878287214
 20
3.286225296794519
 30
0.0
 11
-1.90951442518562
 21
3.286225296794519
 31
0.0
 12
-1.90951442518562
 22
3.219672203396846
 32
0.0
 13
-1.90951442518562
 23
3.219672203396846
 33
0.0
210
0.0
220
0.0
230
-1.0
  0
SOLID
  5
121
330
11C
100
AcDbEntity
  8
0
  6
Continuous
100
AcDbTrace
 10
-1.881186878287213
 20
3.219672203396846
 30
0.0
 11
-1.90951442518562
 21
3.219672203396846
 31
0.0
 12
-1.881186878287213
 22
3.15944875009568
 32
0.0
 13
-1.881186878287213
 23
3.15944875009568
 33
0.0
210
0.0
220
0.0
230
-1.0
  0
LINE
  5
122
330
11C
100
AcDbEntity
  8
0
  6
Continuous
100
AcDbLine
 10
1.881186878287215
 20
3.346448750095686
 30
0.0
 11
1.881186878287214
 21
3.286225296794519
 31
0.0
  0
LINE
  5
123
330
11C
100
AcDbEntity
  8
0
  6
Continuous
100
AcDbLine
 10
1.90951442518562
 20
3.286225296794519
 30
0.0
 11
1.881186878287215
 21
3.346448750095686
 31
0.0
  0
LINE
  5
124
330
11C
100
AcDbEntity
  8
0
  6
Continuous
100
AcDbLine
 10
1.881186878287214
 20
3.286225296794519
 30
0.0
 11
1.881186878287213
 21
3.219672203396846
 31
0.0
  0
LINE
  5
125
330
11C
100
AcDbEntity
  8
0
  6
Continuous
100
AcDbLine
 10
1.90951442518562
 20
3.286225296794519
 30
0.0
 11
1.90951442518562
 21
3.219672203396846
 31
0.0
  0
LINE
  5
126
330
11C
100
AcDbEntity
  8
0
  6
Continuous
100
AcDbLine
 10
1.90951442518562
 20
3.219672203396846
 30
0.0
 11
1.881186878287213
 21
3.15944875009568
 31
0.0
  0
LINE
  5
127
330
11C
100
AcDbEntity
  8
0
  6
Continuous
100
AcDbLine
 10
1.881186878287213
 20
3.15944875009568
 30
0.0
 11
1.881186878287213
 21
3.219672203396846
 31
0.0
  0
ENDBLK
  5
128
330
11C
100
AcDbEntity
  8
0
100
AcDbBlockEnd
  0
BLOCK
  5
145
330
144
100
AcDbEntity
  8
0
100
AcDbBlockBegin
  2
*D5
 70
     1
 10
0.0
 20
0.0
 30
0.0
  3
*D5
  1

  0
LINE
  5
146
330
144
100
AcDbEntity
  8
0
 62
     0
370
    -2
100
AcDbLine
 10
4087.50786841472
 20
4292.160759899092
 30
0.0
 11
4087.50786841472
 21
4293.122294218755
 31
0.0
  0
LINE
  5
147
330
144
100
AcDbEntity
  8
0
 62
     0
370
    -2
100
AcDbLine
 10
4087.757868414719
 20
4292.100759899094
 30
0.0
 11
4087.757868414719
 21
4293.122294218755
 31
0.0
  0
LINE
  5
148
330
144
100
AcDbEntity
  8
0
 62
     0
370
    -2
100
AcDbLine
 10
4087.50786841472
 20
4293.092294218755
 30
0.0
 11
4087.757868414719
 21
4293.092294218755
 31
0.0
  0
LINE
  5
149
330
144
100
AcDbEntity
  8
0
 62
     0
370
    -2
100
AcDbLine
 10
4087.757868414719
 20
4293.092294218755
 30
0.0
 11
4087.91386841472
 21
4293.092294218755
 31
0.0
  0
INSERT
  5
14A
330
144
100
AcDbEntity
  8
0
 62
     0
370
    -2
100
AcDbBlockReference
  2
_ArchTick
 10
4087.50786841472
 20
4293.092294218755
 30
0.0
 41
0.156
 42
0.156
 43
0.156
 50
180.0
  0
INSERT
  5
14B
330
144
100
AcDbEntity
  8
0
 62
     0
370
    -2
100
AcDbBlockReference
  2
_ArchTick
 10
4087.757868414719
 20
4293.092294218755
 30
0.0
 41
0.156
 42
0.156
 43
0.156
  0
MTEXT
  5
14C
330
144
100
AcDbEntity
  8
0
 62
     0
100
AcDbMText
 10
4088.283073671944
 20
4293.294638704296
 30
0.0
 40
0.3125
 41
0.0
 71
     5
 72
     1
  1
\A1;1/4"
 73
     1
 44
1.0
1001
ACAD
1000
MTEXTBEGIN
1070
    73
1070
     1
1070
    44
1040
1.0
1070
    74
1070
     0
1000
MTEXTEND
  0
MTEXT
  5
14D
330
144
100
AcDbEntity
  8
0
 62
     0
100
AcDbMText
 10
4088.283073671944
 20
4292.872401817947
 30
0.0
 40
0.3125
 41
0.0
 71
     5
 72
     1
  1
\A1;[6mm]
 73
     1
 44
1.0
1001
ACAD
1000
MTEXTBEGIN
1070
    73
1070
     1
1070
    44
1040
1.0
1070
    74
1070
     0
1000
MTEXTEND
  0
POINT
  5
14E
330
144
100
AcDbEntity
  8
Defpoints
 62
     0
100
AcDbPoint
 10
4087.50786841472
 20
4292.12075989909
 30
0.0
  0
POINT
  5
14F
330
144
100
AcDbEntity
  8
Defpoints
 62
     0
100
AcDbPoint
 10
4087.757868414719
 20
4292.060759899094
 30
0.0
  0
POINT
  5
150
330
144
100
AcDbEntity
  8
Defpoints
 62
     0
100
AcDbPoint
 10
4087.757868414719
 20
4293.092294218755
 30
0.0
  0
ENDBLK
  5
151
330
144
100
AcDbEntity
  8
0
100
AcDbBlockEnd
  0
BLOCK
  5
156
330
155
100
AcDbEntity
  8
0
100
AcDbBlockBegin
  2
*D6
 70
     1
 10
0.0
 20
0.0
 30
0.0
  3
*D6
  1

  0
LINE
  5
157
330
155
100
AcDbEntity
  8
0
 62
     0
370
    -2
100
AcDbLine
 10
4087.736406989339
 20
4292.122757559833
 30
0.0
 11
4088.393531290283
 21
4292.122757559833
 31
0.0
  0
LINE
  5
158
330
155
100
AcDbEntity
  8
0
 62
     0
370
    -2
100
AcDbLine
 10
4087.736406989339
 20
4290.997759899092
 30
0.0
 11
4088.393531290283
 21
4290.997759899092
 31
0.0
  0
LINE
  5
159
330
155
100
AcDbEntity
  8
0
 62
     0
370
    -2
100
AcDbLine
 10
4088.363531290283
 20
4292.122757559833
 30
0.0
 11
4088.363531290283
 21
4291.982495615811
 31
0.0
  0
LINE
  5
15A
330
155
100
AcDbEntity
  8
0
 62
     0
370
    -2
100
AcDbLine
 10
4088.363531290283
 20
4290.997759899092
 30
0.0
 11
4088.363531290283
 21
4291.138021843114
 31
0.0
  0
INSERT
  5
15B
330
155
100
AcDbEntity
  8
0
 62
     0
370
    -2
100
AcDbBlockReference
  2
_ArchTick
 10
4088.363531290283
 20
4292.122757559833
 30
0.0
 41
0.156
 42
0.156
 43
0.156
 50
90.0
  0
INSERT
  5
15C
330
155
100
AcDbEntity
  8
0
 62
     0
370
    -2
100
AcDbBlockReference
  2
_ArchTick
 10
4088.363531290283
 20
4290.997759899092
 30
0.0
 41
0.156
 42
0.156
 43
0.156
 50
270.0
  0
MTEXT
  5
15D
330
155
100
AcDbEntity
  8
0
 62
     0
100
AcDbMText
 10
4088.363531290283
 20
4291.762603215004
 30
0.0
 40
0.3125
 41
0.0
 71
     5
 72
     1
  1
\A1;1 1/8"
 73
     1
 44
1.0
1001
ACAD
1000
MTEXTBEGIN
1070
    73
1070
     1
1070
    44
1040
1.0
1070
    74
1070
     0
1000
MTEXTEND
  0
MTEXT
  5
15E
330
155
100
AcDbEntity
  8
0
 62
     0
100
AcDbMText
 10
4088.363531290283
 20
4291.340366328657
 30
0.0
 40
0.3125
 41
0.0
 71
     5
 72
     1
  1
\A1;[29mm]
 73
     1
 44
1.0
1001
ACAD
1000
MTEXTBEGIN
1070
    73
1070
     1
1070
    44
1040
1.0
1070
    74
1070
     0
1000
MTEXTEND
  0
POINT
  5
15F
330
155
100
AcDbEntity
  8
Defpoints
 62
     0
100
AcDbPoint
 10
4087.69640698934
 20
4292.122757559833
 30
0.0
  0
POINT
  5
160
330
155
100
AcDbEntity
  8
Defpoints
 62
     0
100
AcDbPoint
 10
4087.69640698934
 20
4290.997759899092
 30
0.0
  0
POINT
  5
161
330
155
100
AcDbEntity
  8
Defpoints
 62
     0
100
AcDbPoint
 10
4088.363531290283
 20
4290.997759899092
 30
0.0
  0
ENDBLK
  5
162
330
155
100
AcDbEntity
  8
0
100
AcDbBlockEnd
  0
BLOCK
  5
167
330
166
100
AcDbEntity
  8
0
100
AcDbBlockBegin
  2
*D7
 70
     1
 10
0.0
 20
0.0
 30
0.0
  3
*D7
  1

  0
LINE
  5
168
330
166
100
AcDbEntity
  8
0
 62
     0
370
    -2
100
AcDbLine
 10
4082.882368414709
 20
4290.957759911861
 30
0.0
 11
4082.882368414709
 21
4290.328507533328
 31
0.0
  0
LINE
  5
169
330
166
100
AcDbEntity
  8
0
 62
     0
370
    -2
100
AcDbLine
 10
4082.38236841472
 20
4291.020259911861
 30
0.0
 11
4082.38236841472
 21
4290.328507533328
 31
0.0
  0
LINE
  5
16A
330
166
100
AcDbEntity
  8
0
 62
     0
370
    -2
100
AcDbLine
 10
4082.882368414709
 20
4290.358507533329
 30
0.0
 11
4082.38236841472
 21
4290.358507533329
 31
0.0
  0
LINE
  5
16B
330
166
100
AcDbEntity
  8
0
 62
     0
370
    -2
100
AcDbLine
 10
4082.38236841472
 20
4290.358507533329
 30
0.0
 11
4082.226368414719
 21
4290.358507533329
 31
0.0
  0
INSERT
  5
16C
330
166
100
AcDbEntity
  8
0
 62
     0
370
    -2
100
AcDbBlockReference
  2
_ArchTick
 10
4082.882368414709
 20
4290.358507533329
 30
0.0
 41
0.156
 42
0.156
 43
0.156
  0
INSERT
  5
16D
330
166
100
AcDbEntity
  8
0
 62
     0
370
    -2
100
AcDbBlockReference
  2
_ArchTick
 10
4082.38236841472
 20
4290.358507533329
 30
0.0
 41
0.156
 42
0.156
 43
0.156
 50
180.0
  0
MTEXT
  5
16E
330
166
100
AcDbEntity
  8
0
 62
     0
100
AcDbMText
 10
4081.786136131603
 20
4290.560852018869
 30
0.0
 40
0.3125
 41
0.0
 71
     5
 72
     1
  1
\A1;1/2"
 73
     1
 44
1.0
1001
ACAD
1000
MTEXTBEGIN
1070
    73
1070
     1
1070
    44
1040
1.0
1070
    74
1070
     0
1000
MTEXTEND
  0
MTEXT
  5
16F
330
166
100
AcDbEntity
  8
0
 62
     0
100
AcDbMText
 10
4081.786136131603
 20
4290.138615132521
 30
0.0
 40
0.3125
 41
0.0
 71
     5
 72
     1
  1
\A1;[13mm]
 73
     1
 44
1.0
1001
ACAD
1000
MTEXTBEGIN
1070
    73
1070
     1
1070
    44
1040
1.0
1070
    74
1070
     0
1000
MTEXTEND
  0
POINT
  5
170
330
166
100
AcDbEntity
  8
Defpoints
 62
     0
100
AcDbPoint
 10
4082.882368414709
 20
4290.997759911861
 30
0.0
  0
POINT
  5
171
330
166
100
AcDbEntity
  8
Defpoints
 62
     0
100
AcDbPoint
 10
4082.38236841472
 20
4291.060259911861
 30
0.0
  0
POINT
  5
172
330
166
100
AcDbEntity
  8
Defpoints
 62
     0
100
AcDbPoint
 10
4082.38236841472
 20
4290.358507533329
 30
0.0
  0
ENDBLK
  5
173
330
166
100
AcDbEntity
  8
0
100
AcDbBlockEnd
  0
BLOCK
  5
178
330
177
100
AcDbEntity
  8
0
100
AcDbBlockBegin
  2
*D8
 70
     1
 10
0.0
 20
0.0
 30
0.0
  3
*D8
  1

  0
LINE
  5
179
330
177
100
AcDbEntity
  8
0
 62
     0
370
    -2
100
AcDbLine
 10
4082.40486841472
 20
4290.997759911861
 30
0.0
 11
4081.769085244256
 21
4290.997759911861
 31
0.0
  0
LINE
  5
17A
330
177
100
AcDbEntity
  8
0
 62
     0
370
    -2
100
AcDbLine
 10
4082.40486841472
 20
4292.122759911861
 30
0.0
 11
4081.769085244256
 21
4292.122759911861
 31
0.0
  0
LINE
  5
17B
330
177
100
AcDbEntity
  8
0
 62
     0
370
    -2
100
AcDbLine
 10
4081.799085244256
 20
4290.997759911861
 30
0.0
 11
4081.799085244256
 21
4291.138023025513
 31
0.0
  0
LINE
  5
17C
330
177
100
AcDbEntity
  8
0
 62
     0
370
    -2
100
AcDbLine
 10
4081.799085244256
 20
4292.122759911861
 30
0.0
 11
4081.799085244256
 21
4291.982496798209
 31
0.0
  0
INSERT
  5
17D
330
177
100
AcDbEntity
  8
0
 62
     0
370
    -2
100
AcDbBlockReference
  2
_ArchTick
 10
4081.799085244256
 20
4290.997759911861
 30
0.0
 41
0.156
 42
0.156
 43
0.156
 50
270.0
  0
INSERT
  5
17E
330
177
100
AcDbEntity
  8
0
 62
     0
370
    -2
100
AcDbBlockReference
  2
_ArchTick
 10
4081.799085244256
 20
4292.122759911861
 30
0.0
 41
0.156
 42
0.156
 43
0.156
 50
90.0
  0
MTEXT
  5
17F
330
177
100
AcDbEntity
  8
0
 62
     0
100
AcDbMText
 10
4081.799085244255
 20
4291.762604397403
 30
0.0
 40
0.3125
 41
0.0
 71
     5
 72
     1
  1
\A1;1 1/8"
 73
     1
 44
1.0
1001
ACAD
1000
MTEXTBEGIN
1070
    73
1070
     1
1070
    44
1040
1.0
1070
    74
1070
     0
1000
MTEXTEND
  0
MTEXT
  5
180
330
177
100
AcDbEntity
  8
0
 62
     0
100
AcDbMText
 10
4081.799085244255
 20
4291.340367511055
 30
0.0
 40
0.3125
 41
0.0
 71
     5
 72
     1
  1
\A1;[29mm]
 73
     1
 44
1.0
1001
ACAD
1000
MTEXTBEGIN
1070
    73
1070
     1
1070
    44
1040
1.0
1070
    74
1070
     0
1000
MTEXTEND
  0
POINT
  5
181
330
177
100
AcDbEntity
  8
Defpoints
 62
     0
100
AcDbPoint
 10
4082.44486841472
 20
4290.997759911861
 30
0.0
  0
POINT
  5
182
330
177
100
AcDbEntity
  8
Defpoints
 62
     0
100
AcDbPoint
 10
4082.44486841472
 20
4292.122759911861
 30
0.0
  0
POINT
  5
183
330
177
100
AcDbEntity
  8
Defpoints
 62
     0
100
AcDbPoint
 10
4081.799085244256
 20
4292.122759911861
 30
0.0
  0
ENDBLK
  5
184
330
177
100
AcDbEntity
  8
0
100
AcDbBlockEnd
  0
BLOCK
  5
1DC
330
1DB
100
AcDbEntity
  8
0
100
AcDbBlockBegin
  2
*D9
 70
     1
 10
0.0
 20
0.0
 30
0.0
  3
*D9
  1

  0
LINE
  5
1DD
330
1DB
100
AcDbEntity
  8
0
 62
     0
370
    -2
100
AcDbLine
 10
4083.186552818212
 20
4282.007188433386
 30
0.0
 11
4080.514939289002
 21
4282.007188433386
 31
0.0
  0
LINE
  5
1DE
330
1DB
100
AcDbEntity
  8
0
 62
     0
370
    -2
100
AcDbLine
 10
4085.243490667348
 20
4276.630628465754
 30
0.0
 11
4080.514939289002
 21
4276.630628465754
 31
0.0
  0
LINE
  5
1DF
330
1DB
100
AcDbEntity
  8
0
 62
     0
370
    -2
100
AcDbLine
 10
4080.544939289001
 20
4282.007188433386
 30
0.0
 11
4080.544939289001
 21
4279.741145335918
 31
0.0
  0
LINE
  5
1E0
330
1DB
100
AcDbEntity
  8
0
 62
     0
370
    -2
100
AcDbLine
 10
4080.544939289001
 20
4276.630628465754
 30
0.0
 11
4080.544939289001
 21
4278.896671563222
 31
0.0
  0
INSERT
  5
1E1
330
1DB
100
AcDbEntity
  8
0
 62
     0
370
    -2
100
AcDbBlockReference
  2
_ArchTick
 10
4080.544939289001
 20
4282.007188433386
 30
0.0
 41
0.156
 42
0.156
 43
0.156
 50
90.0
  0
INSERT
  5
1E2
330
1DB
100
AcDbEntity
  8
0
 62
     0
370
    -2
100
AcDbBlockReference
  2
_ArchTick
 10
4080.544939289001
 20
4276.630628465754
 30
0.0
 41
0.156
 42
0.156
 43
0.156
 50
270.0
  0
MTEXT
  5
1E3
330
1DB
100
AcDbEntity
  8
0
 62
     0
100
AcDbMText
 10
4080.544939289
 20
4279.521252935113
 30
0.0
 40
0.3125
 41
0.0
 71
     5
 72
     1
  1
\A1;5 3/8"
 73
     1
 44
1.0
1001
ACAD
1000
MTEXTBEGIN
1070
    73
1070
     1
1070
    44
1040
1.0
1070
    74
1070
     0
1000
MTEXTEND
  0
MTEXT
  5
1E4
330
1DB
100
AcDbEntity
  8
0
 62
     0
100
AcDbMText
 10
4080.544939289
 20
4279.099016048764
 30
0.0
 40
0.3125
 41
0.0
 71
     5
 72
     1
  1
\A1;[137mm]
 73
     1
 44
1.0
1001
ACAD
1000
MTEXTBEGIN
1070
    73
1070
     1
1070
    44
1040
1.0
1070
    74
1070
     0
1000
MTEXTEND
  0
POINT
  5
1E5
330
1DB
100
AcDbEntity
  8
Defpoints
 62
     0
100
AcDbPoint
 10
4083.226552818212
 20
4282.007188433386
 30
0.0
  0
POINT
  5
1E6
330
1DB
100
AcDbEntity
  8
Defpoints
 62
     0
100
AcDbPoint
 10
4085.283490667348
 20
4276.630628465754
 30
0.0
  0
POINT
  5
1E7
330
1DB
100
AcDbEntity
  8
Defpoints
 62
     0
100
AcDbPoint
 10
4080.544939289001
 20
4276.630628465754
 30
0.0
  0
ENDBLK
  5
1E8
330
1DB
100
AcDbEntity
  8
0
100
AcDbBlockEnd
  0
BLOCK
  5
20A
330
209
100
AcDbEntity
  8
0
100
AcDbBlockBegin
  2
*D10
 70
     1
 10
0.0
 20
0.0
 30
0.0
  3
*D10
  1

  0
LINE
  5
20B
330
209
100
AcDbEntity
  8
0
 62
     0
370
    -2
100
AcDbLine
 10
4087.50786841472
 20
4280.139770887298
 30
0.0
 11
4087.50786841472
 21
4281.101305206962
 31
0.0
  0
LINE
  5
20C
330
209
100
AcDbEntity
  8
0
 62
     0
370
    -2
100
AcDbLine
 10
4087.757868414719
 20
4280.0797708873
 30
0.0
 11
4087.757868414719
 21
4281.101305206962
 31
0.0
  0
LINE
  5
20D
330
209
100
AcDbEntity
  8
0
 62
     0
370
    -2
100
AcDbLine
 10
4087.50786841472
 20
4281.071305206962
 30
0.0
 11
4087.757868414719
 21
4281.071305206962
 31
0.0
  0
LINE
  5
20E
330
209
100
AcDbEntity
  8
0
 62
     0
370
    -2
100
AcDbLine
 10
4087.757868414719
 20
4281.071305206962
 30
0.0
 11
4087.91386841472
 21
4281.071305206962
 31
0.0
  0
INSERT
  5
20F
330
209
100
AcDbEntity
  8
0
 62
     0
370
    -2
100
AcDbBlockReference
  2
_ArchTick
 10
4087.50786841472
 20
4281.071305206962
 30
0.0
 41
0.156
 42
0.156
 43
0.156
 50
180.0
  0
INSERT
  5
210
330
209
100
AcDbEntity
  8
0
 62
     0
370
    -2
100
AcDbBlockReference
  2
_ArchTick
 10
4087.757868414719
 20
4281.071305206962
 30
0.0
 41
0.156
 42
0.156
 43
0.156
  0
MTEXT
  5
211
330
209
100
AcDbEntity
  8
0
 62
     0
100
AcDbMText
 10
4088.283073671944
 20
4281.273649692503
 30
0.0
 40
0.3125
 41
0.0
 71
     5
 72
     1
  1
\A1;1/4"
 73
     1
 44
1.0
1001
ACAD
1000
MTEXTBEGIN
1070
    73
1070
     1
1070
    44
1040
1.0
1070
    74
1070
     0
1000
MTEXTEND
  0
MTEXT
  5
212
330
209
100
AcDbEntity
  8
0
 62
     0
100
AcDbMText
 10
4088.283073671944
 20
4280.851412806155
 30
0.0
 40
0.3125
 41
0.0
 71
     5
 72
     1
  1
\A1;[6mm]
 73
     1
 44
1.0
1001
ACAD
1000
MTEXTBEGIN
1070
    73
1070
     1
1070
    44
1040
1.0
1070
    74
1070
     0
1000
MTEXTEND
  0
POINT
  5
213
330
209
100
AcDbEntity
  8
Defpoints
 62
     0
100
AcDbPoint
 10
4087.50786841472
 20
4280.099770887298
 30
0.0
  0
POINT
  5
214
330
209
100
AcDbEntity
  8
Defpoints
 62
     0
100
AcDbPoint
 10
4087.757868414719
 20
4280.039770887301
 30
0.0
  0
POINT
  5
215
330
209
100
AcDbEntity
  8
Defpoints
 62
     0
100
AcDbPoint
 10
4087.757868414719
 20
4281.071305206962
 30
0.0
  0
ENDBLK
  5
216
330
209
100
AcDbEntity
  8
0
100
AcDbBlockEnd
  0
BLOCK
  5
21B
330
21A
100
AcDbEntity
  8
0
100
AcDbBlockBegin
  2
*D11
 70
     1
 10
0.0
 20
0.0
 30
0.0
  3
*D11
  1

  0
LINE
  5
21C
330
21A
100
AcDbEntity
  8
0
 62
     0
370
    -2
100
AcDbLine
 10
4087.736406989339
 20
4280.10176854804
 30
0.0
 11
4089.204536094246
 21
4280.10176854804
 31
0.0
  0
LINE
  5
21D
330
21A
100
AcDbEntity
  8
0
 62
     0
370
    -2
100
AcDbLine
 10
4087.736406989339
 20
4278.289270887298
 30
0.0
 11
4089.204536094246
 21
4278.289270887298
 31
0.0
  0
LINE
  5
21E
330
21A
100
AcDbEntity
  8
0
 62
     0
370
    -2
100
AcDbLine
 10
4089.174536094247
 20
4280.10176854804
 30
0.0
 11
4089.174536094247
 21
4279.617756604017
 31
0.0
  0
LINE
  5
21F
330
21A
100
AcDbEntity
  8
0
 62
     0
370
    -2
100
AcDbLine
 10
4089.174536094247
 20
4278.289270887298
 30
0.0
 11
4089.174536094247
 21
4278.773282831321
 31
0.0
  0
INSERT
  5
220
330
21A
100
AcDbEntity
  8
0
 62
     0
370
    -2
100
AcDbBlockReference
  2
_ArchTick
 10
4089.174536094247
 20
4280.10176854804
 30
0.0
 41
0.156
 42
0.156
 43
0.156
 50
90.0
  0
INSERT
  5
221
330
21A
100
AcDbEntity
  8
0
 62
     0
370
    -2
100
AcDbBlockReference
  2
_ArchTick
 10
4089.174536094247
 20
4278.289270887298
 30
0.0
 41
0.156
 42
0.156
 43
0.156
 50
270.0
  0
MTEXT
  5
222
330
21A
100
AcDbEntity
  8
0
 62
     0
100
AcDbMText
 10
4089.174536094247
 20
4279.397864203211
 30
0.0
 40
0.3125
 41
0.0
 71
     5
 72
     1
  1
\A1;1 13/16"
 73
     1
 44
1.0
1001
ACAD
1000
MTEXTBEGIN
1070
    73
1070
     1
1070
    44
1040
1.0
1070
    74
1070
     0
1000
MTEXTEND
  0
MTEXT
  5
223
330
21A
100
AcDbEntity
  8
0
 62
     0
100
AcDbMText
 10
4089.174536094247
 20
4278.975627316863
 30
0.0
 40
0.3125
 41
0.0
 71
     5
 72
     1
  1
\A1;[46mm]
 73
     1
 44
1.0
1001
ACAD
1000
MTEXTBEGIN
1070
    73
1070
     1
1070
    44
1040
1.0
1070
    74
1070
     0
1000
MTEXTEND
  0
POINT
  5
224
330
21A
100
AcDbEntity
  8
Defpoints
 62
     0
100
AcDbPoint
 10
4087.69640698934
 20
4280.10176854804
 30
0.0
  0
POINT
  5
225
330
21A
100
AcDbEntity
  8
Defpoints
 62
     0
100
AcDbPoint
 10
4087.69640698934
 20
4278.289270887298
 30
0.0
  0
POINT
  5
226
330
21A
100
AcDbEntity
  8
Defpoints
 62
     0
100
AcDbPoint
 10
4089.174536094247
 20
4278.289270887298
 30
0.0
  0
ENDBLK
  5
227
330
21A
100
AcDbEntity
  8
0
100
AcDbBlockEnd
  0
BLOCK
  5
22C
330
22B
100
AcDbEntity
  8
0
100
AcDbBlockBegin
  2
*D12
 70
     1
 10
0.0
 20
0.0
 30
0.0
  3
*D12
  1

  0
LINE
  5
22D
330
22B
100
AcDbEntity
  8
0
 62
     0
370
    -2
100
AcDbLine
 10
4082.882368414709
 20
4278.249270900068
 30
0.0
 11
4082.882368414709
 21
4277.620018521536
 31
0.0
  0
LINE
  5
22E
330
22B
100
AcDbEntity
  8
0
 62
     0
370
    -2
100
AcDbLine
 10
4082.38236841472
 20
4278.311770900068
 30
0.0
 11
4082.38236841472
 21
4277.620018521536
 31
0.0
  0
LINE
  5
22F
330
22B
100
AcDbEntity
  8
0
 62
     0
370
    -2
100
AcDbLine
 10
4082.882368414709
 20
4277.650018521535
 30
0.0
 11
4082.38236841472
 21
4277.650018521535
 31
0.0
  0
LINE
  5
230
330
22B
100
AcDbEntity
  8
0
 62
     0
370
    -2
100
AcDbLine
 10
4082.38236841472
 20
4277.650018521535
 30
0.0
 11
4082.226368414719
 21
4277.650018521535
 31
0.0
  0
INSERT
  5
231
330
22B
100
AcDbEntity
  8
0
 62
     0
370
    -2
100
AcDbBlockReference
  2
_ArchTick
 10
4082.882368414709
 20
4277.650018521535
 30
0.0
 41
0.156
 42
0.156
 43
0.156
  0
INSERT
  5
232
330
22B
100
AcDbEntity
  8
0
 62
     0
370
    -2
100
AcDbBlockReference
  2
_ArchTick
 10
4082.38236841472
 20
4277.650018521535
 30
0.0
 41
0.156
 42
0.156
 43
0.156
 50
180.0
  0
MTEXT
  5
233
330
22B
100
AcDbEntity
  8
0
 62
     0
100
AcDbMText
 10
4081.786136131603
 20
4277.852363007077
 30
0.0
 40
0.3125
 41
0.0
 71
     5
 72
     1
  1
\A1;1/2"
 73
     1
 44
1.0
1001
ACAD
1000
MTEXTBEGIN
1070
    73
1070
     1
1070
    44
1040
1.0
1070
    74
1070
     0
1000
MTEXTEND
  0
MTEXT
  5
234
330
22B
100
AcDbEntity
  8
0
 62
     0
100
AcDbMText
 10
4081.786136131603
 20
4277.430126120728
 30
0.0
 40
0.3125
 41
0.0
 71
     5
 72
     1
  1
\A1;[13mm]
 73
     1
 44
1.0
1001
ACAD
1000
MTEXTBEGIN
1070
    73
1070
     1
1070
    44
1040
1.0
1070
    74
1070
     0
1000
MTEXTEND
  0
POINT
  5
235
330
22B
100
AcDbEntity
  8
Defpoints
 62
     0
100
AcDbPoint
 10
4082.882368414709
 20
4278.289270900068
 30
0.0
  0
POINT
  5
236
330
22B
100
AcDbEntity
  8
Defpoints
 62
     0
100
AcDbPoint
 10
4082.38236841472
 20
4278.351770900068
 30
0.0
  0
POINT
  5
237
330
22B
100
AcDbEntity
  8
Defpoints
 62
     0
100
AcDbPoint
 10
4082.38236841472
 20
4277.650018521535
 30
0.0
  0
ENDBLK
  5
238
330
22B
100
AcDbEntity
  8
0
100
AcDbBlockEnd
  0
BLOCK
  5
23D
330
23C
100
AcDbEntity
  8
0
100
AcDbBlockBegin
  2
*D13
 70
     1
 10
0.0
 20
0.0
 30
0.0
  3
*D13
  1

  0
LINE
  5
23E
330
23C
100
AcDbEntity
  8
0
 62
     0
370
    -2
100
AcDbLine
 10
4082.40486841472
 20
4278.289270900068
 30
0.0
 11
4081.769085244256
 21
4278.289270900068
 31
0.0
  0
LINE
  5
23F
330
23C
100
AcDbEntity
  8
0
 62
     0
370
    -2
100
AcDbLine
 10
4082.40486841472
 20
4280.101770900068
 30
0.0
 11
4081.769085244256
 21
4280.101770900068
 31
0.0
  0
LINE
  5
240
330
23C
100
AcDbEntity
  8
0
 62
     0
370
    -2
100
AcDbLine
 10
4081.799085244256
 20
4278.289270900068
 30
0.0
 11
4081.799085244256
 21
4278.773284013719
 31
0.0
  0
LINE
  5
241
330
23C
100
AcDbEntity
  8
0
 62
     0
370
    -2
100
AcDbLine
 10
4081.799085244256
 20
4280.101770900068
 30
0.0
 11
4081.799085244256
 21
4279.617757786416
 31
0.0
  0
INSERT
  5
242
330
23C
100
AcDbEntity
  8
0
 62
     0
370
    -2
100
AcDbBlockReference
  2
_ArchTick
 10
4081.799085244256
 20
4278.289270900068
 30
0.0
 41
0.156
 42
0.156
 43
0.156
 50
270.0
  0
INSERT
  5
243
330
23C
100
AcDbEntity
  8
0
 62
     0
370
    -2
100
AcDbBlockReference
  2
_ArchTick
 10
4081.799085244256
 20
4280.101770900068
 30
0.0
 41
0.156
 42
0.156
 43
0.156
 50
90.0
  0
MTEXT
  5
244
330
23C
100
AcDbEntity
  8
0
 62
     0
100
AcDbMText
 10
4081.799085244255
 20
4279.39786538561
 30
0.0
 40
0.3125
 41
0.0
 71
     5
 72
     1
  1
\A1;1 13/16"
 73
     1
 44
1.0
1001
ACAD
1000
MTEXTBEGIN
1070
    73
1070
     1
1070
    44
1040
1.0
1070
    74
1070
     0
1000
MTEXTEND
  0
MTEXT
  5
245
330
23C
100
AcDbEntity
  8
0
 62
     0
100
AcDbMText
 10
4081.799085244255
 20
4278.975628499262
 30
0.0
 40
0.3125
 41
0.0
 71
     5
 72
     1
  1
\A1;[46mm]
 73
     1
 44
1.0
1001
ACAD
1000
MTEXTBEGIN
1070
    73
1070
     1
1070
    44
1040
1.0
1070
    74
1070
     0
1000
MTEXTEND
  0
POINT
  5
246
330
23C
100
AcDbEntity
  8
Defpoints
 62
     0
100
AcDbPoint
 10
4082.44486841472
 20
4278.289270900068
 30
0.0
  0
POINT
  5
247
330
23C
100
AcDbEntity
  8
Defpoints
 62
     0
100
AcDbPoint
 10
4082.44486841472
 20
4280.101770900068
 30
0.0
  0
POINT
  5
248
330
23C
100
AcDbEntity
  8
Defpoints
 62
     0
100
AcDbPoint
 10
4081.799085244256
 20
4280.101770900068
 30
0.0
  0
ENDBLK
  5
249
330
23C
100
AcDbEntity
  8
0
100
AcDbBlockEnd
  0
BLOCK
  5
252
330
251
100
AcDbEntity
  8
0
100
AcDbBlockBegin
  2
*D14
 70
     1
 10
0.0
 20
0.0
 30
0.0
  3
*D14
  1

  0
LINE
  5
253
330
251
100
AcDbEntity
  8
0
 62
     0
370
    -2
100
AcDbLine
 10
4087.484868414715
 20
4279.538270887298
 30
0.0
 11
4088.320574212565
 21
4279.538270887298
 31
0.0
  0
LINE
  5
254
330
251
100
AcDbEntity
  8
0
 62
     0
370
    -2
100
AcDbLine
 10
4087.484868414715
 20
4278.850770887298
 30
0.0
 11
4088.320574212565
 21
4278.850770887298
 31
0.0
  0
LINE
  5
255
330
251
100
AcDbEntity
  8
0
 62
     0
370
    -2
100
AcDbLine
 10
4088.290574212564
 20
4279.538270887298
 30
0.0
 11
4088.290574212564
 21
4278.850770887298
 31
0.0
  0
LINE
  5
256
330
251
100
AcDbEntity
  8
0
 62
     0
370
    -2
100
AcDbLine
 10
4088.290574212564
 20
4278.850770887298
 30
0.0
 11
4088.290574212564
 21
4277.568778815053
 31
0.0
  0
LINE
  5
257
330
251
100
AcDbEntity
  8
0
 62
     0
370
    -2
100
AcDbLine
 10
4088.290574212564
 20
4277.568778815053
 30
0.0
 11
4088.134574212564
 21
4277.568778815053
 31
0.0
  0
INSERT
  5
258
330
251
100
AcDbEntity
  8
0
 62
     0
370
    -2
100
AcDbBlockReference
  2
_ArchTick
 10
4088.290574212564
 20
4279.538270887298
 30
0.0
 41
0.156
 42
0.156
 43
0.156
 50
90.0
  0
INSERT
  5
259
330
251
100
AcDbEntity
  8
0
 62
     0
370
    -2
100
AcDbBlockReference
  2
_ArchTick
 10
4088.290574212564
 20
4278.850770887298
 30
0.0
 41
0.156
 42
0.156
 43
0.156
 50
270.0
  0
MTEXT
  5
25A
330
251
100
AcDbEntity
  8
0
 62
     0
100
AcDbMText
 10
4087.604048759415
 20
4277.568778815054
 30
0.0
 40
0.3125
 41
0.0
 71
     5
 72
     1
  1
\A1;11/16"\P [17mm]
 73
     1
 44
1.0
1001
ACAD
1000
MTEXTBEGIN
1070
    73
1070
     1
1070
    44
1040
1.0
1070
    74
1070
     0
1000
MTEXTEND
  0
POINT
  5
25B
330
251
100
AcDbEntity
  8
Defpoints
 62
     0
100
AcDbPoint
 10
4087.444868414714
 20
4279.538270887298
 30
0.0
  0
POINT
  5
25C
330
251
100
AcDbEntity
  8
Defpoints
 62
     0
100
AcDbPoint
 10
4087.444868414714
 20
4278.850770887298
 30
0.0
  0
POINT
  5
25D
330
251
100
AcDbEntity
  8
Defpoints
 62
     0
100
AcDbPoint
 10
4088.290574212564
 20
4278.850770887298
 30
0.0
  0
ENDBLK
  5
25E
330
251
100
AcDbEntity
  8
0
100
AcDbBlockEnd
  0
BLOCK
  5
2B5
330
2B4
100
AcDbEntity
  8
0
100
AcDbBlockBegin
  2
*D15
 70
     1
 10
0.0
 20
0.0
 30
0.0
  3
*D15
  1

  0
LINE
  5
2B6
330
2B4
100
AcDbEntity
  8
0
 62
     0
370
    -2
100
AcDbLine
 10
4092.041369090728
 20
4290.506721650738
 30
0.0
 11
4089.369755561517
 21
4290.506721650738
 31
0.0
  0
LINE
  5
2B7
330
2B4
100
AcDbEntity
  8
0
 62
     0
370
    -2
100
AcDbLine
 10
4094.098306939865
 20
4281.817661683105
 30
0.0
 11
4089.369755561517
 21
4281.817661683105
 31
0.0
  0
LINE
  5
2B8
330
2B4
100
AcDbEntity
  8
0
 62
     0
370
    -2
100
AcDbLine
 10
4089.399755561518
 20
4290.506721650738
 30
0.0
 11
4089.399755561518
 21
4286.58442855327
 31
0.0
  0
LINE
  5
2B9
330
2B4
100
AcDbEntity
  8
0
 62
     0
370
    -2
100
AcDbLine
 10
4089.399755561518
 20
4281.817661683105
 30
0.0
 11
4089.399755561518
 21
4285.739954780573
 31
0.0
  0
INSERT
  5
2BA
330
2B4
100
AcDbEntity
  8
0
 62
     0
370
    -2
100
AcDbBlockReference
  2
_ArchTick
 10
4089.399755561518
 20
4290.506721650738
 30
0.0
 41
0.156
 42
0.156
 43
0.156
 50
90.0
  0
INSERT
  5
2BB
330
2B4
100
AcDbEntity
  8
0
 62
     0
370
    -2
100
AcDbBlockReference
  2
_ArchTick
 10
4089.399755561518
 20
4281.817661683105
 30
0.0
 41
0.156
 42
0.156
 43
0.156
 50
270.0
  0
MTEXT
  5
2BC
330
2B4
100
AcDbEntity
  8
0
 62
     0
100
AcDbMText
 10
4089.399755561517
 20
4286.364536152464
 30
0.0
 40
0.3125
 41
0.0
 71
     5
 72
     1
  1
\A1;8 11/16"
 73
     1
 44
1.0
1001
ACAD
1000
MTEXTBEGIN
1070
    73
1070
     1
1070
    44
1040
1.0
1070
    74
1070
     0
1000
MTEXTEND
  0
MTEXT
  5
2BD
330
2B4
100
AcDbEntity
  8
0
 62
     0
100
AcDbMText
 10
4089.399755561517
 20
4285.942299266116
 30
0.0
 40
0.3125
 41
0.0
 71
     5
 72
     1
  1
\A1;[221mm]
 73
     1
 44
1.0
1001
ACAD
1000
MTEXTBEGIN
1070
    73
1070
     1
1070
    44
1040
1.0
1070
    74
1070
     0
1000
MTEXTEND
  0
POINT
  5
2BE
330
2B4
100
AcDbEntity
  8
Defpoints
 62
     0
100
AcDbPoint
 10
4092.081369090728
 20
4290.506721650738
 30
0.0
  0
POINT
  5
2BF
330
2B4
100
AcDbEntity
  8
Defpoints
 62
     0
100
AcDbPoint
 10
4094.138306939864
 20
4281.817661683105
 30
0.0
  0
POINT
  5
2C0
330
2B4
100
AcDbEntity
  8
Defpoints
 62
     0
100
AcDbPoint
 10
4089.399755561518
 20
4281.817661683105
 30
0.0
  0
ENDBLK
  5
2C1
330
2B4
100
AcDbEntity
  8
0
100
AcDbBlockEnd
  0
BLOCK
  5
2E3
330
2E2
100
AcDbEntity
  8
0
100
AcDbBlockBegin
  2
*D16
 70
     1
 10
0.0
 20
0.0
 30
0.0
  3
*D16
  1

  0
LINE
  5
2E4
330
2E2
100
AcDbEntity
  8
0
 62
     0
370
    -2
100
AcDbLine
 10
4091.737184687224
 20
4283.43630411742
 30
0.0
 11
4091.737184687224
 21
4282.807051738887
 31
0.0
  0
LINE
  5
2E5
330
2E2
100
AcDbEntity
  8
0
 62
     0
370
    -2
100
AcDbLine
 10
4091.237184687236
 20
4283.49880411742
 30
0.0
 11
4091.237184687236
 21
4282.807051738887
 31
0.0
  0
LINE
  5
2E6
330
2E2
100
AcDbEntity
  8
0
 62
     0
370
    -2
100
AcDbLine
 10
4091.737184687224
 20
4282.837051738887
 30
0.0
 11
4091.237184687236
 21
4282.837051738887
 31
0.0
  0
LINE
  5
2E7
330
2E2
100
AcDbEntity
  8
0
 62
     0
370
    -2
100
AcDbLine
 10
4091.237184687236
 20
4282.837051738887
 30
0.0
 11
4091.081184687236
 21
4282.837051738887
 31
0.0
  0
INSERT
  5
2E8
330
2E2
100
AcDbEntity
  8
0
 62
     0
370
    -2
100
AcDbBlockReference
  2
_ArchTick
 10
4091.737184687224
 20
4282.837051738887
 30
0.0
 41
0.156
 42
0.156
 43
0.156
  0
INSERT
  5
2E9
330
2E2
100
AcDbEntity
  8
0
 62
     0
370
    -2
100
AcDbBlockReference
  2
_ArchTick
 10
4091.237184687236
 20
4282.837051738887
 30
0.0
 41
0.156
 42
0.156
 43
0.156
 50
180.0
  0
MTEXT
  5
2EA
330
2E2
100
AcDbEntity
  8
0
 62
     0
100
AcDbMText
 10
4090.640952404121
 20
4283.039396224428
 30
0.0
 40
0.3125
 41
0.0
 71
     5
 72
     1
  1
\A1;1/2"
 73
     1
 44
1.0
1001
ACAD
1000
MTEXTBEGIN
1070
    73
1070
     1
1070
    44
1040
1.0
1070
    74
1070
     0
1000
MTEXTEND
  0
MTEXT
  5
2EB
330
2E2
100
AcDbEntity
  8
0
 62
     0
100
AcDbMText
 10
4090.640952404121
 20
4282.61715933808
 30
0.0
 40
0.3125
 41
0.0
 71
     5
 72
     1
  1
\A1;[13mm]
 73
     1
 44
1.0
1001
ACAD
1000
MTEXTBEGIN
1070
    73
1070
     1
1070
    44
1040
1.0
1070
    74
1070
     0
1000
MTEXTEND
  0
POINT
  5
2EC
330
2E2
100
AcDbEntity
  8
Defpoints
 62
     0
100
AcDbPoint
 10
4091.737184687224
 20
4283.47630411742
 30
0.0
  0
POINT
  5
2ED
330
2E2
100
AcDbEntity
  8
Defpoints
 62
     0
100
AcDbPoint
 10
4091.237184687236
 20
4283.53880411742
 30
0.0
  0
POINT
  5
2EE
330
2E2
100
AcDbEntity
  8
Defpoints
 62
     0
100
AcDbPoint
 10
4091.237184687236
 20
4282.837051738887
 30
0.0
  0
ENDBLK
  5
2EF
330
2E2
100
AcDbEntity
  8
0
100
AcDbBlockEnd
  0
BLOCK
  5
2F4
330
2F3
100
AcDbEntity
  8
0
100
AcDbBlockBegin
  2
*D17
 70
     1
 10
0.0
 20
0.0
 30
0.0
  3
*D17
  1

  0
LINE
  5
2F5
330
2F3
100
AcDbEntity
  8
0
 62
     0
370
    -2
100
AcDbLine
 10
4091.259684687235
 20
4283.47630411742
 30
0.0
 11
4090.623901516772
 21
4283.47630411742
 31
0.0
  0
LINE
  5
2F6
330
2F3
100
AcDbEntity
  8
0
 62
     0
370
    -2
100
AcDbLine
 10
4091.259684687235
 20
4288.60130411742
 30
0.0
 11
4090.623901516772
 21
4288.60130411742
 31
0.0
  0
LINE
  5
2F7
330
2F3
100
AcDbEntity
  8
0
 62
     0
370
    -2
100
AcDbLine
 10
4090.653901516771
 20
4283.47630411742
 30
0.0
 11
4090.653901516771
 21
4285.616567231071
 31
0.0
  0
LINE
  5
2F8
330
2F3
100
AcDbEntity
  8
0
 62
     0
370
    -2
100
AcDbLine
 10
4090.653901516771
 20
4288.60130411742
 30
0.0
 11
4090.653901516771
 21
4286.461041003768
 31
0.0
  0
INSERT
  5
2F9
330
2F3
100
AcDbEntity
  8
0
 62
     0
370
    -2
100
AcDbBlockReference
  2
_ArchTick
 10
4090.653901516771
 20
4283.47630411742
 30
0.0
 41
0.156
 42
0.156
 43
0.156
 50
270.0
  0
INSERT
  5
2FA
330
2F3
100
AcDbEntity
  8
0
 62
     0
370
    -2
100
AcDbBlockReference
  2
_ArchTick
 10
4090.653901516771
 20
4288.60130411742
 30
0.0
 41
0.156
 42
0.156
 43
0.156
 50
90.0
  0
MTEXT
  5
2FB
330
2F3
100
AcDbEntity
  8
0
 62
     0
100
AcDbMText
 10
4090.653901516771
 20
4286.241148602962
 30
0.0
 40
0.3125
 41
0.0
 71
     5
 72
     1
  1
\A1;5 1/8"
 73
     1
 44
1.0
1001
ACAD
1000
MTEXTBEGIN
1070
    73
1070
     1
1070
    44
1040
1.0
1070
    74
1070
     0
1000
MTEXTEND
  0
MTEXT
  5
2FC
330
2F3
100
AcDbEntity
  8
0
 62
     0
100
AcDbMText
 10
4090.653901516771
 20
4285.818911716614
 30
0.0
 40
0.3125
 41
0.0
 71
     5
 72
     1
  1
\A1;[130mm]
 73
     1
 44
1.0
1001
ACAD
1000
MTEXTBEGIN
1070
    73
1070
     1
1070
    44
1040
1.0
1070
    74
1070
     0
1000
MTEXTEND
  0
POINT
  5
2FD
330
2F3
100
AcDbEntity
  8
Defpoints
 62
     0
100
AcDbPoint
 10
4091.299684687236
 20
4283.47630411742
 30
0.0
  0
POINT
  5
2FE
330
2F3
100
AcDbEntity
  8
Defpoints
 62
     0
100
AcDbPoint
 10
4091.299684687236
 20
4288.60130411742
 30
0.0
  0
POINT
  5
2FF
330
2F3
100
AcDbEntity
  8
Defpoints
 62
     0
100
AcDbPoint
 10
4090.653901516771
 20
4288.60130411742
 30
0.0
  0
ENDBLK
  5
300
330
2F3
100
AcDbEntity
  8
0
100
AcDbBlockEnd
  0
BLOCK
  5
306
330
305
100
AcDbEntity
  8
0
100
AcDbBlockBegin
  2
*D18
 70
     1
 10
0.0
 20
0.0
 30
0.0
  3
*D18
  1

  0
LINE
  5
307
330
305
100
AcDbEntity
  8
0
 62
     0
370
    -2
100
AcDbLine
 10
4093.307934687237
 20
4288.03780410465
 30
0.0
 11
4093.412103553957
 21
4288.03780410465
 31
0.0
  0
LINE
  5
308
330
305
100
AcDbEntity
  8
0
 62
     0
370
    -2
100
AcDbLine
 10
4093.307934687237
 20
4284.03780410465
 30
0.0
 11
4093.412103553957
 21
4284.03780410465
 31
0.0
  0
LINE
  5
309
330
305
100
AcDbEntity
  8
0
 62
     0
370
    -2
100
AcDbLine
 10
4093.382103553956
 20
4288.03780410465
 30
0.0
 11
4093.382103553956
 21
4286.456993748228
 31
0.0
  0
LINE
  5
30A
330
305
100
AcDbEntity
  8
0
 62
     0
370
    -2
100
AcDbLine
 10
4093.382103553956
 20
4284.03780410465
 30
0.0
 11
4093.382103553956
 21
4285.618614461073
 31
0.0
  0
INSERT
  5
30B
330
305
100
AcDbEntity
  8
0
 62
     0
370
    -2
100
AcDbBlockReference
  2
_ArchTick
 10
4093.382103553956
 20
4288.03780410465
 30
0.0
 41
0.156
 42
0.156
 43
0.156
 50
90.0
  0
INSERT
  5
30C
330
305
100
AcDbEntity
  8
0
 62
     0
370
    -2
100
AcDbBlockReference
  2
_ArchTick
 10
4093.382103553956
 20
4284.03780410465
 30
0.0
 41
0.156
 42
0.156
 43
0.156
 50
270.0
  0
MTEXT
  5
30D
330
305
100
AcDbEntity
  8
0
 62
     0
100
AcDbMText
 10
4093.382103553956
 20
4286.237101347422
 30
0.0
 40
0.3125
 41
0.0
 71
     5
 72
     1
  1
\A1;4"
 73
     1
 44
1.0
1001
ACAD
1000
MTEXTBEGIN
1070
    73
1070
     1
1070
    44
1040
1.0
1070
    74
1070
     0
1000
MTEXTEND
  0
MTEXT
  5
30E
330
305
100
AcDbEntity
  8
0
 62
     0
100
AcDbMText
 10
4093.382103553956
 20
4285.817911703844
 30
0.0
 40
0.3125
 41
0.0
 71
     5
 72
     1
  1
\A1;[102mm]
 73
     1
 44
1.0
1001
ACAD
1000
MTEXTBEGIN
1070
    73
1070
     1
1070
    44
1040
1.0
1070
    74
1070
     0
1000
MTEXTEND
  0
POINT
  5
30F
330
305
100
AcDbEntity
  8
Defpoints
 62
     0
100
AcDbPoint
 10
4093.267934687236
 20
4288.03780410465
 30
0.0
  0
POINT
  5
310
330
305
100
AcDbEntity
  8
Defpoints
 62
     0
100
AcDbPoint
 10
4093.267934687236
 20
4284.03780410465
 30
0.0
  0
POINT
  5
311
330
305
100
AcDbEntity
  8
Defpoints
 62
     0
100
AcDbPoint
 10
4093.382103553956
 20
4284.03780410465
 30
0.0
  0
ENDBLK
  5
312
330
305
100
AcDbEntity
  8
0
100
AcDbBlockEnd
  0
BLOCK
  5
31A
330
319
100
AcDbEntity
  8
0
100
AcDbBlockBegin
  2
*D19
 70
     1
 10
0.0
 20
0.0
 30
0.0
  3
*D19
  1

  0
LINE
  5
31B
330
319
100
AcDbEntity
  8
0
 62
     0
370
    -2
100
AcDbLine
 10
4098.617348135769
 20
4288.595277853073
 30
0.0
 11
4099.315153960024
 21
4288.595277853073
 31
0.0
  0
LINE
  5
31C
330
319
100
AcDbEntity
  8
0
 62
     0
370
    -2
100
AcDbLine
 10
4098.590684687237
 20
4283.476304104651
 30
0.0
 11
4099.315153960024
 21
4283.476304104651
 31
0.0
  0
LINE
  5
31D
330
319
100
AcDbEntity
  8
0
 62
     0
370
    -2
100
AcDbLine
 10
4099.285153960025
 20
4288.595277853073
 30
0.0
 11
4099.285153960025
 21
4286.458027865211
 31
0.0
  0
LINE
  5
31E
330
319
100
AcDbEntity
  8
0
 62
     0
370
    -2
100
AcDbLine
 10
4099.285153960025
 20
4283.476304104651
 30
0.0
 11
4099.285153960025
 21
4285.613554092514
 31
0.0
  0
INSERT
  5
31F
330
319
100
AcDbEntity
  8
0
 62
     0
370
    -2
100
AcDbBlockReference
  2
_ArchTick
 10
4099.285153960025
 20
4288.595277853073
 30
0.0
 41
0.156
 42
0.156
 43
0.156
 50
90.0
  0
INSERT
  5
320
330
319
100
AcDbEntity
  8
0
 62
     0
370
    -2
100
AcDbBlockReference
  2
_ArchTick
 10
4099.285153960025
 20
4283.476304104651
 30
0.0
 41
0.156
 42
0.156
 43
0.156
 50
270.0
  0
MTEXT
  5
321
330
319
100
AcDbEntity
  8
0
 62
     0
100
AcDbMText
 10
4099.285153960024
 20
4286.238135464405
 30
0.0
 40
0.3125
 41
0.0
 71
     5
 72
     1
  1
\A1;5 1/8"
 73
     1
 44
1.0
1001
ACAD
1000
MTEXTBEGIN
1070
    73
1070
     1
1070
    44
1040
1.0
1070
    74
1070
     0
1000
MTEXTEND
  0
MTEXT
  5
322
330
319
100
AcDbEntity
  8
0
 62
     0
100
AcDbMText
 10
4099.285153960024
 20
4285.815898578056
 30
0.0
 40
0.3125
 41
0.0
 71
     5
 72
     1
  1
\A1;[130mm]
 73
     1
 44
1.0
1001
ACAD
1000
MTEXTBEGIN
1070
    73
1070
     1
1070
    44
1040
1.0
1070
    74
1070
     0
1000
MTEXTEND
  0
POINT
  5
323
330
319
100
AcDbEntity
  8
Defpoints
 62
     0
100
AcDbPoint
 10
4098.577348135768
 20
4288.595277853073
 30
0.0
  0
POINT
  5
324
330
319
100
AcDbEntity
  8
Defpoints
 62
     0
100
AcDbPoint
 10
4098.550684687237
 20
4283.476304104651
 30
0.0
  0
POINT
  5
325
330
319
100
AcDbEntity
  8
Defpoints
 62
     0
100
AcDbPoint
 10
4099.285153960025
 20
4283.476304104651
 30
0.0
  0
ENDBLK
  5
326
330
319
100
AcDbEntity
  8
0
100
AcDbBlockEnd
  0
BLOCK
  5
32B
330
32A
100
AcDbEntity
  8
0
100
AcDbBlockBegin
  2
*D20
 70
     1
 10
0.0
 20
0.0
 30
0.0
  3
*D20
  1

  0
LINE
  5
32C
330
32A
100
AcDbEntity
  8
0
 62
     0
370
    -2
100
AcDbLine
 10
4098.362684687236
 20
4288.641304104651
 30
0.0
 11
4098.362684687236
 21
4289.353536263583
 31
0.0
  0
LINE
  5
32D
330
32A
100
AcDbEntity
  8
0
 62
     0
370
    -2
100
AcDbLine
 10
4098.612684687235
 20
4288.579304104653
 30
0.0
 11
4098.612684687235
 21
4289.353536263583
 31
0.0
  0
LINE
  5
32E
330
32A
100
AcDbEntity
  8
0
 62
     0
370
    -2
100
AcDbLine
 10
4098.362684687236
 20
4289.323536263584
 30
0.0
 11
4098.612684687235
 21
4289.323536263584
 31
0.0
  0
LINE
  5
32F
330
32A
100
AcDbEntity
  8
0
 62
     0
370
    -2
100
AcDbLine
 10
4098.612684687235
 20
4289.323536263584
 30
0.0
 11
4098.768684687235
 21
4289.323536263584
 31
0.0
  0
INSERT
  5
330
330
32A
100
AcDbEntity
  8
0
 62
     0
370
    -2
100
AcDbBlockReference
  2
_ArchTick
 10
4098.362684687236
 20
4289.323536263584
 30
0.0
 41
0.156
 42
0.156
 43
0.156
 50
180.0
  0
INSERT
  5
331
330
32A
100
AcDbEntity
  8
0
 62
     0
370
    -2
100
AcDbBlockReference
  2
_ArchTick
 10
4098.612684687235
 20
4289.323536263584
 30
0.0
 41
0.156
 42
0.156
 43
0.156
  0
MTEXT
  5
332
330
32A
100
AcDbEntity
  8
0
 62
     0
100
AcDbMText
 10
4099.137889944461
 20
4289.525880749125
 30
0.0
 40
0.3125
 41
0.0
 71
     5
 72
     1
  1
\A1;1/4"
 73
     1
 44
1.0
1001
ACAD
1000
MTEXTBEGIN
1070
    73
1070
     1
1070
    44
1040
1.0
1070
    74
1070
     0
1000
MTEXTEND
  0
MTEXT
  5
333
330
32A
100
AcDbEntity
  8
0
 62
     0
100
AcDbMText
 10
4099.137889944461
 20
4289.103643862777
 30
0.0
 40
0.3125
 41
0.0
 71
     5
 72
     1
  1
\A1;[6mm]
 73
     1
 44
1.0
1001
ACAD
1000
MTEXTBEGIN
1070
    73
1070
     1
1070
    44
1040
1.0
1070
    74
1070
     0
1000
MTEXTEND
  0
POINT
  5
334
330
32A
100
AcDbEntity
  8
Defpoints
 62
     0
100
AcDbPoint
 10
4098.362684687236
 20
4288.601304104651
 30
0.0
  0
POINT
  5
335
330
32A
100
AcDbEntity
  8
Defpoints
 62
     0
100
AcDbPoint
 10
4098.612684687235
 20
4288.539304104653
 30
0.0
  0
POINT
  5
336
330
32A
100
AcDbEntity
  8
Defpoints
 62
     0
100
AcDbPoint
 10
4098.612684687235
 20
4289.323536263584
 30
0.0
  0
ENDBLK
  5
337
330
32A
100
AcDbEntity
  8
0
100
AcDbBlockEnd
  0
ENDSEC
  0
SECTION
  2
ENTITIES
  0
LWPOLYLINE
  5
6A
102
{ACAD_REACTORS
330
165
102
}
330
2
100
AcDbEntity
  8
0
  6
Continuous
100
AcDbPolyline
 90
       16
 70
     1
 43
0.0
 10
4087.507368414715
 20
4291.122259899089
 10
4087.507368414715
 20
4290.902884899092
 42
-0.4142135623730951
 10
4087.491743414715
 20
4290.887259899093
 10
4083.81936841472
 20
4290.887259899093
 10
4083.81936841472
 20
4290.98025989909
 10
4083.56936841472
 20
4290.98025989909
 10
4083.56936841472
 20
4290.887259899093
 10
4082.897993414706
 20
4290.887259899093
 42
-0.4142135623730951
 10
4082.882368414707
 20
4290.902884899092
 10
4082.882368414714
 20
4291.509259899092
 10
4083.319368414719
 20
4291.509259899092
 10
4083.319368414719
 20
4291.466259899091
 10
4083.56936841472
 20
4291.466259899091
 10
4083.56936841472
 20
4291.559259899091
 10
4087.507368414715
 20
4291.559259899091
 10
4087.507368414715
 20
4291.341259899092
 42
0.9979286332485141
  0
HATCH
  5
6B
330
2
100
AcDbEntity
  8
0
100
AcDbHatch
 10
0.0
 20
0.0
 30
0.0
210
0.0
220
0.0
230
1.0
  2
AR-SAND
 70
     0
 71
     1
 91
        1
 92
        7
 72
     0
 73
     1
 93
        4
 10
4083.882257229201
 20
4290.383132224801
 10
4083.882257229201
 20
4290.570632224801
 10
4083.382257229201
 20
4290.570632224801
 10
4083.382257229201
 20
4290.383132224801
 97
        2
330
6C
330
B2
 75
     0
 76
     1
 52
0.0
 41
0.02
 77
     0
 78
     4
 53
37.5
 43
4098.463859152881
 44
4281.103765928683
 45
-0.0012598671621922
 46
0.0385364753802632
 79
     6
 49
0.0
 49
-0.0304
 49
0.0
 49
-0.034
 49
0.0
 49
-0.0325
 53
7.499999999999999
 43
4098.463859152881
 44
4281.103765928683
 45
0.0353955341053546
 46
0.0564429213045948
 79
     6
 49
0.0
 49
-0.0164
 49
0.0
 49
-0.0274
 49
0.0
 49
-0.0105
 53
327.5
 43
4098.439259152882
 44
4281.103765928683
 45
0.0622828372350299
 46
0.0001131810707393
 79
     6
 49
0.0
 49
-0.01
 49
0.0
 49
-0.036
 49
0.0
 49
-0.047
 53
317.5
 43
4098.439259152882
 44
4281.103765928683
 45
0.0601225320914459
 46
0.017553511298685
 79
     6
 49
0.0
 49
-0.005
 49
0.0
 49
-0.0236
 49
0.0
 49
-0.027
 47
0.00154997623302
 98
        1
 10
4083.617952057971
 20
4290.45593996677
  0
LWPOLYLINE
  5
6C
102
{ACAD_REACTORS
330
6B
102
}
330
2
100
AcDbEntity
  8
0
100
AcDbPolyline
 90
       22
 70
     0
 43
0.0
 10
4083.007757315733
 20
4290.0706322248
 10
4083.3512572292
 20
4290.0706322248
 42
0.414213562373094
 10
4083.382257229201
 20
4290.1016322248
 10
4083.382257229201
 20
4290.570632224801
 10
4083.882257229201
 20
4290.570632224801
 10
4083.882257229201
 20
4289.851259899092
 42
0.4142135623730914
 10
4083.913257229201
 20
4289.820259899093
 10
4085.066265435638
 20
4289.820259899093
 10
4085.066265435638
 20
4289.945259899092
 10
4084.940956789754
 20
4289.945259899092
 10
4084.940956789754
 20
4290.507259899093
 10
4084.659956789755
 20
4290.507259899093
 10
4084.659956789755
 20
4290.587259899092
 10
4085.047265435638
 20
4290.587259899092
 10
4085.047265435638
 20
4290.887259899093
 10
4083.81936841472
 20
4290.887259899093
 10
4083.81936841472
 20
4290.964619233584
 10
4083.597353848753
 20
4290.964619233584
 10
4083.570588274505
 20
4290.887259899093
 10
4082.942339447025
 20
4290.887259899093
 10
4082.942339447025
 20
4290.13253794484
 42
0.4142135623730951
 10
4083.004339447025
 20
4290.07053794484
  0
ARC
  5
6D
330
2
100
AcDbEntity
  8
0010010007
100
AcDbCircle
 10
4084.971956789754
 20
4290.420259899092
 30
0.0
 40
0.0310000000010811
100
AcDbArc
 50
89.99999999861907
 51
110.783559594432
  0
LINE
  5
71
330
2
100
AcDbEntity
  8
0010010007
100
AcDbLine
 10
4084.971956789754
 20
4290.451259899093
 30
0.0
 11
4085.035265435638
 21
4290.451259899093
 31
0.0
  0
LINE
  5
72
330
2
100
AcDbEntity
  8
0010010007
100
AcDbLine
 10
4084.971956789754
 20
4290.431259899093
 30
0.0
 11
4085.035265435638
 21
4290.431259899093
 31
0.0
  0
ARC
  5
73
330
2
100
AcDbEntity
  8
0010010007
100
AcDbCircle
 10
4084.971956789754
 20
4290.420259899093
 30
0.0
 40
0.0110000000004202
100
AcDbArc
 50
90.0
 51
180.0
  0
ARC
  5
74
330
2
100
AcDbEntity
  8
0010010007
100
AcDbCircle
 10
4085.035265435638
 20
4290.420259899093
 30
0.0
 40
0.0309999999999491
100
AcDbArc
 50
0.0
 51
90.0
  0
ARC
  5
75
330
2
100
AcDbEntity
  8
0010010007
100
AcDbCircle
 10
4085.035265435638
 20
4290.420259899093
 30
0.0
 40
0.011000000000422
100
AcDbArc
 50
0.0
 51
90.0
  0
LINE
  5
76
330
2
100
AcDbEntity
  8
0010010007
100
AcDbLine
 10
4085.066265435638
 20
4290.420259899093
 30
0.0
 11
4085.066265435638
 21
4290.194202229501
 31
0.0
  0
ARC
  5
77
330
2
100
AcDbEntity
  8
0010010007
100
AcDbCircle
 10
4085.035265435638
 20
4290.194202229501
 30
0.0
 40
0.0309999999999491
100
AcDbArc
 50
270.0
 51
0.0
  0
ARC
  5
78
330
2
100
AcDbEntity
  8
0010010007
100
AcDbCircle
 10
4085.035265435638
 20
4290.194202229501
 30
0.0
 40
0.011000000000422
100
AcDbArc
 50
270.0
 51
0.0
  0
LINE
  5
79
330
2
100
AcDbEntity
  8
0010010007
100
AcDbLine
 10
4085.035265435638
 20
4290.163202229501
 30
0.0
 11
4084.971956789756
 21
4290.163202229501
 31
0.0
  0
LINE
  5
7A
330
2
100
AcDbEntity
  8
0010010007
100
AcDbLine
 10
4085.035265435638
 20
4290.1832022295
 30
0.0
 11
4084.971956789754
 21
4290.1832022295
 31
0.0
  0
LINE
  5
7B
330
2
100
AcDbEntity
  8
0010010007
100
AcDbLine
 10
4084.940956789756
 20
4290.194202229501
 30
0.0
 11
4084.940956789754
 21
4290.537259899092
 31
0.0
  0
LINE
  5
7C
330
2
100
AcDbEntity
  8
0010010007
100
AcDbLine
 10
4084.960956789754
 20
4290.194202229501
 30
0.0
 11
4084.960956789754
 21
4290.420259899093
 31
0.0
  0
ARC
  5
7D
330
2
100
AcDbEntity
  8
0010010007
100
AcDbCircle
 10
4084.971956789754
 20
4290.194202229501
 30
0.0
 40
0.0110000000004202
100
AcDbArc
 50
180.0
 51
270.0
  0
ARC
  5
7E
330
2
100
AcDbEntity
  8
0010010007
100
AcDbCircle
 10
4084.971956789756
 20
4290.194202229501
 30
0.0
 40
0.0309999999999491
100
AcDbArc
 50
180.0
 51
270.0
  0
LINE
  5
7F
330
2
100
AcDbEntity
  8
0010010007
100
AcDbLine
 10
4084.940956789754
 20
4290.537259899092
 30
0.0
 11
4084.837627226501
 21
4290.537259899092
 31
0.0
  0
LINE
  5
80
330
2
100
AcDbEntity
  8
0010010007
100
AcDbLine
 10
4084.837627226501
 20
4290.537259899092
 30
0.0
 11
4084.854947734576
 21
4290.507259899093
 31
0.0
  0
LINE
  5
81
330
2
100
AcDbEntity
  8
0010010007
100
AcDbLine
 10
4084.854947734576
 20
4290.507259899093
 30
0.0
 11
4084.83827729783
 21
4290.507259899093
 31
0.0
  0
LINE
  5
82
330
2
100
AcDbEntity
  8
0010010007
100
AcDbLine
 10
4084.83827729783
 20
4290.507259899093
 30
0.0
 11
4084.820956789754
 21
4290.537259899092
 31
0.0
  0
LINE
  5
83
330
2
100
AcDbEntity
  8
0010010007
100
AcDbLine
 10
4084.820956789754
 20
4290.537259899092
 30
0.0
 11
4084.768407862218
 21
4290.537259899092
 31
0.0
  0
LINE
  5
84
330
2
100
AcDbEntity
  8
0010010007
100
AcDbLine
 10
4084.768407862218
 20
4290.537259899092
 30
0.0
 11
4084.785728370294
 21
4290.507259899093
 31
0.0
  0
LINE
  5
85
330
2
100
AcDbEntity
  8
0010010007
100
AcDbLine
 10
4084.785728370294
 20
4290.507259899093
 30
0.0
 11
4084.768277297829
 21
4290.507259899093
 31
0.0
  0
LINE
  5
86
330
2
100
AcDbEntity
  8
0010010007
100
AcDbLine
 10
4084.768277297829
 20
4290.507259899093
 30
0.0
 11
4084.750956789753
 21
4290.537259899092
 31
0.0
  0
LINE
  5
87
330
2
100
AcDbEntity
  8
0010010007
100
AcDbLine
 10
4084.750956789753
 20
4290.537259899092
 30
0.0
 11
4084.710956789754
 21
4290.537259899092
 31
0.0
  0
LINE
  5
88
330
2
100
AcDbEntity
  8
0010010007
100
AcDbLine
 10
4084.710956789754
 20
4290.537259899092
 30
0.0
 11
4084.710956789754
 21
4290.557259899093
 31
0.0
  0
LINE
  5
89
330
2
100
AcDbEntity
  8
0010010007
100
AcDbLine
 10
4084.710956789754
 20
4290.557259899093
 30
0.0
 11
4084.750956789753
 21
4290.557259899093
 31
0.0
  0
LINE
  5
8A
330
2
100
AcDbEntity
  8
0010010007
100
AcDbLine
 10
4084.750956789753
 20
4290.557259899093
 30
0.0
 11
4084.768277297829
 21
4290.587259899092
 31
0.0
  0
LINE
  5
8B
330
2
100
AcDbEntity
  8
0010010007
100
AcDbLine
 10
4084.768277297829
 20
4290.587259899092
 30
0.0
 11
4084.785181013819
 21
4290.587259899092
 31
0.0
  0
LINE
  5
8C
330
2
100
AcDbEntity
  8
0010010007
100
AcDbLine
 10
4084.785181013819
 20
4290.587259899092
 30
0.0
 11
4084.767860505744
 21
4290.557259899093
 31
0.0
  0
LINE
  5
8D
330
2
100
AcDbEntity
  8
0010010007
100
AcDbLine
 10
4084.767860505744
 20
4290.557259899093
 30
0.0
 11
4084.820331789754
 21
4290.557259899093
 31
0.0
  0
LINE
  5
8E
330
2
100
AcDbEntity
  8
0010010007
100
AcDbLine
 10
4084.820331789754
 20
4290.557259899093
 30
0.0
 11
4084.83765229783
 21
4290.587259899092
 31
0.0
  0
LINE
  5
8F
330
2
100
AcDbEntity
  8
0010010007
100
AcDbLine
 10
4084.83765229783
 20
4290.587259899092
 30
0.0
 11
4084.854218471787
 21
4290.587259899092
 31
0.0
  0
LINE
  5
90
330
2
100
AcDbEntity
  8
0010010007
100
AcDbLine
 10
4084.854218471787
 20
4290.587259899092
 30
0.0
 11
4084.836897963711
 21
4290.557259899093
 31
0.0
  0
LINE
  5
91
330
2
100
AcDbEntity
  8
0010010007
100
AcDbLine
 10
4084.836897963711
 20
4290.557259899093
 30
0.0
 11
4084.960956789754
 21
4290.557259899093
 31
0.0
  0
LINE
  5
92
330
2
100
AcDbEntity
  8
0010010007
100
AcDbLine
 10
4084.960956789754
 20
4290.557259899093
 30
0.0
 11
4084.960956789754
 21
4290.449242652585
 31
0.0
  0
LINE
  5
93
330
2
100
AcDbEntity
  8
0
100
AcDbLine
 10
4085.046265435638
 20
4290.420259899093
 30
0.0
 11
4085.046265435638
 21
4290.194202229501
 31
0.0
  0
INSERT
  5
94
330
2
100
AcDbEntity
  8
0
100
AcDbBlockReference
  2
86NPF141
 10
4085.815673149402
 20
4290.360025349922
 30
0.0
 41
-1.0
 43
2.0
 50
270.0
  0
LWPOLYLINE
  5
AC
330
2
100
AcDbEntity
  8
0
100
AcDbPolyline
 90
       16
 70
     0
 43
0.0
 10
4083.710382229202
 20
4289.7581322248
 10
4083.554132229201
 20
4289.7581322248
 10
4083.554132229201
 20
4289.7893822248
 10
4083.554132229201
 20
4289.7581322248
 10
4083.678982229201
 20
4289.7581322248
 42
0.4142135623730951
 10
4083.710382229202
 20
4289.7895322248
 10
4083.710382229202
 20
4289.882982224801
 42
0.4142135623730951
 10
4083.678982229201
 20
4289.9143822248
 10
4083.507407229201
 20
4289.9143822248
 42
-0.4142135623730951
 10
4083.476007229201
 20
4289.9457822248
 10
4083.476007229201
 20
4290.3204822248
 42
-0.4142135623730951
 10
4083.507407229201
 20
4290.351882224801
 10
4083.819607229201
 20
4290.351882224801
 42
-0.4142135623730951
 10
4083.851007229201
 20
4290.3204822248
 10
4083.851007229201
 20
4289.7895322248
 42
-0.4142135623730951
 10
4083.819607229201
 20
4289.7581322248
  0
LWPOLYLINE
  5
AD
330
2
100
AcDbEntity
  8
0
100
AcDbPolyline
 90
       19
 70
     1
 43
0.0
 10
4083.554132229201
 20
4289.7893822248
 10
4083.647732229201
 20
4289.7893822248
 42
0.4142135623730951
 10
4083.6791322292
 20
4289.8207822248
 10
4083.6791322292
 20
4289.851732224801
 42
0.4142135623730951
 10
4083.647732229201
 20
4289.8831322248
 10
4083.476157229201
 20
4289.8831322248
 42
-0.4142135623730951
 10
4083.444757229201
 20
4289.9145322248
 10
4083.444757229201
 20
4290.351732224801
 42
-0.4142135623730951
 10
4083.476157229201
 20
4290.383132224801
 10
4083.850857229201
 20
4290.383132224801
 42
-0.4142135623730951
 10
4083.882257229201
 20
4290.351732224801
 10
4083.882257229201
 20
4289.7582822248
 42
-0.4142135623730951
 10
4083.850857229201
 20
4289.7268822248
 10
4083.554282229201
 20
4289.7268822248
 42
-0.4142135623730951
 10
4083.522882229201
 20
4289.7582822248
 10
4083.522882229201
 20
4289.789232224801
 42
-0.4142135623730951
 10
4083.554282229201
 20
4289.820632224801
 10
4083.6478822292
 20
4289.820632224801
 10
4083.6478822292
 20
4289.7893822248
  0
LWPOLYLINE
  5
AE
330
2
100
AcDbEntity
  8
0
100
AcDbPolyline
 90
        2
 70
     0
 43
0.0
 10
4083.819757229201
 20
4289.7581322248
 10
4083.6478822292
 20
4289.7581322248
  0
LWPOLYLINE
  5
AF
330
2
100
AcDbEntity
  8
0
  6
HIDDEN2
100
AcDbPolyline
 90
        4
 70
     0
 43
0.02
 10
4083.509067328972
 20
4288.507082613594
 10
4083.509067328972
 20
4289.806360311748
 42
-0.4142135623730951
 10
4083.555567328972
 20
4289.852860311748
 10
4083.647467104794
 20
4289.852860311748
  0
LWPOLYLINE
  5
B1
330
2
100
AcDbEntity
  8
0
100
AcDbPolyline
 90
        2
 70
     1
 43
0.03125
 10
4083.647467104794
 20
4289.868485311749
 42
1.0
 10
4083.647467104794
 20
4289.837235311749
 42
1.0
  0
LINE
  5
B2
102
{ACAD_REACTORS
330
6B
102
}
330
2
100
AcDbEntity
  8
0
100
AcDbLine
 10
4083.882257229201
 20
4290.383132224801
 30
0.0
 11
4083.382257229201
 21
4290.383132224801
 31
0.0
  0
LINE
  5
B3
330
2
100
AcDbEntity
  8
0
  6
HIDDEN2
100
AcDbLine
 10
4086.003265435643
 20
4288.507082613594
 30
0.0
 11
4083.509067328972
 21
4288.507082613594
 31
0.0
  0
LINE
  5
B4
330
2
100
AcDbEntity
  8
0
100
AcDbLine
 10
4087.213733582493
 20
4290.887259899093
 30
0.0
 11
4085.54437504764
 21
4290.887259899093
 31
0.0
  0
LWPOLYLINE
  5
B5
330
2
100
AcDbEntity
  8
0
100
AcDbPolyline
 90
        8
 70
     0
 43
0.0
 10
4085.36101543564
 20
4289.214117477547
 10
4086.00326543564
 20
4289.214117477547
 10
4086.00326543564
 20
4289.105117477546
 10
4085.36101543564
 20
4289.105117477546
 10
4085.36101543564
 20
4289.214117477547
 10
4086.00326543564
 20
4289.105117477546
 10
4086.00326543564
 20
4289.214117477547
 10
4085.36101543564
 20
4289.105117477546
  0
HATCH
  5
B6
330
2
100
AcDbEntity
  8
0
  6
Continuous
100
AcDbHatch
 10
0.0
 20
0.0
 30
0.0
210
0.0
220
0.0
230
1.0
  2
DASH
 70
     0
 71
     0
 91
        1
 92
        7
 72
     1
 73
     1
 93
       16
 10
4085.479015435641
 20
4288.883651126798
 42
0.0
 10
4085.504390435641
 20
4288.883651126798
 42
-0.414213562373094
 10
4085.520015435641
 20
4288.899276126798
 42
0.0
 10
4085.555503223699
 20
4288.875088626798
 42
0.3208708054700796
 10
4085.588390435641
 20
4288.895814294931
 42
0.0
 10
4085.588390435641
 20
4288.952651126798
 42
-0.4142135623730951
 10
4085.604015435641
 20
4288.968276126798
 42
0.0
 10
4085.760265435641
 20
4288.968276126798
 42
-0.4142135623730951
 10
4085.775890435641
 20
4288.952651126798
 42
0.0
 10
4085.775890435641
 20
4288.89545138585
 42
0.3359746306540742
 10
4085.808394345387
 20
4288.875088626798
 42
0.0
 10
4085.844265435642
 20
4288.899276126798
 42
-0.4142135623730951
 10
4085.859890435641
 20
4288.883651126798
 42
0.0
 10
4085.885265435641
 20
4288.883651126798
 42
0.0
 10
4085.885265435641
 20
4289.105276126798
 42
0.0
 10
4085.479015435641
 20
4289.105276126798
 42
0.0
 97
        0
 75
     0
 76
     1
 52
180.0
 41
0.1
 77
     0
 78
     1
 53
180.0
 43
4103.36427190095
 44
4291.940812281676
 45
-0.0125
 46
-0.0125
 79
     2
 49
0.0125
 49
-0.0125
 47
0.0022535086831111
 98
        1
 10
4085.571873253132
 20
4289.005150866215
  0
HATCH
  5
B7
330
2
100
AcDbEntity
  8
0
  6
Continuous
100
AcDbHatch
 10
0.0
 20
0.0
 30
0.0
210
0.0
220
0.0
230
1.0
  2
DOTS
 70
     0
 71
     0
 91
        2
 92
        7
 72
     0
 73
     1
 93
        4
 10
4085.479015435641
 20
4288.730276126798
 10
4085.504390435641
 20
4288.730276126798
 10
4085.504390435641
 20
4288.883651126798
 10
4085.479015435641
 20
4288.883651126798
 97
        0
 92
        7
 72
     0
 73
     1
 93
        4
 10
4085.859890435641
 20
4288.730276126798
 10
4085.885265435641
 20
4288.730276126798
 10
4085.885265435641
 20
4288.883651126798
 10
4085.859890435641
 20
4288.883651126798
 97
        0
 75
     0
 76
     1
 52
180.0
 41
0.1
 77
     0
 78
     1
 53
180.0
 43
4103.36427190095
 44
4291.940812281676
 45
-0.003125
 46
-0.00625
 79
     2
 49
0.0
 49
-0.00625
 47
0.0009915749623601
 98
        2
 10
4085.494540336907
 20
4288.800632910482
 10
4085.877583830288
 20
4288.785759279472
  0
LWPOLYLINE
  5
B8
330
2
100
AcDbEntity
  8
0
100
AcDbPolyline
 90
       14
 70
     1
 43
0.0
 10
4085.775890435641
 20
4288.89545138585
 42
0.3359746306540741
 10
4085.808394345387
 20
4288.875088626798
 10
4085.844265435642
 20
4288.899276126798
 42
-0.4142135623730951
 10
4085.859890435641
 20
4288.883651126798
 10
4085.859890435641
 20
4288.702026126798
 10
4085.504390435641
 20
4288.702026126798
 10
4085.504390435641
 20
4288.883651126798
 42
-0.414213562373094
 10
4085.520015435641
 20
4288.899276126798
 10
4085.555503223699
 20
4288.875088626798
 42
0.3208708054700532
 10
4085.588390435641
 20
4288.895814294931
 10
4085.588390435641
 20
4288.952651126798
 42
-0.4142135623730951
 10
4085.604015435641
 20
4288.968276126798
 10
4085.760265435641
 20
4288.968276126798
 42
-0.4142135623730951
 10
4085.775890435641
 20
4288.952651126798
1001
ACAD
1000
ASC_BOUNDS
1002
{
1070
    19
1002
}
  0
LWPOLYLINE
  5
B9
330
2
100
AcDbEntity
  8
0
100
AcDbPolyline
 90
       14
 70
     1
 43
0.0
 10
4085.768890435642
 20
4288.894232985705
 42
0.3593608004949541
 10
4085.810890322965
 20
4288.868328969825
 10
4085.846109270077
 20
4288.892076736543
 42
-0.3524310491054993
 10
4085.852890435641
 20
4288.883651126798
 10
4085.852890435641
 20
4288.702026126798
 10
4085.511390435642
 20
4288.702026126798
 10
4085.511390435642
 20
4288.883651126798
 42
-0.3518693664465323
 10
4085.518154763343
 20
4288.892073034159
 10
4085.55307915451
 20
4288.86826952998
 42
0.3446308864324803
 10
4085.595390435641
 20
4288.894508443983
 10
4085.595390435641
 20
4288.952651126798
 42
-0.4142135623730946
 10
4085.604015435641
 20
4288.961276126798
 10
4085.760265435641
 20
4288.961276126798
 42
-0.4142135623730946
 10
4085.768890435642
 20
4288.952651126798
  0
LWPOLYLINE
  5
BA
330
2
100
AcDbEntity
  8
0
100
AcDbPolyline
 90
       10
 70
     1
 43
0.0
 10
4085.744640435641
 20
4288.890713626797
 42
0.3584554666094669
 10
4085.809544281795
 20
4288.843838626798
 10
4085.828640435642
 20
4288.843838626798
 10
4085.828640435642
 20
4288.733276126798
 10
4085.535640435642
 20
4288.733276126798
 10
4085.535640435642
 20
4288.843838626798
 10
4085.554736589487
 20
4288.843838626798
 42
0.3467993108968364
 10
4085.619640435641
 20
4288.890713626797
 10
4085.619640435641
 20
4288.937026126798
 10
4085.744640435641
 20
4288.937026126798
  0
LWPOLYLINE
  5
BB
330
2
100
AcDbEntity
  8
0
100
AcDbPolyline
 90
        6
 70
     0
 43
0.0
 10
4085.859890435641
 20
4288.730276126798
 10
4085.869640435642
 20
4288.730276126798
 10
4085.869640435642
 20
4288.692276126798
 10
4085.494640435642
 20
4288.692276126798
 10
4085.494640435642
 20
4288.730276126798
 10
4085.504390435641
 20
4288.730276126798
  0
LINE
  5
BC
330
2
100
AcDbEntity
  8
0
100
AcDbLine
 10
4085.504390435641
 20
4288.883651126798
 30
0.0
 11
4085.479015435641
 21
4288.883651126798
 31
0.0
  0
LINE
  5
BD
330
2
100
AcDbEntity
  8
0
100
AcDbLine
 10
4085.504390435641
 20
4288.730276126798
 30
0.0
 11
4085.479015435641
 21
4288.730276126798
 31
0.0
  0
LINE
  5
BE
330
2
100
AcDbEntity
  8
0
100
AcDbLine
 10
4085.859890435641
 20
4288.883651126798
 30
0.0
 11
4085.885265435641
 21
4288.883651126798
 31
0.0
  0
LINE
  5
BF
330
2
100
AcDbEntity
  8
0
100
AcDbLine
 10
4085.859890435641
 20
4288.730276126798
 30
0.0
 11
4085.885265435641
 21
4288.730276126798
 31
0.0
  0
LWPOLYLINE
  5
C0
330
2
100
AcDbEntity
  8
0
100
AcDbPolyline
 90
        4
 70
     0
 43
0.0
 10
4085.885265435642
 20
4288.507082613594
 10
4085.885265435639
 20
4289.105276126799
 10
4086.00326543564
 20
4289.105276126799
 10
4086.003265435643
 20
4288.507082613594
  0
HATCH
  5
C1
330
2
100
AcDbEntity
  8
0
100
AcDbHatch
 10
0.0
 20
0.0
 30
0.0
210
0.0
220
0.0
230
1.0
  2
SOLID
 70
     1
 71
     0
 91
        1
 92
        7
 72
     1
 73
     1
 93
        2
 10
4085.361015435642
 20
4288.964117477547
 42
0.6666666666855048
 10
4085.361015435643
 20
4288.776617477545
 42
0.0
 97
        0
 75
     1
 76
     1
 47
0.0008253963891123
 98
        1
 10
4085.334846797047
 20
4288.85428546772
1001
GradientColor1ACI
1070
     5
1001
GradientColor2ACI
1070
     2
1001
ACAD
1010
0.0
1020
0.0
1030
0.0
  0
LWPOLYLINE
  5
C4
330
2
100
AcDbEntity
  8
0
100
AcDbPolyline
 90
        4
 70
     0
 43
0.0
 10
4085.479015435644
 20
4288.507082613594
 10
4085.479015435641
 20
4289.105276126799
 10
4085.361015435641
 20
4289.105276126799
 10
4085.361015435643
 20
4288.507082613594
  0
LWPOLYLINE
  5
C5
330
2
100
AcDbEntity
  8
0
  6
Continuous
100
AcDbPolyline
 90
        2
 70
     0
 43
0.0
 10
4086.00326543564
 20
4288.651950170323
 10
4086.00326543564
 20
4288.776950170323
  0
LWPOLYLINE
  5
C6
330
2
100
AcDbEntity
  8
0
100
AcDbPolyline
 90
       11
 70
     1
 43
0.0
 10
4085.36101543564
 20
4288.964117477546
 10
4085.36101543564
 20
4289.214117477547
 10
4084.98701543564
 20
4289.214117477547
 10
4084.98701543564
 20
4288.932617477542
 42
0.4142135623731695
 10
4085.018015435642
 20
4288.901617477547
 10
4085.064540203926
 20
4288.901617477547
 42
-0.235730494161761
 10
4085.089316398502
 20
4288.889249175868
 10
4085.258714472778
 20
4288.663985779225
 42
0.235730494161718
 10
4085.283490667353
 20
4288.651617477547
 10
4085.36101543564
 20
4288.651617477547
 10
4085.36101543564
 20
4288.776617477547
 42
-0.6666666666666588
  0
LWPOLYLINE
  5
C7
330
2
100
AcDbEntity
  8
0
100
AcDbPolyline
 90
       19
 70
     1
 43
0.0
 10
4085.62826543564
 20
4289.214117477547
 10
4085.066265435641
 20
4289.214117477547
 10
4085.066265435636
 20
4290.589117429722
 42
-0.4138499054722459
 10
4085.128188446415
 20
4290.651117381925
 10
4086.048265435645
 20
4290.652259899093
 10
4086.048265435645
 20
4290.340259899095
 10
4086.12826543564
 20
4290.340259899095
 10
4086.12826543564
 20
4290.652259899093
 10
4086.316265435642
 20
4290.652259899093
 42
-0.4142135623730951
 10
4086.37826543564
 20
4290.590259899095
 10
4086.378265435636
 20
4288.902730247428
 10
4086.283226488522
 20
4288.902730247421
 42
-0.3899024490771541
 10
4086.098226488521
 20
4288.701557396097
 10
4086.098226488521
 20
4288.651950170323
 10
4086.00326543564
 20
4288.651950170323
 10
4086.00326543564
 20
4288.776950170323
 42
0.666666666665864
 10
4086.00326543564
 20
4288.964450170323
 10
4086.00326543564
 20
4289.214117477547
 10
4085.816265435645
 20
4289.214117477547
 42
0.9999999999999998
  0
HATCH
  5
C8
330
2
100
AcDbEntity
  8
0
100
AcDbHatch
 10
0.0
 20
0.0
 30
0.0
210
0.0
220
0.0
230
1.0
  2
SOLID
 70
     1
 71
     0
 91
        1
 92
        7
 72
     1
 73
     1
 93
        2
 10
4086.003265435642
 20
4288.964117477547
 42
-0.6666666666855048
 10
4086.003265435642
 20
4288.776617477545
 42
0.0
 97
        0
 75
     1
 76
     1
 47
0.0008253963891123
 98
        1
 10
4086.029434074237
 20
4288.85428546772
1001
GradientColor1ACI
1070
     5
1001
GradientColor2ACI
1070
     2
1001
ACAD
1010
0.0
1020
0.0
1030
0.0
  0
LWPOLYLINE
  5
C9
330
2
100
AcDbEntity
  8
0
100
AcDbPolyline
 90
        8
 70
     0
 43
0.0
 10
4085.36101543564
 20
4289.214117477547
 10
4086.00326543564
 20
4289.214117477547
 10
4086.00326543564
 20
4289.105117477546
 10
4085.36101543564
 20
4289.105117477546
 10
4085.36101543564
 20
4289.214117477547
 10
4086.00326543564
 20
4289.105117477546
 10
4086.00326543564
 20
4289.214117477547
 10
4085.36101543564
 20
4289.105117477546
  0
HATCH
  5
CA
330
2
100
AcDbEntity
  8
0
  6
Continuous
100
AcDbHatch
 10
0.0
 20
0.0
 30
0.0
210
0.0
220
0.0
230
1.0
  2
DASH
 70
     0
 71
     0
 91
        1
 92
        7
 72
     1
 73
     1
 93
       16
 10
4085.479015435641
 20
4288.883651126798
 42
0.0
 10
4085.504390435641
 20
4288.883651126798
 42
-0.414213562373094
 10
4085.520015435641
 20
4288.899276126798
 42
0.0
 10
4085.555503223699
 20
4288.875088626798
 42
0.3208708054700796
 10
4085.588390435641
 20
4288.895814294931
 42
0.0
 10
4085.588390435641
 20
4288.952651126798
 42
-0.4142135623730951
 10
4085.604015435641
 20
4288.968276126798
 42
0.0
 10
4085.760265435641
 20
4288.968276126798
 42
-0.4142135623730951
 10
4085.775890435641
 20
4288.952651126798
 42
0.0
 10
4085.775890435641
 20
4288.89545138585
 42
0.3359746306540742
 10
4085.808394345387
 20
4288.875088626798
 42
0.0
 10
4085.844265435642
 20
4288.899276126798
 42
-0.4142135623730951
 10
4085.859890435641
 20
4288.883651126798
 42
0.0
 10
4085.885265435641
 20
4288.883651126798
 42
0.0
 10
4085.885265435641
 20
4289.105276126798
 42
0.0
 10
4085.479015435641
 20
4289.105276126798
 42
0.0
 97
        0
 75
     0
 76
     1
 52
180.0
 41
0.1
 77
     0
 78
     1
 53
180.0
 43
4103.36427190095
 44
4291.940812281676
 45
-0.0125
 46
-0.0125
 79
     2
 49
0.0125
 49
-0.0125
 47
0.0022535086831111
 98
        1
 10
4085.571873253132
 20
4289.005150866215
  0
HATCH
  5
CB
330
2
100
AcDbEntity
  8
0
  6
Continuous
100
AcDbHatch
 10
0.0
 20
0.0
 30
0.0
210
0.0
220
0.0
230
1.0
  2
DOTS
 70
     0
 71
     0
 91
        2
 92
        7
 72
     0
 73
     1
 93
        4
 10
4085.479015435641
 20
4288.730276126798
 10
4085.504390435641
 20
4288.730276126798
 10
4085.504390435641
 20
4288.883651126798
 10
4085.479015435641
 20
4288.883651126798
 97
        0
 92
        7
 72
     0
 73
     1
 93
        4
 10
4085.859890435641
 20
4288.730276126798
 10
4085.885265435641
 20
4288.730276126798
 10
4085.885265435641
 20
4288.883651126798
 10
4085.859890435641
 20
4288.883651126798
 97
        0
 75
     0
 76
     1
 52
180.0
 41
0.1
 77
     0
 78
     1
 53
180.0
 43
4103.36427190095
 44
4291.940812281676
 45
-0.003125
 46
-0.00625
 79
     2
 49
0.0
 49
-0.00625
 47
0.0009915749623601
 98
        2
 10
4085.494540336907
 20
4288.800632910482
 10
4085.877583830288
 20
4288.785759279472
  0
LWPOLYLINE
  5
CC
330
2
100
AcDbEntity
  8
0
100
AcDbPolyline
 90
       14
 70
     1
 43
0.0
 10
4085.775890435641
 20
4288.89545138585
 42
0.3359746306540741
 10
4085.808394345387
 20
4288.875088626798
 10
4085.844265435642
 20
4288.899276126798
 42
-0.4142135623730951
 10
4085.859890435641
 20
4288.883651126798
 10
4085.859890435641
 20
4288.702026126798
 10
4085.504390435641
 20
4288.702026126798
 10
4085.504390435641
 20
4288.883651126798
 42
-0.414213562373094
 10
4085.520015435641
 20
4288.899276126798
 10
4085.555503223699
 20
4288.875088626798
 42
0.3208708054700532
 10
4085.588390435641
 20
4288.895814294931
 10
4085.588390435641
 20
4288.952651126798
 42
-0.4142135623730951
 10
4085.604015435641
 20
4288.968276126798
 10
4085.760265435641
 20
4288.968276126798
 42
-0.4142135623730951
 10
4085.775890435641
 20
4288.952651126798
1001
ACAD
1000
ASC_BOUNDS
1002
{
1070
    19
1002
}
  0
LWPOLYLINE
  5
CD
330
2
100
AcDbEntity
  8
0
100
AcDbPolyline
 90
       14
 70
     1
 43
0.0
 10
4085.768890435642
 20
4288.894232985705
 42
0.3593608004949541
 10
4085.810890322965
 20
4288.868328969825
 10
4085.846109270077
 20
4288.892076736543
 42
-0.3524310491054993
 10
4085.852890435641
 20
4288.883651126798
 10
4085.852890435641
 20
4288.702026126798
 10
4085.511390435642
 20
4288.702026126798
 10
4085.511390435642
 20
4288.883651126798
 42
-0.3518693664465323
 10
4085.518154763343
 20
4288.892073034159
 10
4085.55307915451
 20
4288.86826952998
 42
0.3446308864324803
 10
4085.595390435641
 20
4288.894508443983
 10
4085.595390435641
 20
4288.952651126798
 42
-0.4142135623730946
 10
4085.604015435641
 20
4288.961276126798
 10
4085.760265435641
 20
4288.961276126798
 42
-0.4142135623730946
 10
4085.768890435642
 20
4288.952651126798
  0
LWPOLYLINE
  5
CE
330
2
100
AcDbEntity
  8
0
100
AcDbPolyline
 90
       10
 70
     1
 43
0.0
 10
4085.744640435641
 20
4288.890713626797
 42
0.3584554666094669
 10
4085.809544281795
 20
4288.843838626798
 10
4085.828640435642
 20
4288.843838626798
 10
4085.828640435642
 20
4288.733276126798
 10
4085.535640435642
 20
4288.733276126798
 10
4085.535640435642
 20
4288.843838626798
 10
4085.554736589487
 20
4288.843838626798
 42
0.3467993108968364
 10
4085.619640435641
 20
4288.890713626797
 10
4085.619640435641
 20
4288.937026126798
 10
4085.744640435641
 20
4288.937026126798
  0
LWPOLYLINE
  5
CF
330
2
100
AcDbEntity
  8
0
100
AcDbPolyline
 90
        6
 70
     0
 43
0.0
 10
4085.859890435641
 20
4288.730276126798
 10
4085.869640435642
 20
4288.730276126798
 10
4085.869640435642
 20
4288.692276126798
 10
4085.494640435642
 20
4288.692276126798
 10
4085.494640435642
 20
4288.730276126798
 10
4085.504390435641
 20
4288.730276126798
  0
LINE
  5
D0
330
2
100
AcDbEntity
  8
0
100
AcDbLine
 10
4085.504390435641
 20
4288.883651126798
 30
0.0
 11
4085.479015435641
 21
4288.883651126798
 31
0.0
  0
LINE
  5
D1
330
2
100
AcDbEntity
  8
0
100
AcDbLine
 10
4085.504390435641
 20
4288.730276126798
 30
0.0
 11
4085.479015435641
 21
4288.730276126798
 31
0.0
  0
LINE
  5
D2
330
2
100
AcDbEntity
  8
0
100
AcDbLine
 10
4085.859890435641
 20
4288.883651126798
 30
0.0
 11
4085.885265435641
 21
4288.883651126798
 31
0.0
  0
LINE
  5
D3
330
2
100
AcDbEntity
  8
0
100
AcDbLine
 10
4085.859890435641
 20
4288.730276126798
 30
0.0
 11
4085.885265435641
 21
4288.730276126798
 31
0.0
  0
LWPOLYLINE
  5
D4
330
2
100
AcDbEntity
  8
0
100
AcDbPolyline
 90
        4
 70
     0
 43
0.0
 10
4085.885265435642
 20
4288.507082613594
 10
4085.885265435639
 20
4289.105276126799
 10
4086.00326543564
 20
4289.105276126799
 10
4086.003265435643
 20
4288.507082613594
  0
HATCH
  5
D5
330
2
100
AcDbEntity
  8
0
100
AcDbHatch
 10
0.0
 20
0.0
 30
0.0
210
0.0
220
0.0
230
1.0
  2
SOLID
 70
     1
 71
     0
 91
        1
 92
        7
 72
     1
 73
     1
 93
        2
 10
4085.361015435642
 20
4288.964117477547
 42
0.6666666666855048
 10
4085.361015435643
 20
4288.776617477545
 42
0.0
 97
        0
 75
     1
 76
     1
 47
0.0008253963891123
 98
        1
 10
4085.334846797047
 20
4288.85428546772
1001
GradientColor1ACI
1070
     5
1001
GradientColor2ACI
1070
     2
1001
ACAD
1010
0.0
1020
0.0
1030
0.0
  0
LWPOLYLINE
  5
D6
330
2
100
AcDbEntity
  8
0
100
AcDbPolyline
 90
        4
 70
     0
 43
0.0
 10
4085.479015435644
 20
4288.507082613594
 10
4085.479015435641
 20
4289.105276126799
 10
4085.361015435641
 20
4289.105276126799
 10
4085.361015435643
 20
4288.507082613594
  0
LWPOLYLINE
  5
D7
330
2
100
AcDbEntity
  8
0
  6
Continuous
100
AcDbPolyline
 90
        2
 70
     0
 43
0.0
 10
4086.00326543564
 20
4288.651950170323
 10
4086.00326543564
 20
4288.776950170323
  0
LWPOLYLINE
  5
D8
330
2
100
AcDbEntity
  8
0
100
AcDbPolyline
 90
       11
 70
     1
 43
0.0
 10
4085.36101543564
 20
4288.964117477546
 10
4085.36101543564
 20
4289.214117477547
 10
4084.98701543564
 20
4289.214117477547
 10
4084.98701543564
 20
4288.932617477542
 42
0.4142135623731695
 10
4085.018015435642
 20
4288.901617477547
 10
4085.064540203926
 20
4288.901617477547
 42
-0.235730494161761
 10
4085.089316398502
 20
4288.889249175868
 10
4085.258714472778
 20
4288.663985779225
 42
0.235730494161718
 10
4085.283490667353
 20
4288.651617477547
 10
4085.36101543564
 20
4288.651617477547
 10
4085.36101543564
 20
4288.776617477547
 42
-0.6666666666666588
  0
LWPOLYLINE
  5
D9
330
2
100
AcDbEntity
  8
0
100
AcDbPolyline
 90
       19
 70
     1
 43
0.0
 10
4085.62826543564
 20
4289.214117477547
 10
4085.066265435641
 20
4289.214117477547
 10
4085.066265435636
 20
4290.589117429722
 42
-0.4138499054722459
 10
4085.128188446415
 20
4290.651117381925
 10
4086.048265435645
 20
4290.652259899093
 10
4086.048265435645
 20
4290.340259899095
 10
4086.12826543564
 20
4290.340259899095
 10
4086.12826543564
 20
4290.652259899093
 10
4086.316265435642
 20
4290.652259899093
 42
-0.4142135623730951
 10
4086.37826543564
 20
4290.590259899095
 10
4086.378265435636
 20
4288.902730247428
 10
4086.283226488522
 20
4288.902730247421
 42
-0.3899024490771541
 10
4086.098226488521
 20
4288.701557396097
 10
4086.098226488521
 20
4288.651950170323
 10
4086.00326543564
 20
4288.651950170323
 10
4086.00326543564
 20
4288.776950170323
 42
0.666666666665864
 10
4086.00326543564
 20
4288.964450170323
 10
4086.00326543564
 20
4289.214117477547
 10
4085.816265435645
 20
4289.214117477547
 42
0.9999999999999998
  0
HATCH
  5
DA
330
2
100
AcDbEntity
  8
0
100
AcDbHatch
 10
0.0
 20
0.0
 30
0.0
210
0.0
220
0.0
230
1.0
  2
SOLID
 70
     1
 71
     0
 91
        1
 92
        7
 72
     1
 73
     1
 93
        2
 10
4086.003265435642
 20
4288.964117477547
 42
-0.6666666666855048
 10
4086.003265435642
 20
4288.776617477545
 42
0.0
 97
        0
 75
     1
 76
     1
 47
0.0008253963891123
 98
        1
 10
4086.029434074237
 20
4288.85428546772
1001
GradientColor1ACI
1070
     5
1001
GradientColor2ACI
1070
     2
1001
ACAD
1010
0.0
1020
0.0
1030
0.0
  0
DIMENSION
  5
DB
330
2
100
AcDbEntity
  8
0
100
AcDbDimension
  2
*D3
 10
4080.667814399656
 20
4288.651617477547
 30
0.0
 11
4080.667814399656
 21
4291.339897461365
 31
0.0
 71
     5
 42
5.376559967632601
  3
Knife
100
AcDbAlignedDimension
 13
4083.226552818212
 23
4294.02817744518
 33
0.0
 14
4085.283490667348
 24
4288.651617477547
 34
0.0
 50
90.0
100
AcDbRotatedDimension
1001
ACAD
1000
DSTYLE
1002
{
1070
    40
1040
1.0
1002
}
  0
TEXT
  5
EB
330
2
100
AcDbEntity
  8
0
100
AcDbText
 10
4083.187859721592
 20
4287.346246241006
 30
0.0
 40
0.375
  1
%%UTRANSOM / HOPPER STACK
 41
0.6
 51
5.0
  7
DIMTXT
 72
     1
 11
4085.233438067255
 21
4287.346246241006
 31
0.0
100
AcDbText
  0
LINE
  5
ED
330
2
100
AcDbEntity
  8
0
  6
HIDDEN
100
AcDbLine
 10
4084.134567586498
 20
4294.503882854384
 30
0.0
 11
4083.304077586498
 21
4294.503882854384
 31
0.0
  0
INSERT
  5
EF
330
2
100
AcDbEntity
  8
0
100
AcDbBlockReference
  2
93OBW
 10
4084.868412556003
 20
4292.530259899091
 30
0.0
 41
-1.0
 42
-1.0
 43
2.0
 50
270.0
  0
INSERT
  5
118
330
2
100
AcDbEntity
  8
0
100
AcDbBlockReference
  2
86NPF141
 10
4083.448435749467
 20
4292.75791199435
 30
0.0
 41
-1.0
 43
2.0
 50
90.0
  0
LINE
  5
119
330
2
100
AcDbEntity
  8
0
100
AcDbLine
 10
4084.52873616242
 20
4292.230259899091
 30
0.0
 11
4083.79173616242
 21
4292.230259899091
 31
0.0
  0
LINE
  5
11A
330
2
100
AcDbEntity
  8
0
100
AcDbLine
 10
4083.80998616242
 20
4292.230259899091
 30
0.0
 11
4084.496986162419
 21
4292.230259899091
 31
0.0
  0
INSERT
  5
11B
330
2
100
AcDbEntity
  8
0
100
AcDbBlockReference
  2
*U4
 10
4081.557287412324
 20
4290.349073020805
 30
0.0
 41
-1.0
 50
270.0
1001
ACAD
1002
{
1000
R14_HATCH_DATA
1000
3651
1011
4081.557287412324
1021
4291.349073020805
1031
0.0
1011
4082.557287412323
1021
4290.349073020805
1031
0.0
1011
4081.557287412324
1021
4290.349073020805
1031
1.0
1040
0.0
1010
0.0
1020
0.0
1030
1.0
1000
SOLID
1070
     1
1070
     0
1071
        1
1071
        1
1071
        2
1070
     1
1040
1.881186878287213
1040
3.15944875009568
1040
1.881186878287314
1040
3.346448750095556
1070
     2
1040
1.760589222037213
1040
3.252948750095684
1040
0.1525976562500021
1040
-0.65950076747307
1040
0.6595007674730821
1070
     0
1071
        0
1070
     0
1070
     1
1071
        1
1040
4.812561040009144
1040
6.499794521109716
1040
0.0
1002
}
  0
LWPOLYLINE
  5
129
330
2
100
AcDbEntity
  8
0
100
AcDbPolyline
 90
       15
 70
     1
 43
0.0
 10
4083.320677544589
 20
4291.684259899091
 10
4083.567186531603
 20
4291.684259899091
 10
4083.56936841472
 20
4291.559259899091
 10
4085.256868414719
 20
4291.559259899091
 42
-0.9999999999999998
 10
4085.38186841472
 20
4291.559259899091
 10
4086.444868414719
 20
4291.559259899091
 10
4086.444868414719
 20
4292.230259899091
 10
4086.00786841472
 20
4292.230259899091
 10
4086.006245093681
 20
4292.137259899091
 10
4085.759491735758
 20
4292.137259899091
 10
4085.757868414719
 20
4292.230259899091
 10
4082.91336841472
 20
4292.230259899091
 42
0.4142135623730949
 10
4082.882368414719
 20
4292.199259899091
 10
4082.882368414719
 20
4291.609259899092
 10
4083.319368414719
 20
4291.609259899092
  0
LWPOLYLINE
  5
12A
330
2
100
AcDbEntity
  8
0
100
AcDbPolyline
 90
       20
 70
     1
 43
0.0
 10
4085.971651110582
 20
4292.152134899092
 10
4085.97848616242
 20
4292.230259899091
 10
4086.633662151033
 20
4292.230259899091
 10
4086.633662151033
 20
4293.135887573384
 42
0.4142135623730951
 10
4086.602662151033
 20
4293.166887573383
 10
4085.700016836393
 20
4293.166887573383
 10
4085.696709897979
 20
4293.356341948291
 42
0.4091108014277093
 10
4085.634719340879
 20
4293.417259899092
 10
4084.509736162419
 20
4293.417259899092
 10
4084.509736162419
 20
4293.292259899092
 10
4084.635044808303
 20
4293.166951253208
 10
4084.635044808303
 20
4292.610259899092
 10
4084.916044808303
 20
4292.610259899092
 10
4084.916044808303
 20
4292.530259899091
 10
4084.529736162419
 20
4292.530259899091
 10
4084.529736162419
 20
4292.230259899091
 10
4084.716736162419
 20
4292.230259899091
 42
-0.3422459893048229
 10
4084.903736162419
 20
4292.230259899091
 10
4085.75973616242
 20
4292.230259899091
 10
4085.761099839367
 20
4292.152134899092
  0
LWPOLYLINE
  5
12B
330
2
100
AcDbEntity
  8
0
100
AcDbPolyline
 90
        8
 70
     1
 43
0.0
 10
4083.859736162419
 20
4292.355677431607
 10
4083.859736162419
 20
4292.540677431605
 42
-0.4142135623730951
 10
4083.984736162419
 20
4292.665677431606
 10
4084.40473616242
 20
4292.665677431606
 42
-0.4142135623730951
 10
4084.529736162419
 20
4292.540677431605
 10
4084.529736162419
 20
4292.355677431607
 42
-0.4142135623730951
 10
4084.40473616242
 20
4292.230677431606
 10
4083.984736162419
 20
4292.230677431606
 42
-0.4142135623730951
  0
LWPOLYLINE
  5
12C
330
2
100
AcDbEntity
  8
0
100
AcDbPolyline
 90
       22
 70
     0
 43
0.0
 10
4083.215843463229
 20
4292.465535023633
 10
4083.809817586497
 20
4292.465535023633
 10
4083.809817586497
 20
4292.667677445179
 10
4084.494567586498
 20
4292.667677445179
 42
0.4142135623730951
 10
4084.509567586497
 20
4292.68267744518
 10
4084.509567586497
 20
4293.77706467531
 10
4084.41452863938
 20
4293.77706467531
 42
0.3899024490717824
 10
4084.229528639379
 20
4293.978237526637
 10
4084.229528639379
 20
4294.027844752409
 10
4084.134567586498
 20
4294.027844752409
 10
4084.134567586498
 20
4293.902844752408
 42
-0.6666666666666686
 10
4084.134567586498
 20
4293.715344752409
 10
4084.134567586498
 20
4293.465677445179
 10
4083.948479916871
 20
4293.465677445179
 42
-0.9946524064171082
 10
4083.761479916872
 20
4293.465677445179
 10
4082.885843463229
 20
4293.465677445179
 10
4082.885843463229
 20
4292.590677445179
 42
0.4142135623730951
 10
4083.010843463228
 20
4292.465677445179
 10
4083.135843463229
 20
4292.465677445179
 10
4083.135843463229
 20
4292.782177445179
 10
4083.215843463229
 20
4292.782177445179
 10
4083.215843463229
 20
4292.469677445179
  0
HATCH
  5
12D
330
2
100
AcDbEntity
  8
0
100
AcDbHatch
 10
0.0
 20
0.0
 30
0.0
210
0.0
220
0.0
230
1.0
  2
SOLID
 70
     1
 71
     0
 91
        1
 92
        7
 72
     1
 73
     1
 93
        2
 10
4083.304077586498
 20
4293.903177445179
 42
0.0
 10
4083.304077586498
 20
4293.71567744518
 42
-0.6666666666666311
 97
        0
 75
     1
 76
     1
 47
0.0010014887122476
 98
        1
 10
4083.258017510151
 20
4293.788272249136
1001
GradientColor1ACI
1070
     5
1001
GradientColor2ACI
1070
     2
1001
ACAD
1010
0.0
1020
0.0
1030
0.0
  0
LWPOLYLINE
  5
12E
330
2
100
AcDbEntity
  8
0
100
AcDbPolyline
 90
       11
 70
     1
 43
0.0
 10
4083.304077586498
 20
4293.71567744518
 10
4083.304077586498
 20
4293.465677445179
 10
4082.930077586498
 20
4293.465677445179
 10
4082.930077586498
 20
4293.74717744518
 42
-0.4142135623731695
 10
4082.961077586498
 20
4293.778177445179
 10
4083.007602354784
 20
4293.778177445179
 42
0.235730494161761
 10
4083.03237854936
 20
4293.790545746858
 10
4083.201776623635
 20
4294.015809143501
 42
-0.235730494161718
 10
4083.226552818211
 20
4294.02817744518
 10
4083.304077586498
 20
4294.02817744518
 10
4083.304077586498
 20
4293.903177445179
 42
0.6666666666666588
  0
LWPOLYLINE
  5
12F
330
2
100
AcDbEntity
  8
0
100
AcDbPolyline
 90
        4
 70
     0
 43
0.0
 10
4084.016197586498
 20
4294.503882854384
 10
4084.016197586498
 20
4293.57467744518
 10
4084.134567586498
 20
4293.57467744518
 10
4084.134567586498
 20
4294.503882854384
  0
LWPOLYLINE
  5
130
330
2
100
AcDbEntity
  8
0
100
AcDbPolyline
 90
        4
 70
     0
 43
0.0
 10
4083.422447586498
 20
4294.503882854384
 10
4083.422447586498
 20
4293.57467744518
 10
4083.304077586498
 20
4293.57467744518
 10
4083.304077586498
 20
4294.503882854384
  0
LWPOLYLINE
  5
131
330
2
100
AcDbEntity
  8
0
100
AcDbPolyline
 90
       14
 70
     1
 43
0.0
 10
4083.531822586498
 20
4293.784502186128
 42
0.3359746306540741
 10
4083.499318676751
 20
4293.80486494518
 10
4083.463447586498
 20
4293.780677445179
 42
-0.4142135623730951
 10
4083.447822586498
 20
4293.79630244518
 10
4083.447822586498
 20
4293.97792744518
 10
4083.990822586498
 20
4293.97792744518
 10
4083.990822586498
 20
4293.79630244518
 42
-0.414213562373094
 10
4083.975197586497
 20
4293.780677445179
 10
4083.939709798439
 20
4293.80486494518
 42
0.3208708054700532
 10
4083.906822586498
 20
4293.784139277048
 10
4083.906822586498
 20
4293.727302445179
 42
-0.4142135623730951
 10
4083.891197586498
 20
4293.71167744518
 10
4083.547447586498
 20
4293.71167744518
 42
-0.4142135623730951
 10
4083.531822586498
 20
4293.727302445179
  0
LWPOLYLINE
  5
132
330
2
100
AcDbEntity
  8
0
100
AcDbPolyline
 90
       14
 70
     1
 43
0.0
 10
4083.538822586499
 20
4293.785720586273
 42
0.3593608004949541
 10
4083.496822699174
 20
4293.811624602153
 10
4083.461603752062
 20
4293.787876835435
 42
-0.3524310491054993
 10
4083.454822586498
 20
4293.79630244518
 10
4083.454822586498
 20
4293.97792744518
 10
4083.983822586498
 20
4293.97792744518
 10
4083.983822586498
 20
4293.79630244518
 42
-0.3518693664465323
 10
4083.977058258796
 20
4293.787880537819
 10
4083.942133867631
 20
4293.811684041997
 42
0.3446308864324803
 10
4083.899822586498
 20
4293.785445127997
 10
4083.899822586498
 20
4293.727302445179
 42
-0.4142135623730946
 10
4083.891197586498
 20
4293.71867744518
 10
4083.547447586498
 20
4293.71867744518
 42
-0.4142135623730946
 10
4083.538822586499
 20
4293.727302445179
  0
LWPOLYLINE
  5
133
330
2
100
AcDbEntity
  8
0
100
AcDbPolyline
 90
       10
 70
     1
 43
0.0
 10
4083.563072586498
 20
4293.78923994518
 42
0.3584554666094669
 10
4083.498168740344
 20
4293.83611494518
 10
4083.479072586498
 20
4293.83611494518
 10
4083.479072586498
 20
4293.946677445179
 10
4083.959572586498
 20
4293.946677445179
 10
4083.959572586498
 20
4293.83611494518
 10
4083.940476432651
 20
4293.83611494518
 42
0.3467993108968364
 10
4083.875572586498
 20
4293.78923994518
 10
4083.875572586498
 20
4293.742927445179
 10
4083.563072586498
 20
4293.742927445179
  0
LWPOLYLINE
  5
134
330
2
100
AcDbEntity
  8
0
100
AcDbPolyline
 90
        6
 70
     0
 43
0.0
 10
4083.447822586498
 20
4293.94967744518
 10
4083.438072586498
 20
4293.94967744518
 10
4083.438072586498
 20
4293.98767744518
 10
4084.000572586498
 20
4293.98767744518
 10
4084.000572586498
 20
4293.94967744518
 10
4083.990822586498
 20
4293.94967744518
  0
LINE
  5
135
330
2
100
AcDbEntity
  8
0
100
AcDbLine
 10
4083.990822586498
 20
4293.79630244518
 30
0.0
 11
4084.016197586498
 21
4293.79630244518
 31
0.0
  0
LINE
  5
136
330
2
100
AcDbEntity
  8
0
100
AcDbLine
 10
4083.990822586498
 20
4293.94967744518
 30
0.0
 11
4084.016197586498
 21
4293.94967744518
 31
0.0
  0
LINE
  5
137
330
2
100
AcDbEntity
  8
0
100
AcDbLine
 10
4083.447822586498
 20
4293.79630244518
 30
0.0
 11
4083.422447586498
 21
4293.79630244518
 31
0.0
  0
LINE
  5
138
330
2
100
AcDbEntity
  8
0
100
AcDbLine
 10
4083.447822586498
 20
4293.94967744518
 30
0.0
 11
4083.422447586498
 21
4293.94967744518
 31
0.0
  0
HATCH
  5
139
330
2
100
AcDbEntity
  8
0
100
AcDbHatch
 10
0.0
 20
0.0
 30
0.0
210
0.0
220
0.0
230
1.0
  2
DOTS
 70
     0
 71
     0
 91
        2
 92
        7
 72
     0
 73
     1
 93
        4
 10
4083.447822586498
 20
4293.79630244518
 10
4083.422447586498
 20
4293.79630244518
 10
4083.422447586498
 20
4293.94967744518
 10
4083.447822586498
 20
4293.94967744518
 97
        0
 92
        7
 72
     0
 73
     1
 93
        4
 10
4084.016197586498
 20
4293.79630244518
 10
4083.990822586498
 20
4293.79630244518
 10
4083.990822586498
 20
4293.94967744518
 10
4084.016197586498
 20
4293.94967744518
 97
        0
 75
     0
 76
     1
 52
360.0
 41
0.1
 77
     0
 78
     1
 53
360.0
 43
4077.328967840961
 44
4298.578720922774
 45
0.003125
 46
-0.00625
 79
     2
 49
0.0
 49
-0.00625
 47
0.0006001443632006
 98
        2
 10
4083.43610229635
 20
4293.853887385228
 10
4084.005987225746
 20
4293.857488259027
  0
HATCH
  5
13A
330
2
100
AcDbEntity
  8
0
100
AcDbHatch
 10
0.0
 20
0.0
 30
0.0
210
0.0
220
0.0
230
1.0
  2
DASH
 70
     0
 71
     0
 91
        1
 92
        7
 72
     1
 73
     1
 93
       16
 10
4083.891197586498
 20
4293.71167744518
 42
0.4142135623730951
 10
4083.906822586498
 20
4293.727302445179
 42
0.0
 10
4083.906822586498
 20
4293.784139277048
 42
-0.3208708054700533
 10
4083.939709798439
 20
4293.80486494518
 42
0.0
 10
4083.975197586497
 20
4293.780677445179
 42
0.414213562373094
 10
4083.990822586498
 20
4293.79630244518
 42
0.0
 10
4084.016197586499
 20
4293.79630244518
 42
0.0
 10
4084.016197586497
 20
4293.574677445181
 42
0.0
 10
4083.422447586498
 20
4293.574677445181
 42
0.0
 10
4083.422447586498
 20
4293.79630244518
 42
0.0
 10
4083.447822586498
 20
4293.79630244518
 42
0.4142135623730951
 10
4083.463447586498
 20
4293.780677445179
 42
0.0
 10
4083.499318676751
 20
4293.80486494518
 42
-0.3359746306540741
 10
4083.531822586498
 20
4293.784502186128
 42
0.0
 10
4083.531822586498
 20
4293.727302445179
 42
0.4142135623730951
 10
4083.547447586498
 20
4293.71167744518
 42
0.0
 97
        0
 75
     0
 76
     1
 52
360.0
 41
0.1
 77
     0
 78
     1
 53
360.0
 43
4077.328967840961
 44
4298.578720922774
 45
0.0125
 46
-0.0125
 79
     2
 49
0.0125
 49
-0.0125
 47
0.0009600803746669
 98
        1
 10
4083.768344066583
 20
4293.660838172985
  0
HATCH
  5
13B
330
2
100
AcDbEntity
  8
0
100
AcDbHatch
 10
0.0
 20
0.0
 30
0.0
210
0.0
220
0.0
230
1.0
  2
SOLID
 70
     1
 71
     0
 91
        1
 92
        7
 72
     1
 73
     1
 93
        2
 10
4084.134567586498
 20
4293.903177445179
 42
0.0
 10
4084.134567586498
 20
4293.71567744518
 42
0.6666666666666311
 97
        0
 75
     1
 76
     1
 47
0.0010014887122476
 98
        1
 10
4084.180627662845
 20
4293.788272249136
1001
GradientColor1ACI
1070
     5
1001
GradientColor2ACI
1070
     2
1001
ACAD
1010
0.0
1020
0.0
1030
0.0
  0
LINE
  5
13C
330
2
100
AcDbEntity
  8
0
100
AcDbLine
 10
4083.304077586498
 20
4293.465677445179
 30
0.0
 11
4084.134567586498
 21
4293.57467744518
 31
0.0
  0
LWPOLYLINE
  5
13D
330
2
100
AcDbEntity
  8
0
100
AcDbPolyline
 90
        8
 70
     0
 43
0.0
 10
4083.304077586498
 20
4293.465677445179
 10
4084.134567586498
 20
4293.465677445179
 10
4084.134567586498
 20
4293.57467744518
 10
4083.304077586498
 20
4293.57467744518
 10
4083.304077586498
 20
4293.465677445179
 10
4084.134567586498
 20
4293.57467744518
 10
4083.304077586498
 20
4293.57467744518
 10
4084.134567586498
 20
4293.465677445179
  0
LWPOLYLINE
  5
13E
102
{ACAD_REACTORS
330
165
330
176
102
}
330
2
100
AcDbEntity
  8
0
100
AcDbPolyline
 90
       10
 70
     1
 43
0.0
 10
4082.832876605185
 20
4291.780077912227
 10
4082.882368414719
 20
4292.06075991186
 10
4082.882368414719
 20
4292.122759911861
 10
4082.44486841472
 20
4292.122759911861
 42
0.4142135623730951
 10
4082.38236841472
 20
4292.060259911861
 10
4082.38236841472
 20
4291.060259911861
 42
0.4142135623730951
 10
4082.44486841472
 20
4290.997759911861
 10
4082.882368414719
 20
4290.997759911861
 10
4082.882368414719
 20
4291.059759911861
 10
4082.832876605185
 20
4291.340441911493
  0
LWPOLYLINE
  5
13F
102
{ACAD_REACTORS
330
143
330
154
102
}
330
2
100
AcDbEntity
  8
0
100
AcDbPolyline
 90
       11
 70
     0
 43
0.0
 10
4087.50786841472
 20
4292.122759899092
 10
4087.695868414722
 20
4292.122759899092
 42
-0.4142135623730951
 10
4087.757868414719
 20
4292.060759899094
 10
4087.757868414719
 20
4291.05975989909
 42
-0.4142135623730951
 10
4087.695868414722
 20
4290.997759899092
 10
4087.50786841472
 20
4290.997759899092
 10
4087.50786841472
 20
4291.340759899092
 10
4087.569868414721
 20
4291.340759899092
 10
4087.569868414721
 20
4291.77775989909
 10
4087.50786841472
 20
4291.77775989909
 10
4087.50786841472
 20
4292.12075989909
  0
LWPOLYLINE
  5
140
330
2
100
AcDbEntity
  8
0
  6
Continuous
100
AcDbPolyline
 90
       10
 70
     1
 43
0.0
 10
4086.45986841472
 20
4292.231195682487
 10
4087.492868414719
 20
4292.231195682487
 42
-0.4142135623730951
 10
4087.50786841472
 20
4292.216195682486
 10
4087.50786841472
 20
4291.574259899092
 42
-0.4142135623730951
 10
4087.492868414719
 20
4291.559259899091
 10
4086.45986841472
 20
4291.559259899091
 42
-0.4142135623730951
 10
4086.444868414719
 20
4291.574259899092
 10
4086.444868414719
 20
4291.787259899091
 42
0.9999999999999998
 10
4086.444868414719
 20
4292.005259899091
 10
4086.444868414719
 20
4292.216195682486
 42
-0.4142135623730951
  0
DIMENSION
  5
141
102
{ACAD_XDICTIONARY
360
142
102
}
102
{ACAD_REACTORS
330
143
102
}
330
2
100
AcDbEntity
  8
0
100
AcDbDimension
  2
*D5
 10
4087.757868414719
 20
4293.092294218755
 30
0.0
 11
4088.283073671944
 21
4293.092294218755
 31
0.0
 71
     5
 42
0.25
  3
Knife
100
AcDbAlignedDimension
 13
4087.50786841472
 23
4292.12075989909
 33
0.0
 14
4087.757868414719
 24
4292.060759899094
 34
0.0
100
AcDbRotatedDimension
1001
ACAD
1000
DSTYLE
1002
{
1070
    40
1040
1.0
1002
}
  0
DIMENSION
  5
152
102
{ACAD_XDICTIONARY
360
153
102
}
102
{ACAD_REACTORS
330
154
102
}
330
2
100
AcDbEntity
  8
0
100
AcDbDimension
  2
*D6
 10
4088.363531290283
 20
4290.997759899092
 30
0.0
 11
4088.363531290283
 21
4291.560258729464
 31
0.0
 71
     5
 42
1.124997660741428
  3
Knife
100
AcDbAlignedDimension
 13
4087.69640698934
 23
4292.122757559833
 33
0.0
 14
4087.69640698934
 24
4290.997759899092
 34
0.0
 50
90.0
100
AcDbRotatedDimension
1001
ACAD
1000
DSTYLE
1002
{
1070
    40
1040
1.0
1002
}
  0
DIMENSION
  5
163
102
{ACAD_XDICTIONARY
360
164
102
}
102
{ACAD_REACTORS
330
165
102
}
330
2
100
AcDbEntity
  8
0
100
AcDbDimension
  2
*D7
 10
4082.38236841472
 20
4290.358507533329
 30
0.0
 11
4081.786136131603
 21
4290.358507533329
 31
0.0
 71
     5
 42
0.4999999999890861
  3
Knife
100
AcDbAlignedDimension
 13
4082.882368414709
 23
4290.997759911861
 33
0.0
 14
4082.38236841472
 24
4291.060259911861
 34
0.0
100
AcDbRotatedDimension
1001
ACAD
1000
DSTYLE
1002
{
1070
    40
1040
1.0
1002
}
  0
DIMENSION
  5
174
102
{ACAD_XDICTIONARY
360
175
102
}
102
{ACAD_REACTORS
330
176
102
}
330
2
100
AcDbEntity
  8
0
100
AcDbDimension
  2
*D8
 10
4081.799085244256
 20
4292.122759911861
 30
0.0
 11
4081.799085244255
 21
4291.560259911862
 31
0.0
 71
     5
 42
1.125
  3
Knife
100
AcDbAlignedDimension
 13
4082.44486841472
 23
4290.997759911861
 33
0.0
 14
4082.44486841472
 24
4292.122759911861
 34
0.0
 50
90.0
100
AcDbRotatedDimension
1001
ACAD
1000
DSTYLE
1002
{
1070
    40
1040
1.0
1002
}
  0
TEXT
  5
185
330
2
100
AcDbEntity
  8
0
100
AcDbText
 10
4084.117668060529
 20
4286.562259962
 30
0.0
 40
0.375
  1
4 9/16" JAMB
 41
0.6
 51
5.0
  7
DIMTXT
 72
     1
 11
4085.233438067255
 21
4286.562259962
 31
0.0
100
AcDbText
  0
LWPOLYLINE
  5
186
102
{ACAD_REACTORS
330
22A
102
}
330
2
100
AcDbEntity
  8
0
  6
Continuous
100
AcDbPolyline
 90
       16
 70
     1
 43
0.0
 10
4087.507368414715
 20
4278.413770887296
 10
4087.507368414715
 20
4278.194395887299
 42
-0.4142135623730951
 10
4087.491743414715
 20
4278.1787708873
 10
4083.81936841472
 20
4278.1787708873
 10
4083.81936841472
 20
4278.271770887297
 10
4083.56936841472
 20
4278.271770887297
 10
4083.56936841472
 20
4278.1787708873
 10
4082.897993414706
 20
4278.1787708873
 42
-0.4142135623730951
 10
4082.882368414707
 20
4278.194395887299
 10
4082.882368414714
 20
4278.8007708873
 10
4083.319368414719
 20
4278.8007708873
 10
4083.319368414719
 20
4278.757770887298
 10
4083.56936841472
 20
4278.757770887298
 10
4083.56936841472
 20
4278.850770887298
 10
4087.507368414715
 20
4278.850770887298
 10
4087.507368414715
 20
4278.632770887299
 42
0.9979286332485141
  0
HATCH
  5
187
330
2
100
AcDbEntity
  8
0
100
AcDbHatch
 10
0.0
 20
0.0
 30
0.0
210
0.0
220
0.0
230
1.0
  2
AR-SAND
 70
     0
 71
     1
 91
        1
 92
        7
 72
     0
 73
     1
 93
        4
 10
4083.882257229201
 20
4277.674643213007
 10
4083.882257229201
 20
4277.862143213007
 10
4083.382257229201
 20
4277.862143213007
 10
4083.382257229201
 20
4277.674643213007
 97
        2
330
188
330
1B3
 75
     0
 76
     1
 52
0.0
 41
0.02
 77
     0
 78
     4
 53
37.5
 43
4098.463859152881
 44
4268.39527691689
 45
-0.0012598671621922
 46
0.0385364753802632
 79
     6
 49
0.0
 49
-0.0304
 49
0.0
 49
-0.034
 49
0.0
 49
-0.0325
 53
7.499999999999999
 43
4098.463859152881
 44
4268.39527691689
 45
0.0353955341053546
 46
0.0564429213045948
 79
     6
 49
0.0
 49
-0.0164
 49
0.0
 49
-0.0274
 49
0.0
 49
-0.0105
 53
327.5
 43
4098.439259152882
 44
4268.39527691689
 45
0.0622828372350299
 46
0.0001131810707393
 79
     6
 49
0.0
 49
-0.01
 49
0.0
 49
-0.036
 49
0.0
 49
-0.047
 53
317.5
 43
4098.439259152882
 44
4268.39527691689
 45
0.0601225320914459
 46
0.017553511298685
 79
     6
 49
0.0
 49
-0.005
 49
0.0
 49
-0.0236
 49
0.0
 49
-0.027
 47
0.00154997623302
 98
        1
 10
4083.617952057971
 20
4277.747450954977
  0
LWPOLYLINE
  5
188
102
{ACAD_REACTORS
330
187
102
}
330
2
100
AcDbEntity
  8
0
100
AcDbPolyline
 90
       22
 70
     0
 43
0.0
 10
4083.007757315733
 20
4277.362143213007
 10
4083.3512572292
 20
4277.362143213007
 42
0.414213562373094
 10
4083.382257229201
 20
4277.393143213007
 10
4083.382257229201
 20
4277.862143213007
 10
4083.882257229201
 20
4277.862143213007
 10
4083.882257229201
 20
4277.1427708873
 42
0.4142135623730914
 10
4083.913257229201
 20
4277.1117708873
 10
4085.066265435638
 20
4277.1117708873
 10
4085.066265435638
 20
4277.2367708873
 10
4084.940956789754
 20
4277.2367708873
 10
4084.940956789754
 20
4277.7987708873
 10
4084.659956789755
 20
4277.7987708873
 10
4084.659956789755
 20
4277.8787708873
 10
4085.047265435638
 20
4277.8787708873
 10
4085.047265435638
 20
4278.1787708873
 10
4083.81936841472
 20
4278.1787708873
 10
4083.81936841472
 20
4278.25613022179
 10
4083.597353848753
 20
4278.25613022179
 10
4083.570588274505
 20
4278.1787708873
 10
4082.942339447025
 20
4278.1787708873
 10
4082.942339447025
 20
4277.424048933046
 42
0.4142135623730951
 10
4083.004339447025
 20
4277.362048933047
  0
ARC
  5
189
330
2
100
AcDbEntity
  8
0010010007
100
AcDbCircle
 10
4084.971956789754
 20
4277.711770887299
 30
0.0
 40
0.0310000000010811
100
AcDbArc
 50
89.99999999861907
 51
110.783559594432
  0
LINE
  5
18A
330
2
100
AcDbEntity
  8
0010010007
100
AcDbLine
 10
4084.971956789754
 20
4277.742770887299
 30
0.0
 11
4085.035265435638
 21
4277.742770887299
 31
0.0
  0
LINE
  5
18B
330
2
100
AcDbEntity
  8
0010010007
100
AcDbLine
 10
4084.971956789754
 20
4277.7227708873
 30
0.0
 11
4085.035265435638
 21
4277.7227708873
 31
0.0
  0
ARC
  5
18C
330
2
100
AcDbEntity
  8
0010010007
100
AcDbCircle
 10
4084.971956789754
 20
4277.711770887299
 30
0.0
 40
0.0110000000004202
100
AcDbArc
 50
90.0
 51
180.0
  0
ARC
  5
18D
330
2
100
AcDbEntity
  8
0010010007
100
AcDbCircle
 10
4085.035265435638
 20
4277.711770887299
 30
0.0
 40
0.0309999999999491
100
AcDbArc
 50
0.0
 51
90.0
  0
ARC
  5
18E
330
2
100
AcDbEntity
  8
0010010007
100
AcDbCircle
 10
4085.035265435638
 20
4277.711770887299
 30
0.0
 40
0.011000000000422
100
AcDbArc
 50
0.0
 51
90.0
  0
LINE
  5
18F
330
2
100
AcDbEntity
  8
0010010007
100
AcDbLine
 10
4085.066265435638
 20
4277.711770887299
 30
0.0
 11
4085.066265435638
 21
4277.485713217707
 31
0.0
  0
ARC
  5
190
330
2
100
AcDbEntity
  8
0010010007
100
AcDbCircle
 10
4085.035265435638
 20
4277.485713217707
 30
0.0
 40
0.0309999999999491
100
AcDbArc
 50
270.0
 51
0.0
  0
ARC
  5
191
330
2
100
AcDbEntity
  8
0010010007
100
AcDbCircle
 10
4085.035265435638
 20
4277.485713217707
 30
0.0
 40
0.011000000000422
100
AcDbArc
 50
270.0
 51
0.0
  0
LINE
  5
192
330
2
100
AcDbEntity
  8
0010010007
100
AcDbLine
 10
4085.035265435638
 20
4277.454713217707
 30
0.0
 11
4084.971956789756
 21
4277.454713217707
 31
0.0
  0
LINE
  5
193
330
2
100
AcDbEntity
  8
0010010007
100
AcDbLine
 10
4085.035265435638
 20
4277.474713217707
 30
0.0
 11
4084.971956789754
 21
4277.474713217707
 31
0.0
  0
LINE
  5
194
330
2
100
AcDbEntity
  8
0010010007
100
AcDbLine
 10
4084.940956789756
 20
4277.485713217707
 30
0.0
 11
4084.940956789754
 21
4277.828770887299
 31
0.0
  0
LINE
  5
195
330
2
100
AcDbEntity
  8
0010010007
100
AcDbLine
 10
4084.960956789754
 20
4277.485713217707
 30
0.0
 11
4084.960956789754
 21
4277.711770887299
 31
0.0
  0
ARC
  5
196
330
2
100
AcDbEntity
  8
0010010007
100
AcDbCircle
 10
4084.971956789754
 20
4277.485713217707
 30
0.0
 40
0.0110000000004202
100
AcDbArc
 50
180.0
 51
270.0
  0
ARC
  5
197
330
2
100
AcDbEntity
  8
0010010007
100
AcDbCircle
 10
4084.971956789756
 20
4277.485713217707
 30
0.0
 40
0.0309999999999491
100
AcDbArc
 50
180.0
 51
270.0
  0
LINE
  5
198
330
2
100
AcDbEntity
  8
0010010007
100
AcDbLine
 10
4084.940956789754
 20
4277.828770887299
 30
0.0
 11
4084.837627226501
 21
4277.828770887299
 31
0.0
  0
LINE
  5
199
330
2
100
AcDbEntity
  8
0010010007
100
AcDbLine
 10
4084.837627226501
 20
4277.828770887299
 30
0.0
 11
4084.854947734576
 21
4277.7987708873
 31
0.0
  0
LINE
  5
19A
330
2
100
AcDbEntity
  8
0010010007
100
AcDbLine
 10
4084.854947734576
 20
4277.7987708873
 30
0.0
 11
4084.83827729783
 21
4277.7987708873
 31
0.0
  0
LINE
  5
19B
330
2
100
AcDbEntity
  8
0010010007
100
AcDbLine
 10
4084.83827729783
 20
4277.7987708873
 30
0.0
 11
4084.820956789754
 21
4277.828770887299
 31
0.0
  0
LINE
  5
19C
330
2
100
AcDbEntity
  8
0010010007
100
AcDbLine
 10
4084.820956789754
 20
4277.828770887299
 30
0.0
 11
4084.768407862218
 21
4277.828770887299
 31
0.0
  0
LINE
  5
19D
330
2
100
AcDbEntity
  8
0010010007
100
AcDbLine
 10
4084.768407862218
 20
4277.828770887299
 30
0.0
 11
4084.785728370294
 21
4277.7987708873
 31
0.0
  0
LINE
  5
19E
330
2
100
AcDbEntity
  8
0010010007
100
AcDbLine
 10
4084.785728370294
 20
4277.7987708873
 30
0.0
 11
4084.768277297829
 21
4277.7987708873
 31
0.0
  0
LINE
  5
19F
330
2
100
AcDbEntity
  8
0010010007
100
AcDbLine
 10
4084.768277297829
 20
4277.7987708873
 30
0.0
 11
4084.750956789753
 21
4277.828770887299
 31
0.0
  0
LINE
  5
1A0
330
2
100
AcDbEntity
  8
0010010007
100
AcDbLine
 10
4084.750956789753
 20
4277.828770887299
 30
0.0
 11
4084.710956789754
 21
4277.828770887299
 31
0.0
  0
LINE
  5
1A1
330
2
100
AcDbEntity
  8
0010010007
100
AcDbLine
 10
4084.710956789754
 20
4277.828770887299
 30
0.0
 11
4084.710956789754
 21
4277.8487708873
 31
0.0
  0
LINE
  5
1A2
330
2
100
AcDbEntity
  8
0010010007
100
AcDbLine
 10
4084.710956789754
 20
4277.8487708873
 30
0.0
 11
4084.750956789753
 21
4277.8487708873
 31
0.0
  0
LINE
  5
1A3
330
2
100
AcDbEntity
  8
0010010007
100
AcDbLine
 10
4084.750956789753
 20
4277.8487708873
 30
0.0
 11
4084.768277297829
 21
4277.8787708873
 31
0.0
  0
LINE
  5
1A4
330
2
100
AcDbEntity
  8
0010010007
100
AcDbLine
 10
4084.768277297829
 20
4277.8787708873
 30
0.0
 11
4084.785181013819
 21
4277.8787708873
 31
0.0
  0
LINE
  5
1A5
330
2
100
AcDbEntity
  8
0010010007
100
AcDbLine
 10
4084.785181013819
 20
4277.8787708873
 30
0.0
 11
4084.767860505744
 21
4277.8487708873
 31
0.0
  0
LINE
  5
1A6
330
2
100
AcDbEntity
  8
0010010007
100
AcDbLine
 10
4084.767860505744
 20
4277.8487708873
 30
0.0
 11
4084.820331789754
 21
4277.8487708873
 31
0.0
  0
LINE
  5
1A7
330
2
100
AcDbEntity
  8
0010010007
100
AcDbLine
 10
4084.820331789754
 20
4277.8487708873
 30
0.0
 11
4084.83765229783
 21
4277.8787708873
 31
0.0
  0
LINE
  5
1A8
330
2
100
AcDbEntity
  8
0010010007
100
AcDbLine
 10
4084.83765229783
 20
4277.8787708873
 30
0.0
 11
4084.854218471787
 21
4277.8787708873
 31
0.0
  0
LINE
  5
1A9
330
2
100
AcDbEntity
  8
0010010007
100
AcDbLine
 10
4084.854218471787
 20
4277.8787708873
 30
0.0
 11
4084.836897963711
 21
4277.8487708873
 31
0.0
  0
LINE
  5
1AA
330
2
100
AcDbEntity
  8
0010010007
100
AcDbLine
 10
4084.836897963711
 20
4277.8487708873
 30
0.0
 11
4084.960956789754
 21
4277.8487708873
 31
0.0
  0
LINE
  5
1AB
330
2
100
AcDbEntity
  8
0010010007
100
AcDbLine
 10
4084.960956789754
 20
4277.8487708873
 30
0.0
 11
4084.960956789754
 21
4277.740753640792
 31
0.0
  0
LINE
  5
1AC
330
2
100
AcDbEntity
  8
0
100
AcDbLine
 10
4085.046265435638
 20
4277.711770887299
 30
0.0
 11
4085.046265435638
 21
4277.485713217707
 31
0.0
  0
INSERT
  5
1AD
330
2
100
AcDbEntity
  8
0
100
AcDbBlockReference
  2
86NPF141
 10
4085.815673149402
 20
4277.651536338129
 30
0.0
 41
-1.0
 43
2.0
 50
270.0
  0
LWPOLYLINE
  5
1AE
330
2
100
AcDbEntity
  8
0
100
AcDbPolyline
 90
       16
 70
     0
 43
0.0
 10
4083.710382229202
 20
4277.049643213007
 10
4083.554132229201
 20
4277.049643213007
 10
4083.554132229201
 20
4277.080893213007
 10
4083.554132229201
 20
4277.049643213007
 10
4083.678982229201
 20
4277.049643213007
 42
0.4142135623730951
 10
4083.710382229202
 20
4277.081043213008
 10
4083.710382229202
 20
4277.174493213007
 42
0.4142135623730951
 10
4083.678982229201
 20
4277.205893213007
 10
4083.507407229201
 20
4277.205893213007
 42
-0.4142135623730951
 10
4083.476007229201
 20
4277.237293213008
 10
4083.476007229201
 20
4277.611993213008
 42
-0.4142135623730951
 10
4083.507407229201
 20
4277.643393213007
 10
4083.819607229201
 20
4277.643393213007
 42
-0.4142135623730951
 10
4083.851007229201
 20
4277.611993213008
 10
4083.851007229201
 20
4277.081043213008
 42
-0.4142135623730951
 10
4083.819607229201
 20
4277.049643213007
  0
LWPOLYLINE
  5
1AF
330
2
100
AcDbEntity
  8
0
100
AcDbPolyline
 90
       19
 70
     1
 43
0.0
 10
4083.554132229201
 20
4277.080893213007
 10
4083.647732229201
 20
4277.080893213007
 42
0.4142135623730951
 10
4083.6791322292
 20
4277.112293213007
 10
4083.6791322292
 20
4277.143243213007
 42
0.4142135623730951
 10
4083.647732229201
 20
4277.174643213007
 10
4083.476157229201
 20
4277.174643213007
 42
-0.4142135623730951
 10
4083.444757229201
 20
4277.206043213007
 10
4083.444757229201
 20
4277.643243213008
 42
-0.4142135623730951
 10
4083.476157229201
 20
4277.674643213007
 10
4083.850857229201
 20
4277.674643213007
 42
-0.4142135623730951
 10
4083.882257229201
 20
4277.643243213008
 10
4083.882257229201
 20
4277.049793213008
 42
-0.4142135623730951
 10
4083.850857229201
 20
4277.018393213007
 10
4083.554282229201
 20
4277.018393213007
 42
-0.4142135623730951
 10
4083.522882229201
 20
4277.049793213008
 10
4083.522882229201
 20
4277.080743213008
 42
-0.4142135623730951
 10
4083.554282229201
 20
4277.112143213008
 10
4083.6478822292
 20
4277.112143213008
 10
4083.6478822292
 20
4277.080893213007
  0
LWPOLYLINE
  5
1B0
330
2
100
AcDbEntity
  8
0
100
AcDbPolyline
 90
        2
 70
     0
 43
0.0
 10
4083.819757229201
 20
4277.049643213007
 10
4083.6478822292
 20
4277.049643213007
  0
LWPOLYLINE
  5
1B1
330
2
100
AcDbEntity
  8
0
  6
HIDDEN2
100
AcDbPolyline
 90
        4
 70
     0
 43
0.02
 10
4083.509067328972
 20
4275.7985936018
 10
4083.509067328972
 20
4277.097871299955
 42
-0.4142135623730951
 10
4083.555567328972
 20
4277.144371299955
 10
4083.647467104794
 20
4277.144371299955
  0
LWPOLYLINE
  5
1B2
330
2
100
AcDbEntity
  8
0
100
AcDbPolyline
 90
        2
 70
     1
 43
0.03125
 10
4083.647467104794
 20
4277.159996299955
 42
1.0
 10
4083.647467104794
 20
4277.128746299955
 42
1.0
  0
LINE
  5
1B3
102
{ACAD_REACTORS
330
187
102
}
330
2
100
AcDbEntity
  8
0
100
AcDbLine
 10
4083.882257229201
 20
4277.674643213007
 30
0.0
 11
4083.382257229201
 21
4277.674643213007
 31
0.0
  0
LINE
  5
1B4
330
2
100
AcDbEntity
  8
0
  6
HIDDEN2
100
AcDbLine
 10
4086.003265435643
 20
4275.7985936018
 30
0.0
 11
4083.509067328972
 21
4275.7985936018
 31
0.0
  0
LINE
  5
1B5
330
2
100
AcDbEntity
  8
0
100
AcDbLine
 10
4087.213733582493
 20
4278.1787708873
 30
0.0
 11
4085.54437504764
 21
4278.1787708873
 31
0.0
  0
LWPOLYLINE
  5
1B6
330
2
100
AcDbEntity
  8
0
100
AcDbPolyline
 90
        8
 70
     0
 43
0.0
 10
4085.36101543564
 20
4276.505628465754
 10
4086.00326543564
 20
4276.505628465754
 10
4086.00326543564
 20
4276.396628465753
 10
4085.36101543564
 20
4276.396628465753
 10
4085.36101543564
 20
4276.505628465754
 10
4086.00326543564
 20
4276.396628465753
 10
4086.00326543564
 20
4276.505628465754
 10
4085.36101543564
 20
4276.396628465753
  0
HATCH
  5
1B7
330
2
100
AcDbEntity
  8
0
  6
Continuous
100
AcDbHatch
 10
0.0
 20
0.0
 30
0.0
210
0.0
220
0.0
230
1.0
  2
DASH
 70
     0
 71
     0
 91
        1
 92
        7
 72
     1
 73
     1
 93
       16
 10
4085.479015435641
 20
4276.175162115005
 42
0.0
 10
4085.504390435641
 20
4276.175162115005
 42
-0.414213562373094
 10
4085.520015435641
 20
4276.190787115004
 42
0.0
 10
4085.555503223699
 20
4276.166599615005
 42
0.3208708054700796
 10
4085.588390435641
 20
4276.187325283138
 42
0.0
 10
4085.588390435641
 20
4276.244162115005
 42
-0.4142135623730951
 10
4085.604015435641
 20
4276.259787115005
 42
0.0
 10
4085.760265435641
 20
4276.259787115005
 42
-0.4142135623730951
 10
4085.775890435641
 20
4276.244162115005
 42
0.0
 10
4085.775890435641
 20
4276.186962374056
 42
0.3359746306540742
 10
4085.808394345387
 20
4276.166599615005
 42
0.0
 10
4085.844265435642
 20
4276.190787115004
 42
-0.4142135623730951
 10
4085.859890435641
 20
4276.175162115005
 42
0.0
 10
4085.885265435641
 20
4276.175162115005
 42
0.0
 10
4085.885265435641
 20
4276.396787115005
 42
0.0
 10
4085.479015435641
 20
4276.396787115005
 42
0.0
 97
        0
 75
     0
 76
     1
 52
180.0
 41
0.1
 77
     0
 78
     1
 53
180.0
 43
4103.36427190095
 44
4279.232323269883
 45
-0.0125
 46
-0.0125
 79
     2
 49
0.0125
 49
-0.0125
 47
0.0022535086831111
 98
        1
 10
4085.571873253132
 20
4276.296661854422
  0
HATCH
  5
1B8
330
2
100
AcDbEntity
  8
0
  6
Continuous
100
AcDbHatch
 10
0.0
 20
0.0
 30
0.0
210
0.0
220
0.0
230
1.0
  2
DOTS
 70
     0
 71
     0
 91
        2
 92
        7
 72
     0
 73
     1
 93
        4
 10
4085.479015435641
 20
4276.021787115005
 10
4085.504390435641
 20
4276.021787115005
 10
4085.504390435641
 20
4276.175162115005
 10
4085.479015435641
 20
4276.175162115005
 97
        0
 92
        7
 72
     0
 73
     1
 93
        4
 10
4085.859890435641
 20
4276.021787115005
 10
4085.885265435641
 20
4276.021787115005
 10
4085.885265435641
 20
4276.175162115005
 10
4085.859890435641
 20
4276.175162115005
 97
        0
 75
     0
 76
     1
 52
180.0
 41
0.1
 77
     0
 78
     1
 53
180.0
 43
4103.36427190095
 44
4279.232323269883
 45
-0.003125
 46
-0.00625
 79
     2
 49
0.0
 49
-0.00625
 47
0.0009915749623601
 98
        2
 10
4085.494540336907
 20
4276.092143898689
 10
4085.877583830288
 20
4276.077270267679
  0
LWPOLYLINE
  5
1B9
330
2
100
AcDbEntity
  8
0
100
AcDbPolyline
 90
       14
 70
     1
 43
0.0
 10
4085.775890435641
 20
4276.186962374056
 42
0.3359746306540741
 10
4085.808394345387
 20
4276.166599615005
 10
4085.844265435642
 20
4276.190787115004
 42
-0.4142135623730951
 10
4085.859890435641
 20
4276.175162115005
 10
4085.859890435641
 20
4275.993537115005
 10
4085.504390435641
 20
4275.993537115005
 10
4085.504390435641
 20
4276.175162115005
 42
-0.414213562373094
 10
4085.520015435641
 20
4276.190787115004
 10
4085.555503223699
 20
4276.166599615005
 42
0.3208708054700532
 10
4085.588390435641
 20
4276.187325283138
 10
4085.588390435641
 20
4276.244162115005
 42
-0.4142135623730951
 10
4085.604015435641
 20
4276.259787115005
 10
4085.760265435641
 20
4276.259787115005
 42
-0.4142135623730951
 10
4085.775890435641
 20
4276.244162115005
1001
ACAD
1000
ASC_BOUNDS
1002
{
1070
    19
1002
}
  0
LWPOLYLINE
  5
1BA
330
2
100
AcDbEntity
  8
0
100
AcDbPolyline
 90
       14
 70
     1
 43
0.0
 10
4085.768890435642
 20
4276.185743973912
 42
0.3593608004949541
 10
4085.810890322965
 20
4276.159839958031
 10
4085.846109270077
 20
4276.183587724751
 42
-0.3524310491054993
 10
4085.852890435641
 20
4276.175162115005
 10
4085.852890435641
 20
4275.993537115005
 10
4085.511390435642
 20
4275.993537115005
 10
4085.511390435642
 20
4276.175162115005
 42
-0.3518693664465323
 10
4085.518154763343
 20
4276.183584022366
 10
4085.55307915451
 20
4276.159780518187
 42
0.3446308864324803
 10
4085.595390435641
 20
4276.18601943219
 10
4085.595390435641
 20
4276.244162115005
 42
-0.4142135623730946
 10
4085.604015435641
 20
4276.252787115004
 10
4085.760265435641
 20
4276.252787115004
 42
-0.4142135623730946
 10
4085.768890435642
 20
4276.244162115005
  0
LWPOLYLINE
  5
1BB
330
2
100
AcDbEntity
  8
0
100
AcDbPolyline
 90
       10
 70
     1
 43
0.0
 10
4085.744640435641
 20
4276.182224615005
 42
0.3584554666094669
 10
4085.809544281795
 20
4276.135349615005
 10
4085.828640435642
 20
4276.135349615005
 10
4085.828640435642
 20
4276.024787115004
 10
4085.535640435642
 20
4276.024787115004
 10
4085.535640435642
 20
4276.135349615005
 10
4085.554736589487
 20
4276.135349615005
 42
0.3467993108968364
 10
4085.619640435641
 20
4276.182224615005
 10
4085.619640435641
 20
4276.228537115005
 10
4085.744640435641
 20
4276.228537115005
  0
LWPOLYLINE
  5
1BC
330
2
100
AcDbEntity
  8
0
100
AcDbPolyline
 90
        6
 70
     0
 43
0.0
 10
4085.859890435641
 20
4276.021787115005
 10
4085.869640435642
 20
4276.021787115005
 10
4085.869640435642
 20
4275.983787115006
 10
4085.494640435642
 20
4275.983787115006
 10
4085.494640435642
 20
4276.021787115005
 10
4085.504390435641
 20
4276.021787115005
  0
LINE
  5
1BD
330
2
100
AcDbEntity
  8
0
100
AcDbLine
 10
4085.504390435641
 20
4276.175162115005
 30
0.0
 11
4085.479015435641
 21
4276.175162115005
 31
0.0
  0
LINE
  5
1BE
330
2
100
AcDbEntity
  8
0
100
AcDbLine
 10
4085.504390435641
 20
4276.021787115005
 30
0.0
 11
4085.479015435641
 21
4276.021787115005
 31
0.0
  0
LINE
  5
1BF
330
2
100
AcDbEntity
  8
0
100
AcDbLine
 10
4085.859890435641
 20
4276.175162115005
 30
0.0
 11
4085.885265435641
 21
4276.175162115005
 31
0.0
  0
LINE
  5
1C0
330
2
100
AcDbEntity
  8
0
100
AcDbLine
 10
4085.859890435641
 20
4276.021787115005
 30
0.0
 11
4085.885265435641
 21
4276.021787115005
 31
0.0
  0
LWPOLYLINE
  5
1C1
330
2
100
AcDbEntity
  8
0
100
AcDbPolyline
 90
        4
 70
     0
 43
0.0
 10
4085.885265435642
 20
4275.7985936018
 10
4085.885265435639
 20
4276.396787115007
 10
4086.00326543564
 20
4276.396787115007
 10
4086.003265435643
 20
4275.7985936018
  0
HATCH
  5
1C2
330
2
100
AcDbEntity
  8
0
100
AcDbHatch
 10
0.0
 20
0.0
 30
0.0
210
0.0
220
0.0
230
1.0
  2
SOLID
 70
     1
 71
     0
 91
        1
 92
        7
 72
     1
 73
     1
 93
        2
 10
4085.361015435642
 20
4276.255628465754
 42
0.6666666666855048
 10
4085.361015435643
 20
4276.068128465752
 42
0.0
 97
        0
 75
     1
 76
     1
 47
0.0008253963891123
 98
        1
 10
4085.334846797047
 20
4276.145796455927
1001
GradientColor1ACI
1070
     5
1001
GradientColor2ACI
1070
     2
1001
ACAD
1010
0.0
1020
0.0
1030
0.0
  0
LWPOLYLINE
  5
1C3
330
2
100
AcDbEntity
  8
0
100
AcDbPolyline
 90
        4
 70
     0
 43
0.0
 10
4085.479015435644
 20
4275.7985936018
 10
4085.479015435641
 20
4276.396787115007
 10
4085.361015435641
 20
4276.396787115007
 10
4085.361015435643
 20
4275.7985936018
  0
LWPOLYLINE
  5
1C4
330
2
100
AcDbEntity
  8
0
  6
Continuous
100
AcDbPolyline
 90
        2
 70
     0
 43
0.0
 10
4086.00326543564
 20
4275.94346115853
 10
4086.00326543564
 20
4276.06846115853
  0
LWPOLYLINE
  5
1C5
330
2
100
AcDbEntity
  8
0
100
AcDbPolyline
 90
       11
 70
     1
 43
0.0
 10
4085.36101543564
 20
4276.255628465754
 10
4085.36101543564
 20
4276.505628465754
 10
4084.98701543564
 20
4276.505628465754
 10
4084.98701543564
 20
4276.224128465749
 42
0.4142135623731695
 10
4085.018015435642
 20
4276.193128465754
 10
4085.064540203926
 20
4276.193128465754
 42
-0.235730494161761
 10
4085.089316398502
 20
4276.180760164074
 10
4085.258714472778
 20
4275.955496767433
 42
0.235730494161718
 10
4085.283490667353
 20
4275.943128465754
 10
4085.36101543564
 20
4275.943128465754
 10
4085.36101543564
 20
4276.068128465754
 42
-0.6666666666666588
  0
LWPOLYLINE
  5
1C6
330
2
100
AcDbEntity
  8
0
100
AcDbPolyline
 90
       19
 70
     1
 43
0.0
 10
4085.62826543564
 20
4276.505628465754
 10
4085.066265435641
 20
4276.505628465754
 10
4085.066265435636
 20
4277.880628417928
 42
-0.4138499054722459
 10
4085.128188446415
 20
4277.942628370131
 10
4086.048265435645
 20
4277.9437708873
 10
4086.048265435645
 20
4277.631770887302
 10
4086.12826543564
 20
4277.631770887302
 10
4086.12826543564
 20
4277.9437708873
 10
4086.316265435642
 20
4277.9437708873
 42
-0.4142135623730951
 10
4086.37826543564
 20
4277.881770887302
 10
4086.378265435636
 20
4276.194241235635
 10
4086.283226488522
 20
4276.194241235628
 42
-0.3899024490771541
 10
4086.098226488521
 20
4275.993068384304
 10
4086.098226488521
 20
4275.94346115853
 10
4086.00326543564
 20
4275.94346115853
 10
4086.00326543564
 20
4276.06846115853
 42
0.666666666665864
 10
4086.00326543564
 20
4276.25596115853
 10
4086.00326543564
 20
4276.505628465754
 10
4085.816265435645
 20
4276.505628465754
 42
0.9999999999999998
  0
HATCH
  5
1C7
330
2
100
AcDbEntity
  8
0
100
AcDbHatch
 10
0.0
 20
0.0
 30
0.0
210
0.0
220
0.0
230
1.0
  2
SOLID
 70
     1
 71
     0
 91
        1
 92
        7
 72
     1
 73
     1
 93
        2
 10
4086.003265435642
 20
4276.255628465754
 42
-0.6666666666855048
 10
4086.003265435642
 20
4276.068128465752
 42
0.0
 97
        0
 75
     1
 76
     1
 47
0.0008253963891123
 98
        1
 10
4086.029434074237
 20
4276.145796455927
1001
GradientColor1ACI
1070
     5
1001
GradientColor2ACI
1070
     2
1001
ACAD
1010
0.0
1020
0.0
1030
0.0
  0
LWPOLYLINE
  5
1C8
330
2
100
AcDbEntity
  8
0
100
AcDbPolyline
 90
        8
 70
     0
 43
0.0
 10
4085.36101543564
 20
4276.505628465754
 10
4086.00326543564
 20
4276.505628465754
 10
4086.00326543564
 20
4276.396628465753
 10
4085.36101543564
 20
4276.396628465753
 10
4085.36101543564
 20
4276.505628465754
 10
4086.00326543564
 20
4276.396628465753
 10
4086.00326543564
 20
4276.505628465754
 10
4085.36101543564
 20
4276.396628465753
  0
HATCH
  5
1C9
330
2
100
AcDbEntity
  8
0
  6
Continuous
100
AcDbHatch
 10
0.0
 20
0.0
 30
0.0
210
0.0
220
0.0
230
1.0
  2
DASH
 70
     0
 71
     0
 91
        1
 92
        7
 72
     1
 73
     1
 93
       16
 10
4085.479015435641
 20
4276.175162115005
 42
0.0
 10
4085.504390435641
 20
4276.175162115005
 42
-0.414213562373094
 10
4085.520015435641
 20
4276.190787115004
 42
0.0
 10
4085.555503223699
 20
4276.166599615005
 42
0.3208708054700796
 10
4085.588390435641
 20
4276.187325283138
 42
0.0
 10
4085.588390435641
 20
4276.244162115005
 42
-0.4142135623730951
 10
4085.604015435641
 20
4276.259787115005
 42
0.0
 10
4085.760265435641
 20
4276.259787115005
 42
-0.4142135623730951
 10
4085.775890435641
 20
4276.244162115005
 42
0.0
 10
4085.775890435641
 20
4276.186962374056
 42
0.3359746306540742
 10
4085.808394345387
 20
4276.166599615005
 42
0.0
 10
4085.844265435642
 20
4276.190787115004
 42
-0.4142135623730951
 10
4085.859890435641
 20
4276.175162115005
 42
0.0
 10
4085.885265435641
 20
4276.175162115005
 42
0.0
 10
4085.885265435641
 20
4276.396787115005
 42
0.0
 10
4085.479015435641
 20
4276.396787115005
 42
0.0
 97
        0
 75
     0
 76
     1
 52
180.0
 41
0.1
 77
     0
 78
     1
 53
180.0
 43
4103.36427190095
 44
4279.232323269883
 45
-0.0125
 46
-0.0125
 79
     2
 49
0.0125
 49
-0.0125
 47
0.0022535086831111
 98
        1
 10
4085.571873253132
 20
4276.296661854422
  0
HATCH
  5
1CA
330
2
100
AcDbEntity
  8
0
  6
Continuous
100
AcDbHatch
 10
0.0
 20
0.0
 30
0.0
210
0.0
220
0.0
230
1.0
  2
DOTS
 70
     0
 71
     0
 91
        2
 92
        7
 72
     0
 73
     1
 93
        4
 10
4085.479015435641
 20
4276.021787115005
 10
4085.504390435641
 20
4276.021787115005
 10
4085.504390435641
 20
4276.175162115005
 10
4085.479015435641
 20
4276.175162115005
 97
        0
 92
        7
 72
     0
 73
     1
 93
        4
 10
4085.859890435641
 20
4276.021787115005
 10
4085.885265435641
 20
4276.021787115005
 10
4085.885265435641
 20
4276.175162115005
 10
4085.859890435641
 20
4276.175162115005
 97
        0
 75
     0
 76
     1
 52
180.0
 41
0.1
 77
     0
 78
     1
 53
180.0
 43
4103.36427190095
 44
4279.232323269883
 45
-0.003125
 46
-0.00625
 79
     2
 49
0.0
 49
-0.00625
 47
0.0009915749623601
 98
        2
 10
4085.494540336907
 20
4276.092143898689
 10
4085.877583830288
 20
4276.077270267679
  0
LWPOLYLINE
  5
1CB
330
2
100
AcDbEntity
  8
0
100
AcDbPolyline
 90
       14
 70
     1
 43
0.0
 10
4085.775890435641
 20
4276.186962374056
 42
0.3359746306540741
 10
4085.808394345387
 20
4276.166599615005
 10
4085.844265435642
 20
4276.190787115004
 42
-0.4142135623730951
 10
4085.859890435641
 20
4276.175162115005
 10
4085.859890435641
 20
4275.993537115005
 10
4085.504390435641
 20
4275.993537115005
 10
4085.504390435641
 20
4276.175162115005
 42
-0.414213562373094
 10
4085.520015435641
 20
4276.190787115004
 10
4085.555503223699
 20
4276.166599615005
 42
0.3208708054700532
 10
4085.588390435641
 20
4276.187325283138
 10
4085.588390435641
 20
4276.244162115005
 42
-0.4142135623730951
 10
4085.604015435641
 20
4276.259787115005
 10
4085.760265435641
 20
4276.259787115005
 42
-0.4142135623730951
 10
4085.775890435641
 20
4276.244162115005
1001
ACAD
1000
ASC_BOUNDS
1002
{
1070
    19
1002
}
  0
LWPOLYLINE
  5
1CC
330
2
100
AcDbEntity
  8
0
100
AcDbPolyline
 90
       14
 70
     1
 43
0.0
 10
4085.768890435642
 20
4276.185743973912
 42
0.3593608004949541
 10
4085.810890322965
 20
4276.159839958031
 10
4085.846109270077
 20
4276.183587724751
 42
-0.3524310491054993
 10
4085.852890435641
 20
4276.175162115005
 10
4085.852890435641
 20
4275.993537115005
 10
4085.511390435642
 20
4275.993537115005
 10
4085.511390435642
 20
4276.175162115005
 42
-0.3518693664465323
 10
4085.518154763343
 20
4276.183584022366
 10
4085.55307915451
 20
4276.159780518187
 42
0.3446308864324803
 10
4085.595390435641
 20
4276.18601943219
 10
4085.595390435641
 20
4276.244162115005
 42
-0.4142135623730946
 10
4085.604015435641
 20
4276.252787115004
 10
4085.760265435641
 20
4276.252787115004
 42
-0.4142135623730946
 10
4085.768890435642
 20
4276.244162115005
  0
LWPOLYLINE
  5
1CD
330
2
100
AcDbEntity
  8
0
100
AcDbPolyline
 90
       10
 70
     1
 43
0.0
 10
4085.744640435641
 20
4276.182224615005
 42
0.3584554666094669
 10
4085.809544281795
 20
4276.135349615005
 10
4085.828640435642
 20
4276.135349615005
 10
4085.828640435642
 20
4276.024787115004
 10
4085.535640435642
 20
4276.024787115004
 10
4085.535640435642
 20
4276.135349615005
 10
4085.554736589487
 20
4276.135349615005
 42
0.3467993108968364
 10
4085.619640435641
 20
4276.182224615005
 10
4085.619640435641
 20
4276.228537115005
 10
4085.744640435641
 20
4276.228537115005
  0
LWPOLYLINE
  5
1CE
330
2
100
AcDbEntity
  8
0
100
AcDbPolyline
 90
        6
 70
     0
 43
0.0
 10
4085.859890435641
 20
4276.021787115005
 10
4085.869640435642
 20
4276.021787115005
 10
4085.869640435642
 20
4275.983787115006
 10
4085.494640435642
 20
4275.983787115006
 10
4085.494640435642
 20
4276.021787115005
 10
4085.504390435641
 20
4276.021787115005
  0
LINE
  5
1CF
330
2
100
AcDbEntity
  8
0
100
AcDbLine
 10
4085.504390435641
 20
4276.175162115005
 30
0.0
 11
4085.479015435641
 21
4276.175162115005
 31
0.0
  0
LINE
  5
1D0
330
2
100
AcDbEntity
  8
0
100
AcDbLine
 10
4085.504390435641
 20
4276.021787115005
 30
0.0
 11
4085.479015435641
 21
4276.021787115005
 31
0.0
  0
LINE
  5
1D1
330
2
100
AcDbEntity
  8
0
100
AcDbLine
 10
4085.859890435641
 20
4276.175162115005
 30
0.0
 11
4085.885265435641
 21
4276.175162115005
 31
0.0
  0
LINE
  5
1D2
330
2
100
AcDbEntity
  8
0
100
AcDbLine
 10
4085.859890435641
 20
4276.021787115005
 30
0.0
 11
4085.885265435641
 21
4276.021787115005
 31
0.0
  0
LWPOLYLINE
  5
1D3
330
2
100
AcDbEntity
  8
0
100
AcDbPolyline
 90
        4
 70
     0
 43
0.0
 10
4085.885265435642
 20
4275.7985936018
 10
4085.885265435639
 20
4276.396787115007
 10
4086.00326543564
 20
4276.396787115007
 10
4086.003265435643
 20
4275.7985936018
  0
HATCH
  5
1D4
330
2
100
AcDbEntity
  8
0
100
AcDbHatch
 10
0.0
 20
0.0
 30
0.0
210
0.0
220
0.0
230
1.0
  2
SOLID
 70
     1
 71
     0
 91
        1
 92
        7
 72
     1
 73
     1
 93
        2
 10
4085.361015435642
 20
4276.255628465754
 42
0.6666666666855048
 10
4085.361015435643
 20
4276.068128465752
 42
0.0
 97
        0
 75
     1
 76
     1
 47
0.0008253963891123
 98
        1
 10
4085.334846797047
 20
4276.145796455927
1001
GradientColor1ACI
1070
     5
1001
GradientColor2ACI
1070
     2
1001
ACAD
1010
0.0
1020
0.0
1030
0.0
  0
LWPOLYLINE
  5
1D5
330
2
100
AcDbEntity
  8
0
100
AcDbPolyline
 90
        4
 70
     0
 43
0.0
 10
4085.479015435644
 20
4275.7985936018
 10
4085.479015435641
 20
4276.396787115007
 10
4085.361015435641
 20
4276.396787115007
 10
4085.361015435643
 20
4275.7985936018
  0
LWPOLYLINE
  5
1D6
330
2
100
AcDbEntity
  8
0
  6
Continuous
100
AcDbPolyline
 90
        2
 70
     0
 43
0.0
 10
4086.00326543564
 20
4275.94346115853
 10
4086.00326543564
 20
4276.06846115853
  0
LWPOLYLINE
  5
1D7
330
2
100
AcDbEntity
  8
0
100
AcDbPolyline
 90
       11
 70
     1
 43
0.0
 10
4085.36101543564
 20
4276.255628465754
 10
4085.36101543564
 20
4276.505628465754
 10
4084.98701543564
 20
4276.505628465754
 10
4084.98701543564
 20
4276.224128465749
 42
0.4142135623731695
 10
4085.018015435642
 20
4276.193128465754
 10
4085.064540203926
 20
4276.193128465754
 42
-0.235730494161761
 10
4085.089316398502
 20
4276.180760164074
 10
4085.258714472778
 20
4275.955496767433
 42
0.235730494161718
 10
4085.283490667353
 20
4275.943128465754
 10
4085.36101543564
 20
4275.943128465754
 10
4085.36101543564
 20
4276.068128465754
 42
-0.6666666666666588
  0
LWPOLYLINE
  5
1D8
330
2
100
AcDbEntity
  8
0
100
AcDbPolyline
 90
       19
 70
     1
 43
0.0
 10
4085.62826543564
 20
4276.505628465754
 10
4085.066265435641
 20
4276.505628465754
 10
4085.066265435636
 20
4277.880628417928
 42
-0.4138499054722459
 10
4085.128188446415
 20
4277.942628370131
 10
4086.048265435645
 20
4277.9437708873
 10
4086.048265435645
 20
4277.631770887302
 10
4086.12826543564
 20
4277.631770887302
 10
4086.12826543564
 20
4277.9437708873
 10
4086.316265435642
 20
4277.9437708873
 42
-0.4142135623730951
 10
4086.37826543564
 20
4277.881770887302
 10
4086.378265435636
 20
4276.194241235635
 10
4086.283226488522
 20
4276.194241235628
 42
-0.3899024490771541
 10
4086.098226488521
 20
4275.993068384304
 10
4086.098226488521
 20
4275.94346115853
 10
4086.00326543564
 20
4275.94346115853
 10
4086.00326543564
 20
4276.06846115853
 42
0.666666666665864
 10
4086.00326543564
 20
4276.25596115853
 10
4086.00326543564
 20
4276.505628465754
 10
4085.816265435645
 20
4276.505628465754
 42
0.9999999999999998
  0
HATCH
  5
1D9
330
2
100
AcDbEntity
  8
0
100
AcDbHatch
 10
0.0
 20
0.0
 30
0.0
210
0.0
220
0.0
230
1.0
  2
SOLID
 70
     1
 71
     0
 91
        1
 92
        7
 72
     1
 73
     1
 93
        2
 10
4086.003265435642
 20
4276.255628465754
 42
-0.6666666666855048
 10
4086.003265435642
 20
4276.068128465752
 42
0.0
 97
        0
 75
     1
 76
     1
 47
0.0008253963891123
 98
        1
 10
4086.029434074237
 20
4276.145796455927
1001
GradientColor1ACI
1070
     5
1001
GradientColor2ACI
1070
     2
1001
ACAD
1010
0.0
1020
0.0
1030
0.0
  0
DIMENSION
  5
1DA
330
2
100
AcDbEntity
  8
0
100
AcDbDimension
  2
*D9
 10
4080.544939289001
 20
4276.630628465754
 30
0.0
 11
4080.544939289
 21
4279.318908449571
 31
0.0
 71
     5
 42
5.376559967632601
  3
Knife
100
AcDbAlignedDimension
 13
4083.226552818212
 23
4282.007188433386
 33
0.0
 14
4085.283490667348
 24
4276.630628465754
 34
0.0
 50
90.0
100
AcDbRotatedDimension
1001
ACAD
1000
DSTYLE
1002
{
1070
    40
1040
1.0
1002
}
  0
TEXT
  5
1E9
330
2
100
AcDbEntity
  8
0
100
AcDbText
 10
4083.187859721592
 20
4274.637757229213
 30
0.0
 40
0.375
  1
%%UTRANSOM / HOPPER STACK
 41
0.6
 51
5.0
  7
DIMTXT
 72
     1
 11
4085.233438067255
 21
4274.637757229213
 31
0.0
100
AcDbText
  0
LINE
  5
1EA
330
2
100
AcDbEntity
  8
0
  6
HIDDEN
100
AcDbLine
 10
4084.134567586498
 20
4282.48289384259
 30
0.0
 11
4083.304077586498
 21
4282.48289384259
 31
0.0
  0
INSERT
  5
1EB
330
2
100
AcDbEntity
  8
0
100
AcDbBlockReference
  2
93OBW
 10
4084.868412556003
 20
4280.509270887299
 30
0.0
 41
-1.0
 42
-1.0
 43
2.0
 50
270.0
  0
INSERT
  5
1EC
330
2
100
AcDbEntity
  8
0
100
AcDbBlockReference
  2
86NPF141
 10
4083.448435749467
 20
4280.736922982558
 30
0.0
 41
-1.0
 43
2.0
 50
90.0
  0
LINE
  5
1ED
330
2
100
AcDbEntity
  8
0
100
AcDbLine
 10
4084.52873616242
 20
4280.209270887299
 30
0.0
 11
4083.79173616242
 21
4280.209270887299
 31
0.0
  0
LINE
  5
1EE
330
2
100
AcDbEntity
  8
0
100
AcDbLine
 10
4083.80998616242
 20
4280.209270887299
 30
0.0
 11
4084.496986162419
 21
4280.209270887299
 31
0.0
  0
INSERT
  5
1EF
330
2
100
AcDbEntity
  8
0
100
AcDbBlockReference
  2
*U4
 10
4081.557287412324
 20
4278.328084009012
 30
0.0
 41
-1.0
 50
270.0
1001
ACAD
1002
{
1000
R14_HATCH_DATA
1000
3651
1011
4081.557287412324
1021
4279.328084009011
1031
0.0
1011
4082.557287412323
1021
4278.328084009012
1031
0.0
1011
4081.557287412324
1021
4278.328084009012
1031
1.0
1040
0.0
1010
0.0
1020
0.0
1030
1.0
1000
SOLID
1070
     1
1070
     0
1071
        1
1071
        1
1071
        2
1070
     1
1040
1.881186878287213
1040
3.15944875009568
1040
1.881186878287314
1040
3.346448750095556
1070
     2
1040
1.760589222037213
1040
3.252948750095684
1040
0.1525976562500021
1040
-0.65950076747307
1040
0.6595007674730821
1070
     0
1071
        0
1070
     0
1070
     1
1071
        1
1040
4.812561040009144
1040
6.499794521109716
1040
0.0
1002
}
  0
LWPOLYLINE
  5
1F0
330
2
100
AcDbEntity
  8
0
100
AcDbPolyline
 90
       15
 70
     1
 43
0.0
 10
4083.320677544589
 20
4279.663270887298
 10
4083.567186531603
 20
4279.663270887298
 10
4083.56936841472
 20
4279.538270887298
 10
4085.256868414719
 20
4279.538270887298
 42
-0.9999999999999998
 10
4085.38186841472
 20
4279.538270887298
 10
4086.444868414719
 20
4279.538270887298
 10
4086.444868414719
 20
4280.209270887299
 10
4086.00786841472
 20
4280.209270887299
 10
4086.006245093681
 20
4280.116270887298
 10
4085.759491735758
 20
4280.116270887298
 10
4085.757868414719
 20
4280.209270887299
 10
4082.91336841472
 20
4280.209270887299
 42
0.4142135623730949
 10
4082.882368414719
 20
4280.178270887299
 10
4082.882368414719
 20
4279.588270887298
 10
4083.319368414719
 20
4279.588270887298
  0
LWPOLYLINE
  5
1F1
330
2
100
AcDbEntity
  8
0
100
AcDbPolyline
 90
       20
 70
     1
 43
0.0
 10
4085.971651110582
 20
4280.131145887298
 10
4085.97848616242
 20
4280.209270887299
 10
4086.633662151033
 20
4280.209270887299
 10
4086.633662151033
 20
4281.11489856159
 42
0.4142135623730951
 10
4086.602662151033
 20
4281.14589856159
 10
4085.700016836393
 20
4281.14589856159
 10
4085.696709897979
 20
4281.335352936497
 42
0.4091108014277093
 10
4085.634719340879
 20
4281.396270887298
 10
4084.509736162419
 20
4281.396270887298
 10
4084.509736162419
 20
4281.271270887298
 10
4084.635044808303
 20
4281.145962241414
 10
4084.635044808303
 20
4280.589270887299
 10
4084.916044808303
 20
4280.589270887299
 10
4084.916044808303
 20
4280.509270887299
 10
4084.529736162419
 20
4280.509270887299
 10
4084.529736162419
 20
4280.209270887299
 10
4084.716736162419
 20
4280.209270887299
 42
-0.3422459893048229
 10
4084.903736162419
 20
4280.209270887299
 10
4085.75973616242
 20
4280.209270887299
 10
4085.761099839367
 20
4280.131145887298
  0
LWPOLYLINE
  5
1F2
330
2
100
AcDbEntity
  8
0
100
AcDbPolyline
 90
        8
 70
     1
 43
0.0
 10
4083.859736162419
 20
4280.334688419813
 10
4083.859736162419
 20
4280.519688419813
 42
-0.4142135623730951
 10
4083.984736162419
 20
4280.644688419813
 10
4084.40473616242
 20
4280.644688419813
 42
-0.4142135623730951
 10
4084.529736162419
 20
4280.519688419813
 10
4084.529736162419
 20
4280.334688419813
 42
-0.4142135623730951
 10
4084.40473616242
 20
4280.209688419813
 10
4083.984736162419
 20
4280.209688419813
 42
-0.4142135623730951
  0
LWPOLYLINE
  5
1F3
330
2
100
AcDbEntity
  8
0
100
AcDbPolyline
 90
       22
 70
     0
 43
0.0
 10
4083.215843463229
 20
4280.444546011841
 10
4083.809817586497
 20
4280.444546011841
 10
4083.809817586497
 20
4280.646688433386
 10
4084.494567586498
 20
4280.646688433386
 42
0.4142135623730951
 10
4084.509567586497
 20
4280.661688433387
 10
4084.509567586497
 20
4281.756075663517
 10
4084.41452863938
 20
4281.756075663517
 42
0.3899024490717824
 10
4084.229528639379
 20
4281.957248514845
 10
4084.229528639379
 20
4282.006855740616
 10
4084.134567586498
 20
4282.006855740616
 10
4084.134567586498
 20
4281.881855740616
 42
-0.6666666666666686
 10
4084.134567586498
 20
4281.694355740615
 10
4084.134567586498
 20
4281.444688433387
 10
4083.948479916871
 20
4281.444688433387
 42
-0.9946524064171082
 10
4083.761479916872
 20
4281.444688433387
 10
4082.885843463229
 20
4281.444688433387
 10
4082.885843463229
 20
4280.569688433387
 42
0.4142135623730951
 10
4083.010843463228
 20
4280.444688433386
 10
4083.135843463229
 20
4280.444688433386
 10
4083.135843463229
 20
4280.761188433387
 10
4083.215843463229
 20
4280.761188433387
 10
4083.215843463229
 20
4280.448688433386
  0
HATCH
  5
1F4
330
2
100
AcDbEntity
  8
0
100
AcDbHatch
 10
0.0
 20
0.0
 30
0.0
210
0.0
220
0.0
230
1.0
  2
SOLID
 70
     1
 71
     0
 91
        1
 92
        7
 72
     1
 73
     1
 93
        2
 10
4083.304077586498
 20
4281.882188433386
 42
0.0
 10
4083.304077586498
 20
4281.694688433386
 42
-0.6666666666666311
 97
        0
 75
     1
 76
     1
 47
0.0010014887122476
 98
        1
 10
4083.258017510151
 20
4281.767283237342
1001
GradientColor1ACI
1070
     5
1001
GradientColor2ACI
1070
     2
1001
ACAD
1010
0.0
1020
0.0
1030
0.0
  0
LWPOLYLINE
  5
1F5
330
2
100
AcDbEntity
  8
0
100
AcDbPolyline
 90
       11
 70
     1
 43
0.0
 10
4083.304077586498
 20
4281.694688433386
 10
4083.304077586498
 20
4281.444688433387
 10
4082.930077586498
 20
4281.444688433387
 10
4082.930077586498
 20
4281.726188433387
 42
-0.4142135623731695
 10
4082.961077586498
 20
4281.757188433386
 10
4083.007602354784
 20
4281.757188433386
 42
0.235730494161761
 10
4083.03237854936
 20
4281.769556735065
 10
4083.201776623635
 20
4281.994820131707
 42
-0.235730494161718
 10
4083.226552818211
 20
4282.007188433386
 10
4083.304077586498
 20
4282.007188433386
 10
4083.304077586498
 20
4281.882188433386
 42
0.6666666666666588
  0
LWPOLYLINE
  5
1F6
330
2
100
AcDbEntity
  8
0
100
AcDbPolyline
 90
        4
 70
     0
 43
0.0
 10
4084.016197586498
 20
4282.48289384259
 10
4084.016197586498
 20
4281.553688433387
 10
4084.134567586498
 20
4281.553688433387
 10
4084.134567586498
 20
4282.48289384259
  0
LWPOLYLINE
  5
1F7
330
2
100
AcDbEntity
  8
0
100
AcDbPolyline
 90
        4
 70
     0
 43
0.0
 10
4083.422447586498
 20
4282.48289384259
 10
4083.422447586498
 20
4281.553688433387
 10
4083.304077586498
 20
4281.553688433387
 10
4083.304077586498
 20
4282.48289384259
  0
LWPOLYLINE
  5
1F8
330
2
100
AcDbEntity
  8
0
100
AcDbPolyline
 90
       14
 70
     1
 43
0.0
 10
4083.531822586498
 20
4281.763513174335
 42
0.3359746306540741
 10
4083.499318676751
 20
4281.783875933387
 10
4083.463447586498
 20
4281.759688433387
 42
-0.4142135623730951
 10
4083.447822586498
 20
4281.775313433387
 10
4083.447822586498
 20
4281.956938433387
 10
4083.990822586498
 20
4281.956938433387
 10
4083.990822586498
 20
4281.775313433387
 42
-0.414213562373094
 10
4083.975197586497
 20
4281.759688433387
 10
4083.939709798439
 20
4281.783875933387
 42
0.3208708054700532
 10
4083.906822586498
 20
4281.763150265255
 10
4083.906822586498
 20
4281.706313433386
 42
-0.4142135623730951
 10
4083.891197586498
 20
4281.690688433386
 10
4083.547447586498
 20
4281.690688433386
 42
-0.4142135623730951
 10
4083.531822586498
 20
4281.706313433386
  0
LWPOLYLINE
  5
1F9
330
2
100
AcDbEntity
  8
0
100
AcDbPolyline
 90
       14
 70
     1
 43
0.0
 10
4083.538822586499
 20
4281.76473157448
 42
0.3593608004949541
 10
4083.496822699174
 20
4281.79063559036
 10
4083.461603752062
 20
4281.766887823642
 42
-0.3524310491054993
 10
4083.454822586498
 20
4281.775313433387
 10
4083.454822586498
 20
4281.956938433387
 10
4083.983822586498
 20
4281.956938433387
 10
4083.983822586498
 20
4281.775313433387
 42
-0.3518693664465323
 10
4083.977058258796
 20
4281.766891526025
 10
4083.942133867631
 20
4281.790695030205
 42
0.3446308864324803
 10
4083.899822586498
 20
4281.764456116203
 10
4083.899822586498
 20
4281.706313433386
 42
-0.4142135623730946
 10
4083.891197586498
 20
4281.697688433387
 10
4083.547447586498
 20
4281.697688433387
 42
-0.4142135623730946
 10
4083.538822586499
 20
4281.706313433386
  0
LWPOLYLINE
  5
1FA
330
2
100
AcDbEntity
  8
0
100
AcDbPolyline
 90
       10
 70
     1
 43
0.0
 10
4083.563072586498
 20
4281.768250933387
 42
0.3584554666094669
 10
4083.498168740344
 20
4281.815125933387
 10
4083.479072586498
 20
4281.815125933387
 10
4083.479072586498
 20
4281.925688433387
 10
4083.959572586498
 20
4281.925688433387
 10
4083.959572586498
 20
4281.815125933387
 10
4083.940476432651
 20
4281.815125933387
 42
0.3467993108968364
 10
4083.875572586498
 20
4281.768250933387
 10
4083.875572586498
 20
4281.721938433387
 10
4083.563072586498
 20
4281.721938433387
  0
LWPOLYLINE
  5
1FB
330
2
100
AcDbEntity
  8
0
100
AcDbPolyline
 90
        6
 70
     0
 43
0.0
 10
4083.447822586498
 20
4281.928688433387
 10
4083.438072586498
 20
4281.928688433387
 10
4083.438072586498
 20
4281.966688433388
 10
4084.000572586498
 20
4281.966688433388
 10
4084.000572586498
 20
4281.928688433387
 10
4083.990822586498
 20
4281.928688433387
  0
LINE
  5
1FC
330
2
100
AcDbEntity
  8
0
100
AcDbLine
 10
4083.990822586498
 20
4281.775313433387
 30
0.0
 11
4084.016197586498
 21
4281.775313433387
 31
0.0
  0
LINE
  5
1FD
330
2
100
AcDbEntity
  8
0
100
AcDbLine
 10
4083.990822586498
 20
4281.928688433387
 30
0.0
 11
4084.016197586498
 21
4281.928688433387
 31
0.0
  0
LINE
  5
1FE
330
2
100
AcDbEntity
  8
0
100
AcDbLine
 10
4083.447822586498
 20
4281.775313433387
 30
0.0
 11
4083.422447586498
 21
4281.775313433387
 31
0.0
  0
LINE
  5
1FF
330
2
100
AcDbEntity
  8
0
100
AcDbLine
 10
4083.447822586498
 20
4281.928688433387
 30
0.0
 11
4083.422447586498
 21
4281.928688433387
 31
0.0
  0
HATCH
  5
200
330
2
100
AcDbEntity
  8
0
100
AcDbHatch
 10
0.0
 20
0.0
 30
0.0
210
0.0
220
0.0
230
1.0
  2
DOTS
 70
     0
 71
     0
 91
        2
 92
        7
 72
     0
 73
     1
 93
        4
 10
4083.447822586498
 20
4281.775313433387
 10
4083.422447586498
 20
4281.775313433387
 10
4083.422447586498
 20
4281.928688433387
 10
4083.447822586498
 20
4281.928688433387
 97
        0
 92
        7
 72
     0
 73
     1
 93
        4
 10
4084.016197586498
 20
4281.775313433387
 10
4083.990822586498
 20
4281.775313433387
 10
4083.990822586498
 20
4281.928688433387
 10
4084.016197586498
 20
4281.928688433387
 97
        0
 75
     0
 76
     1
 52
360.0
 41
0.1
 77
     0
 78
     1
 53
360.0
 43
4077.328967840961
 44
4286.557731910981
 45
0.003125
 46
-0.00625
 79
     2
 49
0.0
 49
-0.00625
 47
0.0006001443632006
 98
        2
 10
4083.43610229635
 20
4281.832898373435
 10
4084.005987225746
 20
4281.836499247234
  0
HATCH
  5
201
330
2
100
AcDbEntity
  8
0
100
AcDbHatch
 10
0.0
 20
0.0
 30
0.0
210
0.0
220
0.0
230
1.0
  2
DASH
 70
     0
 71
     0
 91
        1
 92
        7
 72
     1
 73
     1
 93
       16
 10
4083.891197586498
 20
4281.690688433386
 42
0.4142135623730951
 10
4083.906822586498
 20
4281.706313433386
 42
0.0
 10
4083.906822586498
 20
4281.763150265255
 42
-0.3208708054700533
 10
4083.939709798439
 20
4281.783875933387
 42
0.0
 10
4083.975197586497
 20
4281.759688433387
 42
0.414213562373094
 10
4083.990822586498
 20
4281.775313433387
 42
0.0
 10
4084.016197586499
 20
4281.775313433387
 42
0.0
 10
4084.016197586497
 20
4281.553688433388
 42
0.0
 10
4083.422447586498
 20
4281.553688433388
 42
0.0
 10
4083.422447586498
 20
4281.775313433387
 42
0.0
 10
4083.447822586498
 20
4281.775313433387
 42
0.4142135623730951
 10
4083.463447586498
 20
4281.759688433387
 42
0.0
 10
4083.499318676751
 20
4281.783875933387
 42
-0.3359746306540741
 10
4083.531822586498
 20
4281.763513174335
 42
0.0
 10
4083.531822586498
 20
4281.706313433386
 42
0.4142135623730951
 10
4083.547447586498
 20
4281.690688433386
 42
0.0
 97
        0
 75
     0
 76
     1
 52
360.0
 41
0.1
 77
     0
 78
     1
 53
360.0
 43
4077.328967840961
 44
4286.557731910981
 45
0.0125
 46
-0.0125
 79
     2
 49
0.0125
 49
-0.0125
 47
0.0009600803746669
 98
        1
 10
4083.768344066583
 20
4281.639849161193
  0
HATCH
  5
202
330
2
100
AcDbEntity
  8
0
100
AcDbHatch
 10
0.0
 20
0.0
 30
0.0
210
0.0
220
0.0
230
1.0
  2
SOLID
 70
     1
 71
     0
 91
        1
 92
        7
 72
     1
 73
     1
 93
        2
 10
4084.134567586498
 20
4281.882188433386
 42
0.0
 10
4084.134567586498
 20
4281.694688433386
 42
0.6666666666666311
 97
        0
 75
     1
 76
     1
 47
0.0010014887122476
 98
        1
 10
4084.180627662845
 20
4281.767283237342
1001
GradientColor1ACI
1070
     5
1001
GradientColor2ACI
1070
     2
1001
ACAD
1010
0.0
1020
0.0
1030
0.0
  0
LINE
  5
203
330
2
100
AcDbEntity
  8
0
100
AcDbLine
 10
4083.304077586498
 20
4281.444688433387
 30
0.0
 11
4084.134567586498
 21
4281.553688433387
 31
0.0
  0
LWPOLYLINE
  5
204
330
2
100
AcDbEntity
  8
0
100
AcDbPolyline
 90
        8
 70
     0
 43
0.0
 10
4083.304077586498
 20
4281.444688433387
 10
4084.134567586498
 20
4281.444688433387
 10
4084.134567586498
 20
4281.553688433387
 10
4083.304077586498
 20
4281.553688433387
 10
4083.304077586498
 20
4281.444688433387
 10
4084.134567586498
 20
4281.553688433387
 10
4083.304077586498
 20
4281.553688433387
 10
4084.134567586498
 20
4281.444688433387
  0
LWPOLYLINE
  5
205
102
{ACAD_REACTORS
330
22A
330
23B
102
}
330
2
100
AcDbEntity
  8
0
100
AcDbPolyline
 90
       10
 70
     1
 43
0.0
 10
4082.832876605185
 20
4279.759088900435
 10
4082.882368414719
 20
4280.039770900066
 10
4082.882368414719
 20
4280.101770900068
 10
4082.44486841472
 20
4280.101770900068
 42
0.4142135623730951
 10
4082.38236841472
 20
4280.039270900068
 10
4082.38236841472
 20
4278.351770900068
 42
0.4142135623730951
 10
4082.44486841472
 20
4278.289270900068
 10
4082.882368414719
 20
4278.289270900068
 10
4082.882368414719
 20
4278.351270900068
 10
4082.832876605185
 20
4278.6319528997
  0
LWPOLYLINE
  5
206
102
{ACAD_REACTORS
330
219
102
}
330
2
100
AcDbEntity
  8
0
100
AcDbPolyline
 90
       11
 70
     0
 43
0.0
 10
4087.50786841472
 20
4280.101770887299
 10
4087.695868414722
 20
4280.101770887299
 42
-0.4142135623730951
 10
4087.757868414719
 20
4280.039770887301
 10
4087.757868414719
 20
4278.351270887297
 42
-0.4142135623730951
 10
4087.695868414722
 20
4278.289270887298
 10
4087.50786841472
 20
4278.289270887298
 10
4087.50786841472
 20
4278.632270887299
 10
4087.569868414721
 20
4278.632270887299
 10
4087.569868414721
 20
4279.756770887297
 10
4087.50786841472
 20
4279.756770887297
 10
4087.50786841472
 20
4280.099770887298
  0
LWPOLYLINE
  5
207
330
2
100
AcDbEntity
  8
0
  6
Continuous
100
AcDbPolyline
 90
       10
 70
     1
 43
0.0
 10
4086.45986841472
 20
4280.210206670694
 10
4087.492868414719
 20
4280.210206670694
 42
-0.4142135623730951
 10
4087.50786841472
 20
4280.195206670693
 10
4087.50786841472
 20
4279.553270887299
 42
-0.4142135623730951
 10
4087.492868414719
 20
4279.538270887298
 10
4086.45986841472
 20
4279.538270887298
 42
-0.4142135623730951
 10
4086.444868414719
 20
4279.553270887299
 10
4086.444868414719
 20
4279.766270887298
 42
0.9999999999999998
 10
4086.444868414719
 20
4279.984270887299
 10
4086.444868414719
 20
4280.195206670693
 42
-0.4142135623730951
  0
DIMENSION
  5
208
330
2
100
AcDbEntity
  8
0
100
AcDbDimension
  2
*D10
 10
4087.757868414719
 20
4281.071305206962
 30
0.0
 11
4088.283073671944
 21
4281.071305206962
 31
0.0
 71
     5
 42
0.25
  3
Knife
100
AcDbAlignedDimension
 13
4087.50786841472
 23
4280.099770887298
 33
0.0
 14
4087.757868414719
 24
4280.039770887301
 34
0.0
100
AcDbRotatedDimension
1001
ACAD
1000
DSTYLE
1002
{
1070
    40
1040
1.0
1002
}
  0
DIMENSION
  5
217
102
{ACAD_XDICTIONARY
360
218
102
}
102
{ACAD_REACTORS
330
219
102
}
330
2
100
AcDbEntity
  8
0
100
AcDbDimension
  2
*D11
 10
4089.174536094247
 20
4278.289270887298
 30
0.0
 11
4089.174536094247
 21
4279.19551971767
 31
0.0
 71
     5
 42
1.812497660741428
  3
Knife
100
AcDbAlignedDimension
 13
4087.69640698934
 23
4280.10176854804
 33
0.0
 14
4087.69640698934
 24
4278.289270887298
 34
0.0
 50
90.0
100
AcDbRotatedDimension
1001
ACAD
1000
DSTYLE
1002
{
1070
    40
1040
1.0
1002
}
  0
DIMENSION
  5
228
102
{ACAD_XDICTIONARY
360
229
102
}
102
{ACAD_REACTORS
330
22A
102
}
330
2
100
AcDbEntity
  8
0
100
AcDbDimension
  2
*D12
 10
4082.38236841472
 20
4277.650018521535
 30
0.0
 11
4081.786136131603
 21
4277.650018521535
 31
0.0
 71
     5
 42
0.4999999999890861
  3
Knife
100
AcDbAlignedDimension
 13
4082.882368414709
 23
4278.289270900068
 33
0.0
 14
4082.38236841472
 24
4278.351770900068
 34
0.0
100
AcDbRotatedDimension
1001
ACAD
1000
DSTYLE
1002
{
1070
    40
1040
1.0
1002
}
  0
DIMENSION
  5
239
102
{ACAD_XDICTIONARY
360
23A
102
}
102
{ACAD_REACTORS
330
23B
102
}
330
2
100
AcDbEntity
  8
0
100
AcDbDimension
  2
*D13
 10
4081.799085244256
 20
4280.101770900068
 30
0.0
 11
4081.799085244255
 21
4279.195520900069
 31
0.0
 71
     5
 42
1.8125
  3
Knife
100
AcDbAlignedDimension
 13
4082.44486841472
 23
4278.289270900068
 33
0.0
 14
4082.44486841472
 24
4280.101770900068
 34
0.0
 50
90.0
100
AcDbRotatedDimension
1001
ACAD
1000
DSTYLE
1002
{
1070
    40
1040
1.0
1002
}
  0
TEXT
  5
24A
330
2
100
AcDbEntity
  8
0
100
AcDbText
 10
4083.094878887698
 20
4273.853770950206
 30
0.0
 40
0.375
  1
4 9/16" JAMB C/W FILLER
 41
0.6
 51
5.0
  7
DIMTXT
 72
     1
 11
4085.233438067255
 21
4273.853770950206
 31
0.0
100
AcDbText
  0
LWPOLYLINE
  5
24B
102
{ACAD_REACTORS
330
250
102
}
330
2
100
AcDbEntity
  8
0
100
AcDbPolyline
 90
        4
 70
     1
 43
0.0
 10
4082.944868414714
 20
4278.850770887298
 10
4087.444868414714
 20
4278.850770887298
 10
4087.444868414714
 20
4279.538270887298
 10
4082.944868414714
 20
4279.538270887298
  0
LINE
  5
24C
102
{ACAD_REACTORS
330
250
102
}
330
2
100
AcDbEntity
  8
0
100
AcDbLine
 10
4082.944868414714
 20
4279.538270887298
 30
0.0
 11
4087.444868414714
 21
4278.850770887298
 31
0.0
  0
LINE
  5
24D
330
2
100
AcDbEntity
  8
0
100
AcDbLine
 10
4087.476118414715
 20
4279.538270887298
 30
0.0
 11
4082.976118414714
 21
4278.850770887298
 31
0.0
  0
DIMENSION
  5
24E
102
{ACAD_XDICTIONARY
360
24F
102
}
102
{ACAD_REACTORS
330
250
102
}
330
2
100
AcDbEntity
  8
0
100
AcDbDimension
  2
*D14
 10
4088.290574212564
 20
4278.850770887298
 30
0.0
 11
4087.604048759415
 21
4277.568778815054
 31
0.0
 70
   128
 71
     5
 42
0.6875
  3
Knife
100
AcDbAlignedDimension
 13
4087.444868414714
 23
4279.538270887298
 33
0.0
 14
4087.444868414714
 24
4278.850770887298
 34
0.0
 50
90.0
100
AcDbRotatedDimension
1001
ACAD
1000
DSTYLE
1002
{
1070
    40
1040
1.0
1002
}
  0
LWPOLYLINE
  5
25F
102
{ACAD_REACTORS
330
2E1
330
304
102
}
330
2
100
AcDbEntity
  8
0
  6
Continuous
100
AcDbPolyline
 90
       16
 70
     1
 43
0.0
 10
4096.362184687231
 20
4283.600804104649
 10
4096.362184687231
 20
4283.381429104652
 42
-0.4142135623730951
 10
4096.346559687231
 20
4283.365804104652
 10
4092.674184687236
 20
4283.365804104652
 10
4092.674184687236
 20
4283.458804104649
 10
4092.424184687236
 20
4283.458804104649
 10
4092.424184687236
 20
4283.365804104652
 10
4091.752809687224
 20
4283.365804104652
 42
-0.4142135623730951
 10
4091.737184687223
 20
4283.381429104652
 10
4091.737184687231
 20
4283.987804104651
 10
4092.174184687237
 20
4283.987804104651
 10
4092.174184687237
 20
4283.94480410465
 10
4092.424184687236
 20
4283.94480410465
 10
4092.424184687236
 20
4284.03780410465
 10
4096.362184687231
 20
4284.03780410465
 10
4096.362184687231
 20
4283.819804104651
 42
0.9979286332485141
  0
HATCH
  5
260
330
2
100
AcDbEntity
  8
0
100
AcDbHatch
 10
0.0
 20
0.0
 30
0.0
210
0.0
220
0.0
230
1.0
  2
AR-SAND
 70
     0
 71
     1
 91
        1
 92
        7
 72
     0
 73
     1
 93
        4
 10
4092.737073501717
 20
4282.86167643036
 10
4092.737073501717
 20
4283.049176430359
 10
4092.237073501716
 20
4283.049176430359
 10
4092.237073501716
 20
4282.86167643036
 97
        2
330
261
330
28C
 75
     0
 76
     1
 52
0.0
 41
0.02
 77
     0
 78
     4
 53
37.5
 43
4107.318675425397
 44
4273.582310134242
 45
-0.0012598671621922
 46
0.0385364753802632
 79
     6
 49
0.0
 49
-0.0304
 49
0.0
 49
-0.034
 49
0.0
 49
-0.0325
 53
7.499999999999999
 43
4107.318675425397
 44
4273.582310134242
 45
0.0353955341053546
 46
0.0564429213045948
 79
     6
 49
0.0
 49
-0.0164
 49
0.0
 49
-0.0274
 49
0.0
 49
-0.0105
 53
327.5
 43
4107.294075425398
 44
4273.582310134242
 45
0.0622828372350299
 46
0.0001131810707393
 79
     6
 49
0.0
 49
-0.01
 49
0.0
 49
-0.036
 49
0.0
 49
-0.047
 53
317.5
 43
4107.294075425398
 44
4273.582310134242
 45
0.0601225320914459
 46
0.017553511298685
 79
     6
 49
0.0
 49
-0.005
 49
0.0
 49
-0.0236
 49
0.0
 49
-0.027
 47
0.00154997623302
 98
        1
 10
4092.472768330487
 20
4282.934484172329
  0
LWPOLYLINE
  5
261
102
{ACAD_REACTORS
330
260
102
}
330
2
100
AcDbEntity
  8
0
100
AcDbPolyline
 90
       22
 70
     0
 43
0.0
 10
4091.862573588247
 20
4282.54917643036
 10
4092.206073501716
 20
4282.54917643036
 42
0.414213562373094
 10
4092.237073501716
 20
4282.58017643036
 10
4092.237073501716
 20
4283.049176430359
 10
4092.737073501717
 20
4283.049176430359
 10
4092.737073501717
 20
4282.329804104652
 42
0.4142135623730914
 10
4092.768073501718
 20
4282.298804104652
 10
4093.921081708153
 20
4282.298804104652
 10
4093.921081708153
 20
4282.423804104651
 10
4093.795773062271
 20
4282.423804104651
 10
4093.795773062271
 20
4282.985804104652
 10
4093.51477306227
 20
4282.985804104652
 10
4093.51477306227
 20
4283.065804104651
 10
4093.902081708153
 20
4283.065804104651
 10
4093.902081708153
 20
4283.365804104652
 10
4092.674184687236
 20
4283.365804104652
 10
4092.674184687236
 20
4283.443163439143
 10
4092.452170121269
 20
4283.443163439143
 10
4092.425404547021
 20
4283.365804104652
 10
4091.79715571954
 20
4283.365804104652
 10
4091.79715571954
 20
4282.611082150398
 42
0.4142135623730951
 10
4091.85915571954
 20
4282.549082150398
  0
ARC
  5
262
330
2
100
AcDbEntity
  8
0010010007
100
AcDbCircle
 10
4093.826773062271
 20
4282.898804104651
 30
0.0
 40
0.0310000000010811
100
AcDbArc
 50
89.99999999861907
 51
110.783559594432
  0
LINE
  5
263
330
2
100
AcDbEntity
  8
0010010007
100
AcDbLine
 10
4093.826773062271
 20
4282.929804104652
 30
0.0
 11
4093.890081708155
 21
4282.929804104652
 31
0.0
  0
LINE
  5
264
330
2
100
AcDbEntity
  8
0010010007
100
AcDbLine
 10
4093.826773062271
 20
4282.909804104653
 30
0.0
 11
4093.890081708155
 21
4282.909804104653
 31
0.0
  0
ARC
  5
265
330
2
100
AcDbEntity
  8
0010010007
100
AcDbCircle
 10
4093.826773062271
 20
4282.898804104652
 30
0.0
 40
0.0110000000004202
100
AcDbArc
 50
90.0
 51
180.0
  0
ARC
  5
266
330
2
100
AcDbEntity
  8
0010010007
100
AcDbCircle
 10
4093.890081708155
 20
4282.898804104652
 30
0.0
 40
0.0309999999999491
100
AcDbArc
 50
0.0
 51
90.0
  0
ARC
  5
267
330
2
100
AcDbEntity
  8
0010010007
100
AcDbCircle
 10
4093.890081708155
 20
4282.898804104652
 30
0.0
 40
0.011000000000422
100
AcDbArc
 50
0.0
 51
90.0
  0
LINE
  5
268
330
2
100
AcDbEntity
  8
0010010007
100
AcDbLine
 10
4093.921081708153
 20
4282.898804104652
 30
0.0
 11
4093.921081708153
 21
4282.67274643506
 31
0.0
  0
ARC
  5
269
330
2
100
AcDbEntity
  8
0010010007
100
AcDbCircle
 10
4093.890081708155
 20
4282.67274643506
 30
0.0
 40
0.0309999999999491
100
AcDbArc
 50
270.0
 51
0.0
  0
ARC
  5
26A
330
2
100
AcDbEntity
  8
0010010007
100
AcDbCircle
 10
4093.890081708155
 20
4282.67274643506
 30
0.0
 40
0.011000000000422
100
AcDbArc
 50
270.0
 51
0.0
  0
LINE
  5
26B
330
2
100
AcDbEntity
  8
0010010007
100
AcDbLine
 10
4093.890081708155
 20
4282.64174643506
 30
0.0
 11
4093.826773062271
 21
4282.64174643506
 31
0.0
  0
LINE
  5
26C
330
2
100
AcDbEntity
  8
0010010007
100
AcDbLine
 10
4093.890081708155
 20
4282.661746435059
 30
0.0
 11
4093.826773062271
 21
4282.661746435059
 31
0.0
  0
LINE
  5
26D
330
2
100
AcDbEntity
  8
0010010007
100
AcDbLine
 10
4093.795773062272
 20
4282.67274643506
 30
0.0
 11
4093.795773062271
 21
4283.015804104651
 31
0.0
  0
LINE
  5
26E
330
2
100
AcDbEntity
  8
0010010007
100
AcDbLine
 10
4093.81577306227
 20
4282.67274643506
 30
0.0
 11
4093.81577306227
 21
4282.898804104652
 31
0.0
  0
ARC
  5
26F
330
2
100
AcDbEntity
  8
0010010007
100
AcDbCircle
 10
4093.826773062271
 20
4282.67274643506
 30
0.0
 40
0.0110000000004202
100
AcDbArc
 50
180.0
 51
270.0
  0
ARC
  5
270
330
2
100
AcDbEntity
  8
0010010007
100
AcDbCircle
 10
4093.826773062271
 20
4282.67274643506
 30
0.0
 40
0.0309999999999491
100
AcDbArc
 50
180.0
 51
270.0
  0
LINE
  5
271
330
2
100
AcDbEntity
  8
0010010007
100
AcDbLine
 10
4093.795773062271
 20
4283.015804104651
 30
0.0
 11
4093.692443499016
 21
4283.015804104651
 31
0.0
  0
LINE
  5
272
330
2
100
AcDbEntity
  8
0010010007
100
AcDbLine
 10
4093.692443499016
 20
4283.015804104651
 30
0.0
 11
4093.709764007092
 21
4282.985804104652
 31
0.0
  0
LINE
  5
273
330
2
100
AcDbEntity
  8
0010010007
100
AcDbLine
 10
4093.709764007092
 20
4282.985804104652
 30
0.0
 11
4093.693093570347
 21
4282.985804104652
 31
0.0
  0
LINE
  5
274
330
2
100
AcDbEntity
  8
0010010007
100
AcDbLine
 10
4093.693093570347
 20
4282.985804104652
 30
0.0
 11
4093.675773062272
 21
4283.015804104651
 31
0.0
  0
LINE
  5
275
330
2
100
AcDbEntity
  8
0010010007
100
AcDbLine
 10
4093.675773062272
 20
4283.015804104651
 30
0.0
 11
4093.623224134733
 21
4283.015804104651
 31
0.0
  0
LINE
  5
276
330
2
100
AcDbEntity
  8
0010010007
100
AcDbLine
 10
4093.623224134733
 20
4283.015804104651
 30
0.0
 11
4093.640544642809
 21
4282.985804104652
 31
0.0
  0
LINE
  5
277
330
2
100
AcDbEntity
  8
0010010007
100
AcDbLine
 10
4093.640544642809
 20
4282.985804104652
 30
0.0
 11
4093.623093570346
 21
4282.985804104652
 31
0.0
  0
LINE
  5
278
330
2
100
AcDbEntity
  8
0010010007
100
AcDbLine
 10
4093.623093570346
 20
4282.985804104652
 30
0.0
 11
4093.60577306227
 21
4283.015804104651
 31
0.0
  0
LINE
  5
279
330
2
100
AcDbEntity
  8
0010010007
100
AcDbLine
 10
4093.60577306227
 20
4283.015804104651
 30
0.0
 11
4093.56577306227
 21
4283.015804104651
 31
0.0
  0
LINE
  5
27A
330
2
100
AcDbEntity
  8
0010010007
100
AcDbLine
 10
4093.56577306227
 20
4283.015804104651
 30
0.0
 11
4093.56577306227
 21
4283.035804104652
 31
0.0
  0
LINE
  5
27B
330
2
100
AcDbEntity
  8
0010010007
100
AcDbLine
 10
4093.56577306227
 20
4283.035804104652
 30
0.0
 11
4093.60577306227
 21
4283.035804104652
 31
0.0
  0
LINE
  5
27C
330
2
100
AcDbEntity
  8
0010010007
100
AcDbLine
 10
4093.60577306227
 20
4283.035804104652
 30
0.0
 11
4093.623093570346
 21
4283.065804104651
 31
0.0
  0
LINE
  5
27D
330
2
100
AcDbEntity
  8
0010010007
100
AcDbLine
 10
4093.623093570346
 20
4283.065804104651
 30
0.0
 11
4093.639997286335
 21
4283.065804104651
 31
0.0
  0
LINE
  5
27E
330
2
100
AcDbEntity
  8
0010010007
100
AcDbLine
 10
4093.639997286335
 20
4283.065804104651
 30
0.0
 11
4093.622676778259
 21
4283.035804104652
 31
0.0
  0
LINE
  5
27F
330
2
100
AcDbEntity
  8
0010010007
100
AcDbLine
 10
4093.622676778259
 20
4283.035804104652
 30
0.0
 11
4093.675148062271
 21
4283.035804104652
 31
0.0
  0
LINE
  5
280
330
2
100
AcDbEntity
  8
0010010007
100
AcDbLine
 10
4093.675148062271
 20
4283.035804104652
 30
0.0
 11
4093.692468570345
 21
4283.065804104651
 31
0.0
  0
LINE
  5
281
330
2
100
AcDbEntity
  8
0010010007
100
AcDbLine
 10
4093.692468570345
 20
4283.065804104651
 30
0.0
 11
4093.709034744303
 21
4283.065804104651
 31
0.0
  0
LINE
  5
282
330
2
100
AcDbEntity
  8
0010010007
100
AcDbLine
 10
4093.709034744303
 20
4283.065804104651
 30
0.0
 11
4093.691714236228
 21
4283.035804104652
 31
0.0
  0
LINE
  5
283
330
2
100
AcDbEntity
  8
0010010007
100
AcDbLine
 10
4093.691714236228
 20
4283.035804104652
 30
0.0
 11
4093.81577306227
 21
4283.035804104652
 31
0.0
  0
LINE
  5
284
330
2
100
AcDbEntity
  8
0010010007
100
AcDbLine
 10
4093.81577306227
 20
4283.035804104652
 30
0.0
 11
4093.81577306227
 21
4282.927786858144
 31
0.0
  0
LINE
  5
285
330
2
100
AcDbEntity
  8
0
100
AcDbLine
 10
4093.901081708155
 20
4282.898804104652
 30
0.0
 11
4093.901081708155
 21
4282.67274643506
 31
0.0
  0
INSERT
  5
286
330
2
100
AcDbEntity
  8
0
100
AcDbBlockReference
  2
86NPF141
 10
4094.670489421917
 20
4282.838569555481
 30
0.0
 41
-1.0
 43
2.0
 50
270.0
  0
LWPOLYLINE
  5
287
330
2
100
AcDbEntity
  8
0
100
AcDbPolyline
 90
       16
 70
     0
 43
0.0
 10
4092.565198501716
 20
4282.236676430359
 10
4092.408948501716
 20
4282.236676430359
 10
4092.408948501716
 20
4282.26792643036
 10
4092.408948501716
 20
4282.236676430359
 10
4092.533798501716
 20
4282.236676430359
 42
0.4142135623730951
 10
4092.565198501716
 20
4282.26807643036
 10
4092.565198501716
 20
4282.361526430359
 42
0.4142135623730951
 10
4092.533798501716
 20
4282.39292643036
 10
4092.362223501716
 20
4282.39292643036
 42
-0.4142135623730951
 10
4092.330823501717
 20
4282.424326430359
 10
4092.330823501717
 20
4282.799026430359
 42
-0.4142135623730951
 10
4092.362223501716
 20
4282.83042643036
 10
4092.674423501716
 20
4282.83042643036
 42
-0.4142135623730951
 10
4092.705823501716
 20
4282.799026430359
 10
4092.705823501716
 20
4282.26807643036
 42
-0.4142135623730951
 10
4092.674423501716
 20
4282.236676430359
  0
LWPOLYLINE
  5
288
330
2
100
AcDbEntity
  8
0
100
AcDbPolyline
 90
       19
 70
     1
 43
0.0
 10
4092.408948501716
 20
4282.26792643036
 10
4092.502548501716
 20
4282.26792643036
 42
0.4142135623730951
 10
4092.533948501716
 20
4282.29932643036
 10
4092.533948501716
 20
4282.33027643036
 42
0.4142135623730951
 10
4092.502548501716
 20
4282.36167643036
 10
4092.330973501716
 20
4282.36167643036
 42
-0.4142135623730951
 10
4092.299573501716
 20
4282.393076430359
 10
4092.299573501716
 20
4282.83027643036
 42
-0.4142135623730951
 10
4092.330973501716
 20
4282.86167643036
 10
4092.705673501717
 20
4282.86167643036
 42
-0.4142135623730951
 10
4092.737073501717
 20
4282.83027643036
 10
4092.737073501717
 20
4282.236826430359
 42
-0.4142135623730951
 10
4092.705673501717
 20
4282.205426430359
 10
4092.409098501716
 20
4282.205426430359
 42
-0.4142135623730951
 10
4092.377698501716
 20
4282.236826430359
 10
4092.377698501716
 20
4282.26777643036
 42
-0.4142135623730951
 10
4092.409098501716
 20
4282.299176430359
 10
4092.502698501717
 20
4282.299176430359
 10
4092.502698501717
 20
4282.26792643036
  0
LWPOLYLINE
  5
289
330
2
100
AcDbEntity
  8
0
100
AcDbPolyline
 90
        2
 70
     0
 43
0.0
 10
4092.674573501716
 20
4282.236676430359
 10
4092.502698501717
 20
4282.236676430359
  0
LWPOLYLINE
  5
28A
330
2
100
AcDbEntity
  8
0
  6
HIDDEN2
100
AcDbPolyline
 90
        4
 70
     0
 43
0.02
 10
4092.363883601488
 20
4280.985626819152
 10
4092.363883601488
 20
4282.284904517307
 42
-0.4142135623730951
 10
4092.410383601488
 20
4282.331404517307
 10
4092.502283377309
 20
4282.331404517307
  0
LWPOLYLINE
  5
28B
330
2
100
AcDbEntity
  8
0
100
AcDbPolyline
 90
        2
 70
     1
 43
0.03125
 10
4092.502283377309
 20
4282.347029517307
 42
1.0
 10
4092.502283377309
 20
4282.315779517307
 42
1.0
  0
LINE
  5
28C
102
{ACAD_REACTORS
330
260
102
}
330
2
100
AcDbEntity
  8
0
100
AcDbLine
 10
4092.737073501717
 20
4282.86167643036
 30
0.0
 11
4092.237073501716
 21
4282.86167643036
 31
0.0
  0
LINE
  5
28D
330
2
100
AcDbEntity
  8
0
  6
HIDDEN2
100
AcDbLine
 10
4094.858081708159
 20
4280.985626819152
 30
0.0
 11
4092.363883601488
 21
4280.985626819152
 31
0.0
  0
LINE
  5
28E
330
2
100
AcDbEntity
  8
0
100
AcDbLine
 10
4096.068549855009
 20
4283.365804104652
 30
0.0
 11
4094.399191320156
 21
4283.365804104652
 31
0.0
  0
LWPOLYLINE
  5
28F
330
2
100
AcDbEntity
  8
0
100
AcDbPolyline
 90
        8
 70
     0
 43
0.0
 10
4094.215831708157
 20
4281.692661683106
 10
4094.858081708156
 20
4281.692661683106
 10
4094.858081708156
 20
4281.583661683106
 10
4094.215831708157
 20
4281.583661683106
 10
4094.215831708157
 20
4281.692661683106
 10
4094.858081708156
 20
4281.583661683106
 10
4094.858081708156
 20
4281.692661683106
 10
4094.215831708157
 20
4281.583661683106
  0
HATCH
  5
290
330
2
100
AcDbEntity
  8
0
  6
Continuous
100
AcDbHatch
 10
0.0
 20
0.0
 30
0.0
210
0.0
220
0.0
230
1.0
  2
DASH
 70
     0
 71
     0
 91
        1
 92
        7
 72
     1
 73
     1
 93
       16
 10
4094.333831708157
 20
4281.362195332357
 42
0.0
 10
4094.359206708158
 20
4281.362195332357
 42
-0.414213562373094
 10
4094.374831708158
 20
4281.377820332357
 42
0.0
 10
4094.410319496215
 20
4281.353632832357
 42
0.3208708054700796
 10
4094.443206708157
 20
4281.374358500491
 42
0.0
 10
4094.443206708157
 20
4281.431195332357
 42
-0.4142135623730951
 10
4094.458831708157
 20
4281.446820332358
 42
0.0
 10
4094.615081708157
 20
4281.446820332358
 42
-0.4142135623730951
 10
4094.630706708157
 20
4281.431195332357
 42
0.0
 10
4094.630706708157
 20
4281.373995591408
 42
0.3359746306540742
 10
4094.663210617903
 20
4281.353632832357
 42
0.0
 10
4094.699081708157
 20
4281.377820332357
 42
-0.4142135623730951
 10
4094.714706708158
 20
4281.362195332357
 42
0.0
 10
4094.740081708157
 20
4281.362195332357
 42
0.0
 10
4094.740081708157
 20
4281.583820332357
 42
0.0
 10
4094.333831708157
 20
4281.583820332357
 42
0.0
 97
        0
 75
     0
 76
     1
 52
180.0
 41
0.1
 77
     0
 78
     1
 53
180.0
 43
4112.219088173467
 44
4284.419356487235
 45
-0.0125
 46
-0.0125
 79
     2
 49
0.0125
 49
-0.0125
 47
0.0022535086831111
 98
        1
 10
4094.426689525649
 20
4281.483695071773
  0
HATCH
  5
291
330
2
100
AcDbEntity
  8
0
  6
Continuous
100
AcDbHatch
 10
0.0
 20
0.0
 30
0.0
210
0.0
220
0.0
230
1.0
  2
DOTS
 70
     0
 71
     0
 91
        2
 92
        7
 72
     0
 73
     1
 93
        4
 10
4094.333831708157
 20
4281.208820332357
 10
4094.359206708158
 20
4281.208820332357
 10
4094.359206708158
 20
4281.362195332357
 10
4094.333831708157
 20
4281.362195332357
 97
        0
 92
        7
 72
     0
 73
     1
 93
        4
 10
4094.714706708158
 20
4281.208820332357
 10
4094.740081708157
 20
4281.208820332357
 10
4094.740081708157
 20
4281.362195332357
 10
4094.714706708158
 20
4281.362195332357
 97
        0
 75
     0
 76
     1
 52
180.0
 41
0.1
 77
     0
 78
     1
 53
180.0
 43
4112.219088173467
 44
4284.419356487235
 45
-0.003125
 46
-0.00625
 79
     2
 49
0.0
 49
-0.00625
 47
0.0009915749623601
 98
        2
 10
4094.349356609423
 20
4281.279177116041
 10
4094.732400102805
 20
4281.264303485031
  0
LWPOLYLINE
  5
292
330
2
100
AcDbEntity
  8
0
100
AcDbPolyline
 90
       14
 70
     1
 43
0.0
 10
4094.630706708157
 20
4281.373995591408
 42
0.3359746306540741
 10
4094.663210617903
 20
4281.353632832357
 10
4094.699081708157
 20
4281.377820332357
 42
-0.4142135623730951
 10
4094.714706708158
 20
4281.362195332357
 10
4094.714706708158
 20
4281.180570332357
 10
4094.359206708158
 20
4281.180570332357
 10
4094.359206708158
 20
4281.362195332357
 42
-0.414213562373094
 10
4094.374831708158
 20
4281.377820332357
 10
4094.410319496215
 20
4281.353632832357
 42
0.3208708054700532
 10
4094.443206708157
 20
4281.374358500491
 10
4094.443206708157
 20
4281.431195332357
 42
-0.4142135623730951
 10
4094.458831708157
 20
4281.446820332358
 10
4094.615081708157
 20
4281.446820332358
 42
-0.4142135623730951
 10
4094.630706708157
 20
4281.431195332357
1001
ACAD
1000
ASC_BOUNDS
1002
{
1070
    19
1002
}
  0
LWPOLYLINE
  5
293
330
2
100
AcDbEntity
  8
0
100
AcDbPolyline
 90
       14
 70
     1
 43
0.0
 10
4094.623706708158
 20
4281.372777191264
 42
0.3593608004949541
 10
4094.665706595481
 20
4281.346873175383
 10
4094.700925542594
 20
4281.370620942102
 42
-0.3524310491054993
 10
4094.707706708158
 20
4281.362195332357
 10
4094.707706708158
 20
4281.180570332357
 10
4094.366206708158
 20
4281.180570332357
 10
4094.366206708158
 20
4281.362195332357
 42
-0.3518693664465323
 10
4094.372971035859
 20
4281.370617239718
 10
4094.407895427025
 20
4281.346813735539
 42
0.3446308864324803
 10
4094.450206708156
 20
4281.373052649541
 10
4094.450206708156
 20
4281.431195332357
 42
-0.4142135623730946
 10
4094.458831708157
 20
4281.439820332357
 10
4094.615081708157
 20
4281.439820332357
 42
-0.4142135623730946
 10
4094.623706708158
 20
4281.431195332357
  0
LWPOLYLINE
  5
294
330
2
100
AcDbEntity
  8
0
100
AcDbPolyline
 90
       10
 70
     1
 43
0.0
 10
4094.599456708157
 20
4281.369257832357
 42
0.3584554666094669
 10
4094.664360554311
 20
4281.322382832357
 10
4094.683456708158
 20
4281.322382832357
 10
4094.683456708158
 20
4281.211820332357
 10
4094.390456708158
 20
4281.211820332357
 10
4094.390456708158
 20
4281.322382832357
 10
4094.409552862003
 20
4281.322382832357
 42
0.3467993108968364
 10
4094.474456708157
 20
4281.369257832357
 10
4094.474456708157
 20
4281.415570332358
 10
4094.599456708157
 20
4281.415570332358
  0
LWPOLYLINE
  5
295
330
2
100
AcDbEntity
  8
0
100
AcDbPolyline
 90
        6
 70
     0
 43
0.0
 10
4094.714706708158
 20
4281.208820332357
 10
4094.724456708156
 20
4281.208820332357
 10
4094.724456708156
 20
4281.170820332357
 10
4094.349456708157
 20
4281.170820332357
 10
4094.349456708157
 20
4281.208820332357
 10
4094.359206708158
 20
4281.208820332357
  0
LINE
  5
296
330
2
100
AcDbEntity
  8
0
100
AcDbLine
 10
4094.359206708158
 20
4281.362195332357
 30
0.0
 11
4094.333831708157
 21
4281.362195332357
 31
0.0
  0
LINE
  5
297
330
2
100
AcDbEntity
  8
0
100
AcDbLine
 10
4094.359206708158
 20
4281.208820332357
 30
0.0
 11
4094.333831708157
 21
4281.208820332357
 31
0.0
  0
LINE
  5
298
330
2
100
AcDbEntity
  8
0
100
AcDbLine
 10
4094.714706708158
 20
4281.362195332357
 30
0.0
 11
4094.740081708157
 21
4281.362195332357
 31
0.0
  0
LINE
  5
299
330
2
100
AcDbEntity
  8
0
100
AcDbLine
 10
4094.714706708158
 20
4281.208820332357
 30
0.0
 11
4094.740081708157
 21
4281.208820332357
 31
0.0
  0
LWPOLYLINE
  5
29A
330
2
100
AcDbEntity
  8
0
100
AcDbPolyline
 90
        4
 70
     0
 43
0.0
 10
4094.740081708159
 20
4280.985626819152
 10
4094.740081708155
 20
4281.583820332358
 10
4094.858081708156
 20
4281.583820332358
 10
4094.858081708159
 20
4280.985626819152
  0
HATCH
  5
29B
330
2
100
AcDbEntity
  8
0
100
AcDbHatch
 10
0.0
 20
0.0
 30
0.0
210
0.0
220
0.0
230
1.0
  2
SOLID
 70
     1
 71
     0
 91
        1
 92
        7
 72
     1
 73
     1
 93
        2
 10
4094.215831708158
 20
4281.442661683107
 42
0.6666666666855048
 10
4094.215831708158
 20
4281.255161683104
 42
0.0
 97
        0
 75
     1
 76
     1
 47
0.0008253963891123
 98
        1
 10
4094.189663069563
 20
4281.332829673279
1001
GradientColor1ACI
1070
     5
1001
GradientColor2ACI
1070
     2
1001
ACAD
1010
0.0
1020
0.0
1030
0.0
  0
LWPOLYLINE
  5
29C
330
2
100
AcDbEntity
  8
0
100
AcDbPolyline
 90
        4
 70
     0
 43
0.0
 10
4094.33383170816
 20
4280.985626819152
 10
4094.333831708157
 20
4281.583820332358
 10
4094.215831708157
 20
4281.583820332358
 10
4094.215831708161
 20
4280.985626819152
  0
LWPOLYLINE
  5
29D
330
2
100
AcDbEntity
  8
0
  6
Continuous
100
AcDbPolyline
 90
        2
 70
     0
 43
0.0
 10
4094.858081708156
 20
4281.130494375882
 10
4094.858081708156
 20
4281.255494375883
  0
LWPOLYLINE
  5
29E
330
2
100
AcDbEntity
  8
0
100
AcDbPolyline
 90
       11
 70
     1
 43
0.0
 10
4094.215831708157
 20
4281.442661683106
 10
4094.215831708157
 20
4281.692661683106
 10
4093.841831708156
 20
4281.692661683106
 10
4093.841831708156
 20
4281.411161683101
 42
0.4142135623731695
 10
4093.87283170816
 20
4281.380161683106
 10
4093.919356476443
 20
4281.380161683106
 42
-0.235730494161761
 10
4093.944132671019
 20
4281.367793381426
 10
4094.113530745294
 20
4281.142529984785
 42
0.235730494161718
 10
4094.13830693987
 20
4281.130161683106
 10
4094.215831708157
 20
4281.130161683106
 10
4094.215831708157
 20
4281.255161683105
 42
-0.6666666666666588
  0
LWPOLYLINE
  5
29F
330
2
100
AcDbEntity
  8
0
100
AcDbPolyline
 90
       19
 70
     1
 43
0.0
 10
4094.483081708156
 20
4281.692661683106
 10
4093.921081708157
 20
4281.692661683106
 10
4093.921081708152
 20
4283.067661635281
 42
-0.4138499054722459
 10
4093.983004718931
 20
4283.129661587483
 10
4094.903081708161
 20
4283.130804104652
 10
4094.903081708161
 20
4282.818804104654
 10
4094.983081708155
 20
4282.818804104654
 10
4094.983081708155
 20
4283.130804104652
 10
4095.171081708158
 20
4283.130804104652
 42
-0.4142135623730951
 10
4095.233081708156
 20
4283.068804104654
 10
4095.233081708152
 20
4281.381274452987
 10
4095.138042761037
 20
4281.38127445298
 42
-0.3899024490771541
 10
4094.953042761036
 20
4281.180101601655
 10
4094.953042761036
 20
4281.130494375882
 10
4094.858081708156
 20
4281.130494375882
 10
4094.858081708156
 20
4281.255494375883
 42
0.666666666665864
 10
4094.858081708156
 20
4281.442994375882
 10
4094.858081708156
 20
4281.692661683106
 10
4094.671081708161
 20
4281.692661683106
 42
0.9999999999999998
  0
HATCH
  5
2A0
330
2
100
AcDbEntity
  8
0
100
AcDbHatch
 10
0.0
 20
0.0
 30
0.0
210
0.0
220
0.0
230
1.0
  2
SOLID
 70
     1
 71
     0
 91
        1
 92
        7
 72
     1
 73
     1
 93
        2
 10
4094.858081708157
 20
4281.442661683107
 42
-0.6666666666855048
 10
4094.858081708157
 20
4281.255161683104
 42
0.0
 97
        0
 75
     1
 76
     1
 47
0.0008253963891123
 98
        1
 10
4094.884250346754
 20
4281.332829673279
1001
GradientColor1ACI
1070
     5
1001
GradientColor2ACI
1070
     2
1001
ACAD
1010
0.0
1020
0.0
1030
0.0
  0
LWPOLYLINE
  5
2A1
330
2
100
AcDbEntity
  8
0
100
AcDbPolyline
 90
        8
 70
     0
 43
0.0
 10
4094.215831708157
 20
4281.692661683106
 10
4094.858081708156
 20
4281.692661683106
 10
4094.858081708156
 20
4281.583661683106
 10
4094.215831708157
 20
4281.583661683106
 10
4094.215831708157
 20
4281.692661683106
 10
4094.858081708156
 20
4281.583661683106
 10
4094.858081708156
 20
4281.692661683106
 10
4094.215831708157
 20
4281.583661683106
  0
HATCH
  5
2A2
330
2
100
AcDbEntity
  8
0
  6
Continuous
100
AcDbHatch
 10
0.0
 20
0.0
 30
0.0
210
0.0
220
0.0
230
1.0
  2
DASH
 70
     0
 71
     0
 91
        1
 92
        7
 72
     1
 73
     1
 93
       16
 10
4094.333831708157
 20
4281.362195332357
 42
0.0
 10
4094.359206708158
 20
4281.362195332357
 42
-0.414213562373094
 10
4094.374831708158
 20
4281.377820332357
 42
0.0
 10
4094.410319496215
 20
4281.353632832357
 42
0.3208708054700796
 10
4094.443206708157
 20
4281.374358500491
 42
0.0
 10
4094.443206708157
 20
4281.431195332357
 42
-0.4142135623730951
 10
4094.458831708157
 20
4281.446820332358
 42
0.0
 10
4094.615081708157
 20
4281.446820332358
 42
-0.4142135623730951
 10
4094.630706708157
 20
4281.431195332357
 42
0.0
 10
4094.630706708157
 20
4281.373995591408
 42
0.3359746306540742
 10
4094.663210617903
 20
4281.353632832357
 42
0.0
 10
4094.699081708157
 20
4281.377820332357
 42
-0.4142135623730951
 10
4094.714706708158
 20
4281.362195332357
 42
0.0
 10
4094.740081708157
 20
4281.362195332357
 42
0.0
 10
4094.740081708157
 20
4281.583820332357
 42
0.0
 10
4094.333831708157
 20
4281.583820332357
 42
0.0
 97
        0
 75
     0
 76
     1
 52
180.0
 41
0.1
 77
     0
 78
     1
 53
180.0
 43
4112.219088173467
 44
4284.419356487235
 45
-0.0125
 46
-0.0125
 79
     2
 49
0.0125
 49
-0.0125
 47
0.0022535086831111
 98
        1
 10
4094.426689525649
 20
4281.483695071773
  0
HATCH
  5
2A3
330
2
100
AcDbEntity
  8
0
  6
Continuous
100
AcDbHatch
 10
0.0
 20
0.0
 30
0.0
210
0.0
220
0.0
230
1.0
  2
DOTS
 70
     0
 71
     0
 91
        2
 92
        7
 72
     0
 73
     1
 93
        4
 10
4094.333831708157
 20
4281.208820332357
 10
4094.359206708158
 20
4281.208820332357
 10
4094.359206708158
 20
4281.362195332357
 10
4094.333831708157
 20
4281.362195332357
 97
        0
 92
        7
 72
     0
 73
     1
 93
        4
 10
4094.714706708158
 20
4281.208820332357
 10
4094.740081708157
 20
4281.208820332357
 10
4094.740081708157
 20
4281.362195332357
 10
4094.714706708158
 20
4281.362195332357
 97
        0
 75
     0
 76
     1
 52
180.0
 41
0.1
 77
     0
 78
     1
 53
180.0
 43
4112.219088173467
 44
4284.419356487235
 45
-0.003125
 46
-0.00625
 79
     2
 49
0.0
 49
-0.00625
 47
0.0009915749623601
 98
        2
 10
4094.349356609423
 20
4281.279177116041
 10
4094.732400102805
 20
4281.264303485031
  0
LWPOLYLINE
  5
2A4
330
2
100
AcDbEntity
  8
0
100
AcDbPolyline
 90
       14
 70
     1
 43
0.0
 10
4094.630706708157
 20
4281.373995591408
 42
0.3359746306540741
 10
4094.663210617903
 20
4281.353632832357
 10
4094.699081708157
 20
4281.377820332357
 42
-0.4142135623730951
 10
4094.714706708158
 20
4281.362195332357
 10
4094.714706708158
 20
4281.180570332357
 10
4094.359206708158
 20
4281.180570332357
 10
4094.359206708158
 20
4281.362195332357
 42
-0.414213562373094
 10
4094.374831708158
 20
4281.377820332357
 10
4094.410319496215
 20
4281.353632832357
 42
0.3208708054700532
 10
4094.443206708157
 20
4281.374358500491
 10
4094.443206708157
 20
4281.431195332357
 42
-0.4142135623730951
 10
4094.458831708157
 20
4281.446820332358
 10
4094.615081708157
 20
4281.446820332358
 42
-0.4142135623730951
 10
4094.630706708157
 20
4281.431195332357
1001
ACAD
1000
ASC_BOUNDS
1002
{
1070
    19
1002
}
  0
LWPOLYLINE
  5
2A5
330
2
100
AcDbEntity
  8
0
100
AcDbPolyline
 90
       14
 70
     1
 43
0.0
 10
4094.623706708158
 20
4281.372777191264
 42
0.3593608004949541
 10
4094.665706595481
 20
4281.346873175383
 10
4094.700925542594
 20
4281.370620942102
 42
-0.3524310491054993
 10
4094.707706708158
 20
4281.362195332357
 10
4094.707706708158
 20
4281.180570332357
 10
4094.366206708158
 20
4281.180570332357
 10
4094.366206708158
 20
4281.362195332357
 42
-0.3518693664465323
 10
4094.372971035859
 20
4281.370617239718
 10
4094.407895427025
 20
4281.346813735539
 42
0.3446308864324803
 10
4094.450206708156
 20
4281.373052649541
 10
4094.450206708156
 20
4281.431195332357
 42
-0.4142135623730946
 10
4094.458831708157
 20
4281.439820332357
 10
4094.615081708157
 20
4281.439820332357
 42
-0.4142135623730946
 10
4094.623706708158
 20
4281.431195332357
  0
LWPOLYLINE
  5
2A6
330
2
100
AcDbEntity
  8
0
100
AcDbPolyline
 90
       10
 70
     1
 43
0.0
 10
4094.599456708157
 20
4281.369257832357
 42
0.3584554666094669
 10
4094.664360554311
 20
4281.322382832357
 10
4094.683456708158
 20
4281.322382832357
 10
4094.683456708158
 20
4281.211820332357
 10
4094.390456708158
 20
4281.211820332357
 10
4094.390456708158
 20
4281.322382832357
 10
4094.409552862003
 20
4281.322382832357
 42
0.3467993108968364
 10
4094.474456708157
 20
4281.369257832357
 10
4094.474456708157
 20
4281.415570332358
 10
4094.599456708157
 20
4281.415570332358
  0
LWPOLYLINE
  5
2A7
330
2
100
AcDbEntity
  8
0
100
AcDbPolyline
 90
        6
 70
     0
 43
0.0
 10
4094.714706708158
 20
4281.208820332357
 10
4094.724456708156
 20
4281.208820332357
 10
4094.724456708156
 20
4281.170820332357
 10
4094.349456708157
 20
4281.170820332357
 10
4094.349456708157
 20
4281.208820332357
 10
4094.359206708158
 20
4281.208820332357
  0
LINE
  5
2A8
330
2
100
AcDbEntity
  8
0
100
AcDbLine
 10
4094.359206708158
 20
4281.362195332357
 30
0.0
 11
4094.333831708157
 21
4281.362195332357
 31
0.0
  0
LINE
  5
2A9
330
2
100
AcDbEntity
  8
0
100
AcDbLine
 10
4094.359206708158
 20
4281.208820332357
 30
0.0
 11
4094.333831708157
 21
4281.208820332357
 31
0.0
  0
LINE
  5
2AA
330
2
100
AcDbEntity
  8
0
100
AcDbLine
 10
4094.714706708158
 20
4281.362195332357
 30
0.0
 11
4094.740081708157
 21
4281.362195332357
 31
0.0
  0
LINE
  5
2AB
330
2
100
AcDbEntity
  8
0
100
AcDbLine
 10
4094.714706708158
 20
4281.208820332357
 30
0.0
 11
4094.740081708157
 21
4281.208820332357
 31
0.0
  0
LWPOLYLINE
  5
2AC
330
2
100
AcDbEntity
  8
0
100
AcDbPolyline
 90
        4
 70
     0
 43
0.0
 10
4094.740081708159
 20
4280.985626819152
 10
4094.740081708155
 20
4281.583820332358
 10
4094.858081708156
 20
4281.583820332358
 10
4094.858081708159
 20
4280.985626819152
  0
HATCH
  5
2AD
330
2
100
AcDbEntity
  8
0
100
AcDbHatch
 10
0.0
 20
0.0
 30
0.0
210
0.0
220
0.0
230
1.0
  2
SOLID
 70
     1
 71
     0
 91
        1
 92
        7
 72
     1
 73
     1
 93
        2
 10
4094.215831708158
 20
4281.442661683107
 42
0.6666666666855048
 10
4094.215831708158
 20
4281.255161683104
 42
0.0
 97
        0
 75
     1
 76
     1
 47
0.0008253963891123
 98
        1
 10
4094.189663069563
 20
4281.332829673279
1001
GradientColor1ACI
1070
     5
1001
GradientColor2ACI
1070
     2
1001
ACAD
1010
0.0
1020
0.0
1030
0.0
  0
LWPOLYLINE
  5
2AE
330
2
100
AcDbEntity
  8
0
100
AcDbPolyline
 90
        4
 70
     0
 43
0.0
 10
4094.33383170816
 20
4280.985626819152
 10
4094.333831708157
 20
4281.583820332358
 10
4094.215831708157
 20
4281.583820332358
 10
4094.215831708161
 20
4280.985626819152
  0
LWPOLYLINE
  5
2AF
330
2
100
AcDbEntity
  8
0
  6
Continuous
100
AcDbPolyline
 90
        2
 70
     0
 43
0.0
 10
4094.858081708156
 20
4281.130494375882
 10
4094.858081708156
 20
4281.255494375883
  0
LWPOLYLINE
  5
2B0
330
2
100
AcDbEntity
  8
0
100
AcDbPolyline
 90
       11
 70
     1
 43
0.0
 10
4094.215831708157
 20
4281.442661683106
 10
4094.215831708157
 20
4281.692661683106
 10
4093.841831708156
 20
4281.692661683106
 10
4093.841831708156
 20
4281.411161683101
 42
0.4142135623731695
 10
4093.87283170816
 20
4281.380161683106
 10
4093.919356476443
 20
4281.380161683106
 42
-0.235730494161761
 10
4093.944132671019
 20
4281.367793381426
 10
4094.113530745294
 20
4281.142529984785
 42
0.235730494161718
 10
4094.13830693987
 20
4281.130161683106
 10
4094.215831708157
 20
4281.130161683106
 10
4094.215831708157
 20
4281.255161683105
 42
-0.6666666666666588
  0
LWPOLYLINE
  5
2B1
330
2
100
AcDbEntity
  8
0
100
AcDbPolyline
 90
       19
 70
     1
 43
0.0
 10
4094.483081708156
 20
4281.692661683106
 10
4093.921081708157
 20
4281.692661683106
 10
4093.921081708152
 20
4283.067661635281
 42
-0.4138499054722459
 10
4093.983004718931
 20
4283.129661587483
 10
4094.903081708161
 20
4283.130804104652
 10
4094.903081708161
 20
4282.818804104654
 10
4094.983081708155
 20
4282.818804104654
 10
4094.983081708155
 20
4283.130804104652
 10
4095.171081708158
 20
4283.130804104652
 42
-0.4142135623730951
 10
4095.233081708156
 20
4283.068804104654
 10
4095.233081708152
 20
4281.381274452987
 10
4095.138042761037
 20
4281.38127445298
 42
-0.3899024490771541
 10
4094.953042761036
 20
4281.180101601655
 10
4094.953042761036
 20
4281.130494375882
 10
4094.858081708156
 20
4281.130494375882
 10
4094.858081708156
 20
4281.255494375883
 42
0.666666666665864
 10
4094.858081708156
 20
4281.442994375882
 10
4094.858081708156
 20
4281.692661683106
 10
4094.671081708161
 20
4281.692661683106
 42
0.9999999999999998
  0
HATCH
  5
2B2
330
2
100
AcDbEntity
  8
0
100
AcDbHatch
 10
0.0
 20
0.0
 30
0.0
210
0.0
220
0.0
230
1.0
  2
SOLID
 70
     1
 71
     0
 91
        1
 92
        7
 72
     1
 73
     1
 93
        2
 10
4094.858081708157
 20
4281.442661683107
 42
-0.6666666666855048
 10
4094.858081708157
 20
4281.255161683104
 42
0.0
 97
        0
 75
     1
 76
     1
 47
0.0008253963891123
 98
        1
 10
4094.884250346754
 20
4281.332829673279
1001
GradientColor1ACI
1070
     5
1001
GradientColor2ACI
1070
     2
1001
ACAD
1010
0.0
1020
0.0
1030
0.0
  0
DIMENSION
  5
2B3
330
2
100
AcDbEntity
  8
0
100
AcDbDimension
  2
*D15
 10
4089.399755561518
 20
4281.817661683105
 30
0.0
 11
4089.399755561517
 21
4286.162191666923
 31
0.0
 71
     5
 42
8.689059967632601
  3
Knife
100
AcDbAlignedDimension
 13
4092.081369090728
 23
4290.506721650738
 33
0.0
 14
4094.138306939864
 24
4281.817661683105
 34
0.0
 50
90.0
100
AcDbRotatedDimension
1001
ACAD
1000
DSTYLE
1002
{
1070
    40
1040
1.0
1002
}
  0
TEXT
  5
2C2
330
2
100
AcDbEntity
  8
0
100
AcDbText
 10
4092.042675994107
 20
4279.824790446565
 30
0.0
 40
0.375
  1
%%UTRANSOM / HOPPER STACK
 41
0.6
 51
5.0
  7
DIMTXT
 72
     1
 11
4094.08825433977
 21
4279.824790446565
 31
0.0
100
AcDbText
  0
LINE
  5
2C3
330
2
100
AcDbEntity
  8
0
  6
HIDDEN
100
AcDbLine
 10
4092.989383859013
 20
4290.982427059943
 30
0.0
 11
4092.158893859013
 21
4290.982427059943
 31
0.0
  0
INSERT
  5
2C4
330
2
100
AcDbEntity
  8
0
100
AcDbBlockReference
  2
93OBW
 10
4093.723228828519
 20
4289.008804104651
 30
0.0
 41
-1.0
 42
-1.0
 43
2.0
 50
270.0
  0
INSERT
  5
2C5
330
2
100
AcDbEntity
  8
0
100
AcDbBlockReference
  2
86NPF141
 10
4092.303252021983
 20
4289.236456199909
 30
0.0
 41
-1.0
 43
2.0
 50
90.0
  0
LINE
  5
2C6
330
2
100
AcDbEntity
  8
0
100
AcDbLine
 10
4093.383552434936
 20
4288.708804104651
 30
0.0
 11
4092.646552434936
 21
4288.708804104651
 31
0.0
  0
LINE
  5
2C7
330
2
100
AcDbEntity
  8
0
100
AcDbLine
 10
4092.664802434936
 20
4288.708804104651
 30
0.0
 11
4093.351802434936
 21
4288.708804104651
 31
0.0
  0
INSERT
  5
2C8
330
2
100
AcDbEntity
  8
0
100
AcDbBlockReference
  2
*U4
 10
4090.412103684839
 20
4286.827617226363
 30
0.0
 41
-1.0
 50
270.0
1001
ACAD
1002
{
1000
R14_HATCH_DATA
1000
3651
1011
4090.412103684839
1021
4291.140117226365
1031
0.0
1011
4091.41210368484
1021
4286.827617226363
1031
0.0
1011
4090.412103684839
1021
4286.827617226363
1031
1.0
1040
0.0
1010
0.0
1020
0.0
1030
1.0
1000
SOLID
1070
     1
1070
     0
1071
        1
1071
        1
1071
        2
1070
     1
1040
1.881186878287213
1040
3.15944875009568
1040
1.881186878287314
1040
3.346448750095556
1070
     2
1040
1.760589222037213
1040
3.252948750095684
1040
0.1525976562500021
1040
-0.65950076747307
1040
0.6595007674730821
1070
     0
1071
        0
1070
     0
1070
     1
1071
        1
1040
4.812561040009144
1040
6.499794521109716
1040
0.0
1002
}
  0
LWPOLYLINE
  5
2C9
102
{ACAD_REACTORS
330
304
102
}
330
2
100
AcDbEntity
  8
0
100
AcDbPolyline
 90
       15
 70
     1
 43
0.0
 10
4092.175493817106
 20
4288.16280410465
 10
4092.422002804119
 20
4288.16280410465
 10
4092.424184687236
 20
4288.03780410465
 10
4094.111684687237
 20
4288.03780410465
 42
-0.9999999999999998
 10
4094.236684687237
 20
4288.03780410465
 10
4095.299684687236
 20
4288.03780410465
 10
4095.299684687236
 20
4288.708804104651
 10
4094.862684687235
 20
4288.708804104651
 10
4094.861061366198
 20
4288.615804104651
 10
4094.614308008273
 20
4288.615804104651
 10
4094.612684687236
 20
4288.708804104651
 10
4091.768184687235
 20
4288.708804104651
 42
0.4142135623730949
 10
4091.737184687235
 20
4288.677804104651
 10
4091.737184687235
 20
4288.087804104651
 10
4092.174184687237
 20
4288.087804104651
  0
LWPOLYLINE
  5
2CA
330
2
100
AcDbEntity
  8
0
100
AcDbPolyline
 90
       20
 70
     1
 43
0.0
 10
4094.826467383098
 20
4288.630679104651
 10
4094.833302434936
 20
4288.708804104651
 10
4095.48847842355
 20
4288.708804104651
 10
4095.48847842355
 20
4289.614431778942
 42
0.4142135623730951
 10
4095.457478423549
 20
4289.645431778943
 10
4094.554833108909
 20
4289.645431778943
 10
4094.551526170493
 20
4289.83488615385
 42
0.4091108014277093
 10
4094.489535613394
 20
4289.89580410465
 10
4093.364552434936
 20
4289.89580410465
 10
4093.364552434936
 20
4289.770804104651
 10
4093.489861080819
 20
4289.645495458767
 10
4093.489861080819
 20
4289.08880410465
 10
4093.770861080819
 20
4289.08880410465
 10
4093.770861080819
 20
4289.008804104651
 10
4093.384552434935
 20
4289.008804104651
 10
4093.384552434935
 20
4288.708804104651
 10
4093.571552434935
 20
4288.708804104651
 42
-0.3422459893048229
 10
4093.758552434936
 20
4288.708804104651
 10
4094.614552434935
 20
4288.708804104651
 10
4094.615916111884
 20
4288.630679104651
  0
LWPOLYLINE
  5
2CB
330
2
100
AcDbEntity
  8
0
100
AcDbPolyline
 90
        8
 70
     1
 43
0.0
 10
4092.714552434935
 20
4288.834221637165
 10
4092.714552434935
 20
4289.019221637165
 42
-0.4142135623730951
 10
4092.839552434935
 20
4289.144221637164
 10
4093.259552434935
 20
4289.144221637164
 42
-0.4142135623730951
 10
4093.384552434935
 20
4289.019221637165
 10
4093.384552434935
 20
4288.834221637165
 42
-0.4142135623730951
 10
4093.259552434935
 20
4288.709221637165
 10
4092.839552434935
 20
4288.709221637165
 42
-0.4142135623730951
  0
LWPOLYLINE
  5
2CC
330
2
100
AcDbEntity
  8
0
100
AcDbPolyline
 90
       22
 70
     0
 43
0.0
 10
4092.070659735745
 20
4288.944079229192
 10
4092.664633859014
 20
4288.944079229192
 10
4092.664633859014
 20
4289.146221650739
 10
4093.349383859013
 20
4289.146221650739
 42
0.4142135623730951
 10
4093.364383859014
 20
4289.161221650739
 10
4093.364383859014
 20
4290.255608880869
 10
4093.269344911894
 20
4290.255608880869
 42
0.3899024490717824
 10
4093.084344911896
 20
4290.456781732197
 10
4093.084344911896
 20
4290.506388957967
 10
4092.989383859013
 20
4290.506388957967
 10
4092.989383859013
 20
4290.381388957968
 42
-0.6666666666666686
 10
4092.989383859013
 20
4290.193888957968
 10
4092.989383859013
 20
4289.944221650738
 10
4092.803296189387
 20
4289.944221650738
 42
-0.9946524064171082
 10
4092.616296189388
 20
4289.944221650738
 10
4091.740659735744
 20
4289.944221650738
 10
4091.740659735744
 20
4289.069221650739
 42
0.4142135623730951
 10
4091.865659735744
 20
4288.944221650739
 10
4091.990659735745
 20
4288.944221650739
 10
4091.990659735745
 20
4289.260721650738
 10
4092.070659735745
 20
4289.260721650738
 10
4092.070659735745
 20
4288.948221650739
  0
HATCH
  5
2CD
330
2
100
AcDbEntity
  8
0
100
AcDbHatch
 10
0.0
 20
0.0
 30
0.0
210
0.0
220
0.0
230
1.0
  2
SOLID
 70
     1
 71
     0
 91
        1
 92
        7
 72
     1
 73
     1
 93
        2
 10
4092.158893859013
 20
4290.381721650738
 42
0.0
 10
4092.158893859013
 20
4290.194221650739
 42
-0.6666666666666311
 97
        0
 75
     1
 76
     1
 47
0.0010014887122476
 98
        1
 10
4092.112833782667
 20
4290.266816454695
1001
GradientColor1ACI
1070
     5
1001
GradientColor2ACI
1070
     2
1001
ACAD
1010
0.0
1020
0.0
1030
0.0
  0
LWPOLYLINE
  5
2CE
330
2
100
AcDbEntity
  8
0
100
AcDbPolyline
 90
       11
 70
     1
 43
0.0
 10
4092.158893859013
 20
4290.194221650739
 10
4092.158893859013
 20
4289.944221650738
 10
4091.784893859014
 20
4289.944221650738
 10
4091.784893859014
 20
4290.225721650738
 42
-0.4142135623731695
 10
4091.815893859013
 20
4290.256721650738
 10
4091.862418627299
 20
4290.256721650738
 42
0.235730494161761
 10
4091.887194821876
 20
4290.269089952418
 10
4092.056592896152
 20
4290.49435334906
 42
-0.235730494161718
 10
4092.081369090728
 20
4290.506721650738
 10
4092.158893859013
 20
4290.506721650738
 10
4092.158893859013
 20
4290.381721650738
 42
0.6666666666666588
  0
LWPOLYLINE
  5
2CF
330
2
100
AcDbEntity
  8
0
100
AcDbPolyline
 90
        4
 70
     0
 43
0.0
 10
4092.871013859014
 20
4290.982427059943
 10
4092.871013859014
 20
4290.053221650739
 10
4092.989383859013
 20
4290.053221650739
 10
4092.989383859013
 20
4290.982427059943
  0
LWPOLYLINE
  5
2D0
330
2
100
AcDbEntity
  8
0
100
AcDbPolyline
 90
        4
 70
     0
 43
0.0
 10
4092.277263859013
 20
4290.982427059943
 10
4092.277263859013
 20
4290.053221650739
 10
4092.158893859013
 20
4290.053221650739
 10
4092.158893859013
 20
4290.982427059943
  0
LWPOLYLINE
  5
2D1
330
2
100
AcDbEntity
  8
0
100
AcDbPolyline
 90
       14
 70
     1
 43
0.0
 10
4092.386638859013
 20
4290.263046391688
 42
0.3359746306540741
 10
4092.354134949267
 20
4290.283409150739
 10
4092.318263859014
 20
4290.259221650739
 42
-0.4142135623730951
 10
4092.302638859014
 20
4290.274846650738
 10
4092.302638859014
 20
4290.456471650739
 10
4092.845638859014
 20
4290.456471650739
 10
4092.845638859014
 20
4290.274846650738
 42
-0.414213562373094
 10
4092.830013859013
 20
4290.259221650739
 10
4092.794526070956
 20
4290.283409150739
 42
0.3208708054700532
 10
4092.761638859014
 20
4290.262683482607
 10
4092.761638859014
 20
4290.205846650739
 42
-0.4142135623730951
 10
4092.746013859014
 20
4290.190221650738
 10
4092.402263859013
 20
4290.190221650738
 42
-0.4142135623730951
 10
4092.386638859013
 20
4290.205846650739
  0
LWPOLYLINE
  5
2D2
330
2
100
AcDbEntity
  8
0
100
AcDbPolyline
 90
       14
 70
     1
 43
0.0
 10
4092.393638859014
 20
4290.264264791832
 42
0.3593608004949541
 10
4092.351638971691
 20
4290.290168807713
 10
4092.316420024578
 20
4290.266421040993
 42
-0.3524310491054993
 10
4092.309638859013
 20
4290.274846650738
 10
4092.309638859013
 20
4290.456471650739
 10
4092.838638859014
 20
4290.456471650739
 10
4092.838638859014
 20
4290.274846650738
 42
-0.3518693664465323
 10
4092.831874531312
 20
4290.266424743378
 10
4092.796950140146
 20
4290.290228247557
 42
0.3446308864324803
 10
4092.754638859013
 20
4290.263989333555
 10
4092.754638859013
 20
4290.205846650739
 42
-0.4142135623730946
 10
4092.746013859014
 20
4290.197221650739
 10
4092.402263859013
 20
4290.197221650739
 42
-0.4142135623730946
 10
4092.393638859014
 20
4290.205846650739
  0
LWPOLYLINE
  5
2D3
330
2
100
AcDbEntity
  8
0
100
AcDbPolyline
 90
       10
 70
     1
 43
0.0
 10
4092.417888859014
 20
4290.267784150739
 42
0.3584554666094669
 10
4092.352985012861
 20
4290.314659150739
 10
4092.333888859014
 20
4290.314659150739
 10
4092.333888859014
 20
4290.425221650739
 10
4092.814388859014
 20
4290.425221650739
 10
4092.814388859014
 20
4290.314659150739
 10
4092.795292705168
 20
4290.314659150739
 42
0.3467993108968364
 10
4092.730388859013
 20
4290.267784150739
 10
4092.730388859013
 20
4290.221471650738
 10
4092.417888859014
 20
4290.221471650738
  0
LWPOLYLINE
  5
2D4
330
2
100
AcDbEntity
  8
0
100
AcDbPolyline
 90
        6
 70
     0
 43
0.0
 10
4092.302638859014
 20
4290.428221650739
 10
4092.292888859014
 20
4290.428221650739
 10
4092.292888859014
 20
4290.466221650739
 10
4092.855388859014
 20
4290.466221650739
 10
4092.855388859014
 20
4290.428221650739
 10
4092.845638859014
 20
4290.428221650739
  0
LINE
  5
2D5
330
2
100
AcDbEntity
  8
0
100
AcDbLine
 10
4092.845638859014
 20
4290.274846650738
 30
0.0
 11
4092.871013859014
 21
4290.274846650738
 31
0.0
  0
LINE
  5
2D6
330
2
100
AcDbEntity
  8
0
100
AcDbLine
 10
4092.845638859014
 20
4290.428221650739
 30
0.0
 11
4092.871013859014
 21
4290.428221650739
 31
0.0
  0
LINE
  5
2D7
330
2
100
AcDbEntity
  8
0
100
AcDbLine
 10
4092.302638859014
 20
4290.274846650738
 30
0.0
 11
4092.277263859013
 21
4290.274846650738
 31
0.0
  0
LINE
  5
2D8
330
2
100
AcDbEntity
  8
0
100
AcDbLine
 10
4092.302638859014
 20
4290.428221650739
 30
0.0
 11
4092.277263859013
 21
4290.428221650739
 31
0.0
  0
HATCH
  5
2D9
330
2
100
AcDbEntity
  8
0
100
AcDbHatch
 10
0.0
 20
0.0
 30
0.0
210
0.0
220
0.0
230
1.0
  2
DOTS
 70
     0
 71
     0
 91
        2
 92
        7
 72
     0
 73
     1
 93
        4
 10
4092.302638859014
 20
4290.274846650738
 10
4092.277263859013
 20
4290.274846650738
 10
4092.277263859013
 20
4290.428221650739
 10
4092.302638859014
 20
4290.428221650739
 97
        0
 92
        7
 72
     0
 73
     1
 93
        4
 10
4092.871013859014
 20
4290.274846650738
 10
4092.845638859014
 20
4290.274846650738
 10
4092.845638859014
 20
4290.428221650739
 10
4092.871013859014
 20
4290.428221650739
 97
        0
 75
     0
 76
     1
 52
360.0
 41
0.1
 77
     0
 78
     1
 53
360.0
 43
4086.183784113478
 44
4295.057265128334
 45
0.003125
 46
-0.00625
 79
     2
 49
0.0
 49
-0.00625
 47
0.0006001443632006
 98
        2
 10
4092.290918568866
 20
4290.332431590787
 10
4092.860803498262
 20
4290.336032464586
  0
HATCH
  5
2DA
330
2
100
AcDbEntity
  8
0
100
AcDbHatch
 10
0.0
 20
0.0
 30
0.0
210
0.0
220
0.0
230
1.0
  2
DASH
 70
     0
 71
     0
 91
        1
 92
        7
 72
     1
 73
     1
 93
       16
 10
4092.746013859014
 20
4290.190221650738
 42
0.4142135623730951
 10
4092.761638859014
 20
4290.205846650739
 42
0.0
 10
4092.761638859014
 20
4290.262683482607
 42
-0.3208708054700533
 10
4092.794526070956
 20
4290.283409150739
 42
0.0
 10
4092.830013859013
 20
4290.259221650739
 42
0.414213562373094
 10
4092.845638859014
 20
4290.274846650738
 42
0.0
 10
4092.871013859014
 20
4290.274846650738
 42
0.0
 10
4092.871013859013
 20
4290.053221650739
 42
0.0
 10
4092.277263859013
 20
4290.053221650739
 42
0.0
 10
4092.277263859013
 20
4290.274846650738
 42
0.0
 10
4092.302638859014
 20
4290.274846650738
 42
0.4142135623730951
 10
4092.318263859014
 20
4290.259221650739
 42
0.0
 10
4092.354134949267
 20
4290.283409150739
 42
-0.3359746306540741
 10
4092.386638859013
 20
4290.263046391688
 42
0.0
 10
4092.386638859013
 20
4290.205846650739
 42
0.4142135623730951
 10
4092.402263859013
 20
4290.190221650738
 42
0.0
 97
        0
 75
     0
 76
     1
 52
360.0
 41
0.1
 77
     0
 78
     1
 53
360.0
 43
4086.183784113478
 44
4295.057265128334
 45
0.0125
 46
-0.0125
 79
     2
 49
0.0125
 49
-0.0125
 47
0.0009600803746669
 98
        1
 10
4092.623160339099
 20
4290.139382378544
  0
HATCH
  5
2DB
330
2
100
AcDbEntity
  8
0
100
AcDbHatch
 10
0.0
 20
0.0
 30
0.0
210
0.0
220
0.0
230
1.0
  2
SOLID
 70
     1
 71
     0
 91
        1
 92
        7
 72
     1
 73
     1
 93
        2
 10
4092.989383859013
 20
4290.381721650738
 42
0.0
 10
4092.989383859013
 20
4290.194221650739
 42
0.6666666666666311
 97
        0
 75
     1
 76
     1
 47
0.0010014887122476
 98
        1
 10
4093.03544393536
 20
4290.266816454695
1001
GradientColor1ACI
1070
     5
1001
GradientColor2ACI
1070
     2
1001
ACAD
1010
0.0
1020
0.0
1030
0.0
  0
LINE
  5
2DC
330
2
100
AcDbEntity
  8
0
100
AcDbLine
 10
4092.158893859013
 20
4289.944221650738
 30
0.0
 11
4092.989383859013
 21
4290.053221650739
 31
0.0
  0
LWPOLYLINE
  5
2DD
330
2
100
AcDbEntity
  8
0
100
AcDbPolyline
 90
        8
 70
     0
 43
0.0
 10
4092.158893859013
 20
4289.944221650738
 10
4092.989383859013
 20
4289.944221650738
 10
4092.989383859013
 20
4290.053221650739
 10
4092.158893859013
 20
4290.053221650739
 10
4092.158893859013
 20
4289.944221650738
 10
4092.989383859013
 20
4290.053221650739
 10
4092.158893859013
 20
4290.053221650739
 10
4092.989383859013
 20
4289.944221650738
  0
LWPOLYLINE
  5
2DE
102
{ACAD_REACTORS
330
2E1
330
2F2
102
}
330
2
100
AcDbEntity
  8
0
100
AcDbPolyline
 90
       10
 70
     1
 43
0.0
 10
4091.687692877701
 20
4288.258622117787
 10
4091.737184687235
 20
4288.53930411742
 10
4091.737184687235
 20
4288.60130411742
 10
4091.299684687236
 20
4288.60130411742
 42
0.4142135623730951
 10
4091.237184687235
 20
4288.53880411742
 10
4091.237184687235
 20
4283.53880411742
 42
0.4142135623730951
 10
4091.299684687236
 20
4283.47630411742
 10
4091.737184687235
 20
4283.47630411742
 10
4091.737184687235
 20
4283.53830411742
 10
4091.687692877701
 20
4283.818986117052
  0
DIMENSION
  5
2DF
102
{ACAD_XDICTIONARY
360
2E0
102
}
102
{ACAD_REACTORS
330
2E1
102
}
330
2
100
AcDbEntity
  8
0
100
AcDbDimension
  2
*D16
 10
4091.237184687236
 20
4282.837051738887
 30
0.0
 11
4090.640952404121
 21
4282.837051738887
 31
0.0
 71
     5
 42
0.4999999999890861
  3
Knife
100
AcDbAlignedDimension
 13
4091.737184687224
 23
4283.47630411742
 33
0.0
 14
4091.237184687236
 24
4283.53880411742
 34
0.0
100
AcDbRotatedDimension
1001
ACAD
1000
DSTYLE
1002
{
1070
    40
1040
1.0
1002
}
  0
DIMENSION
  5
2F0
102
{ACAD_XDICTIONARY
360
2F1
102
}
102
{ACAD_REACTORS
330
2F2
102
}
330
2
100
AcDbEntity
  8
0
100
AcDbDimension
  2
*D17
 10
4090.653901516771
 20
4288.60130411742
 30
0.0
 11
4090.653901516771
 21
4286.038804117421
 31
0.0
 71
     5
 42
5.125
  3
Knife
100
AcDbAlignedDimension
 13
4091.299684687236
 23
4283.47630411742
 33
0.0
 14
4091.299684687236
 24
4288.60130411742
 34
0.0
 50
90.0
100
AcDbRotatedDimension
1001
ACAD
1000
DSTYLE
1002
{
1070
    40
1040
1.0
1002
}
  0
TEXT
  5
301
330
2
100
AcDbEntity
  8
0
100
AcDbText
 10
4091.949695160214
 20
4279.040804167559
 30
0.0
 40
0.375
  1
6 9/16" JAMB C/W POCKET
 41
0.6
 51
5.0
  7
DIMTXT
 72
     1
 11
4094.08825433977
 21
4279.040804167559
 31
0.0
100
AcDbText
  0
DIMENSION
  5
302
102
{ACAD_XDICTIONARY
360
303
102
}
102
{ACAD_REACTORS
330
304
102
}
330
2
100
AcDbEntity
  8
0
100
AcDbDimension
  2
*D18
 10
4093.382103553956
 20
4284.03780410465
 30
0.0
 11
4093.382103553956
 21
4286.037804104651
 31
0.0
 71
     5
 42
4.0
  3
Knife
100
AcDbAlignedDimension
 13
4093.267934687236
 23
4288.03780410465
 33
0.0
 14
4093.267934687236
 24
4284.03780410465
 34
0.0
 50
90.0
100
AcDbRotatedDimension
1001
ACAD
1000
DSTYLE
1002
{
1070
    40
1040
1.0
1002
}
  0
LWPOLYLINE
  5
313
330
2
100
AcDbEntity
  8
0
100
AcDbPolyline
 90
        8
 70
     1
 43
0.0
 10
4096.111684687236
 20
4288.051868321256
 10
4096.15534952301
 20
4288.299503910541
 10
4097.554453647053
 20
4288.05280410465
 10
4098.362684687236
 20
4288.05280410465
 10
4098.362684687236
 20
4288.693804104651
 42
0.4142135623730951
 10
4098.347684687236
 20
4288.708804104651
 10
4095.299684687236
 20
4288.708804104651
 10
4095.299684687236
 20
4288.051868321256
  0
LWPOLYLINE
  5
314
102
{ACAD_REACTORS
330
318
330
329
102
}
330
2
100
AcDbEntity
  8
0
100
AcDbPolyline
 90
       11
 70
     0
 43
0.0
 10
4098.362684687236
 20
4288.601304104651
 10
4098.550684687237
 20
4288.601304104651
 42
-0.4142135623730951
 10
4098.612684687235
 20
4288.539304104653
 10
4098.612684687235
 20
4283.538304104649
 42
-0.4142135623730951
 10
4098.550684687237
 20
4283.476304104651
 10
4098.362684687236
 20
4283.476304104651
 10
4098.362684687236
 20
4283.819304104652
 10
4098.424684687237
 20
4283.819304104652
 10
4098.424684687237
 20
4288.256304104651
 10
4098.362684687236
 20
4288.256304104651
 10
4098.362684687236
 20
4288.599304104651
  0
LWPOLYLINE
  5
315
330
2
100
AcDbEntity
  8
0
  6
Continuous
100
AcDbPolyline
 90
        9
 70
     1
 43
0.0
 10
4097.174684687231
 20
4284.08605410465
 10
4097.218096731648
 20
4283.839852166397
 10
4098.362184687231
 20
4284.03805410465
 10
4098.362184687231
 20
4283.44467910465
 42
-0.4142135623730934
 10
4098.346559687231
 20
4283.42905410465
 10
4096.362184687231
 20
4283.42905410465
 10
4096.362184687231
 20
4283.61655410465
 42
-1.019490806375842
 10
4096.362184687231
 20
4283.80405410465
 10
4096.362184687231
 20
4284.08605410465
  0
DIMENSION
  5
316
102
{ACAD_XDICTIONARY
360
317
102
}
102
{ACAD_REACTORS
330
318
102
}
330
2
100
AcDbEntity
  8
0
100
AcDbDimension
  2
*D19
 10
4099.285153960025
 20
4283.476304104651
 30
0.0
 11
4099.285153960024
 21
4286.035790978863
 31
0.0
 71
     5
 42
5.118973748421922
  3
Knife
100
AcDbAlignedDimension
 13
4098.577348135768
 23
4288.595277853073
 33
0.0
 14
4098.550684687237
 24
4283.476304104651
 34
0.0
 50
90.0
100
AcDbRotatedDimension
1001
ACAD
1000
DSTYLE
1002
{
1070
    40
1040
1.0
1002
}
  0
DIMENSION
  5
327
102
{ACAD_XDICTIONARY
360
328
102
}
102
{ACAD_REACTORS
330
329
102
}
330
2
100
AcDbEntity
  8
0
100
AcDbDimension
  2
*D20
 10
4098.612684687235
 20
4289.323536263584
 30
0.0
 11
4099.137889944461
 21
4289.323536263584
 31
0.0
 71
     5
 42
0.25
  3
Knife
100
AcDbAlignedDimension
 13
4098.362684687236
 23
4288.601304104651
 33
0.0
 14
4098.612684687235
 24
4288.539304104653
 34
0.0
100
AcDbRotatedDimension
1001
ACAD
1000
DSTYLE
1002
{
1070
    40
1040
1.0
1002
}
  0
ENDSEC
  0
SECTION
  2
OBJECTS
  0
DICTIONARY
  5
B
330
0
100
AcDbDictionary
281
     1
  3
ACAD_COLOR
350
50
  3
ACAD_GROUP
350
3D
  3
ACAD_LAYOUT
350
18
  3
ACAD_MATERIAL
350
D
  3
ACAD_MLEADERSTYLE
350
53
  3
ACAD_MLINESTYLE
350
3E
  3
ACAD_PLOTSETTINGS
350
3F
  3
ACAD_PLOTSTYLENAME
350
A
  3
ACAD_SCALELIST
350
51
  3
ACAD_TABLESTYLE
350
52
  3
ACAD_VISUALSTYLE
350
31
  3
ACDB_RECOMPOSE_DATA
350
345
  3
AcDbVariableDictionary
350
33B
  0
DICTIONARY
  5
33
330
2E
100
AcDbDictionary
280
     1
281
     1
  0
DICTIONARY
  5
23
330
22
100
AcDbDictionary
280
     1
281
     1
  3
ACAD_LAYERSTATES
360
24
  0
DICTIONARY
  5
7
330
6
100
AcDbDictionary
280
     1
281
     1
  3
ADSK_XREC_LAYER_RECONCILED
360
8
  0
DICTIONARY
  5
6F
330
6E
100
AcDbDictionary
280
     1
281
     1
  3
ADSK_XREC_LAYER_RECONCILED
360
70
  0
DICTIONARY
  5
3
330
2
100
AcDbDictionary
280
     1
281
     1
  3
ACAD_SORTENTS
360
338
  0
DICTIONARY
  5
142
330
141
100
AcDbDictionary
280
     1
281
     1
  3
ACAD_DIMASSOC
360
143
  0
DICTIONARY
  5
153
330
152
100
AcDbDictionary
280
     1
281
     1
  3
ACAD_DIMASSOC
360
154
  0
DICTIONARY
  5
164
330
163
100
AcDbDictionary
280
     1
281
     1
  3
ACAD_DIMASSOC
360
165
  0
DICTIONARY
  5
175
330
174
100
AcDbDictionary
280
     1
281
     1
  3
ACAD_DIMASSOC
360
176
  0
DICTIONARY
  5
218
330
217
100
AcDbDictionary
280
     1
281
     1
  3
ACAD_DIMASSOC
360
219
  0
DICTIONARY
  5
229
330
228
100
AcDbDictionary
280
     1
281
     1
  3
ACAD_DIMASSOC
360
22A
  0
DICTIONARY
  5
23A
330
239
100
AcDbDictionary
280
     1
281
     1
  3
ACAD_DIMASSOC
360
23B
  0
DICTIONARY
  5
24F
330
24E
100
AcDbDictionary
280
     1
281
     1
  3
ACAD_DIMASSOC
360
250
  0
DICTIONARY
  5
2E0
330
2DF
100
AcDbDictionary
280
     1
281
     1
  3
ACAD_DIMASSOC
360
2E1
  0
DICTIONARY
  5
2F1
330
2F0
100
AcDbDictionary
280
     1
281
     1
  3
ACAD_DIMASSOC
360
2F2
  0
DICTIONARY
  5
303
330
302
100
AcDbDictionary
280
     1
281
     1
  3
ACAD_DIMASSOC
360
304
  0
DICTIONARY
  5
317
330
316
100
AcDbDictionary
280
     1
281
     1
  3
ACAD_DIMASSOC
360
318
  0
DICTIONARY
  5
328
330
327
100
AcDbDictionary
280
     1
281
     1
  3
ACAD_DIMASSOC
360
329
  0
DICTIONARY
  5
50
102
{ACAD_REACTORS
330
B
102
}
330
B
100
AcDbDictionary
281
     1
  0
DICTIONARY
  5
3D
102
{ACAD_REACTORS
330
B
102
}
330
B
100
AcDbDictionary
281
     1
  0
DICTIONARY
  5
18
102
{ACAD_REACTORS
330
B
102
}
330
B
100
AcDbDictionary
281
     1
  3
Layout1
350
1F
  3
Model
350
17
  0
DICTIONARY
  5
D
102
{ACAD_REACTORS
330
B
102
}
330
B
100
AcDbDictionary
281
     1
  3
ByBlock
350
48
  3
ByLayer
350
40
  3
Global
350
C
  0
DICTIONARY
  5
53
102
{ACAD_REACTORS
330
B
102
}
330
B
100
AcDbDictionary
281
     1
  0
DICTIONARY
  5
3E
102
{ACAD_REACTORS
330
B
102
}
330
B
100
AcDbDictionary
281
     1
  3
Standard
350
54
  0
DICTIONARY
  5
3F
102
{ACAD_REACTORS
330
B
102
}
330
B
100
AcDbDictionary
281
     1
  0
ACDBDICTIONARYWDFLT
  5
A
102
{ACAD_REACTORS
330
B
102
}
330
B
100
AcDbDictionary
281
     1
  3
Normal
350
9
100
AcDbDictionaryWithDefault
340
9
  0
DICTIONARY
  5
51
102
{ACAD_REACTORS
330
B
102
}
330
B
100
AcDbDictionary
281
     1
  3
A0
350
59
  3
A1
350
5A
  3
A2
350
5B
  3
A3
350
5C
  3
A4
350
5D
  3
A5
350
5E
  3
A6
350
5F
  3
A7
350
60
  3
A8
350
61
  3
A9
350
62
  3
B0
350
63
  3
B1
350
64
  3
B2
350
65
  3
B3
350
66
  3
B4
350
67
  3
B5
350
68
  3
B6
350
69
  0
DICTIONARY
  5
52
102
{ACAD_REACTORS
330
B
102
}
330
B
100
AcDbDictionary
281
     1
  3
Standard
350
55
  0
DICTIONARY
  5
31
102
{ACAD_REACTORS
330
B
102
}
330
B
100
AcDbDictionary
281
     1
  3
2dWireframe
350
30
  3
Realistic
350
57
  3
Wireframe
350
58
  0
XRECORD
  5
345
102
{ACAD_REACTORS
330
B
102
}
330
B
100
AcDbXrecord
280
     1
 90
        1
330
55
  0
DICTIONARY
  5
33B
102
{ACAD_REACTORS
330
B
102
}
330
B
100
AcDbDictionary
281
     1
  3
CANNOSCALE
350
33E
  3
CMLEADERSTYLE
350
33D
  3
CTABLESTYLE
350
33C
  3
DIMASSOC
350
343
  3
HIDETEXT
350
341
  3
INDEXCTL
350
340
  3
SORTENTS
350
33F
  3
XCLIPFRAME
350
342
  0
DICTIONARY
  5
24
102
{ACAD_REACTORS
330
23
102
}
330
23
100
AcDbDictionary
281
     1
  0
XRECORD
  5
8
102
{ACAD_REACTORS
330
7
102
}
330
7
100
AcDbXrecord
280
     1
290
     1
  0
XRECORD
  5
70
102
{ACAD_REACTORS
330
6F
102
}
330
6F
100
AcDbXrecord
280
     1
290
     1
  0
SORTENTSTABLE
  5
338
102
{ACAD_REACTORS
330
3
102
}
330
3
100
AcDbSortentsTable
330
2
  0
DIMASSOC
  5
143
102
{ACAD_REACTORS
330
142
102
}
330
142
100
AcDbDimAssoc
330
141
 90
        3
 70
     0
 71
     0
  1
AcDbOsnapPointRef
 72
     1
331
13F
 73
     2
 91
       10
 40
1.0
 10
0.0
 20
0.0
 30
2.000000000000000E+50
 75
     0
  1
AcDbOsnapPointRef
 72
     1
331
13F
 73
     2
 91
        2
 40
0.0
 10
0.0
 20
0.0
 30
2.000000000000000E+50
 75
     0
  0
DIMASSOC
  5
154
102
{ACAD_REACTORS
330
153
102
}
330
153
100
AcDbDimAssoc
330
152
 90
        3
 70
     0
 71
     0
  1
AcDbOsnapPointRef
 72
     8
331
13F
 73
     2
 91
        2
 40
1.562109530155166
 10
0.0
 20
0.0
 30
0.0
 75
     1
  1
AcDbOsnapPointRef
 72
     0
 40
0.0
 10
4087.704829368983
 20
4293.092294218755
 30
0.0
 75
     0
  1
AcDbOsnapPointRef
 72
     8
331
13F
 73
     2
 91
        5
 40
-0.00286475860676
 10
0.0
 20
0.0
 30
0.0
 75
     1
  1
AcDbOsnapPointRef
 72
     8
331
13F
 73
     2
 91
        2
 40
1.562109530155166
 10
0.0
 20
0.0
 30
0.0
 75
     1
  1
AcDbOsnapPointRef
 72
     0
 40
0.0
 10
4087.704829368983
 20
4293.092294218755
 30
0.0
 75
     0
  0
DIMASSOC
  5
165
102
{ACAD_REACTORS
330
164
102
}
330
164
100
AcDbDimAssoc
330
163
 90
        3
 70
     0
 71
     0
  1
AcDbOsnapPointRef
 72
     6
331
13E
 73
     2
 91
        7
 40
0.9999999999750539
 10
0.0
 20
0.0
 30
0.0
332
6A
 74
     2
 92
        9
 75
     0
  1
AcDbOsnapPointRef
 72
     1
331
13E
 73
     2
 91
        5
 40
1.0
 10
0.0
 20
0.0
 30
2.000000000000000E+50
 75
     0
  0
DIMASSOC
  5
176
102
{ACAD_REACTORS
330
175
102
}
330
175
100
AcDbDimAssoc
330
174
 90
        3
 70
     0
 71
     0
  1
AcDbOsnapPointRef
 72
     1
331
13E
 73
     2
 91
        6
 40
4.712388980384689
 10
0.0
 20
0.0
 30
2.000000000000000E+50
 75
     0
  1
AcDbOsnapPointRef
 72
     1
331
13E
 73
     2
 91
        3
 40
1.0
 10
0.0
 20
0.0
 30
2.000000000000000E+50
 75
     0
  0
DIMASSOC
  5
219
102
{ACAD_REACTORS
330
218
102
}
330
218
100
AcDbDimAssoc
330
217
 90
        3
 70
     0
 71
     0
  1
AcDbOsnapPointRef
 72
     8
331
206
 73
     2
 91
        2
 40
1.562109530155166
 10
0.0
 20
0.0
 30
0.0
 75
     1
  1
AcDbOsnapPointRef
 72
     0
 40
0.0
 10
4087.704829368983
 20
4293.092294218755
 30
0.0
 75
     0
  1
AcDbOsnapPointRef
 72
     8
331
206
 73
     2
 91
        5
 40
-0.00286475860676
 10
0.0
 20
0.0
 30
0.0
 75
     1
  1
AcDbOsnapPointRef
 72
     8
331
206
 73
     2
 91
        2
 40
1.562109530155166
 10
0.0
 20
0.0
 30
0.0
 75
     1
  1
AcDbOsnapPointRef
 72
     0
 40
0.0
 10
4087.704829368983
 20
4293.092294218755
 30
0.0
 75
     0
  0
DIMASSOC
  5
22A
102
{ACAD_REACTORS
330
229
102
}
330
229
100
AcDbDimAssoc
330
228
 90
        3
 70
     0
 71
     0
  1
AcDbOsnapPointRef
 72
     6
331
205
 73
     2
 91
        7
 40
0.9999999999750539
 10
0.0
 20
0.0
 30
0.0
332
186
 74
     2
 92
        9
 75
     0
  1
AcDbOsnapPointRef
 72
     1
331
205
 73
     2
 91
        5
 40
1.0
 10
0.0
 20
0.0
 30
2.000000000000000E+50
 75
     0
  0
DIMASSOC
  5
23B
102
{ACAD_REACTORS
330
23A
102
}
330
23A
100
AcDbDimAssoc
330
239
 90
        3
 70
     0
 71
     0
  1
AcDbOsnapPointRef
 72
     1
331
205
 73
     2
 91
        6
 40
4.712388980384689
 10
0.0
 20
0.0
 30
2.000000000000000E+50
 75
     0
  1
AcDbOsnapPointRef
 72
     1
331
205
 73
     2
 91
        3
 40
1.0
 10
0.0
 20
0.0
 30
2.000000000000000E+50
 75
     0
  0
DIMASSOC
  5
250
102
{ACAD_REACTORS
330
24F
102
}
330
24F
100
AcDbDimAssoc
330
24E
 90
        3
 70
     0
 71
     0
  1
AcDbOsnapPointRef
 72
    13
331
24B
 73
     2
 91
        3
 40
0.0
 10
0.0
 20
0.0
 30
2.000000000000000E+50
 75
     0
  1
AcDbOsnapPointRef
 72
     1
331
24C
 73
     2
 91
        0
 40
1.0
 10
0.0
 20
0.0
 30
2.000000000000000E+50
 75
     0
  0
DIMASSOC
  5
2E1
102
{ACAD_REACTORS
330
2E0
102
}
330
2E0
100
AcDbDimAssoc
330
2DF
 90
        3
 70
     0
 71
     0
  1
AcDbOsnapPointRef
 72
     6
331
2DE
 73
     2
 91
        7
 40
0.9999999999750539
 10
0.0
 20
0.0
 30
0.0
332
25F
 74
     2
 92
        9
 75
     0
  1
AcDbOsnapPointRef
 72
     1
331
2DE
 73
     2
 91
        5
 40
1.0
 10
0.0
 20
0.0
 30
2.000000000000000E+50
 75
     0
  0
DIMASSOC
  5
2F2
102
{ACAD_REACTORS
330
2F1
102
}
330
2F1
100
AcDbDimAssoc
330
2F0
 90
        3
 70
     0
 71
     0
  1
AcDbOsnapPointRef
 72
     1
331
2DE
 73
     2
 91
        6
 40
4.712388980384689
 10
0.0
 20
0.0
 30
2.000000000000000E+50
 75
     0
  1
AcDbOsnapPointRef
 72
     1
331
2DE
 73
     2
 91
        3
 40
1.0
 10
0.0
 20
0.0
 30
2.000000000000000E+50
 75
     0
  0
DIMASSOC
  5
304
102
{ACAD_REACTORS
330
303
102
}
330
303
100
AcDbDimAssoc
330
302
 90
        3
 70
     0
 71
     0
  1
AcDbOsnapPointRef
 72
     2
331
2C9
 73
     2
 91
        3
 40
0.5
 10
0.0
 20
0.0
 30
0.0
 75
     0
  1
AcDbOsnapPointRef
 72
     8
331
25F
 73
     2
 91
       14
 40
0.2142585068565636
 10
0.0
 20
0.0
 30
0.0
 75
     1
  1
AcDbOsnapPointRef
 72
     2
331
2C9
 73
     2
 91
        3
 40
0.5
 10
0.0
 20
0.0
 30
0.0
 75
     0
  0
DIMASSOC
  5
318
102
{ACAD_REACTORS
330
317
102
}
330
317
100
AcDbDimAssoc
330
316
 90
        3
 70
     0
 71
     0
  1
AcDbOsnapPointRef
 72
     8
331
314
 73
     2
 91
        2
 40
1.126241940948207
 10
0.0
 20
0.0
 30
0.0
 75
     1
  1
AcDbOsnapPointRef
 72
     0
 40
0.0
 10
4103.47910571495
 20
4284.395118401395
 30
0.0
 75
     0
  1
AcDbOsnapPointRef
 72
     1
331
314
 73
     2
 91
        4
 40
4.712388980384689
 10
0.0
 20
0.0
 30
2.000000000000000E+50
 75
     0
  0
DIMASSOC
  5
329
102
{ACAD_REACTORS
330
328
102
}
330
328
100
AcDbDimAssoc
330
327
 90
        3
 70
     0
 71
     0
  1
AcDbOsnapPointRef
 72
    13
331
314
 73
     2
 91
        1
 40
0.0
 10
0.0
 20
0.0
 30
2.000000000000000E+50
 75
     0
  1
AcDbOsnapPointRef
 72
     1
331
314
 73
     2
 91
        2
 40
0.0
 10
0.0
 20
0.0
 30
2.000000000000000E+50
 75
     0
  0
LAYOUT
  5
1F
102
{ACAD_XDICTIONARY
360
20
102
}
102
{ACAD_REACTORS
330
18
102
}
330
18
100
AcDbPlotSettings
  1

  2
Default Windows System Printer.pc3
  4
Letter
  6

 40
4.857749938964843
 41
4.857734680175781
 42
4.011077880859375
 43
4.857757568359375
 44
215.8999938964844
 45
279.3999938964844
 46
-3.864487472723795
 47
-0.730866326802785
 48
0.0
 49
0.0
140
0.0
141
0.0
142
1.0
143
1.0
 70
   692
 72
     0
 73
     0
 74
     1
  7
monochrome.ctb
 75
    16
147
1.0
148
0.0132933696343265
149
0.0163556920790192
100
AcDbLayout
  1
Layout1
 70
     1
 71
     1
 10
-0.0396281825147785
 20
-0.1631190569075597
 11
8.460371577189331
 21
10.83688070279655
 12
0.0
 22
0.0
 32
0.0
 14
-0.0003291525589439
 24
-0.00064344871884
 34
-0.0000000349181948
 15
8.454146011211186
 25
10.67440514583056
 35
0.0000000814935746
146
0.0
 13
0.0
 23
0.0
 33
0.0
 16
1.0
 26
0.0
 36
0.0
 17
0.0
 27
1.0
 37
0.0
 76
     0
330
1C
1001
ACAD_PSEXT
1000
Default Windows System Printer.pc3
1000
HP LaserJet Professional M1212nf MFP
1000
USB001
1000

1070
     0
  0
LAYOUT
  5
17
102
{ACAD_XDICTIONARY
360
19
102
}
102
{ACAD_REACTORS
330
18
102
}
330
18
100
AcDbPlotSettings
  1

  2
hp LaserJet 1000
  4
Letter
  6

 40
5.111750125885009
 41
5.11176061630249
 42
5.111740112304687
 43
5.11175537109375
 44
215.8999938964844
 45
279.3999938964844
 46
-1737.727141600119
 47
-1443.590822120185
 48
0.0
 49
0.0
140
0.0
141
0.0
142
1.0
143
1.0
 70
 11956
 72
     0
 73
     1
 74
     1
  7
monochrome.ctb
 75
    16
147
1.0
148
-1178909.293504616
149
-716480.0773740626
100
AcDbLayout
  1
Model
 70
     1
 71
     0
 10
0.0
 20
0.0
 11
12.0
 21
9.0
 12
0.0
 22
0.0
 32
0.0
 14
0.0
 24
0.0
 34
0.0
 15
0.0
 25
0.0
 35
0.0
146
0.0
 13
0.0
 23
0.0
 33
0.0
 16
1.0
 26
0.0
 36
0.0
 17
0.0
 27
1.0
 37
0.0
 76
     0
330
2
331
2F
1001
ACAD_PSEXT
1000
hp LaserJet 1000
1000
hp LaserJet 1000
1000
USB001
1000

1070
     0
  0
MATERIAL
  5
48
102
{ACAD_XDICTIONARY
360
49
102
}
102
{ACAD_REACTORS
330
D
102
}
330
D
100
AcDbMaterial
  1
ByBlock
 72
     0
 43
0.0208333333333333
 43
0.0
 43
0.0
 43
0.0
 43
0.0
 43
0.0208333333333333
 43
0.0
 43
0.0
 43
0.0
 43
0.0
 43
1.0
 43
0.0
 43
0.0
 43
0.0
 43
0.0
 43
1.0
 77
     0
 47
0.0208333333333333
 47
0.0
 47
0.0
 47
0.0
 47
0.0
 47
0.0208333333333333
 47
0.0
 47
0.0
 47
0.0
 47
0.0
 47
1.0
 47
0.0
 47
0.0
 47
0.0
 47
0.0
 47
1.0
171
     0
 49
0.0208333333333333
 49
0.0
 49
0.0
 49
0.0
 49
0.0
 49
0.0208333333333333
 49
0.0
 49
0.0
 49
0.0
 49
0.0
 49
1.0
 49
0.0
 49
0.0
 49
0.0
 49
0.0
 49
1.0
175
     0
142
0.0208333333333333
142
0.0
142
0.0
142
0.0
142
0.0
142
0.0208333333333333
142
0.0
142
0.0
142
0.0
142
0.0
142
1.0
142
0.0
142
0.0
142
0.0
142
0.0
142
1.0
179
     0
144
0.0208333333333333
144
0.0
144
0.0
144
0.0
144
0.0
144
0.0208333333333333
144
0.0
144
0.0
144
0.0
144
0.0
144
1.0
144
0.0
144
0.0
144
0.0
144
0.0
144
1.0
147
0.0208333333333333
147
0.0
147
0.0
147
0.0
147
0.0
147
0.0208333333333333
147
0.0
147
0.0
147
0.0
147
0.0
147
1.0
147
0.0
147
0.0
147
0.0
147
0.0
147
1.0
  0
MATERIAL
  5
40
102
{ACAD_XDICTIONARY
360
41
102
}
102
{ACAD_REACTORS
330
D
102
}
330
D
100
AcDbMaterial
  1
ByLayer
 72
     0
 43
0.0208333333333333
 43
0.0
 43
0.0
 43
0.0
 43
0.0
 43
0.0208333333333333
 43
0.0
 43
0.0
 43
0.0
 43
0.0
 43
1.0
 43
0.0
 43
0.0
 43
0.0
 43
0.0
 43
1.0
 77
     0
 47
0.0208333333333333
 47
0.0
 47
0.0
 47
0.0
 47
0.0
 47
0.0208333333333333
 47
0.0
 47
0.0
 47
0.0
 47
0.0
 47
1.0
 47
0.0
 47
0.0
 47
0.0
 47
0.0
 47
1.0
171
     0
 49
0.0208333333333333
 49
0.0
 49
0.0
 49
0.0
 49
0.0
 49
0.0208333333333333
 49
0.0
 49
0.0
 49
0.0
 49
0.0
 49
1.0
 49
0.0
 49
0.0
 49
0.0
 49
0.0
 49
1.0
175
     0
142
0.0208333333333333
142
0.0
142
0.0
142
0.0
142
0.0
142
0.0208333333333333
142
0.0
142
0.0
142
0.0
142
0.0
142
1.0
142
0.0
142
0.0
142
0.0
142
0.0
142
1.0
179
     0
144
0.0208333333333333
144
0.0
144
0.0
144
0.0
144
0.0
144
0.0208333333333333
144
0.0
144
0.0
144
0.0
144
0.0
144
1.0
144
0.0
144
0.0
144
0.0
144
0.0
144
1.0
147
0.0208333333333333
147
0.0
147
0.0
147
0.0
147
0.0
147
0.0208333333333333
147
0.0
147
0.0
147
0.0
147
0.0
147
1.0
147
0.0
147
0.0
147
0.0
147
0.0
147
1.0
  0
MATERIAL
  5
C
102
{ACAD_XDICTIONARY
360
E
102
}
102
{ACAD_REACTORS
330
D
102
}
330
D
100
AcDbMaterial
  1
Global
 72
     0
 43
0.0208333333333333
 43
0.0
 43
0.0
 43
0.0
 43
0.0
 43
0.0208333333333333
 43
0.0
 43
0.0
 43
0.0
 43
0.0
 43
1.0
 43
0.0
 43
0.0
 43
0.0
 43
0.0
 43
1.0
 77
     0
 47
0.0208333333333333
 47
0.0
 47
0.0
 47
0.0
 47
0.0
 47
0.0208333333333333
 47
0.0
 47
0.0
 47
0.0
 47
0.0
 47
1.0
 47
0.0
 47
0.0
 47
0.0
 47
0.0
 47
1.0
171
     0
 49
0.0208333333333333
 49
0.0
 49
0.0
 49
0.0
 49
0.0
 49
0.0208333333333333
 49
0.0
 49
0.0
 49
0.0
 49
0.0
 49
1.0
 49
0.0
 49
0.0
 49
0.0
 49
0.0
 49
1.0
175
     0
142
0.0208333333333333
142
0.0
142
0.0
142
0.0
142
0.0
142
0.0208333333333333
142
0.0
142
0.0
142
0.0
142
0.0
142
1.0
142
0.0
142
0.0
142
0.0
142
0.0
142
1.0
179
     0
144
0.0208333333333333
144
0.0
144
0.0
144
0.0
144
0.0
144
0.0208333333333333
144
0.0
144
0.0
144
0.0
144
0.0
144
1.0
144
0.0
144
0.0
144
0.0
144
0.0
144
1.0
147
0.0208333333333333
147
0.0
147
0.0
147
0.0
147
0.0
147
0.0208333333333333
147
0.0
147
0.0
147
0.0
147
0.0
147
1.0
147
0.0
147
0.0
147
0.0
147
0.0
147
1.0
  0
MLINESTYLE
  5
54
102
{ACAD_REACTORS
330
3E
102
}
330
3E
100
AcDbMlineStyle
  2
STANDARD
 70
     0
  3

 62
   256
 51
90.0
 52
90.0
 71
     2
 49
0.5
 62
   256
  6
BYLAYER
 49
-0.5
 62
   256
  6
BYLAYER
  0
ACDBPLACEHOLDER
  5
9
102
{ACAD_REACTORS
330
A
102
}
330
A
  0
SCALE
  5
59
102
{ACAD_REACTORS
330
51
102
}
330
51
100
AcDbScale
 70
     0
300
1:1
140
1.0
141
1.0
290
     1
  0
SCALE
  5
5A
102
{ACAD_REACTORS
330
51
102
}
330
51
100
AcDbScale
 70
     0
300
1/128" = 1'-0"
140
0.0078125
141
12.0
290
     0
  0
SCALE
  5
5B
102
{ACAD_REACTORS
330
51
102
}
330
51
100
AcDbScale
 70
     0
300
1/64" = 1'-0"
140
0.015625
141
12.0
290
     0
  0
SCALE
  5
5C
102
{ACAD_REACTORS
330
51
102
}
330
51
100
AcDbScale
 70
     0
300
1/32" = 1'-0"
140
0.03125
141
12.0
290
     0
  0
SCALE
  5
5D
102
{ACAD_REACTORS
330
51
102
}
330
51
100
AcDbScale
 70
     0
300
1/16" = 1'-0"
140
0.0625
141
12.0
290
     0
  0
SCALE
  5
5E
102
{ACAD_REACTORS
330
51
102
}
330
51
100
AcDbScale
 70
     0
300
3/32" = 1'-0"
140
0.09375
141
12.0
290
     0
  0
SCALE
  5
5F
102
{ACAD_REACTORS
330
51
102
}
330
51
100
AcDbScale
 70
     0
300
1/8" = 1'-0"
140
0.125
141
12.0
290
     0
  0
SCALE
  5
60
102
{ACAD_REACTORS
330
51
102
}
330
51
100
AcDbScale
 70
     0
300
3/16" = 1'-0"
140
0.1875
141
12.0
290
     0
  0
SCALE
  5
61
102
{ACAD_REACTORS
330
51
102
}
330
51
100
AcDbScale
 70
     0
300
1/4" = 1'-0"
140
0.25
141
12.0
290
     0
  0
SCALE
  5
62
102
{ACAD_REACTORS
330
51
102
}
330
51
100
AcDbScale
 70
     0
300
3/8" = 1'-0"
140
0.375
141
12.0
290
     0
  0
SCALE
  5
63
102
{ACAD_REACTORS
330
51
102
}
330
51
100
AcDbScale
 70
     0
300
1/2" = 1'-0"
140
0.5
141
12.0
290
     0
  0
SCALE
  5
64
102
{ACAD_REACTORS
330
51
102
}
330
51
100
AcDbScale
 70
     0
300
3/4" = 1'-0"
140
0.75
141
12.0
290
     0
  0
SCALE
  5
65
102
{ACAD_REACTORS
330
51
102
}
330
51
100
AcDbScale
 70
     0
300
1" = 1'-0"
140
1.0
141
12.0
290
     0
  0
SCALE
  5
66
102
{ACAD_REACTORS
330
51
102
}
330
51
100
AcDbScale
 70
     0
300
1-1/2" = 1'-0"
140
1.5
141
12.0
290
     0
  0
SCALE
  5
67
102
{ACAD_REACTORS
330
51
102
}
330
51
100
AcDbScale
 70
     0
300
3" = 1'-0"
140
3.0
141
12.0
290
     0
  0
SCALE
  5
68
102
{ACAD_REACTORS
330
51
102
}
330
51
100
AcDbScale
 70
     0
300
6" = 1'-0"
140
6.0
141
12.0
290
     0
  0
SCALE
  5
69
102
{ACAD_REACTORS
330
51
102
}
330
51
100
AcDbScale
 70
     0
300
1'-0" = 1'-0"
140
12.0
141
12.0
290
     0
  0
TABLESTYLE
  5
55
102
{ACAD_XDICTIONARY
360
56
102
}
102
{ACAD_REACTORS
330
52
102
}
330
52
100
AcDbTableStyle
  3
Standard
 70
     0
 71
     0
 40
0.06
 41
0.06
280
     0
281
     0
  7
Standard
140
0.18
170
     2
 62
     0
 63
     7
283
     0
274
    -2
284
     1
 64
     0
275
    -2
285
     1
 65
     0
276
    -2
286
     1
 66
     0
277
    -2
287
     1
 67
     0
278
    -2
288
     1
 68
     0
279
    -2
289
     1
 69
     0
  7
Standard
140
0.25
170
     5
 62
     0
 63
     7
283
     0
274
    -2
284
     1
 64
     0
275
    -2
285
     1
 65
     0
276
    -2
286
     1
 66
     0
277
    -2
287
     1
 67
     0
278
    -2
288
     1
 68
     0
279
    -2
289
     1
 69
     0
  7
Standard
140
0.18
170
     5
 62
     0
 63
     7
283
     0
274
    -2
284
     1
 64
     0
275
    -2
285
     1
 65
     0
276
    -2
286
     1
 66
     0
277
    -2
287
     1
 67
     0
278
    -2
288
     1
 68
     0
279
    -2
289
     1
 69
     0
  0
VISUALSTYLE
  5
30
102
{ACAD_XDICTIONARY
360
349
102
}
102
{ACAD_REACTORS
330
31
102
}
330
31
100
AcDbVisualStyle
  2
2dWireframe
 70
     4
 71
     0
 72
     2
 73
     0
 90
        0
 40
-0.6
 41
-30.0
 62
     5
 63
     7
 74
     1
 91
        4
 64
     7
 65
   257
 75
     1
175
     1
 42
1.0
 92
        0
 66
   257
 43
1.0
 76
     1
 77
     6
 78
     2
 67
     7
 79
     5
170
     0
171
     0
290
     0
174
     0
 93
        1
 44
0.0
173
     0
291
     0
 45
0.0
1001
ACAD
1000
AcDbSavedByObjectVersion
1070
     0
  0
VISUALSTYLE
  5
57
102
{ACAD_XDICTIONARY
360
34E
102
}
102
{ACAD_REACTORS
330
31
102
}
330
31
100
AcDbVisualStyle
  2
Realistic
 70
     8
 71
     2
 72
     2
 73
     0
 90
        2
 40
-0.6
 41
30.0
 62
     5
 63
     7
 74
     0
 91
        0
 64
     7
 65
   257
 75
     1
175
     1
 42
1.0
 92
        8
 66
   257
 43
1.0
 76
     1
 77
     6
 78
     2
 67
     7
 79
     3
170
     0
171
     0
290
     0
174
     0
 93
       13
 44
0.0
173
     0
291
     0
 45
0.0
1001
ACAD
1000
AcDbSavedByObjectVersion
1070
     0
  0
VISUALSTYLE
  5
58
102
{ACAD_XDICTIONARY
360
350
102
}
102
{ACAD_REACTORS
330
31
102
}
330
31
100
AcDbVisualStyle
  2
Wireframe
 70
     5
 71
     0
 72
     2
 73
     0
 90
        0
 40
-0.6
 41
-30.0
 62
     5
 63
     7
 74
     1
 91
        4
 64
     7
 65
   257
 75
     1
175
     1
 42
1.0
 92
        0
 66
   257
 43
1.0
 76
     1
 77
     6
 78
     2
 67
     7
 79
     3
170
     0
171
     0
290
     0
174
     0
 93
        1
 44
0.0
173
     0
291
     0
 45
0.0
1001
ACAD
1000
AcDbSavedByObjectVersion
1070
     0
  0
DICTIONARYVAR
  5
33E
102
{ACAD_REACTORS
330
33B
102
}
330
33B
100
DictionaryVariables
280
     0
  1
1:1
  0
DICTIONARYVAR
  5
33D
102
{ACAD_REACTORS
330
33B
102
}
330
33B
100
DictionaryVariables
280
     0
  1
STANDARD
  0
DICTIONARYVAR
  5
33C
102
{ACAD_REACTORS
330
33B
102
}
330
33B
100
DictionaryVariables
280
     0
  1
STANDARD
  0
DICTIONARYVAR
  5
343
102
{ACAD_REACTORS
330
33B
102
}
330
33B
100
DictionaryVariables
280
     0
  1
2
  0
DICTIONARYVAR
  5
341
102
{ACAD_REACTORS
330
33B
102
}
330
33B
100
DictionaryVariables
280
     0
  1
1
  0
DICTIONARYVAR
  5
340
102
{ACAD_REACTORS
330
33B
102
}
330
33B
100
DictionaryVariables
280
     0
  1
0
  0
DICTIONARYVAR
  5
33F
102
{ACAD_REACTORS
330
33B
102
}
330
33B
100
DictionaryVariables
280
     0
  1
127
  0
DICTIONARYVAR
  5
342
102
{ACAD_REACTORS
330
33B
102
}
330
33B
100
DictionaryVariables
280
     0
  1
0
  0
DICTIONARY
  5
20
330
1F
100
AcDbDictionary
280
     1
281
     1
  3
ACAD_XREC_ROUNDTRIP
360
348
  3
ADSK_XREC_LAYOUTTHUMBNAIL
360
21
  0
DICTIONARY
  5
19
330
17
100
AcDbDictionary
280
     1
281
     1
  3
ACAD_XREC_ROUNDTRIP
360
347
  3
ADSK_XREC_LAYOUTTHUMBNAIL
360
1A
  0
DICTIONARY
  5
49
330
48
100
AcDbDictionary
280
     1
281
     1
  3
ACAD_XREC_ROUNDTRIP
360
34C
  3
BUMPTILE
360
4A
  3
DIFFUSETILE
360
4B
  3
OPACITYTILE
360
4C
  3
REFLECTIONTILE
360
4D
  3
REFRACTIONTILE
360
4E
  3
SPECULARTILE
360
4F
  0
DICTIONARY
  5
41
330
40
100
AcDbDictionary
280
     1
281
     1
  3
ACAD_XREC_ROUNDTRIP
360
34B
  3
BUMPTILE
360
42
  3
DIFFUSETILE
360
43
  3
OPACITYTILE
360
44
  3
REFLECTIONTILE
360
45
  3
REFRACTIONTILE
360
46
  3
SPECULARTILE
360
47
  0
DICTIONARY
  5
E
330
C
100
AcDbDictionary
280
     1
281
     1
  3
ACAD_XREC_ROUNDTRIP
360
346
  3
BUMPTILE
360
F
  3
DIFFUSETILE
360
10
  3
OPACITYTILE
360
11
  3
REFLECTIONTILE
360
12
  3
REFRACTIONTILE
360
13
  3
SPECULARTILE
360
14
  0
DICTIONARY
  5
56
330
55
100
AcDbDictionary
280
     1
281
     1
  3
ACAD_ROUNDTRIP_2008_TABLESTYLE_CELLSTYLEMAP
360
344
  3
ACAD_XREC_ROUNDTRIP
360
34D
  0
DICTIONARY
  5
349
330
30
100
AcDbDictionary
280
     1
281
     1
  3
ACAD_XREC_ROUNDTRIP
360
34A
  0
DICTIONARY
  5
34E
330
57
100
AcDbDictionary
280
     1
281
     1
  3
ACAD_XREC_ROUNDTRIP
360
34F
  0
DICTIONARY
  5
350
330
58
100
AcDbDictionary
280
     1
281
     1
  3
ACAD_XREC_ROUNDTRIP
360
351
  0
XRECORD
  5
348
102
{ACAD_REACTORS
330
20
102
}
330
20
100
AcDbXrecord
280
     1
102
SHADEPLOT
 70
     1
102
SHADEPLOTRESLEVEL
 70
     2
102
SHADEPLOTCUSTOMDPI
 70
   300
  0
XRECORD
  5
21
102
{ACAD_REACTORS
330
20
102
}
330
20
100
AcDbXrecord
280
     1
310
280000006B0000008C0000000100080000000000103B000000000000000000000001000000000000FFFFFF0000000000C8C8C8000000000000000000000000000000000000000000000000000000000000000000330000006600000099000000CC000000FF00000000330000333300006633000099330000CC330000FF3300
310
0000660000336600006666000099660000CC660000FF66000000990000339900006699000099990000CC990000FF99000000CC000033CC000066CC000099CC0000CCCC0000FFCC000000FF000033FF000066FF000099FF0000CCFF0000FFFF000000003300330033006600330099003300CC003300FF003300003333003333
310
33006633330099333300CC333300FF33330000663300336633006666330099663300CC663300FF66330000993300339933006699330099993300CC993300FF99330000CC330033CC330066CC330099CC3300CCCC3300FFCC330000FF330033FF330066FF330099FF3300CCFF3300FFFF330000006600330066006600660099
310
006600CC006600FF00660000336600333366006633660099336600CC336600FF33660000666600336666006666660099666600CC666600FF66660000996600339966006699660099996600CC996600FF99660000CC660033CC660066CC660099CC6600CCCC6600FFCC660000FF660033FF660066FF660099FF6600CCFF6600
310
FFFF660000009900330099006600990099009900CC009900FF00990000339900333399006633990099339900CC339900FF33990000669900336699006666990099669900CC669900FF66990000999900339999006699990099999900CC999900FF99990000CC990033CC990066CC990099CC9900CCCC9900FFCC990000FF99
310
0033FF990066FF990099FF9900CCFF9900FFFF99000000CC003300CC006600CC009900CC00CC00CC00FF00CC000033CC003333CC006633CC009933CC00CC33CC00FF33CC000066CC003366CC006666CC009966CC00CC66CC00FF66CC000099CC003399CC006699CC009999CC00CC99CC00FF99CC0000CCCC0033CCCC0066CC
310
CC0099CCCC00CCCCCC00FFCCCC0000FFCC0033FFCC0066FFCC0099FFCC00CCFFCC00FFFFCC000000FF003300FF006600FF009900FF00CC00FF00FF00FF000033FF003333FF006633FF009933FF00CC33FF00FF33FF000066FF003366FF006666FF009966FF00CC66FF00FF66FF000099FF003399FF006699FF009999FF00CC
310
99FF00FF99FF0000CCFF0033CCFF0066CCFF0099CCFF00CCCCFF00FFCCFF0000FFFF0033FFFF0066FFFF0099FFFF00CCFFFF00FFFFFF00000000000D0D0D001A1A1A00282828003535350043434300505050005D5D5D006B6B6B00787878008686860093939300A1A1A100AEAEAE00BBBBBB00C9C9C900D6D6D600E4E4E400
310
F1F1F100FFFFFF0000000000000000000000000000000000000000000000000000000000000000000000000000000000E2E2E2E2E2E2E2E2E2E2E2E2E2E2E2E2E2E2E2E2E2E2E2E2E2E2E2E2E2E2E2E2E2E2E2E2E2E2E2E2E2E2E2E2E2E2E2E2E2E2E2E2E2E2E2E2E2E2E2E2E2E2E2E2E2E2E2E2E2E2E2E2E2E2E2E2E2E2E2
310
E2E2E2E2E2E2E2E2E2E2E2E2E2E2E2E2E2E2E2E2E2E2E2E2E2E2E2E200E200000000000000000000000000000000000000000000000000000000000000000000000000000000000000000000000000000000000000000000000000000000000000000000000000000000000000000000000000000000000000000000000000
310
00000000000000000000E2000000000000000000000000000000000000000000000000000000000000000000000000000000000000000000000000000000000000000000000000000000000000000000000000000000000000000000000000000000000000000000000000000000000000000000007FE2E2E2E2E2E2E2E2E2
310
E2E2000000000000000000E2E2E2E2E2E2E2E2E2E2E2E2E2E2E2E200000000000000000000E2E2E2E2E2E2E2E2E2E2E2E2E2E2E2E200000000000000000000E2E2E2E2E2E2E2E2E2E2E2E2E2E2E2E2000000000000000000E2E2E2E2E2E2E2E2E200E2E200E200000000000000000000000000000000000000000000000000
310
0000000000000000000000000000000000000000000000000000000000000000000000000000000000000000000000000000000000000000000000000000000000000000000000000000000000E20000E200E20000000000000000000000000000000000000000000000000000000000000000000000000000000000000000
310
0000000000E2E2E20000000000000000000000000000000000000000000000000000000000000000000000000000000000000000000000000000E200E2E200E200000000000000000000000000000000000000000000000000000000000000000000000000000000000000000000000000E2E2E20000000000000000000000
310
000000000000000000000000000000000000000000000000000000000000000000000000000000E200E2E200E200000000000000000000000000000000000000000000000000000000000000000000000000000000000000000000000000000000000000000000000000000000000000000000000000000000000000000000
310
0000000000000000000000000000000000000000E20000E200E2000000000000000000000000000000000000000000000000000000000000000000000000000000000000000000000000E2E2E2E2E2000000000000000000000000000000000000000000000000000000000000000000000000000000000000000000000000
310
00E20036E200E2000000000000000000000000000000000000000000000000000000000000000000000000000000000000000000000000E2E2E2E2E200000000000000000000000000000000000000000000000000000000000000000000000000000000000000000000000000E20000E200E2000000000000000000000000
310
000000000000000000000000000000000000000000000000000000000000000000000000000000000000000000000000000000000000000000000000000000000000000000000000000000000000000000000000000000000000E20000E200E200000000000000000000000000000000000000000000000000000000000000
310
0000000000000000000000000000000000000000000000000000000000000000000000000000000000000000000000000000000000000000000000000000000000000000000000E20000E200000000000000000000000000000000000000000000000000000000000000000000000000000000000000000000000000000000
310
00000000000000000000000000000000000000000000000000000000000000000000000000000000000000000000000000000000000000E20000000000000000000000000000000000000000000000000000000000000000000000000000000000000000000000000000000000000000000000000000000000000000000000
310
000000000000000000000000000000000000000000000000000000000000000000000000E2000000000000000000000000000000000000000000000000000000000000000000000000000000000000000000000000000000000000000000000000000000000000000000000000000000000000000000000000000000000000
310
0000000000000000000000000000000000E20000000000000000000000000000000000000000000000000000000000000000000000000000000000000000000000000000000000000000000000000000000000000000000000000000000000000000000000000000000000000000000000000000000000000000000000E200
310
00000000000000000000000000000000000000000000000000000000000000000000000000000000000000000000000000000000000000000000000000000000000000000000000000000000000000000000000000000000000000000000000000000000000000000000E20000000000000000000000000000000000000000
310
0000000000000000000000000000000000000000000000000000000000000000000000000000000000000000000000000000000000000000000000000000000000000000000000000000000000000000000000000000E2E2000000000000000000000000000000000000000000000000000000000000000000000000000000
310
00000000000000000000000000000000000000000000000000000000000000000000000000000000000000000000000000000000000000000000000000000000000000E2E200000000000000000000000000000000000000000000000000000000000000000000000000000000000000000000000000000000000000000000
310
000000000000000000000000000000000000000000000000000000000000000000000000000000000000000000000000E2E20000000000000000000000000000000000000000000000000000000000E2E2E2E2E2E2E2E2E2E2E2E2E2E2E2E2E200000000000000000000000000000000000000000000000000000000000000
310
0000000000000000000000000000000000000000000000000000000000E2E20000000000000000000000000000000000000000000000000000000000E2E2E2E2E2E2E2E2E2E2E2E2E2E2E2E2E2E200000000000000000000000000000000000000000000000000000000000000000000000000000000000000000000000000
310
00000000000000000000E2E200E2000000000000000000000000000000000000000000000000000000000000000000000000000000000000000000000000000000000000000000000000000000000000000000000000000000000000000000000000000000000000000000000000000000000000E20000E200E20000000000
310
00000000000000000000000000000000000000000000E2E2E2E2E2E2E2E2E2E2E2E2E2E2E2E2E2E2000000000000000000000000000000000000000000000000000000000000000000000000000000000000000000000000000000000000000000E20000E200E2000000000000000000000000000000000000000000000000
310
000000E2E2E2E2E2E2E2E2E2E2E2E2E2E2E2E2E200000000000000000000000000000000000000000000000000000000000000000000000000000000000000000000000000000000000000000000E20000E200E2000000000000000000000000000000000000000000000000000000E2E2E2E2E2E2E2E2E2E2E2E2E2E2E2E2
310
E200000000000000000000000000000000000000000000000000000000000000000000000000000000000000000000000000000000000000000000E20000E200E20000000000000000000000000000000000000000000000000000000000000000000000000000000000000000000000000000000000000000000000000000
310
00000000000000000000000000000000000000000000000000000000000000000000000000000000E20000E200E2000000000000000000000000000000000000000000000000000000000000000000000000000000000000000000000000000000000000000000000000000000000000000000000000000000000000000000
310
000000000000000000000000000000000000000000E200E2E200E200000000000000000000000000000000000000000000000000000000E2E2E2E2E2E2E2E2E2E2E2E2000000000000000000000000000000000000000000000000000000000000000000000000000000000000000000000000000000000000000000000000
310
0000E200E2E200E200000000000000000000000000000000000000000000000000000000E200000000000000E2E2E2E2E200000000000000000000000000000000000000000000000000000000000000000000000000000000000000000000000000000000000000000000000000E20000E200E20000000000000000000000
310
0000000000000000000000000000000000E20000000000E2E2E2E2E2E2E200000000000000000000000000000000000000000000000000000000000000000000000000000000000000000000000000000000000000000000000000E20000E200E200000000000000000000000000000000000000000000000000000000E200
310
00000000E2E2E2E2E2E2E200000000000000000000000000000000000000000000000000000000000000000000000000000000000000000000000000000000000000000000000000E20000E200E200000000000000000000000000000000E2E2E2E2E2E2E2E2E2E2E2E2E2E2E2E2E2E2E2E2E2E2E200E20000000000000000
310
0000000000000000000000000000000000000000000000000000000000000000000000000000000000000000000000000000000000E200E2E200E200000000000000000000000000000000E20000000000000000000000E2000000000000E200000000E2000000000000000000000000000000000000000000000000000000
310
00000000000000000000000000000000000000000000000000000000000000000000E20000E200E200000000000000000000000000000000E20000E2E2E2E20000000000E2E2E2E2E2E2E2E200000000E20000E2E2E2E200000000000000000000000000000000000000000000000000000000000000000000000000000000
310
000000000000000000000000000000E20000E200E200000000000000000000000000000000E20000E2E2E2E2000000E2E2E200E2000000E2E200000000E2000000E2E2E2E2000000000000000000000000000000000000000000000000000000000000000000000000000000000000000000000000000000000000E20000E2
310
00E200000000000000000000000000000000E20000E2E2E2E2E2E2E2E200E2E2E2000000E2E2000000E2E2000000E2E2E200E20000000000000000000000000000000000000000000000000000000000000000000000000000000000000000000000000000000000E200E2E200E200000000000000000000000000000000E2
310
000000E2E20000E200E200E2E2E20000E2E2E2E2E2E2E2E2000000E2E2E200E20000000000000000000000000000000000000000000000000000000000000000000000000000000000000000000000000000000000E20000E200E200000000000000000000000000000000E200000000000000E200E2E2E2E2E2E2E2E2E2E2
310
E2E2E2E2E2E2E2E2E2E20000E20000000000000000000000000000000000000000000000000000000000000000000000000000000000000000000000000000000000E2007CE2000000000000000000000000000000000000E200000000E2E2E2E2E2E20000E2E20000000000000000000000000000E2E2E2E2E2E2E2E20000
310
0000000000000000000000000000000000000000000000000000000000000000000000000000000000000000000000000000E2000000000000000000000000000000000000E200000000E20000E200E2000000000000000000000000000000000000E2E200E2000000E2000000000000000000000000000000000000000000
310
00000000000000000000000000000000000000000000000000000000000000E200000000000000000000000000000000E2E2E2E200E2E2E2E200E200E2E2E2E2E2E2E2E2E2E2E2E2E2E2E2E2E2E2E2E2E2E2E2E2E2E2E2E2000000000000000000000000000000000000000000000000000000000000000000000000000000
310
000000000000000000000000E200000000000000000000000000000000E2E2E2E20000E2E2E200E200E2000000E2E2E2E2E2E2E2E2E2E2E2E2000000E2E200E200E2E2E2E200000000000000000000E2E2E2E2E2E2E2E2E2E2E2E2E2E2E2E2E200000000000000000000000000000000000000000000008DE2000000000000
310
00000000000000000000E2E2E2E200E2E2E2E200E200E2000000E2E2E2E2E2E2E2E2E2E2E2E2000000E2E200E200E2E2E2E200000000000000000000E2E2E2E2E2E2E2E2E2E2E2E2E2E2E2E2E2E20000000000000000000000000000000000000000000070E200000000000000000000000000000000E2E2E2E200E2E2E2E2
310
E2E200E2E2E2E2E2E2E2E2E2E2E2E2E2E2E2E2E2E2E2E2E2E2E2E2E2E2E2E2000000000000000000000000000000000000000000000000000000000000000000000000000000000000000000000000000000E2000000000000000000000000000000000000E200000000E20000E200E200E2E20000000000000000000000E2
310
000000E2E200E2000000E20000000000000000000000E2E2E2E2E2E2E2E2E2E2E2E2E2E2E2E2E2E20000000000000000000000000000000000000000000012E2000000000000000000000000000000000000E200000000E2E200E200E20000000000000000000000000000E2000000E2E20000000000E20000000000000000
310
000000E2E2E2E2E2E2E2E2E2E2E2E2E2E2E2E2E2000000000000000000000000000000000000000000000000E2000000000000000000000000000000000000E200000000E2E2E2E2E2E2E2E2E2E2E2E2E2E2E2E2E2E2E2E2E2E2E2E2E2E2E2E2E2E2E2E20000000000000000000000E2E2E2E2E2E2E2E2E2E2E2E2E2E2E2E2
310
E2000000000000000000000000000000000000000000000000E200E200000000000000000000000000000000E2000000000000000000E2E2E2E2E20000E2E2000000000000E2000000E2E200000000000000000000000000000000000000000000000000000000000000000000000000000000000000000000000000000000
310
000000E20000E200E200000000000000000000000000000000E2000000000000000000E2E20000E2E2E2E2E2000000000000E2000000E2E2E2E2E200000000000000000000000000000000000000000000000000000000000000000000000000000000000000000000000000000000E20000E200E200000000000000000000
310
000000000000E2000000000000000000E2000000000000E200000000000000E2000000E2E2E2E2E2000000000000000000000000000000E2E2E2E2E2E2E2E2E2E2E2E200000000000000000000000000000000000000000000000000E20000E200E200000000000000000000000000000000E2000000000000000000E20000
310
00000000E2000000E2E2E2E2E2000000E2E2E2E200000000000000000000000000000000E200000000000000E2E2E2E2E2000000000000000000000000000000000000000000000000E20010E200E200000000000000000000000000000000E2000000000000000000E2E2E2E2E2E200E2E2E2E2E2000000000000000000E2
310
E2E2000000000000000000000000000000E20000000000E2E2E2E2E2E2E2000000000000000000000000000000000000000000000000E20000E200E200000000000000000000000000000000E2000000000000000000E2E2E2E2E2E2E2E200000000000000000000000000000000000000E20000000000000000000000E200
310
00000000E2E2E2E2E2E2E2000000000000000000000000000000000000000000000000E2005DE200E200000000000000000000000000000000E2000000000000000000E2E2E2E2E2E2E20000000000000000000000000000000000000000E2E2E2E2E2E2E2E2E2E2E2E2E2E2E2E2E2E2E2E2E2E2E200E20000000000000000
310
00000000000000000000000000000000E20080E200E200000000000000000000000000000000E2E2E2E2E2E2E2E2E2E2E2E2E200E2E2000000000000000000000000000000000000000000E20000000000000000000000E2E2E200000000E200000000E2000000000000000000000000000000000000000000000000E20040
310
E200E2000000000000000000000000000000000000000000000000000000E2E200E2E2000000000000000000000000000000000000000000E20000E2E2E2E20000000000E2E2E2E2E2E2E2E200000000E2000000000000000000000000000000000000000000000000E20001E200E200000000000000000000000000000000
310
0000000000000000000000E2E2E2E2E2000000000000000000000000000000000000000000E20000E2E2E2E2000000E2E2E200E2000000E2E200000000E2000000000000000000000000000000000000000000000000E20000E200E20000000000000000000000000000000000000000000000000000000000000000000000
310
000000000000000000000000000000000000E2000000E2E200E2E2E2E200E2E2E2000000E2E2000000E2E2000000000000000000000000000000000000000000000000E20015E200E20000000000000000000000000000000000000000000000000000000000000000000000000000000000000000000000000000000000E2
310
000000E2E20000E200E200E2E2E20000E2E2E2E2E2E2E2E2000000000000000000000000000000000000000000000000E20022E200E20000000000000000000000000000000000000000000000000000000000000000000000000000000000000000000000000000000000E200000000E2E200E200E2E2E2E2E2E2E2E2E2E2
310
E2E2E2E2E2E2E2E2E2E2E2E2E2E2E2E2E2E2000000E2E2000000000000E20089E200E20000000000000000000000000000000000000000000000000000000000000000000000000000000000000000000000000000000000E200000000E2E2E2E2E2E20000E2E20000000000000000000000000000E200000000000000E2E2
310
E2E2E200000000000000E20000E200E20000000000000000000000000000000000000000000000000000000000000000000000000000000000000000000000000000000000E200000000E20000E2E2E2000000000000000000000000000000000000E2000000E2E20000E2E20000E200000000000000E20000E200E2000000
310
0000000000000000000000000000000000000000000000000000000000000000000000000000000000000000000000000000E200000000E20000E2E2E2E2E2E2E2E2E2E2E2E2E2E2E2E2E2E2E2E2E2E2E2E2E20000E2E2E2E20000E200000000000000E20000E200E200000000000000000000000000000000000000000000
310
00000000000000000000000000000000000000000000000000000000000000E200000000E20000E2E200000000000000E20000000000000000000000000000000000000000E20000E200000000000000E20000E200000000000000000000000000000000000000000000000000000000000000000000000000000000000000
310
000000000000000000000000E200000000E20000E2E200000000000000E20000000000000000000000000000000000000000E20000E2000000000000000000F6E200000000000000000000000000000000000000000000000000000000000000000000000000000000000000000000000000000000000000E200000000E200
310
00E2E200000000000000E20000000000000000000000000000000000000000E20000E200000000000000000091E200000000000000000000000000000000000000000000000000000000000000000000000000000000000000000000000000000000000000E200000000E20000E2E200000000000000E20000000000000000
310
000000000000000000000000E20000E200000000000000000000E200000000000000000000000000000000000000000000000000000000000000000000000000000000000000000000000000000000000000E200000000E20000E2E200000000000000E20000000000000000000000000000000000000000E20000E2000000
310
00000000000049E200000000000000000000000000000000000000000000000000000000000000000000000000000000000000000000000000000000000000E200000000E20000E2E200000000000000E20000000000000000000000000000000000000000E20000E200000000000000000000E20000000000000000000000
310
000000000000000000000000000000000000000000000000000000000000000000000000000000000000E2E2E2E200E2E2E2E200E2E200000000E2E2E2E2E200000000000000000000000000000000000000E2E2E2E2E2000000000000000000E2000000000000000000000000000000000000000000000000000000000000
310
0000000000000000000000000000000000000000000000E2E2E2E200E2E2E2E200E2E20000000000E2E2E2E200000000000000000000000000000000000000E2E2E2E2E2000000000000000048E200000000000000000000000000000000000000000000000000000000000000000000000000000000000000000000000000
310
000000E2E2E2E2E20000E2E2E200E2E2000000000000E2000000000000000000000000000000000000000000E200E2E2E2000000000000000000E2000000000000000000000000000000000000000000000000000000000000000000E2E2E2E2E2E2E2E2E20000000000000000000000E2E2E2E2000000E20000E2E2000000
310
00000000E20000000000000000000000000000000000000000E20000E200000000000000000000E2000000000000000000000000000000000000000000000000000000000000000000E2E2E2E2E2E2E2E2E200000000000000000000000000E200000000E20000E2E200000000000000E20000000000000000000000000000
310
000000000000E20000E200000000000000000000E200E200000000000000000000000000000000000000000000000000000000000000E2E2E2E2E2E2E2E2E200000000000000000000000000E200000000E20000E2E200000000000000E20000000000000000000000000000000000000000E20000E200000000000000E200
310
00E200E2000000000000000000000000000000000000000000000000000000E2E2E2E2E2E2E2E2E2E2E2E2E2E2E2E2E2E20000000000000000E200000000E20000E2E200000000000000E20000000000000000000000000000000000000000E20000E200000000000000E200F0E200E2000000000000000000000000000000
310
000000000000000000000000E2E2E2E2E2E2E2E2E2E2E2E2E2E2E2E2E2000000000000000000E200000000E20000E2E200000000000000E20000000000000000000000000000000000000000E20000E200000000000000E20000E200E2000000000000000000000000000000000000000000000000000000E2E2E2E2E2E2E2
310
E2E2E2E2E2E2E2E2E2E2000000000000000000E200000000E20000E2E200000000000000E20000000000000000000000000000000000000000E20000E200000000000000E20023E200E20000000000000000000000000000000000000000000000000000000000000000000000000000000000000000000000000000000000
310
E200000000E20000E2E200000000000000E20000000000000000000000000000000000000000E20000E200000000000000E20000E200E20000000000000000000000000000000000000000000000000000000000000000000000000000000000000000000000000000000000E200000000E20000E2E2E2E2E2E2E2E2E2E2E2
310
E2E2E2E2E2E2E2E2E2E2000000E2E2E2E2E2E2E20000E200000000000000E20000E200E20000000000000000000000000000000000000000000000000000000000000000000000000000000000000000000000000000000000E200000000E20000E2E2E20000000000000000000000000000E20000E2E2E2E20000000000E2
310
E20000E200000000000000E20000E200E200000000000000000000000000000000E2E2E2E2E2E2E2E2E2E2E2E2E2E2E2E2E2E2E2E2E2E2E2E200000000000000000000000000E200000000E2E2E2E2E2E20000000000000000000000E2E200E20000000000000000000000E2E2E2E2E2E2000000000000E20000E200E20000
310
0000000000000000000000000000E20000000000000000000000E2000000000000E2E2E2E2E2E2000000000000000000000000E200000000E200000000E2E2E2E2E2E2E2E2E2E2E2E2E2E2E2E2E2E2E2E2E2E2E2E2E2E2E2E2E2E2E2E200000000000000E20000E200E200000000000000000000000000000000E200000000
310
00000000000000E20000000000E2E2E2E2E2E2E2000000000000000000000000E2000000000000000000E2E2E2E2E200E2E2E2000000000000E20000000000000000000000E2E2E2E2E200000000000000E20000E200E200000000000000000000000000000000E20000000000000000000000E20000000000E2E2E2E2E2E2
310
E2000000000000000000000000E2000000000000000000E2E20000E2E2E2E200000000000000E20000000000000000000000E2E2E2E2E200000000000000E200DCE200E200000000000000000000000000000000E20000000000000000000000E2000000000000E200000000E2000000000000000000000000E20000000000
310
00000000E20000000000E2E200000000000000E2000000000000000000000000E2E2E2E200000000000000E20000E200E200000000000000000000000000000000E20000000000000000000000E2E2E2E2E2E2E2E200000000E2000000000000000000000000E2000000000000000000E2000000E200E2E2000000E2E2E2E2
310
E20000000000000000000000000000000000000000000000E200F5E200E200000000000000000000000000000000E20000E2E2E2E2000000E2E2E2E2E2000000E2E200000000E2000000000000000000000000E2000000000000000000E2E2E2E2E2E2E2E2E2E2E2E200000000000000000000000000000000000000000000
310
0000000000E2007EE200E200000000000000000000000000000000E20000E2E2E2E2E2E2E2E200E200E2000000E2E200000000E2000000000000000000000000E2000000000000000000E2E2E2E2E2E2E20000000000000000000000000000000000000000000000000000000000000000E200D6E200E20000000000000000
310
0000000000000000E2000000E2E200E2E2E2E200E2E2E20000E2E2E2000000E2E2000000000000000000000000E2E2E2E2E2E2E2E2E2E2E2E2E2E2E2E2E20000000000000000000000000000000000000000000000000000000000000000E20000E200E200000000000000000000000000000000E2000000E2E20000E200E2
310
00E2E2E20000E2E2E2E2E2E2E2E2000000000000000000000000E200000000000000000000E2E200E2E2000000000000000000000000000000000000000000000000000000000000000000E2008FE200000000000000000000000000000000E2E2E2E2000000E2E2E2E2E2E2E2E2E2E2E2E2E2E2E2E2E2E2E2E2E2E2E2E2E2
310
E2E2E2E20000000000000000000000000000E2E2E2E2E2000000000000000000000000000000000000000000000000000000000000000000000000E20000000000000000000000000000000000E2E2E2E2E2E2E2E200E200E2000000000000000000000000000000000000E2E2E2E2E2000000000000000000000000000000
310
00000000000000000000000000000000000000000000000000000000000000000000000000000040E20000000000000000000000000000000000E2E2E200E2E2E2E200E200E2E2E2E2000000000000000000000000000000E2E2E2E2E200000000000000000000000000000000000000000000000000000000000000000000
310
000000000000000000000000000000000000000000E20000000000000000000000000000000000E2E2E200E2E2E2E200E200E2E2E2E2E2E2E2E2E2E2E2E2E2E2E2E2E2E2E2E2E2E2E2E20000000000000000000000000000000000000000000000000000000000000000000000000000000000000000000000000000000000
310
0000E2000000000000000000000000000000000000E2000000E2E2E200E200E20000000000000000000000000000E2000000E2E2E2E2E200000000000000000000000000000000000000000000000000000000000000000000000000000000000000000000000000000000000000E200000000000000000000000000000000
310
0000E200000000E2E2E2E2E2E2E2E2E2E2E2E2E2E2E2E2E2E2E2E2E2E2E2E2E2E2E2E2E2000000000000000000000000000000000000000000000000000000000000000000000000000000000000000000000000000000000000F0E2000000000000000000000000000000000000E2000000000000000000E2E2E2E2E200E2
310
E2E2000000000000E2000000E2E200000000000000000000000000000000000000000000000000000000000000000000000000000000000000000000000000000000000000000000E2000000000000000000000000000000000000E2000000000000000000E2E20000E2E2E2E2E2000000000000E2000000E2E2E2E2E20000
310
000000000000000000000000000000000000000000000000000000000000000000000000000000000000000000000000000000003FE2000000000000000000000000000000000000E2000000000000000000E2E20000000000E200000000000000E2000000E2E2E2E2E2000000000000000000000000000000000000000000
310
00000000000000000000000000000000000000000000000000000000000000000000E200E200000000000000000000000000000000E2000000000000000000E2000000000000E2000000E2E2E2E2E2000000E2E2E2E20000000000000000000000000000000000000000000000000000000000000000000000000000000000
310
000000000000000000000000E20000E200E200000000000000000000000000000000E2000000000000000000E20000E2E20000E2E2E2E2E2000000000000000000E2E2E200000000000000000000000000000000000000000000000000000000000000000000000000000000000000000000000000000000E20000E200E200
310
000000000000000000000000000000E2000000000000000000E2E2E2E2E2E200E20000000000000000000000000000000000000000000000000000000000000000000000000000000000000000000000000000000000000000000000000000000000000000E20000E200E200000000000000000000000000000000E2000000
310
000000000000E2E2E2E2E2E2E2E20000000000000000000000000000000000000000000000000000000000000000000000000000000000000000000000000000000000000000000000000000000000000000E20049E200E200000000000000000000000000000000E2E2E2E2E2E2E2E2E2E2E2E2E2E2E2E2E2000000000000
310
000000000000000000000000000000000000000000000000000000000000000000000000000000000000000000000000000000000000000000000000000000E20000E200E2000000000000000000000000000000000000000000000000000000E2E200E2E20000000000000000000000000000000000000000000000000000
310
0000000000000000000000000000000000000000000000000000000000000000000000000000000000000000E20000E200E2000000000000000000000000000000000000000000000000000000E2E2E2E2E2000000000000000000000000000000000000000000000000000000000000000000000000000000000000000000
310
00000000000000000000000000000000000000000000000000E20003E200E2000000000000000000000000000000000000000000000000000000000000000000000000000000000000000000000000000000000000000000000000000000000000000000000000000000000000000000000000000000000000000000000000
310
000000000000E20000E200E2000000000000000000000000000000000000000000000000000000000000000000000000000000000000000000000000000000000000000000000000000000000000000000000000000000000000000000000000000000000000000000000000000000000000E20000E200E200000000000000
310
0000000000000000000000000000000000000000000000000000000000000000000000000000000000000000000000000000000000000000000000000000000000000000000000000000000000000000000000000000000000000000000000E20000E200E20000000000000000000000000000000000000000000000000000
310
00000000000000000000000000000000000000000000000000000000000000000000000000000000000000000000000000000000000000000000000000000000000000000000000000000000E20000E200E2000000000000000000000000000000000000000000000000000000000000000000000000000000000000000000
310
000000000000000000000000000000000000000000000000000000000000000000000000000000000000000000000000000000000000000000E200F0E200E200000000000000000000000000000000000000000000000000000000000000000000000000000000000000000000000000000000000000000000000000000000
310
0000000000000000000000000000000000000000000000000000000000000000000000000000E20000E200E20000000000000000000000000000000000000000000000000000000000000000000000000000000000000000000000000000000000000000000000000000000000000000000000000000000000000000000000
310
00000000000000000000000000000000000000E20018E200E2000000000000000000000000000000000000000000000000000000000000000000000000000000000000000000000000000000000000000000000000000000000000000000000000000000000000000000000000000000000000000000000000000000000000
310
E20000E200E2000000000000000000000000000000000000000000000000000000000000000000000000000000000000000000000000000000000000000000000000000000000000000000000000000000000000000000000000000000000000000000000000000000000000E20000E200E200000000E2E2E2E2E2E2E2E2E2
310
E2E2E2E200000000000000000000000000000000000000000000000000000000000000000000000000000000000000000000000000000000000000000000000000000000000000000000000000000000000000000000000000E20000E2000000000000E2E2E2E2E2E2E2E2E2E2E2E2E2000000000000000000000000000000
310
00000000000000000000000000000000000000000000000000000000000000000000000000000000000000000000000000000000000000000000000000000000000000000000000000E2000000000000E2E2E2E2E2E2E2E2E2E2E2E2E200000000000000000000000000000000000000000000000000000000000000000000
310
000000000000000000000000000000000000000000000000000000000000000000000000000000000000000000000000000000000000E2000000000000E2E2E2E2E2E2E2E2E2E2E2E2E20000000000000000000000000000000000000000000000000000000000000000000000000000000000000000000000000000000000
310
00000000000000000000000000000000000000000000000000000000000000000000F5E2000000000000E2E2E2E2E2E2E2E2E2E2E2E2E2E2E2E2E2E2E2E2E2E2E2E2E2E2E2E2E2E2E2E2E2E2E2E2E2E2E2E2E2E2E2E2E2E2E2E2E2E2E2E2E2E2E2E2E2E2E2E2E2E2E2E2E2E2E2E2E2E2E2E2E2E2E2E2E2E2E2E2E2E2E2E2E2
310
E2E2E2E2E2E2E2E2E2E2E2E2E2000000E2000000000000E2E2E2E2E2E2E2E2E2E2E2E2E2E2E2E2E2E2E2E2E2E2E2E2E2E2E2E2E2E2E2E2000000000000000000000000000000000000000000000000000000000000000000000000000000000000000000000000000000000000000000000000000000000000000000E20000
310
00000000E2E2E2E2E2E2E2E2E2E2E2E2E2E2E2E2E2E2E2E2E2E2E2E2E2E2E2E2E2E2E2E2000000000000000000000000000000000000000000000000000000000000000000000000000000000000000000000000000000000000000000000000000000000000000000E2000000000000E2E2E2E2E2E2E2E2E2E2E2E2E2E2E2
310
E2E2E2E2E2E2E2E2E2E2E2E2E2E2E2E2E2000000000000000000000000000000000000000000000000000000000000000000000000E2E2E2E2E2E2E2E2E2E2E2E2E2E2E2E2E2E2E2E2E2E2E2E2E2E2E2E2E2E2000000E2000000000000E2E2E2E2E2E2E2E2E2E2E2E2E2E2E2E2E2E2E2E2E2E2E2E2E2E2E2E2E2E2E2E20000
310
00000000000000000000000000000000000000000000000000000000000000000000E200000000000000000000000000000000000000000000000000000000E2000000E20000000000000000000000000000000000000000000000000000000000000000000000000000000000000000000000000000000000000000000000
310
000000000000000000000000000000E20000E5E5E5E5E50000E5E5E5E5E5E5E5E5E500002000E5E525E5E500E2000000E20000000000000000000000000000000000000000000000000000000000000000000000000000000000000000000000000000000000000000000000000000000000000000000000000000E200E500
310
000000000000000000000000000000000000000000000000E5E2000000E200E2000000000000000000000000000000000000000000000000000000000000000000000000000000000000000000000000000000000000000000000000000000000000000000000000E2E5E500E5000000E500000000000000000000E50000E5
310
000000E50000E2E20001E200E2000000000000000000000000000000000000000000000000000000000000000000000000000000000000000000000000000000000000000000000000000000000000000000000000E2E5E50000000000E500000000000000000000E50000E5000000E50000E2E20000E200E2000000000000
310
000000000000000000000000000000000000000000000000000000000000000000000000000000000000000000000000000000000000000000000000000000000000E2E5E50000000000000000000000000000000000000000000000000000E2E20000E200E200000000000000000000000000000000000000000000000000
310
0000000000000000000000000000000000000000000000000000000000000000000000000000000000000000000000E2000000000000E500E00004040000E50000040400E000E50000000000E2E20004E200E20000000000000000000000000000000000000000000000000000000000000000000000000000000000000000
310
00000000000000000000000000000000000000000000000000000000E20000000000000000E0C0000000000000000000C0E000000000000000E2E20000E200E2000000000000000000000000000000000000000000000000000000000000000000000000000000000000000000000000000000000000000000000000000000
310
000000000000000000E200000000000000000000000000000000000000000000000000000000E2E20000E200E2000000000000000000000000000000000000000000000000000000000000000000000000000000000000000000000000000000000000000000000000000000000000000000000000E2000000000000000000
310
00000000C00000000000000000000000000000E2E20000E200E2000000000000000000000000000000000000000000000000000000000000000000000000000000000000000000000000000000000000000000000000000000000000000000000000E2E2E2E2E2E2E2E2E2E2E2E2E2E2E2E2E2E2E2E2E2E2E2E2E2E2E2E2E2
310
E2E20000E200E2E2E2E2E2E2E2E2E2000000000000000000E2E2E2E2E2E2E2E2E2E2E2E2E2E2E2E200000000000000000000E2E2E2E2E2E2E2E2E2E2E2E2E2E2E2E200000000000000000000E2E2E2E2E2E2E2E2E2E2E2E2E2E2E2E2000000000000000000E2E2E2E2E2E2E2E2E2E202E20000000000000000000000000000
310
00000000000000000000000000000000000000000000000000000000000000000000000000000000000000000000000000000000000000000000000000000000000000000000000000000000000000000000000000000000000000E200E2000000000000000000000000000000000000000000000000000000000000000000
310
0000000000000000000000000000000000000000000000000000000000000000000000000000000000000000000000000000000000000000000000000000000000000000000000000008E2E2E2E2E2E2E2E2E2E2E2E2E2E2E2E2E2E2E2E2E2E2E2E2E2E2E2E2E2E2E2E2E2E2E2E2E2E2E2E2E2E2E2E2E2E2E2E2E2E2E2E2E2
310
E2E2E2E2E2E2E2E2E2E2E2E2E2E2E2E2E2E2E2E2E2E2E2E2E2E2E2E2E2E2E2E2E2E2E2E2E2E2E2E2E2E2E2E2E2E2E2E2E2E2E2E2E2E27E
  0
XRECORD
  5
347
102
{ACAD_REACTORS
330
19
102
}
330
19
100
AcDbXrecord
280
     1
102
SHADEPLOT
 70
     0
102
SHADEPLOTRESLEVEL
 70
     2
102
SHADEPLOTCUSTOMDPI
 70
   300
  0
XRECORD
  5
1A
102
{ACAD_REACTORS
330
19
102
}
330
19
100
AcDbXrecord
280
     1
310
280000000001000086000000010008000000000000860000000000000000000000010000000000000000000000000000C8C8C8000000000000000000000000000000000000000000000000000000000000000000330000006600000099000000CC000000FF00000000330000333300006633000099330000CC330000FF3300
310
0000660000336600006666000099660000CC660000FF66000000990000339900006699000099990000CC990000FF99000000CC000033CC000066CC000099CC0000CCCC0000FFCC000000FF000033FF000066FF000099FF0000CCFF0000FFFF000000003300330033006600330099003300CC003300FF003300003333003333
310
33006633330099333300CC333300FF33330000663300336633006666330099663300CC663300FF66330000993300339933006699330099993300CC993300FF99330000CC330033CC330066CC330099CC3300CCCC3300FFCC330000FF330033FF330066FF330099FF3300CCFF3300FFFF330000006600330066006600660099
310
006600CC006600FF00660000336600333366006633660099336600CC336600FF33660000666600336666006666660099666600CC666600FF66660000996600339966006699660099996600CC996600FF99660000CC660033CC660066CC660099CC6600CCCC6600FFCC660000FF660033FF660066FF660099FF6600CCFF6600
310
FFFF660000009900330099006600990099009900CC009900FF00990000339900333399006633990099339900CC339900FF33990000669900336699006666990099669900CC669900FF66990000999900339999006699990099999900CC999900FF99990000CC990033CC990066CC990099CC9900CCCC9900FFCC990000FF99
310
0033FF990066FF990099FF9900CCFF9900FFFF99000000CC003300CC006600CC009900CC00CC00CC00FF00CC000033CC003333CC006633CC009933CC00CC33CC00FF33CC000066CC003366CC006666CC009966CC00CC66CC00FF66CC000099CC003399CC006699CC009999CC00CC99CC00FF99CC0000CCCC0033CCCC0066CC
310
CC0099CCCC00CCCCCC00FFCCCC0000FFCC0033FFCC0066FFCC0099FFCC00CCFFCC00FFFFCC000000FF003300FF006600FF009900FF00CC00FF00FF00FF000033FF003333FF006633FF009933FF00CC33FF00FF33FF000066FF003366FF006666FF009966FF00CC66FF00FF66FF000099FF003399FF006699FF009999FF00CC
310
99FF00FF99FF0000CCFF0033CCFF0066CCFF0099CCFF00CCCCFF00FFCCFF0000FFFF0033FFFF0066FFFF0099FFFF00CCFFFF00FFFFFF00000000000D0D0D001A1A1A00282828003535350043434300505050005D5D5D006B6B6B00787878008686860093939300A1A1A100AEAEAE00BBBBBB00C9C9C900D6D6D600E4E4E400
310
F1F1F100FFFFFF000000000000000000000000000000000000000000000000000000000000000000000000000000000000000000000000000000000000000000000000000000000000000000000000000000000000000000000000000000000000000000000000000000000000000000000000000000000000000000000000
310
00000000000000000000000000000000000000000000000000000000000000000000000000000000000000000000000000000000000000000000000000000000000000000000000000000000000000000000000000000000000000000000000000000000000000000000000000000000000000000000000000000000000000
310
00000000000000000000000000000000000000000000000000000000000000000000000000000000000000000000000000000000000000000000000000000000000000000000000000000000000000000000000000000000000000000000000000000000000000000000000000000000000000000000000000000000000000
310
00000000000000000000000000000000000000000000000000000000000000000000000000000000000000000000000000000000000000000000000000000000000000000000000000000000000000000000000000000000000000000000000000000000000000000000000000000000000000000000000000000000000000
310
00000000000000000000000000000000000000000000000000000000000000000000000000000000000000000000000000000000000000000000000000000000000000000000000000000000000000000000000000000000000000000000000000000000000000000000000000000000000000000000000000000000000000
310
00000000000000000000000000000000000000000000000000000000000000000000000000000000000000000000000000000000000000000000000000000000000000000000000000000000000000000000000000000000000000000000000000000000000000000000000000000000000000000000000000000000000000
310
00000000000000000000000000000000000000000000000000000000000000000000000000000000000000000000000000000000000000000000000000000000000000000000000000000000000000000000000000000000000000000000000000000000000000000000000000000000000000000000000000000000000000
310
00000000000000000000000000000000000000000000000000000000000000000000000000000000000000000000000000000000000000000000000000000000000000000000000000000000000000000000000000000000000000000000000000000000000000000000000000000000000000000000000000000000000000
310
00000000000000000000000000000000000000000000000000000000000000000000000000000000000000000000000000000000000000000000000000000000000000000000000000000000000000000000000000000000000000000000000000000000000000000000000000000000000000000000000000000000000000
310
00000000000000000000000000000000000000000000000000000000000000000000000000000000000000000000000000000000000000000000000000000000000000000000000000000000000000000000000000000000000000000000000000000000000000000000000000000000000000000000000000000000000000
310
00000000000000000000000000000000000000000000000000000000000000000000000000000000000000000000000000000000000000000000000000000000000000000000000000000000000000000000000000000000000000000000000000000000000000000000000000000000000000000000000000000000000000
310
00000000000000000000000000000000000000000000000000000000000000000000000000000000000000000000000000000000000000000000000000000000000000000000000000000000000000000000000000000000000000000000000000000000000000000000000000000000000000000000000000000000000000
310
00000000000000000000000000000000000000000000000000000000000000000000000000000000000000000000000000000000000000000000000000000000000000000000000000000000000000000000000000000000000000000000000000000000000000000000000000000000000000000000000000000000000000
310
00000000000000000000000000000000000000000000000000000000000000000000000000000000000000000000000000000000000000000000000000000000000000000000000000000000000000000000000000000000000000000000000000000000000000000000000000000000000000000000000000000000000000
310
00000000000000000000000000000000000000000000000000000000000000000000000000000000000000000000000000000000000000000000000000000000000000000000000000000000000000000000000000000000000000000000000000000000000000000000000000000000000000000000000000000000000000
310
00000000000000000000000000000000000000000000000000000000000000000000000000000000000000000000000000000000000000000000000000000000000000000000000000000000000000000000000000000000000000000000000000000000000000000000000000000000000000000000000000000000000000
310
00000000000000000000000000000000000000000000000000000000000000000000000000000000000000000000000000000000000000000000000000000000000000000000000000000000000000000000000000000000000000000000000000000000000000000000000000000000000000000000000000000000000000
310
00000000000000000000000000000000000000000000000000000000000000000000000000000000000000000000000000000000000000000000000000000000000000000000000000000000000000000000000000000000000000000000000000000000000000000000000000000000000000000000000000000000000000
310
00000000000000000000000000000000000000000000000000000000000000000000000000000000000000000000000000000000000000000000000000000000000000000000000000000000000000000000000000000000000000000000000000000000000000000000000000000000000000000000000000000000000000
310
00000000000000000000000000000000000000000000000000000000000000000000000000000000000000000000000000000000000000000000000000000000000000000000000000000000000000000000000000000000000000000000000000000000000000000000000000000000000000000000000000000000000000
310
00000000000000000000000000000000000000000000000000000000000000000000000000000000000000000000000000000000000000000000000000000000000000000000000000000000000000000000000000000000000000000000000000000000000000000000000000000000000000000000000000000000000000
310
00000000000000000000000000000000000000000000000000000000000000000000000000000000000000000000000000000000000000000000000000000000000000000000000000000000000000000000000000000000000000000000000000000000000000000000000000000000000000000000000000000000000000
310
00000000000000000000000000000000000000000000000000000000000000000000000000000000000000000000000000000000000000000000000000000000000000000000000000000000000000000000000000000000000000000000000000000000000000000000000000000000000000000000000000000000000000
310
00000000000000000000000000000000000000000000000000000000000000000000000000000000000000000000000000000000000000000000000000000000000000000000000000000000000000000000000000000000000000000000000000000000000000000000000000000000000000000000000000000000000000
310
00000000000000000000000000000000000000000000000000000000000000000000000000000000000000000000000000000000000000000000000000000000000000000000000000000000000000000000000000000000000000000000000000000000000000000000000000000000000000000000000000000000000000
310
00000000000000000000000000000000000000000000000000000000000000000000000000000000000000000000000000000000000000000000000000000000000000000000000000000000000000000000000000000000000000000000000000000000000000000000000000000000000000000000000000000000000000
310
00000000000000000000000000000000000000000000000000000000000000000000000000000000000000000000000000000000000000000000000000000000000000000000000000000000000000000000000000000000000000000000000000000000000000000000000000000000000000000000000000000000000000
310
00000000000000000000000000000000000000000000000000000000000000000000000000000000000000000000000000000000000000000000000000000000000000000000000000000000000000000000000000000000000000000000000000000000000000000000000000000000000000000000000000000000000000
310
00000000000000000000000000000000000000000000000000000000000000000000000000000000000000000000000000000000000000000000000000000000000000000000000000000000000000000000000000000000000000000000000000000000000000000000000000000000000000000000000000000000000000
310
00000000000000000000000000000000000000000000000000000000000000000000000000000000000000000000000000000000000000000000000000000000000000000000000000000000000000000000000000000000000000000000000000000000000000000000000000000000000000000000000000000000000000
310
00000000000000000000000000000000000000000000000000000000000000000000000000000000000000000000000000000000000000000000000000000000000000000000000000000000000000000000000000000000000000000000000000000000000000000000000000000000000000000000000000000000000000
310
00000000000000000000000000000000000000000000000000000000000000000000000000000000000000000000000000000000000000000000000000000000000000000000000000000000000000000000000000000000000000000000000000000000000000000000000000000000000000000000000000000000000000
310
00000000000000000000000000000000000000000000000000000000000000000000000000000000000000000000000000000000000000000000000000000000000000000000000000000000000000000000000000000000000000000000000000000000000000000000000000000000000000000000000000000000000000
310
00000000000000000000000000000000000000000000000000000000000000000000000000000000000000000000000000000000000000000000000000000000000000000000000000000000000000000000000000000000000000000000000000000000000000000000000000000000000000000000000000000000000000
310
00000000000000000000000000000000000000000000000000000000000000000000000000000000000000000000000000000000000000000000000000000000000000000000000000000000000000000000000000000000000000000000000000000000000000000000000000000000000000000000000000000000000000
310
00000000000000000000000000000000000000000000000000000000000000000000000000000000000000000000000000000000000000000000000000000000000000000000000000000000000000000000000000000000000000000000000000000000000000000000000000000000000000000000000000000000000000
310
00000000000000000000000000000000000000000000000000000000000000000000000000000000000000000000000000000000000000000000000000000000000000000000000000000000000000000000000000000000000000000000000000000000000000000000000000000000000000000000000000000000000000
310
00000000000000000000000000000000000000000000000000000000000000000000000000000000000000000000000000000000000000000000000000000000000000000000000000000000000000000000000000000000000000000000000000000000000000000000000000000000000000000000000000000000000000
310
00000000000000000000000000000000000000000000000000000000000000000000000000000000000000000000000000000000000000000000000000000000000000000000000000000000000000000000000000000000000000000000000000000000000000000000000000000000000000000000000000000000000000
310
00000000000000000000000000000000000000000000000000000000000000000000000000000000000000000000000000000000000000000000000000000000000000000000000000000000000000000000000000000000000000000000000000000000000000000000000000000000000000000000000000000000000000
310
00000000000000000000000000000000000000000000000000000000000000000000000000000000000000000000000000000000000000000000000000000000000000000000000000000000000000000000000000000000000000000000000000000000000000000000000000000000000000000000000000000000000000
310
00000000000000000000000000000000000000000000000000000000000000000000000000000000000000000000000000000000000000000000000000000000000000000000000000000000000000000000000000000000000000000000000000000000000000000000000000000000000000000000000000000000000000
310
00000000000000000000000000000000000000000000000000000000000000000000000000000000000000000000000000000000000000000000000000000000000000000000000000000000000000000000000000000000000000000000000000000000000000000000000000000000000000000000000000000000000000
310
00000000000000000000000000000000000000000000000000000000000000000000000000000000000000000000000000000000000000000000000000000000000000000000000000000000000000000000000000000000000000000000000000000000000000000000000000000000000000000000000000000000000000
310
00000000000000000000000000000000000000000000000000000000000000000000000000000000000000000000000000000000000000000000000000000000000000000000000000000000000000000000000000000000000000000000000000000000000000000000000000000000000000000000000000000000000000
310
00000000000000000000000000000000000000000000000000000000000000000000000000000000000000000000000000000000000000000000000000000000000000000000000000000000000000000000000000000000000000000000000000000000000000000000000000000000000000000000000000000000000000
310
00000000000000000000000000000000000000000000000000000000000000000000000000000000000000000000000000000000000000000000000000000000000000000000000000000000000000000000000000000000000000000000000000000000000000000000000000000000000000000000000000000000000000
310
00000000000000000000000000000000000000000000000000000000000000000000000000000000000000000000000000000000000000000000000000000000000000000000000000000000000000000000000000000000000000000000000000000000000000000000000000000000000000000000000000000000000000
310
00000000000000000000000000000000000000000000000000000000000000000000000000000000000000000000000000000000000000000000000000000000000000000000000000000000000000000000000000000000000000000000000000000000000000000000000000000000000000000000000000000000000000
310
00000000000000000000000000000000000000000000000000000000000000000000000000000000000000000000000000000000000000000000000000000000000000000000000000000000000000000000000000000000000000000000000000000000000000000000000000000000000000000000000000000000000000
310
00000000000000000000000000000000000000000000000000000000000000000000000000000000000000000000000000000000000000000000000000000000000000000000000000000000000000000000000000000000000000000000000000000000000000000000000000000000000000000000000000000000000000
310
00000000000000000000000000000000000000000000000000000000000000000000000000000000000000000000000000000000000000000000000000000000000000000000000000000000000000000000000000000000000000000000000000000000000000000000000000000000000000000000000000000000000000
310
00000000000000000000000000000000000000000000000000000000000000000000000000000000000000000000000000000000000000000000000000000000000000000000000000000000000000000000000000000000000000000000000000000000000000000000000000000000000000000000000000000000000000
310
00000000000000000000000000000000000000000000000000000000000000000000000000000000000000000000000000000000000000000000000000000000000000000000000000000000000000000000000000000000000000000000000000000000000000000000000000000000000000000000000000000000000000
310
00000000000000000000000000000000000000000000000000000000000000000000000000000000000000000000000000000000000000000000000000000000000000000000000000000000000000000000000000000000000000000000000000000000000000000000000000000000000000000000000000000000000000
310
00000000000000000000000000000000000000000000000000000000000000000000000000000000000000000000000000000000000000000000000000000000000000000000000000000000000000000000000000000000000000000000000000000000000000000000000000000000000000000000000000000000000000
310
00000000000000000000000000000000000000000000000000000000000000000000000000000000000000000000000000000000000000000000000000000000000000000000000000000000000000000000000000000000000000000000000000000000000000000000000000000000000000000000000000000000000000
310
00000000000000000000000000000000000000000000000000000000000000000000000000000000000000000000000000000000000000000000000000000000000000000000000000000000000000000000000000000000000000000000000000000000000000000000000000000000000000000000000000000000000000
310
00000000000000000000000000000000000000000000000000000000000000000000000000000000000000000000000000000000000000000000000000000000000000000000000000000000000000000000000000000000000000000000000000000000000000000000000000000000000000000000000000000000000000
310
00000000000000000000000000000000000000000000000000000000000000000000000000000000000000000000000000000000000000000000000000000000000000000000000000000000000000000000000000000000000000000000000000000000000000000000000000000000000000000000000000000000000000
310
00000000000000000000000000000000000000000000000000000000000000000000000000000000000000000000000000000000000000000000000000000000000000000000000000000000000000000000000000000000000000000000000000000000000000000000000000000000000000000000000000000000000000
310
00000000000000000000000000000000000000000000000000000000000000000000000000000000000000000000000000000000000000000000000000000000000000000000000000000000000000000000000000000000000000000000000000000000000000000000000000000000000000000000000000000000000000
310
00000000000000000000000000000000000000000000000000000000000000000000000000000000000000000000000000000000000000000000000000000000000000000000000000000000000000000000000000000000000000000000000000000000000000000000000000000000000000000000000000000000000000
310
00000000000000000000000000000000000000000000000000000000000000000000000000000000000000000000000000000000000000000000000000000000000000000000000000000000000000000000000000000000000000000000000000000000000000000000000000000000000000000000000000000000000000
310
00000000000000000000000000000000000000000000000000000000000000000000000000000000000000000000000000000000000000000000000000000000000000000000000000000000000000000000000000000000000000000000000000000000000000000000000000000000000000000000000000000000000000
310
00000000000000000000000000000000000000000000000000000000000000000000000000000000000000000000000000000000000000000000000000000000000000000000000000000000000000000000000000000000000000000000000000000000000000000000000000000000000000000000000000000000000000
310
00000000000000000000000000000000000000000000000000000000000000000000000000000000000000000000000000000000000000000000000000000000000000000000000000000000000000000000000000000000000000000000000000000000000000000000000000000000000000000000000000000000000000
310
00000000000000000000000000000000000000000000000000000000000000000000000000000000000000000000000000000000000000000000000000000000000000000000000000000000000000000000000000000000000000000000000000000000000000000000000000000000000000000000000000000000000000
310
00000000000000000000000000000000000000000000000000000000000000000000000000000000000000000000000000000000000000000000000000000000000000000000000000000000000000000000000000000000000000000000000000000000000000000000000000000000000000000000000000000000000000
310
00000000000000000000000000000000000000000000000000000000000000000000000000000000000000000000000000000000000000000000000000000000000000000000000000000000000000000000000000000000000000000000000000000000000000000000000000000000000000000000000000000000000000
310
00000000000000000000000000000000000000000000000000000000000000000000000000000000000000000000000000000000000000000000000000000000000000000000000000000000000000000000000000000000000000000000000000000000000000000000000000000000000000000000000000000000000000
310
00000000000000000000000000000000000000000000000000000000000000000000000000000000000000000000000000000000000000000000000000000000000000000000000000000000000000000000000000000000000000000000000000000000000000000000000000000000000000000000000000000000000000
310
00000000000000000000000000000000000000000000000000000000000000000000000000000000000000000000000000000000000000000000000000000000000000000000000000000000000000000000000000000000000000000000000000000000000000000000000000000000000000000000000000000000000000
310
00000000000000000000000000000000000000000000000000000000000000000000000000000000000000000000000000000000000000000000000000000000000000000000000000000000000000000000000000000000000000000000000000000000000000000000000000000000000000000000000000000000000000
310
00000000000000000000000000000000000000000000000000000000000000000000000000000000000000000000000000000000000000000000000000000000000000000000000000000000000000000000000000000000000000000000000000000000000000000000000000000000000000000000000000000000000000
310
00000000000000000000000000000000000000000000000000000000000000000000000000000000000000000000000000000000000000000000000000000000000000000000000000000000000000000000000000000000000000000000000000000000000000000000000000000000000000000000000000000000000000
310
00000000000000000000000000000000000000000000000000000000000000000000000000000000000000000000000000000000000000000000000000000000000000000000000000000000000000000000000000000000000000000000000000000000000000000000000000000000000000000000000000000000000000
310
00000000000000000000000000000000000000000000000000000000000000000000000000000000000000000000000000000000000000000000000000000000000000000000000000000000000000000000000000000000000000000000000000000000000000000000000000000000000000000000000000000000000000
310
00000000000000000000000000000000000000000000000000000000000000000000000000000000000000000000000000000000000000000000000000000000000000000000000000000000000000000000000000000000000000000000000000000000000000000000000000000000000000000000000000000000000000
310
00000000000000000000000000000000000000000000000000000000000000000000000000000000000000000000000000000000000000000000000000000000000000000000000000000000000000000000000000000000000000000000000000000000000000000000000000000000000000000000000000000000000000
310
00000000000000000000000000000000000000000000000000000000000000000000000000000000000000000000000000000000000000000000000000000000000000000000000000000000000000000000000000000000000000000000000000000000000000000000000000000000000000000000000000000000000000
310
00000000000000000000000000000000000000000000000000000000000000000000000000000000000000000000000000000000000000000000000000000000000000F5F5F5F5F5F5F5F5F5F5F5F5F5F5F5F5F5F5F50000000000000000000000000000000000000000000000000000000000000000000000000000000000
310
00000000000000000000000000000000000000000000000000000000000000000000000000000000000000000000000000000000000000000000000000000000000000000000000000000000000000000000000000000000000000000000000000000000000000000000000000000000000000000000000000000000000000
310
000000000000000000000000000000000000000000000000000000000000000000000000000000000000000000000000000000000000000000000000000000000000000000F5F5F5F5F5F5F5F5F5F5F5F5F5F5F5F5F5F5F5000000000000000000000000000000000000000000000000000000000000000000000000000000
310
00000000000000000000000000000000000000000000000000000000000000000000000000000000000000000000000000000000000000000000000000000000000000000000000000000000000000000000000000000000000000000000000000000000000000000000000000000000000000000000000000000000000000
310
0000000000000000000000000000000000000000000000000000000000000000000000000000000000000000000000000000000000000000000000000000000000000000000000F5F5F5F5F5F5F5F5F5F5F5F5F5F5F5F5F5F5F500000000000000000000000000000000000000000000000000000000000000000000000000
310
00000000000000000000000000000000000000000000000000000000000000000000000000000000000000000000000000000000000000000000000000000000000000000000000000000000000000000000000000000000000000000000000000000000000000000000000000000000000000000000000000000000000000
310
00000000000000000000000000000000000000000000000000000000000000000000000000000000000000000000000000000000000000000000000000000000000000000000000000000000000000000000000000000000000000000000000000000000000000000000000000000000000000000000000000000000000000
310
00000000000000000000000000000000000000000000000000000000000000000000000000000000000000000000000000000000000000000000000000000000000000000000000000000000000000000000000000000000000000000000000000000000000000000000000000000000000000000000000000000000000000
310
000000000000000000000000000000000000000000000000000000000000000000000000000000000000000000000000000000000000000000000000000000000000000000000000000000F5F5F5F5F5F5F5F5F5F5F5F5F5F5F5F5F5F5F5000000000000000000000000000000000000000000000000000000000000000000
310
00000000000000000000000000000000000000000000000000000000000000000000000000000000000000000000000000000000000000000000000000000000000000000000000000000000000000000000000000000000000000000000000000000000000000000000000000000000000000000000000000000000000000
310
000000000000000000000000000000000000000000000000000000000000000000000000000000000000000000000000000000000000000000000000000000000000000000000000000000000000F5F5F5F5F5F5F5F5F5F5F5F5F5F5F5F5F50000000000000000000000000000000000000000000000000000000000000000
310
00000000000000000000000000000000000000000000000000000000000000000000000000000000000000000000000000000000000000000000000000000000000000000000000000000000000000000000000000000000000000000000000000000000000000000000000000000000000000000000000000000000000000
310
00000000000000000000000000000000000000000000000000000000000000000000000000000000000000000000000000000000000000000000000000000000000000000000000000000000000000000000000000000000000000000000000000000000000000000000000000000000000000000000000000000000000000
310
00000000000000000000000000000000000000000000000000000000000000000000000000000000000000000000000000000000000000000000000000000000000000000000000000000000000000000000000000000000000000000000000000000000000000000000000000000000000000000000000000000000000000
310
00000000000000000000000000000000000000000000000000000000000000000000000000000000000000000000000000000000000000000000000000000000000000000000000000000000000000000000000000000000000000000000000000000000000000000000000000000000000000000000000000000000000000
310
00000000000000000000000000000000000000000000000000000000000000000000000000000000000000000000000000000000000000000000000000000000000000000000000000000000000000000000000000000000000000000000000000000000000000000000000000000000000000000000000000000000000000
310
00000000000000000000000000000000000000000000000000000000000000000000000000000000000000000000000000000000000000000000000000000000000000000000000000000000000000000000000000000000000000000000000000000000000000000000000000000000000000000000000000000000000000
310
00000000000000000000000000000000000000000000000000000000000000000000000000000000000000000000000000000000000000000000000000000000000000000000000000000000000000000000000000000000000000000000000000000000000000000000000000000000000000000000000000000000000000
310
000000000000000000000000000000000000000000000000000000000000000000000000000000000000000000000000000000000000000000000000000000000000000000000000000000000000000000000000000000F5F5F5F5F5F5F5F5F5F5F5F500000000000000000000000000000000000000000000000000000000
310
00000000000000000000000000000000000000000000000000000000000000000000000000000000000000000000000000000000000000000000000000000000000000000000000000000000000000000000000000000000000000000000000000000000000000000000000000000000000000000000000000000000000000
310
0000000000000000000000000000000000000000000000000000000000000000000000000000000000000000000000000000000000000000000000000000000000000000000000000000000000000000000000000000000000F5000000000000F5F5F5F5F5F500000000000000000000000000000000000000000000000000
310
00000000000000000000000000000000000000000000000000000000000000000000000000000000000000000000000000000000000000000000000000000000000000000000000000000000000000000000000000000000000000000000000000000000000000000000000000000000000000000000000000000000000000
310
00000000000000000000000000000000000000000000000000000000000000000000000000000000000000000000000000000000000000000000000000000000000000000000000000000000000000000000000000000000000000F50000000000F5F5F5F5F5F5F50000000000000000000000000000000000000000000000
310
00000000000000000000000000000000000000000000000000000000000000000000000000000000000000000000000000000000000000000000000000000000000000000000000000000000000000000000000000000000000000000000000000000000000000000000000000000000000000000000000000000000000000
310
0000000000000000000000000000000000000000000000000000000000000000000000000000000000000000000000000000000000000000000000000000000000000000000000000000000000000000F5000000000000000000000000F50000000000F5F5F5F5F5F5F5000000000000000000000000000000000000000000
310
00000000000000000000000000000000000000000000000000000000000000000000000000000000000000000000000000000000000000000000000000000000000000000000000000000000000000000000000000000000000000000000000000000000000000000000000000000000000000000000000000000000000000
310
00000000000000000000000000000000000000000000000000000000000000000000000000000000000000000000000000000000000000000000000000000000000000000000000000000000000000000000F5F5F5F5F5F5F5F5F5F5F5F5F5F5F5F5F5F5F5F5F5F5F5F500F500000000000000000000000000000000000000
310
00000000000000000000000000000000000000000000000000000000000000000000000000000000000000000000000000000000000000000000000000000000000000000000000000000000000000000000000000000000000000000000000000000000000000000000000000000000000000000000000000000000000000
310
000000000000000000000000000000000000000000000000000000000000000000000000000000000000000000000000000000000000000000000000000000000000000000000000000000000000000000000000F5000000000000000000000000F5F50000000000F500000000F50000000000000000000000000000000000
310
00000000000000000000000000000000000000000000000000000000000000000000000000000000000000000000000000000000000000000000000000000000000000000000000000000000000000000000000000000000000000000000000000000000000000000000000000000000000000000000000000000000000000
310
0000000000000000000000000000000000000000000000000000000000000000000000000000000000000000000000000000000000000000000000000000000000000000000000000000000000000000000000000000F5000000F5F5F5000000000000F5F5F5F5F5F5F5F500000000F50000F5F5F5F5F50000000000000000
310
00000000000000000000000000000000000000000000000000000000000000000000000000000000000000000000000000000000000000000000000000000000000000000000000000000000000000000000000000000000000000000000000000000000000000000000000000000000000000000000000000000000000000
310
00000000000000000000000000000000000000000000000000000000000000000000000000000000000000000000000000000000000000000000000000000000000000000000000000000000000000000000000000000000F5000000F5F5F5000000F5F5F5F5F5F5000000F5F500000000F5000000F5F5F5F5000000000000
310
00000000000000000000000000000000000000000000000000000000000000000000000000000000000000000000000000000000000000000000000000000000000000000000000000000000000000000000000000000000000000000000000000000000000000000000000000000000000000000000000000000000000000
310
000000000000000000000000000000000000000000000000000000000000000000000000000000000000000000000000000000000000000000000000000000000000000000000000000000000000000000000000000000000000F5000000F5F5F5F5F5F5F5F5F5F5F5F5000000F5F5000000F5F5000000F5F5F500F5F50000
310
00000000000000000000000000000000000000000000000000000000000000000000000000000000000000000000000000000000000000000000000000000000000000000000000000000000000000000000000000000000000000000000000000000000000000000000000000000000000000000000000000000000000000
310
0000000000000000000000000000000000000000000000000000000000000000000000000000000000000000000000000000000000000000000000000000000000000000000000000000000000000000000000000000000000000000F5000000F5F5F500F500F500F5F5F5F50000F5F5F5F5F5F5F5F5000000F5F5F5F500F5
310
00000000000000000000000000000000000000000000000000000000000000000000000000000000000000000000000000000000000000000000000000000000000000000000000000000000000000000000000000000000000000000000000000000000000000000000000000000000000000000000000000000000000000
310
00000000000000000000000000000000000000000000000000000000000000000000000000000000000000000000000000000000000000000000000000000000000000000000000000000000000000000000000000000000000000000000F500000000000000F500F5F5F5F5F5F5F5F5F5F5F5F5F5F5F5F5F5F5F5F5F50000
310
00F50000000000000000000000000000000000000000000000000000000000000000000000000000000000000000000000000000000000000000000000000000000000000000000000000000000000000000000000000000000000000000000000000000000000000000000000000000000000000000000000000000000000
310
000000000000000000000000000000000000000000000000000000000000000000000000000000000000000000000000000000000000000000000000000000000000000000000000000000000000000000000000000000000000000000000000F500000000F5F5F5F5F5F50000F5F5000000000000000000000000000000F5
310
F5F5F5F5F5F5F5F50000000000000000000000000000000000000000000000000000000000000000000000000000000000000000000000000000000000000000000000000000000000000000000000000000000000000000000000000000000000000000000000000000000000000000000000000000000000000000000000
310
0000000000000000000000000000000000000000000000000000000000000000000000000000000000000000000000000000000000000000000000000000000000000000000000000000000000000000000000000000000000000000000000000000F500000000F50000F500F5000000000000000000000000000000000000
310
00F5F50000F50000F500000000000000000000000000000000000000000000000000000000000000000000000000000000000000000000000000000000000000000000000000000000000000000000000000000000000000000000000000000000000000000000000000000000000000000000000000000000000000000000
310
0000000000000000000000000000000000000000000000000000000000000000000000000000000000000000000000000000000000000000000000000000000000000000000000000000000000000000000000000000000000000000000000000000F5F5F5F50000F5F5F500F500F5F5F5F5F5F5F5F5F5F5F5F5F5F5F5F5F5
310
F5F5F5F5F5F5F5F5F5F5F5F500000000000000000000000000000000000000000000000000000000000000000000000000000000000000000000000000000000000000000000000000000000000000000000000000000000000000000000000000000000000000000000000000000000000000000000000000000000000000
310
00000000000000000000000000000000000000000000000000000000000000000000000000000000000000000000000000000000000000000000000000000000000000000000000000000000000000000000000000000000000000000000000000000000F5F5F5F50000F5F5F500F500F500000000F5F5F5F5F5F5F5F5F5F5
310
F5F5000000F5F500F5F500F5F5F5000000000000000000000000000000F5F5F5F5F5F5F5F5F5F5F5F5F5F5F5F5F5F50000000000000000000000000000000000000000000000000000000000000000000000000000000000000000000000000000000000000000000000000000000000000000000000000000000000000000
310
000000000000000000000000000000000000000000000000000000000000000000000000000000000000000000000000000000000000000000000000000000000000000000000000000000000000000000000000000000000000000000000000000000000000F5F5F5F500F5F5F5F5F5F500F5000000F5F5F5F5F5F500F5F5
310
F5F5F5F5000000F5F50000F5F5F5F5F5F50000000000000000000000000000F5F5F5F5F5F5F5F5F5F5F5F5F5F5F5F5F5F5000000000000000000000000000000000000000000000000000000000000000000000000000000000000000000000000000000000000000000000000000000000000000000000000000000000000
310
0000000000000000000000000000000000000000000000000000000000000000000000000000000000000000000000000000000000000000000000000000000000000000000000000000000000000000000000000000000000000000000000000000000000000000F5F5F5F500F5F5F5F5F5F500F5F5F5F5F5F5F5F5F5F5F5
310
F5F5F5F5F5F5F5F5F5F5F5F5F5F5F5F5F5F5F5000000000000000000000000000000000000000000000000000000000000000000000000000000000000000000000000000000000000000000000000000000000000000000000000000000000000000000000000000000000000000000000000000000000000000000000000
310
000000000000000000000000000000000000000000000000000000000000000000000000000000000000000000000000000000000000000000000000000000000000000000000000000000000000000000000000000000000000000000000000000000000000000000000000F500000000F50000F500F5F5F5F50000000000
310
0000F500000000F5000000F5F500F5000000F500000000000000000000000000000000F5F5F5F5F5F5F5F5F5F5F5F5F5F5F5F5F5F5F500000000000000000000000000000000000000000000000000000000000000000000000000000000000000000000000000000000000000000000000000000000000000000000000000
310
0000000000000000000000000000000000000000000000000000000000000000000000000000000000000000000000000000000000000000000000000000000000000000000000000000000000000000000000000000000000000000000000000000000000000000000000000000F500000000F5F500F500F5000000000000
310
000000000000000000F5000000F5F50000000000F5F5000000000000000000000000000000F5F5F5F5F5F5F5F5F5F5F5F5F5F5F5F5F5F5000000000000000000000000000000000000000000000000000000000000000000000000000000000000000000000000000000000000000000000000000000000000000000000000
310
00000000000000000000000000000000000000000000000000000000000000000000000000000000000000000000000000000000000000000000000000000000000000000000000000000000000000000000000000000000000000000000000000000000000000000000000000000000F500000000F5F5F5F5F5F5F5F5F5F5
310
F5F5F5F5F5F5F5F5F5F5F5F5F5F5F5F5F5F5F5F5F5F5F5F5000000000000000000000000000000F5F5F5F5F5F5F5F5F5F5F5F5F5F5F5F5F5F500000000000000000000000000000000000000000000000000000000000000000000000000000000000000000000000000000000000000000000000000000000000000000000
310
000000000000000000000000000000000000000000000000000000000000000000000000000000000000000000000000000000000000000000000000000000000000000000000000000000000000000000000000000000000000000000000000000000000000000000000000000000000000F5000000000000000000F5F5F5
310
F5F50000F50000000000000000F5000000F5F5000000000000000000000000000000000000000000000000000000000000000000000000000000000000000000000000000000000000000000000000000000000000000000000000000000000000000000000000000000000000000000000000000000000000000000000000
310
0000000000000000000000000000000000000000000000000000000000000000000000000000000000000000000000000000000000000000000000000000000000000000000000000000000000000000000000000000000000000000000000000000000000000000000000000000000000000000F5000000000000000000F5
310
F5F500F5F5F5F5F5F5000000000000F5000000F5F5F5F5F500000000000000000000000000000000000000000000000000000000000000000000000000000000000000000000000000000000000000000000000000000000000000000000000000000000000000000000000000000000000000000000000000000000000000
310
00000000000000000000000000000000000000000000000000000000000000000000000000000000000000000000000000000000000000000000000000000000000000000000000000000000000000000000000000000000000000000000000000000000000000000000000000000000000000000000F50000000000000000
310
00F5F5F500000000F5F500000000000000F5000000F5F5F5F5F50000000000000000000000000000000000000000000000000000000000000000000000000000000000000000000000000000000000000000000000000000000000000000000000000000000000000000000000000000000000000000000000000000000000
310
000000000000000000000000000000000000000000000000000000000000000000000000000000000000000000000000000000000000000000000000000000000000000000000000000000000000000000000000000000000000000000000000000000000000000000000000000000000000000000000000F5000000000000
310
000000F5000000000000F5F5000000F5F5F5F5F5000000F5F5F5F5F5000000000000000000000000000000000000000000F5F5F5F5F5F5F5F5F5F5F5F5000000000000000000000000000000000000000000000000000000000000000000000000000000000000000000000000000000000000000000000000000000000000
310
0000000000000000000000000000000000000000000000000000000000000000000000000000000000000000000000000000000000000000000000000000000000000000000000000000000000000000000000000000000000000000000000000000000000000000000000000000000000000000000000000000F500000000
310
0000000000F5000000F5F500F5F5F5F5F5F5000000000000000000F5F5F5000000000000000000000000000000000000000000F50000000000F5F5F5F5F5F5F5000000000000000000000000000000000000000000000000000000000000000000000000000000000000000000000000000000000000000000000000000000
310
00000000000000000000000000000000000000000000000000000000000000000000000000000000000000000000000000000000000000000000000000000000000000000000000000000000000000000000000000000000000000000000000000000000000000000000000000000000000000000000000000000000F50000
310
00000000000000F5F5F5F5F5F5F5F50000000000000000000000000000000000000000000000000000000000000000000000000000F50000000000F5F5F5F5F500F500000000000000000000000000000000000000000000000000000000000000000000000000000000000000000000000000000000000000000000000000
310
000000000000000000000000000000000000000000000000000000000000000000000000000000000000000000000000000000000000000000000000000000000000000000000000000000000000000000000000000000000000000000000000000000000000000000000000000000000000000000000000000000000000F5
310
000000000000000000F5F5F5F5F5F5F5F5000000000000000000000000000000000000000000000000F5F5F5F5F5F5F5F5F5F5F5F5F5F5F5F5F5F5F5F5F5F5F5F5F500F50000000000000000000000000000000000000000000000000000000000000000000000000000000000000000000000000000000000000000000000
310
00000000000000000000000000000000000000000000000000000000000000000000000000000000000000000000000000000000000000000000000000000000000000000000000000000000000000000000000000000000000000000000000000000000000000000000000000000000000000000000000000000000000000
310
00F5F5F5F5F5F5F5F5F5F5F5F5F5F5F5F5F5F5000000000000000000000000000000000000000000000000F5F5000000000000000000000000F50000000000F50000000000F5000000000000000000000000000000000000000000000000000000000000000000000000000000000000000000000000000000000000000000
310
00000000000000000000000000000000000000000000000000000000000000000000000000000000000000000000000000000000000000000000000000000000000000000000000000000000000000000000000000000000000000000000000000000000000000000000000000000000000000000000000000000000000000
310
000000000000000000000000000000F5F500F5F50000000000000000000000000000000000000000000000000000F5000000000000000000000000F5F5F5F5F5F5F50000000000F500000000000000000000000000000000000000000000000000000000000000000000000000000000000000000000000000000000000000
310
00000000000000000000000000000000000000000000000000000000000000000000000000000000000000000000000000000000000000000000000000000000000000000000000000000000000000000000000000000000000000000000000000000000000000000000000000000000000000000000000000000000000000
310
0000000000000000000000000000000000F5F5F5F5F50000000000000000000000000000000000000000000000000000F50000F5F5F5F5000000F5F5F5F5F500000000F50000000000F50000000000000000000000000000000000000000000000000000000000000000000000000000000000000000000000000000000000
310
00000000000000000000000000000000000000000000000000000000000000000000000000000000000000000000000000000000000000000000000000000000000000000000000000000000000000000000000000000000000000000000000000000000000000000000000000000000000000000000000000000000000000
310
0000000000000000000000000000000000000000000000000000000000000000000000000000000000000000000000000000F50000F5F5F5F5F5F5F5F500F500F500000000F500000000F5F5000000000000000000000000000000000000000000000000000000000000000000000000000000000000000000000000000000
310
00000000000000000000000000000000000000000000000000000000000000000000000000000000000000000000000000000000000000000000000000000000000000000000000000000000000000000000000000000000000000000000000000000000000000000000000000000000000000000000000000000000000000
310
00000000000000000000000000000000000000000000000000000000000000000000000000000000000000000000000000000000F5000000F5F500F5F5F5F500F5F5F5000000F5F500000000F5F500000000000000000000000000000000000000000000000000000000000000000000000000000000000000000000000000
310
00000000000000000000000000000000000000000000000000000000000000000000000000000000000000000000000000000000000000000000000000000000000000000000000000000000000000000000000000000000000000000000000000000000000000000000000000000000000000000000000000000000000000
310
000000000000000000000000000000000000000000000000000000000000000000000000000000000000000000000000000000000000F5000000F5F50000F500F500000000000000F5F5F5F5F5F5F5F50000000000000000000000000000000000000000000000000000000000000000000000000000000000000000000000
310
00000000000000000000000000000000000000000000000000000000000000000000000000000000000000000000000000000000000000000000000000000000000000000000000000000000000000000000000000000000000000000000000000000000000000000000000000000000000000000000000000000000000000
310
0000000000000000000000000000000000000000000000000000000000000000000000000000000000000000000000000000000000000000F500000000F5F5F5F5F5F5F5F5F5F5F5F5F5F5F5F5F5F5F5F5F5F5F5F5F5F5F5F5F5F5F5F5F5F5F5F5F5F5F5000000000000000000000000000000000000000000000000000000
310
00000000000000000000000000000000000000000000000000000000000000000000000000000000000000000000000000000000000000000000000000000000000000000000000000000000000000000000000000000000000000000000000000000000000000000000000000000000000000000000000000000000000000
310
00000000000000000000000000000000000000000000000000000000000000000000000000000000000000000000000000000000000000000000F500000000F50000F500F5000000000000000000000000000000000000F5F50000000000000000F5F500F5F500000000000000000000000000000000000000000000000000
310
00000000000000000000000000000000000000000000000000000000000000000000000000000000000000000000000000000000000000000000000000000000000000000000000000000000000000000000000000000000000000000000000000000000000000000000000000000000000000000000000000000000000000
310
000000000000000000000000000000000000000000000000000000000000000000000000000000000000000000000000000000000000000000000000F500000000F50000F500F500F5F5000000F50000000000000000000000F5F5000000F5F5F50000F5F50000F50000000000000000000000000000000000000000000000
310
00000000000000000000000000000000000000000000000000000000000000000000000000000000000000000000000000000000000000000000000000000000000000000000000000000000000000000000000000000000000000000000000000000000000000000000000000000000000000000000000000000000000000
310
0000000000000000000000000000000000000000000000000000000000000000000000000000000000000000000000000000000000000000000000000000F500000000F50000F500F5F5F5F5F5F5F5F5F5F5F5F5F5F5F5F5F5F5F5F5F5F5F5F5000000F5F5F5F50000F5000000000000000000000000000000000000000000
310
00000000000000000000000000000000000000000000000000000000000000000000000000000000000000000000000000000000000000000000000000000000000000000000000000000000000000000000000000000000000000000000000000000000000000000000000000000000000000000000000000000000000000
310
00000000000000000000000000000000000000000000000000000000000000000000000000000000000000000000000000000000000000000000000000000000F500000000F50000F500F5000000000000F5000000000000000000000000000000000000000000F5F50000F500000000000000000000000000000000000000
310
00000000000000000000000000000000000000000000000000000000000000000000000000000000000000000000000000000000000000000000000000000000000000000000000000000000000000000000000000000000000000000000000000000000000000000000000000000000000000000000000000000000000000
310
000000000000000000000000000000000000000000000000000000000000000000000000000000000000000000000000000000000000000000000000000000000000F500000000F50000F500F5000000000000F5000000000000000000000000000000000000000000F5F50000F50000000000000000000000000000000000
310
00000000000000000000000000000000000000000000000000000000000000000000000000000000000000000000000000000000000000000000000000000000000000000000000000000000000000000000000000000000000000000000000000000000000000000000000000000000000000000000000000000000000000
310
0000000000000000000000000000000000000000000000000000000000000000000000000000000000000000000000000000000000000000000000000000000000000000F500000000F50000F500F5000000000000F5000000000000000000000000000000000000000000F5F50000F5000000000000000000000000000000
310
00000000000000000000000000000000000000000000000000000000000000000000000000000000000000000000000000000000000000000000000000000000000000000000000000000000000000000000000000000000000000000000000000000000000000000000000000000000000000000000000000000000000000
310
00000000000000000000000000000000000000000000000000000000000000000000000000000000000000000000000000000000000000000000000000000000000000000000F500000000F50000F500F5000000000000F5000000000000000000000000000000000000000000F5F50000F500000000000000000000000000
310
00000000000000000000000000000000000000000000000000000000000000000000000000000000000000000000000000000000000000000000000000000000000000000000000000000000000000000000000000000000000000000000000000000000000000000000000000000000000000000000000000000000000000
310
000000000000000000000000000000000000000000000000000000000000000000000000000000000000000000000000000000000000000000000000000000000000000000000000F500000000F50000F500F5000000000000F5000000000000000000000000000000000000000000F5F50000F50000000000000000000000
310
00000000000000000000000000000000000000000000000000000000000000000000000000000000000000000000000000000000000000000000000000000000000000000000000000000000000000000000000000000000000000000000000000000000000000000000000000000000000000000000000000000000000000
310
0000000000000000000000000000000000000000000000000000000000000000000000000000000000000000000000000000000000000000000000000000000000000000000000000000F50000F5F5F5F500F500F500000000F5F5F5F50000000000000000000000000000000000000000F5F5F5F5F5F50000000000000000
310
00000000000000000000000000000000000000000000000000000000000000000000000000000000000000000000000000000000000000000000000000000000000000000000000000000000000000000000000000000000000000000000000000000000000000000000000000000000000000000000000000000000000000
310
00000000000000000000000000000000000000000000000000000000000000000000000000000000000000000000000000000000000000000000000000000000000000000000000000F5F5F5F5F500F5F5F5F500F500F500000000F5F5F5F50000000000000000000000000000000000000000F5F5F5F5F5F5000000000000
310
00000000000000000000000000000000000000000000000000000000000000000000000000000000000000000000000000000000000000000000000000000000000000000000000000000000000000000000000000000000000000000000000000000000000000000000000000000000000000000000000000000000000000
310
00000000000000000000000000000000000000000000000000000000000000000000000000000000000000000000000000000000000000000000000000000000000000000000000000000000F5F5F5F500F5F5F5F500F500F500000000F5F5F5F50000000000000000000000000000000000000000F5F5F5F5F5F500000000
310
00000000000000000000000000000000000000000000000000000000000000000000000000000000000000000000000000000000000000000000000000000000000000000000000000000000000000000000000000000000000000000000000000000000000000000000000000000000000000000000000000000000000000
310
0000000000000000000000000000000000000000000000000000000000000000000000000000000000000000000000000000000000000000000000000000000000000000000000000000000000F5F5F5F5F500F5F5F5F500F500F50000000000F5F5000000000000000000000000000000000000000000F5F5F5F5F5000000
310
00000000000000000000000000000000000000000000000000000000000000000000000000000000000000000000000000000000000000000000000000000000000000000000000000000000000000000000000000000000000000000000000000000000000000000000000000000000000000000000000000000000000000
310
000000000000000000000000000000000000000000000000000000000000000000000000000000000000000000000000000000000000F5F5F5F5F5F5F5F5F5F5000000000000000000000000000000F5F5F5F5F5000000F50000F500F5000000000000F5000000000000000000000000000000000000000000F5F50000F500
310
00000000000000000000000000000000000000000000000000000000000000000000000000000000000000000000000000000000000000000000000000000000000000000000000000000000000000000000000000000000000000000000000000000000000000000000000000000000000000000000000000000000000000
310
0000000000000000000000000000000000000000000000000000000000000000000000000000000000000000000000000000000000000000F5F5F5F5F5F5F5F5F5F5000000000000000000000000000000000000F500000000F50000F500F5000000000000F5000000000000000000000000000000000000000000F5F50000
310
F5000000000000000000000000000000000000000000000000000000000000000000000000000000000000000000000000000000000000000000000000000000000000000000000000000000000000000000000000000000000000000000000000000000000000000000000000000000000000000000000000000000000000
310
0000000000000000000000000000000000000000000000000000000000000000000000000000000000000000000000000000000000000000000000F5F5F5F5F5F5F5F5F5000000000000000000000000000000000000F500000000F50000F500F5000000000000F5000000000000000000000000000000000000000000F5F5
310
0000F500000000000000000000000000000000000000000000000000000000000000000000000000000000000000000000000000000000000000000000000000000000000000000000000000000000000000000000000000000000000000000000000000000000000000000000000000000000000000000000000000000000
310
00000000000000000000000000000000000000000000000000000000000000000000000000000000000000000000000000000000000000000000000000000000000000000000000000000000000000000000000000000000F500000000F50000F500F5000000000000F5000000000000000000000000000000000000000000
310
F5F50000F50000000000000000000000000000000000000000000000000000000000000000000000000000000000000000000000000000000000000000000000000000000000000000000000000000000000000000000000000000000000000000000000000000000000000000000000000000000000000000000000000000
310
00000000000000000000000000000000000000000000000000000000000000000000000000000000000000000000000000000000000000000000F5F5F5F5F5F5F5F5F5F5F5F5F5F5F5F5F5F5F500000000000000000000000000F500000000F50000F500F5000000000000F500000000000000000000000000000000000000
310
0000F5F50000F5000000000000000000000000000000000000000000000000000000000000000000000000000000000000000000000000000000000000000000000000000000000000000000000000000000000000000000000000000000000000000000000000000000000000000000000000000000000000000000000000
310
00000000000000000000000000000000000000000000000000000000000000000000000000000000000000000000000000000000000000000000000000F5F5F5F5F5F5F5F5F5F5F5F5F5F5F5F5F50000000000000000000000000000F500000000F50000F500F5000000000000F50000000000000000000000000000000000
310
00000000F5F50000F500000000000000000000000000000000000000000000000000000000000000000000000000000000000000000000000000000000000000000000000000000000000000000000000000000000000000000000000000000000000000000000000000000000000000000000000000000000000000000000
310
00000000000000000000000000000000000000000000000000000000000000000000000000000000000000000000000000000000000000000000000000000000000000000000000000000000000000000000000000000000000000000000F500000000F50000F500F5000000000000F5000000000000000000000000000000
310
000000000000F5F50000F50000000000000000000000000000000000000000000000000000000000000000000000000000000000000000000000000000000000000000000000000000000000000000000000000000000000000000000000000000000000000000000000000000000000000000000000000000000000000000
310
000000000000000000000000000000000000000000000000000000000000000000000000000000000000000000000000000000000000000000000000000000000000000000000000000000000000000000000000000000000000000000000000F500000000F50000F500F5F5F5F5F5F5F5F5F5F5F5F5F5F5F5F5F5F5F5F500
310
0000F5F5F5F5F5F5F5F50000F5000000000000000000000000000000000000000000000000000000000000000000000000000000000000000000000000000000000000000000000000000000000000000000000000000000000000000000000000000000000000000000000000000000000000000000000000000000000000
310
0000000000000000000000000000000000000000000000000000000000000000000000000000000000000000000000000000000000000000000000000000000000000000000000000000000000000000000000000000000000000000000000000000F500000000F50000F500F500F5F50000000000000000000000F5000000
310
F5F5F5F5000000000000F5F50000F500000000000000000000000000000000000000000000000000000000000000000000000000000000000000000000000000000000000000000000000000000000000000000000000000000000000000000000000000000000000000000000000000000000000000000000000000000000
310
00000000000000000000000000000000000000000000000000000000000000000000000000000000000000000000000000000000000000000000F50000000000000000000000F5F5F5F5F5F5F5F5F5F5F5F5000000000000000000000000000000000000F500000000F5F5F5F5F5F50000000000000000000000F5F500F500
310
000000000000000000000000F5F5F5F5F50000000000000000000000000000000000000000000000000000000000000000000000000000000000000000000000000000000000000000000000000000000000000000000000000000000000000000000000000000000000000000000000000000000000000000000000000000
310
0000000000000000000000000000000000000000000000000000000000000000000000000000000000000000000000000000000000000000000000F5F5F5F5F5F5F5F5F5F5F5F5F5F5F5F5F5F5F5F5F5F5F5F5F5F50000000000000000000000000000000000F500000000F500000000F5F5F5F5F5F5F5F5F5F5F5F5F5F5F5
310
F5F5F5F5F5F5F5F5F5F5F5F5F5F5F5F500F500000000000000000000000000000000000000000000000000000000000000000000000000000000000000000000000000000000000000000000000000000000000000000000000000000000000000000000000000000000000000000000000000000000000000000000000000
310
0000000000000000000000000000000000000000000000000000000000000000000000000000000000000000000000000000000000000000000000000000F50000000000000000000000F50000000000F5F5F5F5F5F5F50000000000000000000000000000000000F5000000000000000000F5F5F5F5F50000F5F5F5000000
310
000000F5000000000000000000000000F5F5F5F50000000000000000000000000000000000000000000000000000000000000000000000000000000000000000000000000000000000000000000000000000000000000000000000000000000000000000000000000000000000000000000000000000000000000000000000
310
00000000000000000000000000000000000000000000000000000000000000000000000000000000000000000000000000000000000000000000000000000000F50000000000000000000000F50000000000F5F5F5F5F5F5F50000000000000000000000000000000000F5000000000000000000F5F50000F5F5F5F5F5F500
310
0000000000F50000000000000000000000F5F5F5F5F5F50000000000000000000000000000000000000000000000000000000000000000000000000000000000000000000000000000000000000000000000000000000000000000000000000000000000000000000000000000000000000000000000000000000000000000
310
000000000000000000000000000000000000000000000000000000000000000000000000000000000000000000000000000000000000000000000000000000000000F50000000000000000000000F5000000000000F500000000F50000000000000000000000000000000000F5000000000000000000F5000000000000F500
310
00000000000000F5000000000000000000000000F5F5F5F500000000000000000000000000000000000000000000000000000000000000000000000000000000000000000000000000000000000000000000000000000000000000000000000000000000000000000000000000000000000000000000000000000000000000
310
0000000000000000000000000000000000000000000000000000000000000000000000000000000000000000000000000000000000000000000000000000000000000000F50000000000000000000000F5F5F500000000F500000000F50000000000000000000000000000000000F5000000000000000000F5000000000000
310
F500000000F5F5F5F5F50000000000000000000000000000F5F50000000000000000000000000000000000000000000000000000000000000000000000000000000000000000000000000000000000000000000000000000000000000000000000000000000000000000000000000000000000000000000000000000000000
310
00000000000000000000000000000000000000000000000000000000000000000000000000000000000000000000000000000000000000000000000000000000000000000000F50000F5F5F5000000000000F5F5F5F5F5F5F5F500000000F50000000000000000000000000000000000F5000000000000000000F5F5F5F5F5
310
F500F5F5F5F5F5F50000000000000000000000000000000000000000000000000000000000000000000000000000000000000000000000000000000000000000000000000000000000000000000000000000000000000000000000000000000000000000000000000000000000000000000000000000000000000000000000
310
000000000000000000000000000000000000000000000000000000000000000000000000000000000000000000000000000000000000000000000000000000000000000000000000F50000F5F5F5000000F5F5F5F5F5F5000000F5F500000000F50000000000000000000000000000000000F5000000000000000000F5F5F5
310
F5F5F500F50000000000000000000000000000000000000000000000000000000000000000000000000000000000000000000000000000000000000000000000000000000000000000000000000000000000000000000000000000000000000000000000000000000000000000000000000000000000000000000000000000
310
0000000000000000000000000000000000000000000000000000000000000000000000000000000000000000000000000000000000000000000000000000000000000000000000000000F50000F5F5F5F5F5F5F5F5F5F5F5F5000000F5F5000000F5F50000000000000000000000000000000000F5000000000000000000F5
310
F5F5F5F5F5F5F5000000000000000000000000000000000000000000000000000000000000000000000000000000000000000000000000000000000000000000000000000000000000000000000000000000000000000000000000000000000000000000000000000000000000000000000000000000000000000000000000
310
00000000000000000000000000000000000000000000000000000000000000000000000000000000000000000000000000000000000000000000000000000000000000000000000000000000F50000F5F5F500F500F500F5F5F5F50000F5F5F5F5F5F5F5F500000000000000000000000000000000F5F5F5F5F5F5F5F5F5F5
310
F5F5F5F50000F5F50000000000000000000000000000000000000000000000000000000000000000000000000000000000000000000000000000000000000000000000000000000000000000000000000000000000000000000000000000000000000000000000000000000000000000000000000000000000000000000000
310
000000000000000000000000000000000000000000000000000000000000000000000000000000000000000000000000000000000000000000000000000000000000000000000000000000F5F5F5F5F5000000F500F500F5F5F5F5F5F5F5F5F5F5F5F5F5F5F5F5F5F5F5F5F5000000F5000000000000000000000000000000
310
0000000000F50000F500000000000000000000000000000000000000000000000000000000000000000000000000000000000000000000000000000000000000000000000000000000000000000000000000000000000000000000000000000000000000000000000000000000000000000000000000000000000000000000
310
0000000000000000000000000000000000000000000000000000000000000000000000000000000000000000000000000000000000000000000000000000000000000000000000000000000000F5F5F5F5F500F5F5F5F5F5F5F50000F5F5000000000000000000000000000000F5F5F5F5F5F5000000000000000000000000
310
00000000000000F5F5F5F50000000000000000000000000000000000000000000000000000000000000000000000000000000000000000000000000000000000000000000000000000000000000000000000000000000000000000000000000000000000000000000000000000000000000000000000000000000000000000
310
0000000000000000000000000000000000000000000000000000000000000000000000000000000000000000000000000000000000000000000000000000000000000000000000000000000000000000F5F5F5F500F5F5F500F500F500000000000000000000000000000000000000F5F5F5F5F5F500000000000000000000
310
00000000000000000000000000000000000000000000000000000000000000000000000000000000000000000000000000000000000000000000000000000000000000000000000000000000000000000000000000000000000000000000000000000000000000000000000000000000000000000000000000000000000000
310
00000000000000000000000000000000000000000000000000000000000000000000000000000000000000000000000000000000000000000000000000000000000000000000000000000000000000000000F5F5F5F500F5F5F500F500F5F5F5F5F5F5F5F5F5F5F5F5F5F5F5F5F5F5F5F5F5F5F5F5F5F50000000000000000
310
00000000000000000000000000000000000000000000000000000000000000000000000000000000000000000000000000000000000000000000000000000000000000000000000000000000000000000000000000000000000000000000000000000000000000000000000000000000000000000000000000000000000000
310
0000000000000000000000000000000000000000000000000000000000000000000000000000000000000000000000000000000000000000000000000000000000000000000000000000000000000000000000000000F50000F5F5F500F500F500F5F5000000000000000000000000F5000000F5F5F5F5F5F5000000000000
310
00000000000000000000000000000000000000000000000000000000000000000000000000000000000000000000000000000000000000000000000000000000000000000000000000000000000000000000000000000000000000000000000000000000000000000000000000000000000000000000000000000000000000
310
00000000000000000000000000000000000000000000000000000000000000000000000000000000000000000000000000000000000000000000000000000000000000000000000000000000000000000000000000000000F5000000F5F500F500F5000000000000000000000000000000F5000000F5F50000F50000000000
310
00000000000000000000000000000000000000000000000000000000000000000000000000000000000000000000000000000000000000000000000000000000000000000000000000000000000000000000000000000000000000000000000000000000000000000000000000000000000000000000000000000000000000
310
000000000000000000000000000000000000000000000000000000000000000000000000000000000000000000000000000000000000000000000000000000000000000000000000000000000000000000000000000000000000F5000000F5F5F5F5F5F5F5F5F5F5F5F5F5F5F5F5F5F5F5F5F5F5F5F5F5F5F5F5F5F5000000
310
00000000000000000000000000000000000000000000000000000000000000000000000000000000000000000000000000000000000000000000000000000000000000000000000000000000000000000000000000000000000000000000000000000000000000000000000000000000000000000000000000000000000000
310
0000000000000000000000000000000000000000000000000000000000000000000000000000000000000000000000000000000000000000000000000000000000000000000000000000000000000000000000000000000000000000F50000000000000000F5F5F5F5F50000F5F5F5000000000000F5000000F5F500000000
310
00000000000000000000000000000000000000000000000000000000000000000000000000000000000000000000000000000000000000000000000000000000000000000000000000000000000000000000000000000000000000000000000000000000000000000000000000000000000000000000000000000000000000
310
00000000000000000000000000000000000000000000000000000000000000000000000000000000000000000000000000000000000000000000000000000000000000000000000000000000000000000000000000000000000000000000F50000000000000000F5F5F500F5F5F5F5F5F5000000000000F5000000F5F5F5F5
310
F5000000000000000000000000000000000000000000000000000000000000000000000000000000000000000000000000000000000000000000000000000000000000000000000000000000000000000000000000000000000000000000000000000000000000000000000000000000000000000000000000000000000000
310
000000000000000000000000000000000000000000000000000000000000000000000000000000000000000000000000000000000000000000000000000000000000000000000000000000000000000000000000000000000000000000000000F50000000000000000F5000000000000F5F500000000000000F5000000F5F5
310
F5F5F500000000000000000000000000000000000000000000000000000000000000000000000000000000000000000000000000000000000000000000000000000000000000000000000000000000000000000000000000000000000000000000000000000000000000000000000000000000000000000000000000000000
310
0000000000000000000000000000000000000000000000000000000000000000000000000000000000000000000000000000000000000000000000000000000000000000000000000000000000000000000000000000000000000000000000000000F50000000000000000F5000000000000F5F5000000F5F5F5F5F5000000
310
F5F5F5F5F50000000000000000000000000000000000000000000000000000000000000000000000000000000000000000000000000000000000000000000000000000000000000000000000000000000000000000000000000000000000000000000000000000000000000000000000000000000000000000000000000000
310
00000000000000000000000000000000000000000000000000000000000000000000000000000000000000000000000000000000000000000000000000000000000000000000000000000000000000000000000000000000000000000000000000000000F50000000000000000F5F5F5F5F5F5F5F5F5F5F5F5F50000000000
310
00000000F5F5F5000000000000000000000000000000000000000000000000000000000000000000000000000000000000000000000000000000000000000000000000000000000000000000000000000000000000000000000000000000000000000000000000000000000000000000000000000000000000000000000000
310
000000000000000000000000000000000000000000000000000000000000000000000000000000000000000000000000000000000000000000000000000000000000000000000000000000000000000000000000000000000000000000000000000000000000F50000000000000000F500F5F5F5F5F5F50000000000000000
310
00000000000000000000000000000000000000000000000000000000000000000000000000000000000000000000000000000000000000000000000000000000000000000000000000000000000000000000000000000000000000000000000000000000000000000000000000000000000000000000000000000000000000
310
0000000000000000000000000000000000000000000000000000000000000000000000000000000000000000000000000000000000000000000000000000000000000000000000000000000000000000000000000000000000000000000000000000000000000000F50000000000000000F5F5F5F5F5F5F5F5000000000000
310
00000000000000000000000000000000000000000000000000000000000000000000000000000000000000000000000000000000000000000000000000000000000000000000000000000000000000000000000000000000000000000000000000000000000000000000000000000000000000000000000000000000000000
310
000000000000000000000000000000000000000000000000000000000000000000000000000000000000000000000000000000000000000000000000000000000000000000000000000000000000000000000000000000000000000000000000000000000000000000F5F5F5F5F5F5F5F5F5F5F5F5F5F5F5F5F50000000000
310
00000000000000000000000000000000000000000000000000000000000000000000000000000000000000000000000000000000000000000000000000000000000000000000000000000000000000000000000000000000000000000000000000000000000000000000000000000000000000000000000000000000000000
310
0000000000000000000000000000000000000000000000000000000000000000000000000000000000000000000000000000000000000000000000000000000000000000000000000000000000000000000000000000000000000000000000000000000000000000000000000000000000000000000000F5F500F5F5000000
310
00000000000000000000000000000000000000000000000000000000000000000000000000000000000000000000000000000000000000000000000000000000000000000000000000000000000000000000000000000000000000000000000000000000000000000000000000000000000000000000000000000000000000
310
00000000000000000000000000000000000000000000000000000000000000000000000000000000000000000000000000000000000000000000000000000000000000000000000000000000000000000000000000000000000000000000000000000000000000000000000000000000000000000000000000F5F5F5F5F500
310
00000000000000000000000000000000000000000000000000000000000000000000000000000000000000000000000000000000000000000000000000000000000000000000000000000000000000000000000000000000000000000000000000000000000000000000000000000000000000000000000000000000000000
310
00000000000000000000000000000000000000000000000000000000000000000000000000000000000000000000000000000000000000000000000000000000000000000000000000000000000000000000000000000000000000000000000000000000000000000000000000000000000000000000000000000000000000
310
00000000000000000000000000000000000000000000000000000000000000000000000000000000000000000000000000000000000000000000000000000000000000000000000000000000000000000000000000000000000000000000000000000000000000000000000000000000000000000000000000000000000000
310
00000000000000000000000000000000000000000000000000000000000000000000000000000000000000000000000000000000000000000000000000000000000000000000000000000000000000000000000000000000000000000000000000000000000000000000000000000000000000000000000000000000000000
310
00000000000000000000000000000000000000000000000000000000000000000000000000000000000000000000000000000000000000000000000000000000000000000000000000000000000000000000000000000000000000000000000000000000000000000000000000000000000000000000000000000000000000
310
00000000000000000000000000000000000000000000000000000000000000000000000000000000000000000000000000000000000000000000000000000000000000000000000000000000000000000000000000000000000000000000000000000000000000000000000000000000000000000000000000000000000000
310
00000000000000000000000000000000000000000000000000000000000000000000000000000000000000000000000000000000000000000000000000000000000000000000000000000000000000000000000000000000000000000000000000000000000000000000000000000000000000000000000000000000000000
310
0000000000000000000000000000000000000000000000000000000000000000000000000000000000000000000000000000000000000000000000000000
  0
XRECORD
  5
34C
102
{ACAD_REACTORS
330
49
102
}
330
49
100
AcDbXrecord
280
     1
102
MATERIAL
148
0.0
149
0.0
149
0.0
 93
        0
 94
      127
282
     0
 72
     0
 77
     0
171
     0
175
     0
179
     0
273
     0
  0
XRECORD
  5
4A
102
{ACAD_REACTORS
330
49
102
}
330
49
100
AcDbXrecord
280
     1
270
     1
271
     1
  0
XRECORD
  5
4B
102
{ACAD_REACTORS
330
49
102
}
330
49
100
AcDbXrecord
280
     1
270
     1
271
     1
  0
XRECORD
  5
4C
102
{ACAD_REACTORS
330
49
102
}
330
49
100
AcDbXrecord
280
     1
270
     1
271
     1
  0
XRECORD
  5
4D
102
{ACAD_REACTORS
330
49
102
}
330
49
100
AcDbXrecord
280
     1
270
     1
271
     1
  0
XRECORD
  5
4E
102
{ACAD_REACTORS
330
49
102
}
330
49
100
AcDbXrecord
280
     1
270
     1
271
     1
  0
XRECORD
  5
4F
102
{ACAD_REACTORS
330
49
102
}
330
49
100
AcDbXrecord
280
     1
270
     1
271
     1
  0
XRECORD
  5
34B
102
{ACAD_REACTORS
330
41
102
}
330
41
100
AcDbXrecord
280
     1
102
MATERIAL
148
0.0
149
0.0
149
0.0
 93
        0
 94
      127
282
     0
 72
     0
 77
     0
171
     0
175
     0
179
     0
273
     0
  0
XRECORD
  5
42
102
{ACAD_REACTORS
330
41
102
}
330
41
100
AcDbXrecord
280
     1
270
     1
271
     1
  0
XRECORD
  5
43
102
{ACAD_REACTORS
330
41
102
}
330
41
100
AcDbXrecord
280
     1
270
     1
271
     1
  0
XRECORD
  5
44
102
{ACAD_REACTORS
330
41
102
}
330
41
100
AcDbXrecord
280
     1
270
     1
271
     1
  0
XRECORD
  5
45
102
{ACAD_REACTORS
330
41
102
}
330
41
100
AcDbXrecord
280
     1
270
     1
271
     1
  0
XRECORD
  5
46
102
{ACAD_REACTORS
330
41
102
}
330
41
100
AcDbXrecord
280
     1
270
     1
271
     1
  0
XRECORD
  5
47
102
{ACAD_REACTORS
330
41
102
}
330
41
100
AcDbXrecord
280
     1
270
     1
271
     1
  0
XRECORD
  5
346
102
{ACAD_REACTORS
330
E
102
}
330
E
100
AcDbXrecord
280
     1
102
MATERIAL
148
0.0
149
0.0
149
0.0
 93
        0
 94
      127
282
     0
 72
     0
 77
     0
171
     0
175
     0
179
     0
273
     0
  0
XRECORD
  5
F
102
{ACAD_REACTORS
330
E
102
}
330
E
100
AcDbXrecord
280
     1
270
     1
271
     1
  0
XRECORD
  5
10
102
{ACAD_REACTORS
330
E
102
}
330
E
100
AcDbXrecord
280
     1
270
     1
271
     1
  0
XRECORD
  5
11
102
{ACAD_REACTORS
330
E
102
}
330
E
100
AcDbXrecord
280
     1
270
     1
271
     1
  0
XRECORD
  5
12
102
{ACAD_REACTORS
330
E
102
}
330
E
100
AcDbXrecord
280
     1
270
     1
271
     1
  0
XRECORD
  5
13
102
{ACAD_REACTORS
330
E
102
}
330
E
100
AcDbXrecord
280
     1
270
     1
271
     1
  0
XRECORD
  5
14
102
{ACAD_REACTORS
330
E
102
}
330
E
100
AcDbXrecord
280
     1
270
     1
271
     1
  0
CELLSTYLEMAP
  5
344
102
{ACAD_REACTORS
330
56
102
}
330
56
100
AcDbCellStyleMap
 90
        3
300
CELLSTYLE
  1
TABLEFORMAT_BEGIN
 90
        5
170
     1
 91
        0
 92
    32768
 62
   257
 93
        1
300
CONTENTFORMAT
  1
CONTENTFORMAT_BEGIN
 90
        0
 91
        0
 92
        4
 93
        0
300

 40
0.0
140
1.0
 94
        5
 62
     0
340
26
144
0.25
309
CONTENTFORMAT_END
171
     0
 94
        6
 95
        1
302
GRIDFORMAT
  1
GRIDFORMAT_BEGIN
 90
        0
 91
        1
 62
     0
 92
       -2
340
0
 93
        0
 40
0.045
309
GRIDFORMAT_END
 95
        2
302
GRIDFORMAT
  1
GRIDFORMAT_BEGIN
 90
        0
 91
        1
 62
     0
 92
       -2
340
0
 93
        0
 40
0.045
309
GRIDFORMAT_END
 95
        4
302
GRIDFORMAT
  1
GRIDFORMAT_BEGIN
 90
        0
 91
        1
 62
     0
 92
       -2
340
0
 93
        0
 40
0.045
309
GRIDFORMAT_END
 95
        8
302
GRIDFORMAT
  1
GRIDFORMAT_BEGIN
 90
        0
 91
        1
 62
     0
 92
       -2
340
0
 93
        0
 40
0.045
309
GRIDFORMAT_END
 95
       16
302
GRIDFORMAT
  1
GRIDFORMAT_BEGIN
 90
        0
 91
        1
 62
     0
 92
       -2
340
0
 93
        0
 40
0.045
309
GRIDFORMAT_END
 95
       32
302
GRIDFORMAT
  1
GRIDFORMAT_BEGIN
 90
        0
 91
        1
 62
     0
 92
       -2
340
0
 93
        0
 40
0.045
309
GRIDFORMAT_END
309
TABLEFORMAT_END
  1
CELLSTYLE_BEGIN
 90
        1
 91
        1
300
_TITLE
309
CELLSTYLE_END
300
CELLSTYLE
  1
TABLEFORMAT_BEGIN
 90
        5
170
     1
 91
        0
 92
        0
 62
   257
 93
        1
300
CONTENTFORMAT
  1
CONTENTFORMAT_BEGIN
 90
        0
 91
        0
 92
        4
 93
        0
300

 40
0.0
140
1.0
 94
        5
 62
     0
340
26
144
0.18
309
CONTENTFORMAT_END
171
     0
 94
        6
 95
        1
302
GRIDFORMAT
  1
GRIDFORMAT_BEGIN
 90
        0
 91
        1
 62
     0
 92
       -2
340
0
 93
        0
 40
0.045
309
GRIDFORMAT_END
 95
        2
302
GRIDFORMAT
  1
GRIDFORMAT_BEGIN
 90
        0
 91
        1
 62
     0
 92
       -2
340
0
 93
        0
 40
0.045
309
GRIDFORMAT_END
 95
        4
302
GRIDFORMAT
  1
GRIDFORMAT_BEGIN
 90
        0
 91
        1
 62
     0
 92
       -2
340
0
 93
        0
 40
0.045
309
GRIDFORMAT_END
 95
        8
302
GRIDFORMAT
  1
GRIDFORMAT_BEGIN
 90
        0
 91
        1
 62
     0
 92
       -2
340
0
 93
        0
 40
0.045
309
GRIDFORMAT_END
 95
       16
302
GRIDFORMAT
  1
GRIDFORMAT_BEGIN
 90
        0
 91
        1
 62
     0
 92
       -2
340
0
 93
        0
 40
0.045
309
GRIDFORMAT_END
 95
       32
302
GRIDFORMAT
  1
GRIDFORMAT_BEGIN
 90
        0
 91
        1
 62
     0
 92
       -2
340
0
 93
        0
 40
0.045
309
GRIDFORMAT_END
309
TABLEFORMAT_END
  1
CELLSTYLE_BEGIN
 90
        2
 91
        1
300
_HEADER
309
CELLSTYLE_END
300
CELLSTYLE
  1
TABLEFORMAT_BEGIN
 90
        5
170
     1
 91
        0
 92
        0
 62
   257
 93
        1
300
CONTENTFORMAT
  1
CONTENTFORMAT_BEGIN
 90
        0
 91
        0
 92
        4
 93
        0
300

 40
0.0
140
1.0
 94
        2
 62
     0
340
26
144
0.18
309
CONTENTFORMAT_END
171
     0
 94
        6
 95
        1
302
GRIDFORMAT
  1
GRIDFORMAT_BEGIN
 90
        0
 91
        1
 62
     0
 92
       -2
340
0
 93
        0
 40
0.045
309
GRIDFORMAT_END
 95
        2
302
GRIDFORMAT
  1
GRIDFORMAT_BEGIN
 90
        0
 91
        1
 62
     0
 92
       -2
340
0
 93
        0
 40
0.045
309
GRIDFORMAT_END
 95
        4
302
GRIDFORMAT
  1
GRIDFORMAT_BEGIN
 90
        0
 91
        1
 62
     0
 92
       -2
340
0
 93
        0
 40
0.045
309
GRIDFORMAT_END
 95
        8
302
GRIDFORMAT
  1
GRIDFORMAT_BEGIN
 90
        0
 91
        1
 62
     0
 92
       -2
340
0
 93
        0
 40
0.045
309
GRIDFORMAT_END
 95
       16
302
GRIDFORMAT
  1
GRIDFORMAT_BEGIN
 90
        0
 91
        1
 62
     0
 92
       -2
340
0
 93
        0
 40
0.045
309
GRIDFORMAT_END
 95
       32
302
GRIDFORMAT
  1
GRIDFORMAT_BEGIN
 90
        0
 91
        1
 62
     0
 92
       -2
340
0
 93
        0
 40
0.045
309
GRIDFORMAT_END
309
TABLEFORMAT_END
  1
CELLSTYLE_BEGIN
 90
        3
 91
        2
300
_DATA
309
CELLSTYLE_END
  0
XRECORD
  5
34D
102
{ACAD_REACTORS
330
56
102
}
330
56
100
AcDbXrecord
280
     1
102
ACAD_ROUNDTRIP_PRE2007_TABLESTYLE
 90
        4
 91
        0
  1

 92
        4
 93
        0
  2

 94
        4
 95
        0
  3

  0
XRECORD
  5
34A
102
{ACAD_REACTORS
330
349
102
}
330
349
100
AcDbXrecord
280
     1
102
RTVSPropertyOp0
 70
     1
102
RTVSPropertyOp1
 70
     1
102
RTVSPropertyOp2
 70
     1
102
RTVSPropertyOp3
 70
     1
102
RTVSPropertyOp4
 70
     1
102
RTVSPropertyOp5
 70
     1
102
RTVSPropertyOp6
 70
     1
102
RTVSPropertyOp7
 70
     1
102
RTVSPropertyOp8
 70
     1
102
RTVSPropertyOp9
 70
     1
102
RTVSPropertyOp10
 70
     1
102
RTVSPropertyOp11
 70
     1
102
RTVSPropertyOp12
 70
     1
102
RTVSPropertyOp13
 70
     1
102
RTVSPropertyOp14
 70
     1
102
RTVSPropertyOp15
 70
     1
102
RTVSPropertyOp16
 70
     1
102
RTVSPropertyOp17
 70
     1
102
RTVSPropertyOp18
 70
     1
102
RTVSPropertyOp19
 70
     1
102
RTVSPropertyOp20
 70
     1
102
RTVSPropertyOp21
 70
     1
102
RTVSPropertyOp22
 70
     1
102
RTVSPropertyOp23
 70
     1
102
RTVSPropertyOp24
 70
     1
102
RTVSPropertyOp25
 70
     1
102
RTVSPropertyOp26
 70
     1
102
RTVSPropertyOp27
 70
     1
102
RTVSPropertyOp28
 70
     1
102
RTVSPropertyOp29
 70
     1
102
RTVSPropertyOp30
 70
     1
102
RTVSPropertyOp31
 70
     1
102
RTVSPropertyOp32
 70
     1
  0
XRECORD
  5
34F
102
{ACAD_REACTORS
330
34E
102
}
330
34E
100
AcDbXrecord
280
     1
102
RTVSPropertyOp0
 70
     1
102
RTVSPropertyOp1
 70
     1
102
RTVSPropertyOp2
 70
     1
102
RTVSPropertyOp3
 70
     1
102
RTVSPropertyOp4
 70
     1
102
RTVSPropertyOp5
 70
     1
102
RTVSPropertyOp6
 70
     1
102
RTVSPropertyOp7
 70
     1
102
RTVSPropertyOp8
 70
     1
102
RTVSPropertyOp9
 70
     1
102
RTVSPropertyOp10
 70
     1
102
RTVSPropertyOp11
 70
     1
102
RTVSPropertyOp12
 70
     1
102
RTVSPropertyOp13
 70
     1
102
RTVSPropertyOp14
 70
     1
102
RTVSPropertyOp15
 70
     1
102
RTVSPropertyOp16
 70
     1
102
RTVSPropertyOp17
 70
     1
102
RTVSPropertyOp18
 70
     1
102
RTVSPropertyOp19
 70
     1
102
RTVSPropertyOp20
 70
     1
102
RTVSPropertyOp21
 70
     1
102
RTVSPropertyOp22
 70
     1
102
RTVSPropertyOp23
 70
     1
102
RTVSPropertyOp24
 70
     1
102
RTVSPropertyOp25
 70
     1
102
RTVSPropertyOp26
 70
     1
102
RTVSPropertyOp27
 70
     1
102
RTVSPropertyOp28
 70
     1
102
RTVSPropertyOp29
 70
     1
102
RTVSPropertyOp30
 70
     1
102
RTVSPropertyOp31
 70
     1
102
RTVSPropertyOp32
 70
     1
  0
XRECORD
  5
351
102
{ACAD_REACTORS
330
350
102
}
330
350
100
AcDbXrecord
280
     1
102
RTVSPropertyOp0
 70
     1
102
RTVSPropertyOp1
 70
     1
102
RTVSPropertyOp2
 70
     1
102
RTVSPropertyOp3
 70
     1
102
RTVSPropertyOp4
 70
     1
102
RTVSPropertyOp5
 70
     1
102
RTVSPropertyOp6
 70
     1
102
RTVSPropertyOp7
 70
     1
102
RTVSPropertyOp8
 70
     1
102
RTVSPropertyOp9
 70
     1
102
RTVSPropertyOp10
 70
     1
102
RTVSPropertyOp11
 70
     1
102
RTVSPropertyOp12
 70
     1
102
RTVSPropertyOp13
 70
     1
102
RTVSPropertyOp14
 70
     1
102
RTVSPropertyOp15
 70
     1
102
RTVSPropertyOp16
 70
     1
102
RTVSPropertyOp17
 70
     1
102
RTVSPropertyOp18
 70
     1
102
RTVSPropertyOp19
 70
     1
102
RTVSPropertyOp20
 70
     1
102
RTVSPropertyOp21
 70
     1
102
RTVSPropertyOp22
 70
     1
102
RTVSPropertyOp23
 70
     1
102
RTVSPropertyOp24
 70
     1
102
RTVSPropertyOp25
 70
     1
102
RTVSPropertyOp26
 70
     1
102
RTVSPropertyOp27
 70
     1
102
RTVSPropertyOp28
 70
     1
102
RTVSPropertyOp29
 70
     1
102
RTVSPropertyOp30
 70
     1
102
RTVSPropertyOp31
 70
     1
102
RTVSPropertyOp32
 70
     1
  0
ENDSEC
  0
EOF
