  0
SECTION
  2
HEADER
  9
$ACADVER
  1
AC1015
  9
$ACADMAINTVER
 70
    18
  9
$DWGCODEPAGE
  3
ANSI_1252
  9
$INSBASE
 10
8.643966119619136
 20
12.05640676602646
 30
0.0
  9
$EXTMIN
 10
2.505323907857065
 20
1.3480156072293
 30
0.0
  9
$EXTMAX
 10
14.56209180587648
 20
24.99399932171269
 30
0.0
  9
$LIMMIN
 10
0.0
 20
0.0
  9
$LIMMAX
 10
10000.0
 20
10000.0
  9
$ORTHOMODE
 70
     1
  9
$REGENMODE
 70
     1
  9
$FILLMODE
 70
     1
  9
$QTEXTMODE
 70
     0
  9
$MIRRTEXT
 70
     0
  9
$LTSCALE
 40
0.5
  9
$ATTMODE
 70
     1
  9
$TEXTSIZE
 40
3.0
  9
$TRACEWID
 40
0.05
  9
$TEXTSTYLE
  7
Standard
  9
$CLAYER
  8
0
  9
$CELTYPE
  6
ByLayer
  9
$CECOLOR
 62
   256
  9
$CELTSCALE
 40
1.0
  9
$DISPSILH
 70
     0
  9
$DIMSCALE
 40
0.0
  9
$DIMASZ
 40
0.156
  9
$DIMEXO
 40
0.04
  9
$DIMDLI
 40
0.38
  9
$DIMRND
 40
0.0
  9
$DIMDLE
 40
0.0
  9
$DIMEXE
 40
0.03
  9
$DIMTP
 40
0.0
  9
$DIMTM
 40
0.0
  9
$DIMTXT
 40
0.3125
  9
$DIMCEN
 40
0.0
  9
$DIMTSZ
 40
0.0
  9
$DIMTOL
 70
     0
  9
$DIMLIM
 70
     0
  9
$DIMTIH
 70
     1
  9
$DIMTOH
 70
     1
  9
$DIMSE1
 70
     0
  9
$DIMSE2
 70
     0
  9
$DIMTAD
 70
     0
  9
$DIMZIN
 70
     0
  9
$DIMBLK
  1
ArchTick
  9
$DIMASO
 70
     1
  9
$DIMSHO
 70
     1
  9
$DIMPOST
  1
\X
  9
$DIMAPOST
  1
mm
  9
$DIMALT
 70
     1
  9
$DIMALTD
 70
     0
  9
$DIMALTF
 40
25.4
  9
$DIMLFAC
 40
1.0
  9
$DIMTOFL
 70
     0
  9
$DIMTVP
 40
0.0
  9
$DIMTIX
 70
     0
  9
$DIMSOXD
 70
     0
  9
$DIMSAH
 70
     0
  9
$DIMBLK1
  1

  9
$DIMBLK2
  1

  9
$DIMSTYLE
  2
Knife
  9
$DIMCLRD
 70
     0
  9
$DIMCLRE
 70
     0
  9
$DIMCLRT
 70
     0
  9
$DIMTFAC
 40
1.0
  9
$DIMGAP
 40
0.04
  9
$DIMJUST
 70
     0
  9
$DIMSD1
 70
     0
  9
$DIMSD2
 70
     0
  9
$DIMTOLJ
 70
     1
  9
$DIMTZIN
 70
     0
  9
$DIMALTZ
 70
     0
  9
$DIMALTTZ
 70
     0
  9
$DIMUPT
 70
     0
  9
$DIMDEC
 70
     5
  9
$DIMTDEC
 70
     5
  9
$DIMALTU
 70
     2
  9
$DIMALTTD
 70
     0
  9
$DIMTXSTY
  7
Standard
  9
$DIMAUNIT
 70
     0
  9
$DIMADEC
 70
     1
  9
$DIMALTRND
 40
0.0
  9
$DIMAZIN
 70
     0
  9
$DIMDSEP
 70
    46
  9
$DIMATFIT
 70
     3
  9
$DIMFRAC
 70
     2
  9
$DIMLDRBLK
  1

  9
$DIMLUNIT
 70
     4
  9
$DIMLWD
 70
    -2
  9
$DIMLWE
 70
    -2
  9
$DIMTMOVE
 70
     0
  9
$LUNITS
 70
     2
  9
$LUPREC
 70
     4
  9
$SKETCHINC
 40
0.1
  9
$FILLETRAD
 40
0.0
  9
$AUNITS
 70
     0
  9
$AUPREC
 70
     0
  9
$MENU
  1
.
  9
$ELEVATION
 40
0.0
  9
$PELEVATION
 40
0.0
  9
$THICKNESS
 40
0.0
  9
$LIMCHECK
 70
     0
  9
$CHAMFERA
 40
0.0
  9
$CHAMFERB
 40
0.0
  9
$CHAMFERC
 40
0.0
  9
$CHAMFERD
 40
0.0
  9
$SKPOLY
 70
     0
  9
$TDCREATE
 40
2454538.540644179
  9
$TDUCREATE
 40
2454538.665644178
  9
$TDUPDATE
 40
2456212.331982593
  9
$TDUUPDATE
 40
2456212.456982592
  9
$TDINDWG
 40
0.0954929282
  9
$TDUSRTIMER
 40
0.0954929282
  9
$USRTIMER
 70
     1
  9
$ANGBASE
 50
0.0
  9
$ANGDIR
 70
     0
  9
$PDMODE
 70
     3
  9
$PDSIZE
 40
0.0
  9
$PLINEWID
 40
0.0
  9
$SPLFRAME
 70
     0
  9
$SPLINETYPE
 70
     6
  9
$SPLINESEGS
 70
    12
  9
$HANDSEED
  5
3D5
  9
$SURFTAB1
 70
     6
  9
$SURFTAB2
 70
     6
  9
$SURFTYPE
 70
     6
  9
$SURFU
 70
     6
  9
$SURFV
 70
     6
  9
$UCSBASE
  2

  9
$UCSNAME
  2

  9
$UCSORG
 10
0.0
 20
0.0
 30
0.0
  9
$UCSXDIR
 10
1.0
 20
0.0
 30
0.0
  9
$UCSYDIR
 10
0.0
 20
1.0
 30
0.0
  9
$UCSORTHOREF
  2

  9
$UCSORTHOVIEW
 70
     0
  9
$UCSORGTOP
 10
0.0
 20
0.0
 30
0.0
  9
$UCSORGBOTTOM
 10
0.0
 20
0.0
 30
0.0
  9
$UCSORGLEFT
 10
0.0
 20
0.0
 30
0.0
  9
$UCSORGRIGHT
 10
0.0
 20
0.0
 30
0.0
  9
$UCSORGFRONT
 10
0.0
 20
0.0
 30
0.0
  9
$UCSORGBACK
 10
0.0
 20
0.0
 30
0.0
  9
$PUCSBASE
  2

  9
$PUCSNAME
  2

  9
$PUCSORG
 10
0.0
 20
0.0
 30
0.0
  9
$PUCSXDIR
 10
1.0
 20
0.0
 30
0.0
  9
$PUCSYDIR
 10
0.0
 20
1.0
 30
0.0
  9
$PUCSORTHOREF
  2

  9
$PUCSORTHOVIEW
 70
     0
  9
$PUCSORGTOP
 10
0.0
 20
0.0
 30
0.0
  9
$PUCSORGBOTTOM
 10
0.0
 20
0.0
 30
0.0
  9
$PUCSORGLEFT
 10
0.0
 20
0.0
 30
0.0
  9
$PUCSORGRIGHT
 10
0.0
 20
0.0
 30
0.0
  9
$PUCSORGFRONT
 10
0.0
 20
0.0
 30
0.0
  9
$PUCSORGBACK
 10
0.0
 20
0.0
 30
0.0
  9
$USERI1
 70
     0
  9
$USERI2
 70
     0
  9
$USERI3
 70
     0
  9
$USERI4
 70
     0
  9
$USERI5
 70
     0
  9
$USERR1
 40
0.0
  9
$USERR2
 40
0.0
  9
$USERR3
 40
0.0
  9
$USERR4
 40
0.0
  9
$USERR5
 40
0.0
  9
$WORLDVIEW
 70
     1
  9
$SHADEDGE
 70
     3
  9
$SHADEDIF
 70
    70
  9
$TILEMODE
 70
     1
  9
$MAXACTVP
 70
    64
  9
$PINSBASE
 10
0.0
 20
0.0
 30
0.0
  9
$PLIMCHECK
 70
     0
  9
$PEXTMIN
 10
0.0000000075458644
 20
0.0000000082145277
 30
0.0
  9
$PEXTMAX
 10
8.454000007545857
 20
10.67400000821453
 30
0.0
  9
$PLIMMIN
 10
-0.0064249311656545
 20
-0.1631194818509899
  9
$PLIMMAX
 10
8.493574828538456
 20
10.83688027785312
  9
$UNITMODE
 70
     0
  9
$VISRETAIN
 70
     1
  9
$PLINEGEN
 70
     0
  9
$PSLTSCALE
 70
     1
  9
$TREEDEPTH
 70
  3020
  9
$CMLSTYLE
  2
Standard
  9
$CMLJUST
 70
     0
  9
$CMLSCALE
 40
1.0
  9
$PROXYGRAPHICS
 70
     1
  9
$MEASUREMENT
 70
     0
  9
$CELWEIGHT
370
    -1
  9
$ENDCAPS
280
     0
  9
$JOINSTYLE
280
     0
  9
$LWDISPLAY
290
     0
  9
$INSUNITS
 70
     1
  9
$HYPERLINKBASE
  1

  9
$STYLESHEET
  1

  9
$XEDIT
290
     1
  9
$CEPSNTYPE
380
     0
  9
$PSTYLEMODE
290
     1
  9
$FINGERPRINTGUID
  2
{C41A1427-95B2-4569-A7F7-5D03FB70995F}
  9
$VERSIONGUID
  2
{ED27E219-18B8-4393-B7DD-B1B88DDE20BA}
  9
$EXTNAMES
290
     1
  9
$PSVPSCALE
 40
0.0
  9
$OLESTARTUP
290
     0
  0
ENDSEC
  0
SECTION
  2
CLASSES
  0
CLASS
  1
ACDBDICTIONARYWDFLT
  2
AcDbDictionaryWithDefault
  3
ObjectDBX Classes
 90
        0
280
     0
281
     0
  0
CLASS
  1
ACDBPLACEHOLDER
  2
AcDbPlaceHolder
  3
ObjectDBX Classes
 90
        0
280
     0
281
     0
  0
CLASS
  1
LAYOUT
  2
AcDbLayout
  3
ObjectDBX Classes
 90
        0
280
     0
281
     0
  0
CLASS
  1
DICTIONARYVAR
  2
AcDbDictionaryVar
  3
ObjectDBX Classes
 90
        0
280
     0
281
     0
  0
CLASS
  1
TABLESTYLE
  2
AcDbTableStyle
  3
ObjectDBX Classes
 90
     4095
280
     0
281
     0
  0
CLASS
  1
SORTENTSTABLE
  2
AcDbSortentsTable
  3
ObjectDBX Classes
 90
        0
280
     0
281
     0
  0
CLASS
  1
DIMASSOC
  2
AcDbDimAssoc
  3
"AcDbDimAssoc|Product Desc:     AcDim ARX App For Dimension|Company:          Autodesk, Inc.|WEB Address:      www.autodesk.com"
 90
        0
280
     0
281
     0
  0
CLASS
  1
MATERIAL
  2
AcDbMaterial
  3
ObjectDBX Classes
 90
     1153
280
     0
281
     0
  0
CLASS
  1
VISUALSTYLE
  2
AcDbVisualStyle
  3
ObjectDBX Classes
 90
     4095
280
     0
281
     0
  0
CLASS
  1
SCALE
  2
AcDbScale
  3
ObjectDBX Classes
 90
     1153
280
     0
281
     0
  0
CLASS
  1
MLEADERSTYLE
  2
AcDbMLeaderStyle
  3
ACDB_MLEADERSTYLE_CLASS
 90
    36863
280
     0
281
     0
  0
CLASS
  1
CELLSTYLEMAP
  2
AcDbCellStyleMap
  3
ObjectDBX Classes
 90
     1152
280
     0
281
     0
  0
ENDSEC
  0
SECTION
  2
TABLES
  0
TABLE
  2
VPORT
  5
2E
102
{ACAD_XDICTIONARY
360
33
102
}
330
0
100
AcDbSymbolTable
 70
     1
  0
VPORT
  5
2F
330
2E
100
AcDbSymbolTableRecord
100
AcDbViewportTableRecord
  2
*Active
 70
     0
 10
0.0
 20
0.0
 11
1.0
 21
1.0
 12
13.20992887419237
 22
12.26099596007114
 13
0.0
 23
0.0
 14
0.5
 24
0.5
 15
0.5
 25
0.5
 16
0.0
 26
0.0
 36
1.0
 17
0.0
 27
0.0
 37
0.0
 40
27.94688734233587
 41
2.183284457478005
 42
50.0
 43
0.0
 44
0.0
 50
0.0
 51
0.0
 71
     0
 72
  5000
 73
     1
 74
     3
 75
     0
 76
     0
 77
     0
 78
     0
281
     0
 65
     1
110
0.0
120
0.0
130
0.0
111
1.0
121
0.0
131
0.0
112
0.0
122
1.0
132
0.0
 79
     0
146
0.0
1001
ACAD_NAV_VCDISPLAY
1070
     3
  0
ENDTAB
  0
TABLE
  2
LTYPE
  5
29
330
0
100
AcDbSymbolTable
 70
     3
  0
LTYPE
  5
2A
330
29
100
AcDbSymbolTableRecord
100
AcDbLinetypeTableRecord
  2
ByBlock
 70
     0
  3

 72
    65
 73
     0
 40
0.0
  0
LTYPE
  5
2B
330
29
100
AcDbSymbolTableRecord
100
AcDbLinetypeTableRecord
  2
ByLayer
 70
     0
  3

 72
    65
 73
     0
 40
0.0
  0
LTYPE
  5
15
330
29
100
AcDbSymbolTableRecord
100
AcDbLinetypeTableRecord
  2
Continuous
 70
     0
  3
Solid line
 72
    65
 73
     0
 40
0.0
  0
LTYPE
  5
1E3
330
29
100
AcDbSymbolTableRecord
100
AcDbLinetypeTableRecord
  2
HIDDEN
 70
     0
  3
Hidden __ __ __ __ __ __ __ __ __ __ __ __ __ _
 72
    65
 73
     2
 40
0.375
 49
0.25
 74
     0
 49
-0.125
 74
     0
  0
LTYPE
  5
153
330
29
100
AcDbSymbolTableRecord
100
AcDbLinetypeTableRecord
  2
CENTER
 70
     0
  3
____ _ ____ _ ____ _ ____ _ ____ _ ____ 
 72
    65
 73
     4
 40
2.0
 49
1.25
 74
     0
 49
-0.25
 74
     0
 49
0.25
 74
     0
 49
-0.25
 74
     0
  0
ENDTAB
  0
TABLE
  2
LAYER
  5
22
102
{ACAD_XDICTIONARY
360
23
102
}
330
0
100
AcDbSymbolTable
 70
     4
  0
LAYER
  5
6
102
{ACAD_XDICTIONARY
360
7
102
}
330
22
100
AcDbSymbolTableRecord
100
AcDbLayerTableRecord
  2
0
 70
     0
 62
     7
  6
Continuous
370
    18
390
9
  0
LAYER
  5
76
330
22
100
AcDbSymbolTableRecord
100
AcDbLayerTableRecord
  2
Defpoints
 70
     0
 62
     7
  6
Continuous
290
     0
370
    18
390
9
  0
LAYER
  5
1B3
102
{ACAD_XDICTIONARY
360
1B4
102
}
330
22
100
AcDbSymbolTableRecord
100
AcDbLayerTableRecord
  2
0010010007
 70
     0
 62
     7
  6
Continuous
370
    18
390
9
  0
LAYER
  5
10B
102
{ACAD_XDICTIONARY
360
10C
102
}
330
22
100
AcDbSymbolTableRecord
100
AcDbLayerTableRecord
  2
Screw
 70
     0
 62
     7
  6
Continuous
370
    -3
390
9
  0
ENDTAB
  0
TABLE
  2
STYLE
  5
25
330
0
100
AcDbSymbolTable
 70
     2
  0
STYLE
  5
26
330
25
100
AcDbSymbolTableRecord
100
AcDbTextStyleTableRecord
  2
Standard
 70
     0
 40
0.0
 41
0.55
 50
5.0
 71
     0
 42
3.0
  3
lc______.ttf
  4

1001
ACAD
1000
Letter Gothic
1071
       50
  0
STYLE
  5
FF
330
25
100
AcDbSymbolTableRecord
100
AcDbTextStyleTableRecord
  2
DIMTXT
 70
     0
 40
0.0
 41
0.6
 50
5.0
 71
     0
 42
0.2
  3
lc______.ttf
  4

1001
ACAD
1000
Letter Gothic
1071
       50
  0
ENDTAB
  0
TABLE
  2
VIEW
  5
2C
330
0
100
AcDbSymbolTable
 70
     0
  0
ENDTAB
  0
TABLE
  2
UCS
  5
2D
330
0
100
AcDbSymbolTable
 70
     0
  0
ENDTAB
  0
TABLE
  2
APPID
  5
34
330
0
100
AcDbSymbolTable
 70
     5
  0
APPID
  5
27
330
34
100
AcDbSymbolTableRecord
100
AcDbRegAppTableRecord
  2
ACAD
 70
     0
  0
APPID
  5
1B
330
34
100
AcDbSymbolTableRecord
100
AcDbRegAppTableRecord
  2
ACAD_PSEXT
 70
     0
  0
APPID
  5
32
330
34
100
AcDbSymbolTableRecord
100
AcDbRegAppTableRecord
  2
ACAD_NAV_VCDISPLAY
 70
     0
  0
APPID
  5
1CD
330
34
100
AcDbSymbolTableRecord
100
AcDbRegAppTableRecord
  2
GradientColor1ACI
 70
     0
  0
APPID
  5
1CE
330
34
100
AcDbSymbolTableRecord
100
AcDbRegAppTableRecord
  2
GradientColor2ACI
 70
     0
  0
ENDTAB
  0
TABLE
  2
DIMSTYLE
  5
35
330
0
100
AcDbSymbolTable
 70
     2
100
AcDbDimStyleTable
 71
     2
340
36
340
3B
  0
DIMSTYLE
105
3B
330
35
100
AcDbSymbolTableRecord
100
AcDbDimStyleTableRecord
  2
Standard
 70
     0
  3
"
 40
0.0
 41
0.095
 42
0.04
 44
0.04
140
0.125
141
0.0
147
0.04
179
     1
271
     6
272
     6
276
     2
277
     5
340
26
  0
DIMSTYLE
105
36
102
{ACAD_REACTORS
330
6A
330
7A
330
88
330
97
330
A6
330
B5
330
C4
330
D2
330
E1
330
EF
330
1E4
330
1F5
330
206
330
215
330
24D
330
25E
330
26D
330
27D
330
36F
330
37F
330
38F
330
39E
330
3AD
102
}
330
35
100
AcDbSymbolTableRecord
100
AcDbDimStyleTableRecord
  2
Knife
 70
     0
  3
\X
  4
mm
 40
0.0
 41
0.156
 42
0.04
 44
0.03
140
0.3125
141
0.0
147
0.04
170
     1
171
     0
179
     1
271
     5
272
     5
274
     0
276
     2
277
     4
340
26
342
37
  0
ENDTAB
  0
TABLE
  2
BLOCK_RECORD
  5
1
330
0
100
AcDbSymbolTable
 70
    28
  0
BLOCK_RECORD
  5
2
102
{ACAD_XDICTIONARY
360
3
102
}
330
1
100
AcDbSymbolTableRecord
100
AcDbBlockTableRecord
  2
*Model_Space
340
17
  0
BLOCK_RECORD
  5
1C
330
1
100
AcDbSymbolTableRecord
100
AcDbBlockTableRecord
  2
*Paper_Space
340
1F
  0
BLOCK_RECORD
  5
37
330
1
100
AcDbSymbolTableRecord
100
AcDbBlockTableRecord
  2
_ArchTick
340
0
102
{BLKREFS
331
265
331
266
331
276
331
277
331
286
331
287
331
378
331
379
331
388
331
389
331
396
331
397
331
3A5
331
3A6
331
3B4
331
3B5
331
71
331
72
331
81
331
82
331
8F
331
90
331
9E
331
9F
331
AD
331
AE
331
BC
331
BD
331
CB
331
CC
331
DA
331
DB
331
E8
331
E9
331
F7
331
F8
331
1ED
331
1EE
331
1FE
331
1FF
331
20D
331
20E
331
21F
331
220
331
256
331
257
102
}
  0
BLOCK_RECORD
  5
1B0
330
1
100
AcDbSymbolTableRecord
100
AcDbBlockTableRecord
  2
86NPF141
340
0
102
{BLKREFS
331
29D
331
2A2
331
1AF
331
235
102
}
  0
BLOCK_RECORD
  5
108
330
1
100
AcDbSymbolTableRecord
100
AcDbBlockTableRecord
  2
8 x .75 FH
340
0
310
2800000020000000200000000100080000000000000400000000000000000000000000000000000000000000000080000080000000808000800000008000800080800000C0C0C000C0DCC000F0CAA6000020400000206000002080000020A0000020C0000020E00000400000004020000040400000406000004080000040A0
310
000040C0000040E00000600000006020000060400000606000006080000060A0000060C0000060E00000800000008020000080400000806000008080000080A0000080C0000080E00000A0000000A0200000A0400000A0600000A0800000A0A00000A0C00000A0E00000C0000000C0200000C0400000C0600000C0800000C0
310
A00000C0C00000C0E00000E0000000E0200000E0400000E0600000E0800000E0A00000E0C00000E0E00040000000400020004000400040006000400080004000A0004000C0004000E00040200000402020004020400040206000402080004020A0004020C0004020E000404000004040200040404000404060004040800040
310
40A0004040C0004040E00040600000406020004060400040606000406080004060A0004060C0004060E00040800000408020004080400040806000408080004080A0004080C0004080E00040A0000040A0200040A0400040A0600040A0800040A0A00040A0C00040A0E00040C0000040C0200040C0400040C0600040C08000
310
40C0A00040C0C00040C0E00040E0000040E0200040E0400040E0600040E0800040E0A00040E0C00040E0E00080000000800020008000400080006000800080008000A0008000C0008000E00080200000802020008020400080206000802080008020A0008020C0008020E00080400000804020008040400080406000804080
310
008040A0008040C0008040E00080600000806020008060400080606000806080008060A0008060C0008060E00080800000808020008080400080806000808080008080A0008080C0008080E00080A0000080A0200080A0400080A0600080A0800080A0A00080A0C00080A0E00080C0000080C0200080C0400080C0600080C0
310
800080C0A00080C0C00080C0E00080E0000080E0200080E0400080E0600080E0800080E0A00080E0C00080E0E000C0000000C0002000C0004000C0006000C0008000C000A000C000C000C000E000C0200000C0202000C0204000C0206000C0208000C020A000C020C000C020E000C0400000C0402000C0404000C0406000C0
310
408000C040A000C040C000C040E000C0600000C0602000C0604000C0606000C0608000C060A000C060C000C060E000C0800000C0802000C0804000C0806000C0808000C080A000C080C000C080E000C0A00000C0A02000C0A04000C0A06000C0A08000C0A0A000C0A0C000C0A0E000C0C00000C0C02000C0C04000C0C06000
310
C0C08000C0C0A000F0FBFF00A4A0A000808080000000FF0000FF000000FFFF00FF000000FF00FF00FFFF0000FFFFFF0007070707070707070707070707070707070707070707070707070707070707070707070707070707070707070707070700070707070707070707070707070707070707070707070707070707070707
310
07000707070707070707070707070707070707070707070707070707070707070700070707070707070707070707070707070707070707070707070707070707070007070707070707070707070707070707070707070707070707070707070000000707070707070707070707070707070707070707070707070707070707
310
07000000070707070707070707070707070707070707070707070707070707000007000007070707070707070707070707070707070707070707070707070707000000000007070707070707070707070707070707070707070707070707070700070000000707070707070707070707070707070707070707070707070707
310
00000000000707070707070707070707070707070707070707070707070707070700070000000707070707070707070707070707070707070707070707070707000000000007070707070707070707070707070707070707070707070707070707000700000007070707070707070707070707070707070707070707070707
310
07000000000007070707070707070707070707070707070707070707070707070707000700000007070707070707070707070707070707070707070707070707070000000000070707070707070707070707070707070707070707070707070707070007000000070707070707070707070707070707070707070707070707
310
07070000000000070707070707070707070707070707070707070707070707070707070007000000070707070707070707070707070707070707070707070707070707000700000707070707070707070707070707070707070707070707070707070000000000070707070707070707070707070707070707070707070707
310
07070707000700000007070707070707070707070707070707070707070707070707070700000000070707070707070707070707070707070707070707070707070707000707000700070707070707070707070707070707070707070707070707070007070700070700070707070707070707070707070707070707070707
310
07070007070707000707070007070707070707070707070707070707070707070700000000000000000000000007070707070707070707070707070707070707070000000000000000000000000707070707070707070707070707070707070707070707070707000707070707070707070707070707070707070707070707
310
0707070707070707000707070707070707070707070707070707070707070707070707070707070707070707070707070707070707070707
102
{BLKREFS
331
296
331
107
331
22E
102
}
  0
BLOCK_RECORD
  5
158
330
1
100
AcDbSymbolTableRecord
100
AcDbBlockTableRecord
  2
8 X .625 PH
340
0
310
2800000020000000200000000100080000000000000400000000000000000000000000000000000000000000000080000080000000808000800000008000800080800000C0C0C000C0DCC000F0CAA6000020400000206000002080000020A0000020C0000020E00000400000004020000040400000406000004080000040A0
310
000040C0000040E00000600000006020000060400000606000006080000060A0000060C0000060E00000800000008020000080400000806000008080000080A0000080C0000080E00000A0000000A0200000A0400000A0600000A0800000A0A00000A0C00000A0E00000C0000000C0200000C0400000C0600000C0800000C0
310
A00000C0C00000C0E00000E0000000E0200000E0400000E0600000E0800000E0A00000E0C00000E0E00040000000400020004000400040006000400080004000A0004000C0004000E00040200000402020004020400040206000402080004020A0004020C0004020E000404000004040200040404000404060004040800040
310
40A0004040C0004040E00040600000406020004060400040606000406080004060A0004060C0004060E00040800000408020004080400040806000408080004080A0004080C0004080E00040A0000040A0200040A0400040A0600040A0800040A0A00040A0C00040A0E00040C0000040C0200040C0400040C0600040C08000
310
40C0A00040C0C00040C0E00040E0000040E0200040E0400040E0600040E0800040E0A00040E0C00040E0E00080000000800020008000400080006000800080008000A0008000C0008000E00080200000802020008020400080206000802080008020A0008020C0008020E00080400000804020008040400080406000804080
310
008040A0008040C0008040E00080600000806020008060400080606000806080008060A0008060C0008060E00080800000808020008080400080806000808080008080A0008080C0008080E00080A0000080A0200080A0400080A0600080A0800080A0A00080A0C00080A0E00080C0000080C0200080C0400080C0600080C0
310
800080C0A00080C0C00080C0E00080E0000080E0200080E0400080E0600080E0800080E0A00080E0C00080E0E000C0000000C0002000C0004000C0006000C0008000C000A000C000C000C000E000C0200000C0202000C0204000C0206000C0208000C020A000C020C000C020E000C0400000C0402000C0404000C0406000C0
310
408000C040A000C040C000C040E000C0600000C0602000C0604000C0606000C0608000C060A000C060C000C060E000C0800000C0802000C0804000C0806000C0808000C080A000C080C000C080E000C0A00000C0A02000C0A04000C0A06000C0A08000C0A0A000C0A0C000C0A0E000C0C00000C0C02000C0C04000C0C06000
310
C0C08000C0C0A000F0FBFF00A4A0A000808080000000FF0000FF000000FFFF00FF000000FF00FF00FFFF0000FFFFFF0007070707070707070707070707070707070707070707070707070707070707070707070707070707070707070707070700070707070707070707070707070707070707070707070707070707070707
310
07000707070707070707070707070707070707070707070707070707070707070700070707070707070707070707070707070707070707070707070707070707070007070707070707070707070707070707070707070707070707070707070000000707070707070707070707070707070707070707070707070707070707
310
00000000070707070707070707070707070707070707070707070707070707070007000007070707070707070707070707070707070707070707070707070700000000000007070707070707070707070707070707070707070707070707070007070000000707070707070707070707070707070707070707070707070707
310
00000000070007070707070707070707070707070707070707070707070707070007070000000707070707070707070707070707070707070707070707070707000000000700070707070707070707070707070707070707070707070707070700070700000007070707070707070707070707070707070707070707070707
310
07000000000700070707070707070707070707070707070707070707070707070700070700000007070707070707070707070707070707070707070707070707070007070007000707070707070707070707070707070707070707070707070707000000000700070707070707070707070707070707070707070707070707
310
07070007070000000707070707070707070707070707070707070707070707070707000000000700070707070707070707070707070707070707070707070707070700070700000007070707070707070707070707070707070707070707070707070000000007000707070707070707070707070707070707070707070707
310
07070700070700000007070707070707070707070707070707070707070707070707070000000007000707070707070707070707070707070707070707070707070000000000000000000007070707070707070707070707070707070707070700070707070700070707070007070707070707070707070707070707070707
310
07000000000000000000000000070707070707070707070707070707070707070707000007070700070700000707070707070707070707070707070707070707070707070000000000000707070707070707070707070707070707070707070707070707070707000707070707070707070707070707070707070707070707
310
0707070707070707000707070707070707070707070707070707070707070707070707070707070707070707070707070707070707070707
102
{BLKREFS
331
299
331
157
331
231
102
}
  0
BLOCK_RECORD
  5
6B
330
1
100
AcDbSymbolTableRecord
100
AcDbBlockTableRecord
  2
*D4
340
0
  0
BLOCK_RECORD
  5
7B
330
1
100
AcDbSymbolTableRecord
100
AcDbBlockTableRecord
  2
*D5
340
0
  0
BLOCK_RECORD
  5
89
330
1
100
AcDbSymbolTableRecord
100
AcDbBlockTableRecord
  2
*D6
340
0
  0
BLOCK_RECORD
  5
98
330
1
100
AcDbSymbolTableRecord
100
AcDbBlockTableRecord
  2
*D7
340
0
  0
BLOCK_RECORD
  5
A7
330
1
100
AcDbSymbolTableRecord
100
AcDbBlockTableRecord
  2
*D8
340
0
  0
BLOCK_RECORD
  5
B6
330
1
100
AcDbSymbolTableRecord
100
AcDbBlockTableRecord
  2
*D9
340
0
  0
BLOCK_RECORD
  5
C5
330
1
100
AcDbSymbolTableRecord
100
AcDbBlockTableRecord
  2
*D10
340
0
  0
BLOCK_RECORD
  5
D3
330
1
100
AcDbSymbolTableRecord
100
AcDbBlockTableRecord
  2
*D11
340
0
  0
BLOCK_RECORD
  5
E2
330
1
100
AcDbSymbolTableRecord
100
AcDbBlockTableRecord
  2
*D12
340
0
  0
BLOCK_RECORD
  5
F0
330
1
100
AcDbSymbolTableRecord
100
AcDbBlockTableRecord
  2
*D13
340
0
  0
BLOCK_RECORD
  5
1E7
330
1
100
AcDbSymbolTableRecord
100
AcDbBlockTableRecord
  2
*D14
340
0
  0
BLOCK_RECORD
  5
1F8
330
1
100
AcDbSymbolTableRecord
100
AcDbBlockTableRecord
  2
*D15
340
0
  0
BLOCK_RECORD
  5
207
330
1
100
AcDbSymbolTableRecord
100
AcDbBlockTableRecord
  2
*D16
340
0
  0
BLOCK_RECORD
  5
218
330
1
100
AcDbSymbolTableRecord
100
AcDbBlockTableRecord
  2
*D17
340
0
  0
BLOCK_RECORD
  5
250
330
1
100
AcDbSymbolTableRecord
100
AcDbBlockTableRecord
  2
*D18
340
0
  0
BLOCK_RECORD
  5
25F
330
1
100
AcDbSymbolTableRecord
100
AcDbBlockTableRecord
  2
*D19
340
0
  0
BLOCK_RECORD
  5
270
330
1
100
AcDbSymbolTableRecord
100
AcDbBlockTableRecord
  2
*D20
340
0
  0
BLOCK_RECORD
  5
280
330
1
100
AcDbSymbolTableRecord
100
AcDbBlockTableRecord
  2
*D21
340
0
  0
BLOCK_RECORD
  5
2A6
330
1
100
AcDbSymbolTableRecord
100
AcDbBlockTableRecord
  2
8 x 2 FH
340
0
310
2800000020000000200000000100080000000000000400000000000000000000000000000000000000000000000080000080000000808000800000008000800080800000C0C0C000C0DCC000F0CAA6000020400000206000002080000020A0000020C0000020E00000400000004020000040400000406000004080000040A0
310
000040C0000040E00000600000006020000060400000606000006080000060A0000060C0000060E00000800000008020000080400000806000008080000080A0000080C0000080E00000A0000000A0200000A0400000A0600000A0800000A0A00000A0C00000A0E00000C0000000C0200000C0400000C0600000C0800000C0
310
A00000C0C00000C0E00000E0000000E0200000E0400000E0600000E0800000E0A00000E0C00000E0E00040000000400020004000400040006000400080004000A0004000C0004000E00040200000402020004020400040206000402080004020A0004020C0004020E000404000004040200040404000404060004040800040
310
40A0004040C0004040E00040600000406020004060400040606000406080004060A0004060C0004060E00040800000408020004080400040806000408080004080A0004080C0004080E00040A0000040A0200040A0400040A0600040A0800040A0A00040A0C00040A0E00040C0000040C0200040C0400040C0600040C08000
310
40C0A00040C0C00040C0E00040E0000040E0200040E0400040E0600040E0800040E0A00040E0C00040E0E00080000000800020008000400080006000800080008000A0008000C0008000E00080200000802020008020400080206000802080008020A0008020C0008020E00080400000804020008040400080406000804080
310
008040A0008040C0008040E00080600000806020008060400080606000806080008060A0008060C0008060E00080800000808020008080400080806000808080008080A0008080C0008080E00080A0000080A0200080A0400080A0600080A0800080A0A00080A0C00080A0E00080C0000080C0200080C0400080C0600080C0
310
800080C0A00080C0C00080C0E00080E0000080E0200080E0400080E0600080E0800080E0A00080E0C00080E0E000C0000000C0002000C0004000C0006000C0008000C000A000C000C000C000E000C0200000C0202000C0204000C0206000C0208000C020A000C020C000C020E000C0400000C0402000C0404000C0406000C0
310
408000C040A000C040C000C040E000C0600000C0602000C0604000C0606000C0608000C060A000C060C000C060E000C0800000C0802000C0804000C0806000C0808000C080A000C080C000C080E000C0A00000C0A02000C0A04000C0A06000C0A08000C0A0A000C0A0C000C0A0E000C0C00000C0C02000C0C04000C0C06000
310
C0C08000C0C0A000F0FBFF00A4A0A000808080000000FF0000FF000000FFFF00FF000000FF00FF00FFFF0000FFFFFF0007070707070707070707070707070707070707070707070707070707070707070707070707070707070707070707070700070707070707070707070707070707070707070707070707070707070707
310
07000707070707070707070707070707070707070707070707070707070707070000070707070707070707070707070707070707070707070707070707070707000000070707070707070707070707070707070707070707070707070707070000000007070707070707070707070707070707070707070707070707070707
310
00000000070707070707070707070707070707070707070707070707070707070000000007070707070707070707070707070707070707070707070707070707000000000707070707070707070707070707070707070707070707070707070700000000070707070707070707070707070707070707070707070707070707
310
07000000000707070707070707070707070707070707070707070707070707070700000000070707070707070707070707070707070707070707070707070707070000000007070707070707070707070707070707070707070707070707070707000000000707070707070707070707070707070707070707070707070707
310
07070000000007070707070707070707070707070707070707070707070707070707000000000707070707070707070707070707070707070707070707070707070700000000070707070707070707070707070707070707070707070707070707070000000007070707070707070707070707070707070707070707070707
310
07070700000000070707070707070707070707070707070707070707070707070707070700000707070707070707070707070707070707070707070707070707070707070000070707070707070707070707070707070707070707070707070707070707000007070707070707070707070707070707070707070707070707
310
07070707070000070707070707070707070707070707070707070707070707070707070707000007070707070707070707070707070707070707070707070707070707070700000707070707070707070707070707070707070707070707070707070707070000070707070707070707070707070707070707070707070707
310
07070707070700000707070707070707070707070707070707070707070707070707070707070000070707070707070707070707070707070707070707070707070707070700070000070707070707070707070707070707070707070707070707070707000000000000070707070707070707070707070707070707070707
310
0707070707070707000707070707070707070707070707070707070707070707070707070707070707070707070707070707070707070707
102
{BLKREFS
331
2A5
331
339
331
367
331
36B
102
}
  0
BLOCK_RECORD
  5
372
330
1
100
AcDbSymbolTableRecord
100
AcDbBlockTableRecord
  2
*D23
340
0
  0
BLOCK_RECORD
  5
382
330
1
100
AcDbSymbolTableRecord
100
AcDbBlockTableRecord
  2
*D24
340
0
  0
BLOCK_RECORD
  5
390
330
1
100
AcDbSymbolTableRecord
100
AcDbBlockTableRecord
  2
*D25
340
0
  0
BLOCK_RECORD
  5
39F
330
1
100
AcDbSymbolTableRecord
100
AcDbBlockTableRecord
  2
*D26
340
0
  0
BLOCK_RECORD
  5
3AE
330
1
100
AcDbSymbolTableRecord
100
AcDbBlockTableRecord
  2
*D27
340
0
  0
ENDTAB
  0
ENDSEC
  0
SECTION
  2
BLOCKS
  0
BLOCK
  5
5
330
2
100
AcDbEntity
  8
0
100
AcDbBlockBegin
  2
*Model_Space
 70
     0
 10
0.0
 20
0.0
 30
0.0
  3
*Model_Space
  1

  0
ENDBLK
  5
16
330
2
100
AcDbEntity
  8
0
100
AcDbBlockEnd
  0
BLOCK
  5
1D
330
1C
100
AcDbEntity
 67
     1
  8
0
100
AcDbBlockBegin
  2
*Paper_Space
 70
     0
 10
0.0
 20
0.0
 30
0.0
  3
*Paper_Space
  1

  0
ENDBLK
  5
1E
330
1C
100
AcDbEntity
 67
     1
  8
0
100
AcDbBlockEnd
  0
BLOCK
  5
38
330
37
100
AcDbEntity
  8
0
100
AcDbBlockBegin
  2
_ArchTick
 70
     0
 10
0.0
 20
0.0
 30
0.0
  3
_ArchTick
  1

  0
LWPOLYLINE
  5
39
330
37
100
AcDbEntity
  8
0
  6
ByBlock
 62
     0
100
AcDbPolyline
 90
        2
 70
     0
 43
0.15
 10
-0.5
 20
-0.5
 10
0.5
 20
0.5
  0
ENDBLK
  5
3A
330
37
100
AcDbEntity
  8
0
100
AcDbBlockEnd
  0
BLOCK
  5
1B1
330
1B0
100
AcDbEntity
  8
0
100
AcDbBlockBegin
  2
86NPF141
 70
     0
 10
0.0
 20
0.0
 30
0.0
  3
86NPF141
  1

  0
LINE
  5
1B2
330
1B0
100
AcDbEntity
  8
0010010007
100
AcDbLine
 10
0.292234549170809
 20
0.292592286238269
 30
0.0
 11
0.0905816224003475
 21
0.292592286238268
 31
0.0
  0
LINE
  5
1B6
330
1B0
100
AcDbEntity
  8
0010010007
100
AcDbLine
 10
0.292234549170809
 20
0.292592286238269
 30
0.0
 11
0.292234549170809
 21
0.0429999999999993
 31
0.0
  0
LINE
  5
1B7
330
1B0
100
AcDbEntity
  8
0010010007
100
AcDbLine
 10
0.38175
 20
0.0916250000000005
 30
0.0
 11
0.38175
 21
0.0429999999999993
 31
0.0
  0
LINE
  5
1B8
330
1B0
100
AcDbEntity
  8
0010010007
100
AcDbLine
 10
0.0629975848402324
 20
0.292592286238268
 30
0.0
 11
0.11998804152432
 21
0.232592286238267
 31
0.0
  0
LINE
  5
1B9
330
1B0
100
AcDbEntity
  8
0010010007
100
AcDbLine
 10
0.0
 20
0.3125922862382669
 30
0.0
 11
0.292234549170809
 21
0.312592286238268
 31
0.0
  0
LINE
  5
1BA
330
1B0
100
AcDbEntity
  8
0010010007
100
AcDbLine
 10
0.312234549170809
 20
0.374592286238269
 30
0.0
 11
0.312234549170809
 21
0.0429999999999993
 31
0.0
  0
LINE
  5
1BB
330
1B0
100
AcDbEntity
  8
0010010007
100
AcDbLine
 10
0.3617500000000011
 20
0.100259966132592
 30
0.0
 11
0.3617500000000011
 21
0.046649781204545
 31
0.0
  0
LINE
  5
1BC
330
1B0
100
AcDbEntity
  8
0010010007
100
AcDbLine
 10
0.312234549170809
 20
0.374592286238269
 30
0.0
 11
0.292234549170809
 21
0.374592286238269
 31
0.0
  0
LINE
  5
1BD
330
1B0
100
AcDbEntity
  8
0010010007
100
AcDbLine
 10
0.0905816224003475
 20
0.292592286238268
 30
0.0
 11
0.147572079084434
 21
0.232592286238267
 31
0.0
  0
LINE
  5
1BE
330
1B0
100
AcDbEntity
  8
0010010007
100
AcDbLine
 10
0.0
 20
0.3125922862382669
 30
0.0
 11
0.0
 21
0.292592286238268
 31
0.0
  0
ARC
  5
1BF
330
1B0
100
AcDbEntity
  8
0010010007
100
AcDbCircle
 10
0.483527566184302
 20
0.246
 30
0.0
 40
0.046
100
AcDbArc
 50
312.198599646998
 51
81.43726286549343
  0
LINE
  5
1C0
330
1B0
100
AcDbEntity
  8
0010010007
100
AcDbLine
 10
0.5144258804155121
 20
0.211922233382023
 30
0.0
 11
0.38175
 21
0.0916250000000005
 31
0.0
  0
LINE
  5
1C1
330
1B0
100
AcDbEntity
  8
0010010007
100
AcDbLine
 10
0.3617500000000011
 20
0.100259966132592
 30
0.0
 11
0.5018334986466062
 21
0.227536716524801
 31
0.0
  0
ARC
  5
1C2
330
1B0
100
AcDbEntity
  8
0010010007
100
AcDbCircle
 10
0.483527566184302
 20
0.246
 30
0.0
 40
0.0259999999999999
100
AcDbArc
 50
323.4673418504359
 51
85.7257390740707
  0
LINE
  5
1C3
330
1B0
100
AcDbEntity
  8
0010010007
100
AcDbLine
 10
0.0
 20
0.292592286238268
 30
0.0
 11
0.0629975848402324
 21
0.292592286238268
 31
0.0
  0
LINE
  5
1C4
330
1B0
100
AcDbEntity
  8
0010010007
100
AcDbLine
 10
0.292234549170809
 20
0.374592286238269
 30
0.0
 11
0.292234549170809
 21
0.312592286238268
 31
0.0
  0
LINE
  5
1C5
330
1B0
100
AcDbEntity
  8
0010010007
100
AcDbLine
 10
0.4903766103545081
 20
0.2914872574899241
 30
0.0
 11
0.4854653657418579
 21
0.271927686608619
 31
0.0
  0
ARC
  5
1C6
330
1B0
100
AcDbEntity
  8
0010010007
100
AcDbCircle
 10
0.336992274585405
 20
0.0448248906022721
 30
0.0
 40
0.0248248906022726
100
AcDbArc
 50
184.215645088867
 51
355.784354911133
  0
ARC
  5
1C7
330
1B0
100
AcDbEntity
  8
0010010007
100
AcDbCircle
 10
0.336992274585405
 20
0.0447936509800968
 30
0.0
 40
0.044793650980097
100
AcDbArc
 50
182.294881348948
 51
357.705118651052
  0
LINE
  5
1C8
330
1B0
100
AcDbEntity
  8
0010010007
100
AcDbLine
 10
0.11998804152432
 20
0.232592286238267
 30
0.0
 11
0.147572079084434
 21
0.232592286238267
 31
0.0
  0
ENDBLK
  5
1C9
330
1B0
100
AcDbEntity
  8
0
100
AcDbBlockEnd
  0
BLOCK
  5
109
330
108
100
AcDbEntity
  8
0
 62
     7
370
     9
100
AcDbBlockBegin
  2
8 x .75 FH
 70
     0
 10
0.0
 20
0.0
 30
0.0
  3
8 x .75 FH
  1

  0
LINE
  5
10A
330
108
100
AcDbEntity
  8
Screw
 62
     7
370
     9
100
AcDbLine
 10
0.0550146141445112
 20
-0.6503624430697528
 30
0.0
 11
-0.040994238129656
 21
-0.6842106249981726
 31
0.0
  0
LINE
  5
10D
330
108
100
AcDbEntity
  8
Screw
 62
     7
370
     9
100
AcDbLine
 10
0.082499999998845
 20
-0.5862344890166469
 30
0.0
 11
-0.0718750000007731
 21
-0.6184212499980504
 31
0.0
  0
LINE
  5
10E
330
108
100
AcDbEntity
  8
Screw
 62
     7
370
     9
100
AcDbLine
 10
0.0439236020391718
 20
-0.6439590442452073
 30
0.0
 11
0.0490410471671794
 21
-0.6316044388123601
 31
0.0
  0
LINE
  5
10F
330
108
100
AcDbEntity
  8
Screw
 62
     7
370
     9
100
AcDbLine
 10
0.029903226022725
 20
-0.6778072261735133
 30
0.0
 11
0.0229311243443817
 21
-0.6946393686034753
 31
0.0
  0
LINE
  5
110
330
108
100
AcDbEntity
  8
Screw
 62
     7
370
     9
100
AcDbLine
 10
0.0578546239828484
 20
-0.6103265821309379
 30
0.0
 11
0.0490410471671794
 21
-0.6316044388123601
 31
0.0
  0
LINE
  5
111
330
108
100
AcDbEntity
  8
Screw
 62
     7
370
     9
100
AcDbLine
 10
-0.0000000000006821
 20
-0.749999999998181
 30
0.0
 11
-0.0229311243459733
 21
-0.6946393686034753
 31
0.0
  0
LINE
  5
112
330
108
100
AcDbEntity
  8
Screw
 62
     7
370
     9
100
AcDbLine
 10
-0.0718750000007731
 20
-0.6184212499980504
 30
0.0
 11
-0.0600000000014234
 21
-0.6115652155518774
 31
0.0
  0
LINE
  5
113
330
108
100
AcDbEntity
  8
Screw
 62
     7
370
     9
100
AcDbLine
 10
-0.0718750000007731
 20
-0.6184212499981641
 30
0.0
 11
-0.0490410471686573
 21
-0.6316044388123601
 31
0.0
  0
LINE
  5
114
330
108
100
AcDbEntity
  8
Screw
 62
     7
370
     9
100
AcDbLine
 10
-0.040994238129656
 20
-0.6842106249981726
 30
0.0
 11
-0.0299032260242029
 21
-0.6778072261735133
 31
0.0
  0
LINE
  5
115
330
108
100
AcDbEntity
  8
Screw
 62
     7
370
     9
100
AcDbLine
 10
-0.040994238129656
 20
-0.6842106249981726
 30
0.0
 11
-0.0229311243459733
 21
-0.6946393686034753
 31
0.0
  0
LINE
  5
116
330
108
100
AcDbEntity
  8
Screw
 62
     7
370
     9
100
AcDbLine
 10
-0.0299032260242029
 20
-0.6778072261735133
 30
0.0
 11
-0.0490410471686573
 21
-0.6316044388123601
 31
0.0
  0
LINE
  5
117
330
108
100
AcDbEntity
  8
Screw
 62
     7
370
     9
100
AcDbLine
 10
0.029903226022725
 20
-0.6778072261735133
 30
0.0
 11
0.0369515003608285
 21
-0.6607911866751693
 31
0.0
  0
LINE
  5
118
330
108
100
AcDbEntity
  8
Screw
 62
     7
370
     9
100
AcDbLine
 10
0.0578546239828484
 20
-0.6103265821309379
 30
0.0
 11
0.0632241464040817
 21
-0.5973634082783974
 31
0.0
  0
LINE
  5
119
330
108
100
AcDbEntity
  8
Screw
 62
     7
370
     9
100
AcDbLine
 10
0.0550146141445112
 20
-0.6503624430697528
 30
0.0
 11
0.0369515003608285
 21
-0.6607911866751693
 31
0.0
  0
LINE
  5
11A
330
108
100
AcDbEntity
  8
Screw
 62
     7
370
     9
100
AcDbLine
 10
0.0550146141445112
 20
-0.6503624430697528
 30
0.0
 11
0.0439236020391718
 21
-0.6439590442452073
 31
0.0
  0
LINE
  5
11B
330
108
100
AcDbEntity
  8
Screw
 62
     7
370
     9
100
AcDbLine
 10
0.0824999999986176
 20
-0.5862344890166469
 30
0.0
 11
0.063224146403968
 21
-0.5973634082782838
 31
0.0
  0
LINE
  5
11C
330
108
100
AcDbEntity
  8
Screw
 62
     7
370
     9
100
AcDbLine
 10
0.0824999999986176
 20
-0.5862344890166469
 30
0.0
 11
0.0684796239821708
 21
-0.5781398211494207
 31
0.0
  0
LINE
  5
11D
330
108
100
AcDbEntity
  8
Screw
 62
     7
370
     9
100
AcDbLine
 10
-0.0000000000006821
 20
-0.749999999998181
 30
0.0
 11
0.0229311243443817
 21
-0.6946393686034753
 31
0.0
  0
LINE
  5
11E
330
108
100
AcDbEntity
  8
Screw
 62
     7
370
     9
100
AcDbLine
 10
0.0599999999988086
 20
-0.4018567450733599
 30
0.0
 11
0.0599999999988086
 21
-0.4416653579600052
 31
0.0
  0
LINE
  5
11F
330
108
100
AcDbEntity
  8
Screw
 62
     7
370
     9
100
AcDbLine
 10
0.0824999999987313
 20
-0.3888663640167351
 30
0.0
 11
0.0599999999988086
 21
-0.4018567450733599
 31
0.0
  0
LINE
  5
120
330
108
100
AcDbEntity
  8
Screw
 62
     7
370
     9
100
AcDbLine
 10
0.0599999999988086
 20
-0.4676461200734821
 30
0.0
 11
0.0599999999988086
 21
-0.5074547329599
 31
0.0
  0
LINE
  5
121
330
108
100
AcDbEntity
  8
Screw
 62
     7
370
     9
100
AcDbLine
 10
0.0824999999987313
 20
-0.5204451140167521
 30
0.0
 11
0.0599999999988086
 21
-0.5334354950734906
 31
0.0
  0
LINE
  5
122
330
108
100
AcDbEntity
  8
Screw
 62
     7
370
     9
100
AcDbLine
 10
0.0824999999987313
 20
-0.5204451140167521
 30
0.0
 11
0.0599999999986949
 21
-0.5074547329599
 31
0.0
  0
LINE
  5
123
330
108
100
AcDbEntity
  8
Screw
 62
     7
370
     9
100
AcDbLine
 10
0.0824999999987313
 20
-0.45465573901663
 30
0.0
 11
0.0599999999988086
 21
-0.4676461200734821
 31
0.0
  0
LINE
  5
124
330
108
100
AcDbEntity
  8
Screw
 62
     7
370
     9
100
AcDbLine
 10
0.0824999999987313
 20
-0.45465573901663
 30
0.0
 11
0.0599999999988086
 21
-0.4416653579600052
 31
0.0
  0
LINE
  5
125
330
108
100
AcDbEntity
  8
Screw
 62
     7
370
     9
100
AcDbLine
 10
0.0824999999987313
 20
-0.3888663640167351
 30
0.0
 11
-0.0825000000013461
 21
-0.4176219848775418
 31
0.0
  0
LINE
  5
126
330
108
100
AcDbEntity
  8
Screw
 62
     7
370
     9
100
AcDbLine
 10
0.0824999999987313
 20
-0.5204451140167521
 30
0.0
 11
-0.0825000000013461
 21
-0.5492007348775588
 31
0.0
  0
LINE
  5
127
330
108
100
AcDbEntity
  8
Screw
 62
     7
370
     9
100
AcDbLine
 10
0.0824999999987313
 20
-0.45465573901663
 30
0.0
 11
-0.0825000000013461
 21
-0.4834113598775503
 31
0.0
  0
LINE
  5
128
330
108
100
AcDbEntity
  8
Screw
 62
     7
370
     9
100
AcDbLine
 10
0.0824999999987313
 20
-0.3888663640167351
 30
0.0
 11
0.0599999999988086
 21
-0.3758759829599967
 31
0.0
  0
LINE
  5
129
330
108
100
AcDbEntity
  8
Screw
 62
     7
370
     9
100
AcDbLine
 10
0.0824999999987313
 20
-0.5862344890167606
 30
0.0
 11
0.0599999999986949
 21
-0.5732441079599085
 31
0.0
  0
LINE
  5
12A
330
108
100
AcDbEntity
  8
Screw
 62
     7
370
     9
100
AcDbLine
 10
0.0599999999988086
 20
-0.5334354950734906
 30
0.0
 11
0.0599999999988086
 21
-0.5732441079599085
 31
0.0
  0
LINE
  5
12B
330
108
100
AcDbEntity
  8
Screw
 62
     7
370
     9
100
AcDbLine
 10
-0.0825000000012324
 20
-0.4834113598774366
 30
0.0
 11
-0.0600000000013097
 21
-0.4704209788208118
 31
0.0
  0
LINE
  5
12C
330
108
100
AcDbEntity
  8
Screw
 62
     7
370
     9
100
AcDbLine
 10
-0.0825000000012324
 20
-0.483411359877664
 30
0.0
 11
-0.0600000000013097
 21
-0.4964017409342887
 31
0.0
  0
LINE
  5
12D
330
108
100
AcDbEntity
  8
Screw
 62
     7
370
     9
100
AcDbLine
 10
-0.0825000000012324
 20
-0.5492007348775588
 30
0.0
 11
-0.0600000000013097
 21
-0.5362103538207066
 31
0.0
  0
LINE
  5
12E
330
108
100
AcDbEntity
  8
Screw
 62
     7
370
     9
100
AcDbLine
 10
-0.0825000000012324
 20
-0.5492007348775588
 30
0.0
 11
-0.0600000000013097
 21
-0.5621911159342972
 31
0.0
  0
LINE
  5
12F
330
108
100
AcDbEntity
  8
Screw
 62
     7
370
     9
100
AcDbLine
 10
-0.0825000000012324
 20
-0.4176219848775418
 30
0.0
 11
-0.0600000000013097
 21
-0.4306123659343939
 31
0.0
  0
LINE
  5
130
330
108
100
AcDbEntity
  8
Screw
 62
     7
370
     9
100
AcDbLine
 10
-0.0825000000012324
 20
-0.4176219848775418
 30
0.0
 11
-0.0600000000013097
 21
-0.4046316038208034
 31
0.0
  0
LINE
  5
131
330
108
100
AcDbEntity
  8
Screw
 62
     7
370
     9
100
AcDbLine
 10
-0.0600000000013097
 20
-0.5621911159342972
 30
0.0
 11
-0.0600000000013097
 21
-0.6115652155519911
 31
0.0
  0
LINE
  5
132
330
108
100
AcDbEntity
  8
Screw
 62
     7
370
     9
100
AcDbLine
 10
-0.0600000000013097
 20
-0.496401740934175
 30
0.0
 11
-0.0600000000013097
 21
-0.5362103538205929
 31
0.0
  0
LINE
  5
133
330
108
100
AcDbEntity
  8
Screw
 62
     7
370
     9
100
AcDbLine
 10
-0.0600000000013097
 20
-0.4306123659340529
 30
0.0
 11
-0.0600000000013097
 21
-0.4704209788206981
 31
0.0
  0
LINE
  5
134
330
108
100
AcDbEntity
  8
Screw
 62
     7
370
     9
100
AcDbLine
 10
0.0824999999987313
 20
-0.2572876140167182
 30
0.0
 11
0.0599999999988086
 21
-0.2442972329599797
 31
0.0
  0
LINE
  5
135
330
108
100
AcDbEntity
  8
Screw
 62
     7
370
     9
100
AcDbLine
 10
0.0824999999987313
 20
-0.323076989016613
 30
0.0
 11
-0.0825000000013461
 21
-0.3518326098775333
 31
0.0
  0
LINE
  5
136
330
108
100
AcDbEntity
  8
Screw
 62
     7
370
     9
100
AcDbLine
 10
0.0824999999987313
 20
-0.2572876140167182
 30
0.0
 11
-0.0825000000013461
 21
-0.2860432348775248
 31
0.0
  0
LINE
  5
137
330
108
100
AcDbEntity
  8
Screw
 62
     7
370
     9
100
AcDbLine
 10
0.0824999999987313
 20
-0.323076989016613
 30
0.0
 11
0.0599999999988086
 21
-0.3100866079599882
 31
0.0
  0
LINE
  5
138
330
108
100
AcDbEntity
  8
Screw
 62
     7
370
     9
100
AcDbLine
 10
0.0824999999987313
 20
-0.323076989016613
 30
0.0
 11
0.0599999999988086
 21
-0.3360673700734651
 31
0.0
  0
LINE
  5
139
330
108
100
AcDbEntity
  8
Screw
 62
     7
370
     9
100
AcDbLine
 10
0.0599999999988086
 20
-0.3360673700734651
 30
0.0
 11
0.0599999999988086
 21
-0.375875982959883
 31
0.0
  0
LINE
  5
13A
330
108
100
AcDbEntity
  8
Screw
 62
     7
370
     9
100
AcDbLine
 10
0.0824999999987313
 20
-0.2572876140167182
 30
0.0
 11
0.0599999999988086
 21
-0.2702779950733429
 31
0.0
  0
LINE
  5
13B
330
108
100
AcDbEntity
  8
Screw
 62
     7
370
     9
100
AcDbLine
 10
0.0599999999988086
 20
-0.2702779950733429
 30
0.0
 11
0.0599999999988086
 21
-0.3100866079599882
 31
0.0
  0
LINE
  5
13C
330
108
100
AcDbEntity
  8
Screw
 62
     7
370
     9
100
AcDbLine
 10
-0.0600000000013097
 20
-0.2990336159340359
 30
0.0
 11
-0.0600000000013097
 21
-0.3388422288206812
 31
0.0
  0
LINE
  5
13D
330
108
100
AcDbEntity
  8
Screw
 62
     7
370
     9
100
AcDbLine
 10
-0.0600000000013097
 20
-0.364822990934158
 30
0.0
 11
-0.0600000000013097
 21
-0.404631603820576
 31
0.0
  0
LINE
  5
13E
330
108
100
AcDbEntity
  8
Screw
 62
     7
370
     9
100
AcDbLine
 10
-0.0825000000012324
 20
-0.2860432348775248
 30
0.0
 11
-0.0600000000013097
 21
-0.2730528538207864
 31
0.0
  0
LINE
  5
13F
330
108
100
AcDbEntity
  8
Screw
 62
     7
370
     9
100
AcDbLine
 10
-0.0825000000012324
 20
-0.2860432348775248
 30
0.0
 11
-0.0600000000013097
 21
-0.2990336159343769
 31
0.0
  0
LINE
  5
140
330
108
100
AcDbEntity
  8
Screw
 62
     7
370
     9
100
AcDbLine
 10
-0.0825000000012324
 20
-0.351832609877647
 30
0.0
 11
-0.0600000000013097
 21
-0.3648229909342717
 31
0.0
  0
LINE
  5
141
330
108
100
AcDbEntity
  8
Screw
 62
     7
370
     9
100
AcDbLine
 10
-0.0825000000012324
 20
-0.3518326098774196
 30
0.0
 11
-0.0600000000013097
 21
-0.3388422288207948
 31
0.0
  0
LINE
  5
142
330
108
100
AcDbEntity
  8
Screw
 62
     7
370
     9
100
AcDbLine
 10
0.0599999999988086
 20
-0.2044886200734481
 30
0.0
 11
0.0599999999988086
 21
-0.244297232959866
 31
0.0
  0
LINE
  5
143
330
108
100
AcDbEntity
  8
Screw
 62
     7
370
     9
100
AcDbLine
 10
-0.0600000000013097
 20
-0.2332442409341411
 30
0.0
 11
-0.0600000000013097
 21
-0.273052853820559
 31
0.0
  0
LINE
  5
144
330
108
100
AcDbEntity
  8
Screw
 62
     7
370
     9
100
AcDbLine
 10
-0.0600000000013097
 20
-0.1430000000002565
 30
0.0
 11
-0.0600000000013097
 21
-0.2072634788206642
 31
0.0
  0
LINE
  5
145
330
108
100
AcDbEntity
  8
Screw
 62
     7
370
     9
100
AcDbLine
 10
-0.0825000000012324
 20
-0.22025385987763
 30
0.0
 11
-0.0600000000013097
 21
-0.2332442409342548
 31
0.0
  0
LINE
  5
146
330
108
100
AcDbEntity
  8
Screw
 62
     7
370
     9
100
AcDbLine
 10
-0.0825000000012324
 20
-0.2202538598774026
 30
0.0
 11
-0.0600000000013097
 21
-0.2072634788207779
 31
0.0
  0
LINE
  5
147
330
108
100
AcDbEntity
  8
Screw
 62
     7
370
     9
100
AcDbLine
 10
0.0824999999987313
 20
-0.191498239016596
 30
0.0
 11
-0.0825000000013461
 21
-0.2202538598775163
 31
0.0
  0
LINE
  5
148
330
108
100
AcDbEntity
  8
Screw
 62
     7
370
     9
100
AcDbLine
 10
0.0824999999987313
 20
-0.191498239016596
 30
0.0
 11
0.0599999999988086
 21
-0.1785078579599713
 31
0.0
  0
LINE
  5
149
330
108
100
AcDbEntity
  8
Screw
 62
     7
370
     9
100
AcDbLine
 10
0.0824999999987313
 20
-0.191498239016596
 30
0.0
 11
0.0599999999988086
 21
-0.2044886200734481
 31
0.0
  0
LINE
  5
14A
330
108
100
AcDbEntity
  8
Screw
 62
     7
370
     9
100
AcDbLine
 10
0.0599999999989223
 20
-0.1430000000002565
 30
0.0
 11
0.0599999999988086
 21
-0.1785078579599713
 31
0.0
  0
LINE
  5
14B
330
108
100
AcDbEntity
  8
Screw
 62
     7
370
     9
100
AcDbLine
 10
-0.1550000000002001
 20
0.0000000000001137
 30
0.0
 11
-0.1550000000020191
 21
-0.015999999999849
 31
0.0
  0
LINE
  5
14C
330
108
100
AcDbEntity
  8
Screw
 62
     7
370
     9
100
AcDbLine
 10
0.1549999999986085
 20
0.0
 30
0.0
 11
0.1549999999986085
 21
-0.0159999999999627
 31
0.0
  0
LINE
  5
14D
330
108
100
AcDbEntity
  8
Screw
 62
     7
370
     9
100
AcDbLine
 10
0.1549999999987222
 20
-0.0160000000006448
 30
0.0
 11
-0.155000000001337
 21
-0.0159999999999627
 31
0.0
  0
LINE
  5
14E
330
108
100
AcDbEntity
  8
Screw
 62
     7
370
     9
100
AcDbLine
 10
0.1549999999987222
 20
0.0
 30
0.0
 11
-0.155000000001337
 21
0.0
 31
0.0
  0
LINE
  5
14F
330
108
100
AcDbEntity
  8
Screw
 62
     7
370
     9
100
AcDbLine
 10
0.0599999999989223
 20
-0.1430000000000291
 30
0.0
 11
-0.0600000000013097
 21
-0.1430000000000291
 31
0.0
  0
LINE
  5
150
330
108
100
AcDbEntity
  8
Screw
 62
     7
370
     9
100
AcDbLine
 10
0.1549999999986085
 20
-0.0160000000006448
 30
0.0
 11
0.0599999999988086
 21
-0.1430000000001428
 31
0.0
  0
LINE
  5
151
330
108
100
AcDbEntity
  8
Screw
 62
     7
370
     9
100
AcDbLine
 10
-0.1550000000020191
 20
-0.0159999999999627
 30
0.0
 11
-0.0600000000013097
 21
-0.1430000000001428
 31
0.0
  0
LINE
  5
152
330
108
100
AcDbEntity
  8
Screw
  6
CENTER
 62
     7
370
     9
100
AcDbLine
 10
0.0
 20
0.0516137131638743
 30
0.0
 11
0.0
 21
-0.8012116686045374
 31
0.0
  0
ENDBLK
  5
154
330
108
100
AcDbEntity
  8
0
 62
     7
370
     9
100
AcDbBlockEnd
  0
BLOCK
  5
159
330
158
100
AcDbEntity
  8
0
 62
     5
100
AcDbBlockBegin
  2
8 X .625 PH
 70
     0
 10
0.0
 20
0.0
 30
0.0
  3
8 X .625 PH
  1

  0
LINE
  5
15A
330
158
100
AcDbEntity
  8
Screw
  6
CENTER
 62
     7
370
     9
100
AcDbLine
 10
0.0
 20
0.1516137131640107
 30
0.0
 11
-0.0000000000001137
 21
-0.6762116686043101
 31
0.0
  0
LINE
  5
15B
330
158
100
AcDbEntity
  8
Screw
 62
     7
370
     9
100
AcDbLine
 10
0.1549999999987222
 20
0.0400000000003047
 30
0.0
 11
0.1549999999986085
 21
0.0100000000001046
 31
0.0
  0
LINE
  5
15C
330
158
100
AcDbEntity
  8
Screw
 62
     7
370
     9
100
AcDbLine
 10
-0.1550000000386262
 20
0.0400000000013279
 30
0.0
 11
-0.1550000000420368
 21
0.0100000000010141
 31
0.0
  0
LINE
  5
15D
330
158
100
AcDbEntity
  8
Screw
 62
     7
370
     9
100
AcDbLine
 10
0.0599999999986949
 20
-0.0136992450730986
 30
0.0
 11
0.0599999999986949
 21
-0.0535078579597439
 31
0.0
  0
LINE
  5
15E
330
158
100
AcDbEntity
  8
Screw
 62
     7
370
     9
100
AcDbLine
 10
0.0824999999986176
 20
-0.0007088640164739
 30
0.0
 11
0.0599999999986949
 21
-0.0136992450730986
 31
0.0
  0
LINE
  5
15F
330
158
100
AcDbEntity
  8
Screw
 62
     7
370
     9
100
AcDbLine
 10
0.0824999999986176
 20
-0.0664982390163687
 30
0.0
 11
0.0599999999986949
 21
-0.0794886200732208
 31
0.0
  0
LINE
  5
160
330
158
100
AcDbEntity
  8
Screw
 62
     7
370
     9
100
AcDbLine
 10
0.0824999999986176
 20
-0.0664982390163687
 30
0.0
 11
0.0599999999986949
 21
-0.0535078579597439
 31
0.0
  0
LINE
  5
161
330
158
100
AcDbEntity
  8
Screw
 62
     7
370
     9
100
AcDbLine
 10
0.0824999999986176
 20
-0.0007088640164739
 30
0.0
 11
-0.0825000000014598
 21
-0.0294644848772805
 31
0.0
  0
LINE
  5
162
330
158
100
AcDbEntity
  8
Screw
 62
     7
370
     9
100
AcDbLine
 10
0.0824999999986176
 20
-0.0664982390163687
 30
0.0
 11
-0.0825000000014598
 21
-0.095253859877289
 31
0.0
  0
LINE
  5
163
330
158
100
AcDbEntity
  8
Screw
 62
     7
370
     9
100
AcDbLine
 10
0.0824999999986176
 20
-0.0007088640164739
 30
0.0
 11
0.0812722115064162
 21
0.0000000000001137
 31
0.0
  0
LINE
  5
164
330
158
100
AcDbEntity
  8
Screw
 62
     7
370
     9
100
AcDbLine
 10
-0.0825000000013461
 20
-0.0952538598771753
 30
0.0
 11
-0.0600000000014234
 21
-0.0822634788205505
 31
0.0
  0
LINE
  5
165
330
158
100
AcDbEntity
  8
Screw
 62
     7
370
     9
100
AcDbLine
 10
-0.0825000000013461
 20
-0.0952538598774027
 30
0.0
 11
-0.0600000000014234
 21
-0.1082442409340274
 31
0.0
  0
LINE
  5
166
330
158
100
AcDbEntity
  8
Screw
 62
     7
370
     9
100
AcDbLine
 10
-0.0825000000013461
 20
-0.0294644848772805
 30
0.0
 11
-0.0600000000014234
 21
-0.0424548659341326
 31
0.0
  0
LINE
  5
167
330
158
100
AcDbEntity
  8
Screw
 62
     7
370
     9
100
AcDbLine
 10
-0.0825000000013461
 20
-0.0294644848772805
 30
0.0
 11
-0.0600000000014234
 21
-0.0164741038205421
 31
0.0
  0
LINE
  5
168
330
158
100
AcDbEntity
  8
Screw
 62
     7
370
     9
100
AcDbLine
 10
-0.0600000000014234
 20
-0.0424548659337916
 30
0.0
 11
-0.0600000000014234
 21
-0.0822634788204369
 31
0.0
  0
LINE
  5
169
330
158
100
AcDbEntity
  8
Screw
 62
     7
370
     9
100
AcDbLine
 10
-0.0600000000015371
 20
0.0
 30
0.0
 11
-0.0600000000014234
 21
-0.0164741038203147
 31
0.0
  0
LINE
  5
16A
330
158
100
AcDbEntity
  8
Screw
 62
     7
370
     9
100
AcDbLine
 10
-0.0600000000014234
 20
-0.1082442409339137
 30
0.0
 11
-0.0600000000014234
 21
-0.1480528538203316
 31
0.0
  0
LINE
  5
16B
330
158
100
AcDbEntity
  8
Screw
 62
     7
370
     9
100
AcDbLine
 10
0.0599999999986949
 20
-0.0794886200732208
 30
0.0
 11
0.0599999999986949
 21
-0.1192972329596387
 31
0.0
  0
LINE
  5
16C
330
158
100
AcDbEntity
  8
Screw
 62
     7
370
     9
100
AcDbLine
 10
-0.0825000000013461
 20
-0.2268326098771922
 30
0.0
 11
-0.0600000000014234
 21
-0.2138422288205675
 31
0.0
  0
LINE
  5
16D
330
158
100
AcDbEntity
  8
Screw
 62
     7
370
     9
100
AcDbLine
 10
-0.0825000000013461
 20
-0.2268326098774196
 30
0.0
 11
-0.0600000000014234
 21
-0.2398229909340443
 31
0.0
  0
LINE
  5
16E
330
158
100
AcDbEntity
  8
Screw
 62
     7
370
     9
100
AcDbLine
 10
-0.0825000000013461
 20
-0.1610432348772974
 30
0.0
 11
-0.0600000000014234
 21
-0.1740336159341496
 31
0.0
  0
LINE
  5
16F
330
158
100
AcDbEntity
  8
Screw
 62
     7
370
     9
100
AcDbLine
 10
-0.0825000000013461
 20
-0.1610432348772974
 30
0.0
 11
-0.0600000000014234
 21
-0.148052853820559
 31
0.0
  0
LINE
  5
170
330
158
100
AcDbEntity
  8
Screw
 62
     7
370
     9
100
AcDbLine
 10
-0.0600000000014234
 20
-0.2398229909339307
 30
0.0
 11
-0.0600000000014234
 21
-0.2796316038203486
 31
0.0
  0
LINE
  5
171
330
158
100
AcDbEntity
  8
Screw
 62
     7
370
     9
100
AcDbLine
 10
-0.0600000000014234
 20
-0.1740336159338085
 30
0.0
 11
-0.0600000000014234
 21
-0.2138422288204538
 31
0.0
  0
LINE
  5
172
330
158
100
AcDbEntity
  8
Screw
 62
     7
370
     9
100
AcDbLine
 10
0.0599999999986949
 20
-0.1452779950731156
 30
0.0
 11
0.0599999999986949
 21
-0.1850866079597608
 31
0.0
  0
LINE
  5
173
330
158
100
AcDbEntity
  8
Screw
 62
     7
370
     9
100
AcDbLine
 10
0.0824999999986176
 20
-0.1322876140164908
 30
0.0
 11
0.0599999999986949
 21
-0.1452779950731156
 31
0.0
  0
LINE
  5
174
330
158
100
AcDbEntity
  8
Screw
 62
     7
370
     9
100
AcDbLine
 10
0.0599999999986949
 20
-0.2110673700732377
 30
0.0
 11
0.0599999999986949
 21
-0.2508759829596556
 31
0.0
  0
LINE
  5
175
330
158
100
AcDbEntity
  8
Screw
 62
     7
370
     9
100
AcDbLine
 10
0.0824999999986176
 20
-0.1980769890163856
 30
0.0
 11
0.0599999999986949
 21
-0.2110673700732377
 31
0.0
  0
LINE
  5
176
330
158
100
AcDbEntity
  8
Screw
 62
     7
370
     9
100
AcDbLine
 10
0.0824999999986176
 20
-0.1980769890163856
 30
0.0
 11
0.0599999999986949
 21
-0.1850866079597608
 31
0.0
  0
LINE
  5
177
330
158
100
AcDbEntity
  8
Screw
 62
     7
370
     9
100
AcDbLine
 10
0.0824999999986176
 20
-0.1322876140164908
 30
0.0
 11
-0.0825000000014598
 21
-0.1610432348772974
 31
0.0
  0
LINE
  5
178
330
158
100
AcDbEntity
  8
Screw
 62
     7
370
     9
100
AcDbLine
 10
0.0824999999986176
 20
-0.1980769890163856
 30
0.0
 11
-0.0825000000014598
 21
-0.2268326098773059
 31
0.0
  0
LINE
  5
179
330
158
100
AcDbEntity
  8
Screw
 62
     7
370
     9
100
AcDbLine
 10
0.0824999999986176
 20
-0.1322876140164908
 30
0.0
 11
0.0599999999986949
 21
-0.1192972329597524
 31
0.0
  0
LINE
  5
17A
330
158
100
AcDbEntity
  8
Screw
 62
     7
370
     9
100
AcDbLine
 10
-0.0600000000014234
 20
-0.3056123659338255
 30
0.0
 11
-0.0600000000014234
 21
-0.3454209788204707
 31
0.0
  0
LINE
  5
17B
330
158
100
AcDbEntity
  8
Screw
 62
     7
370
     9
100
AcDbLine
 10
-0.0600000000014234
 20
-0.3714017409339476
 30
0.0
 11
-0.0600000000014234
 21
-0.4112103538203656
 31
0.0
  0
LINE
  5
17C
330
158
100
AcDbEntity
  8
Screw
 62
     7
370
     9
100
AcDbLine
 10
-0.0600000000014234
 20
-0.4371911159340698
 30
0.0
 11
-0.0600000000014234
 21
-0.4865652155517637
 31
0.0
  0
LINE
  5
17D
330
158
100
AcDbEntity
  8
Screw
 62
     7
370
     9
100
AcDbLine
 10
-0.0825000000013461
 20
-0.2926219848773144
 30
0.0
 11
-0.0600000000014234
 21
-0.2796316038205759
 31
0.0
  0
LINE
  5
17E
330
158
100
AcDbEntity
  8
Screw
 62
     7
370
     9
100
AcDbLine
 10
-0.0825000000013461
 20
-0.2926219848773144
 30
0.0
 11
-0.0600000000014234
 21
-0.3056123659341665
 31
0.0
  0
LINE
  5
17F
330
158
100
AcDbEntity
  8
Screw
 62
     7
370
     9
100
AcDbLine
 10
-0.0825000000013461
 20
-0.4242007348773314
 30
0.0
 11
-0.0600000000014234
 21
-0.4371911159340698
 31
0.0
  0
LINE
  5
180
330
158
100
AcDbEntity
  8
Screw
 62
     7
370
     9
100
AcDbLine
 10
-0.0825000000013461
 20
-0.4242007348773314
 30
0.0
 11
-0.0600000000014234
 21
-0.4112103538204793
 31
0.0
  0
LINE
  5
181
330
158
100
AcDbEntity
  8
Screw
 62
     7
370
     9
100
AcDbLine
 10
-0.0825000000013461
 20
-0.3584113598774365
 30
0.0
 11
-0.0600000000014234
 21
-0.3714017409340613
 31
0.0
  0
LINE
  5
182
330
158
100
AcDbEntity
  8
Screw
 62
     7
370
     9
100
AcDbLine
 10
-0.0825000000013461
 20
-0.3584113598772092
 30
0.0
 11
-0.0600000000014234
 21
-0.3454209788205844
 31
0.0
  0
LINE
  5
183
330
158
100
AcDbEntity
  8
Screw
 62
     7
370
     9
100
AcDbLine
 10
0.0599999999986949
 20
-0.4084354950732632
 30
0.0
 11
0.0599999999986949
 21
-0.4482441079596811
 31
0.0
  0
LINE
  5
184
330
158
100
AcDbEntity
  8
Screw
 62
     7
370
     9
100
AcDbLine
 10
0.0824999999986176
 20
-0.4612344890165332
 30
0.0
 11
0.0599999999985812
 21
-0.4482441079596811
 31
0.0
  0
LINE
  5
185
330
158
100
AcDbEntity
  8
Screw
 62
     7
370
     9
100
AcDbLine
 10
0.0824999999986176
 20
-0.2638663640165078
 30
0.0
 11
0.0599999999986949
 21
-0.2508759829597693
 31
0.0
  0
LINE
  5
186
330
158
100
AcDbEntity
  8
Screw
 62
     7
370
     9
100
AcDbLine
 10
0.0824999999986176
 20
-0.3296557390164025
 30
0.0
 11
-0.0825000000014598
 21
-0.3584113598773229
 31
0.0
  0
LINE
  5
187
330
158
100
AcDbEntity
  8
Screw
 62
     7
370
     9
100
AcDbLine
 10
0.0824999999986176
 20
-0.3954451140165247
 30
0.0
 11
-0.0825000000014598
 21
-0.4242007348773314
 31
0.0
  0
LINE
  5
188
330
158
100
AcDbEntity
  8
Screw
 62
     7
370
     9
100
AcDbLine
 10
0.0824999999986176
 20
-0.2638663640165078
 30
0.0
 11
-0.0825000000014598
 21
-0.2926219848773144
 31
0.0
  0
LINE
  5
189
330
158
100
AcDbEntity
  8
Screw
 62
     7
370
     9
100
AcDbLine
 10
0.0824999999986176
 20
-0.3296557390164025
 30
0.0
 11
0.0599999999986949
 21
-0.3166653579597778
 31
0.0
  0
LINE
  5
18A
330
158
100
AcDbEntity
  8
Screw
 62
     7
370
     9
100
AcDbLine
 10
0.0824999999986176
 20
-0.3296557390164025
 30
0.0
 11
0.0599999999986949
 21
-0.3426461200732547
 31
0.0
  0
LINE
  5
18B
330
158
100
AcDbEntity
  8
Screw
 62
     7
370
     9
100
AcDbLine
 10
0.0824999999986176
 20
-0.3954451140165247
 30
0.0
 11
0.0599999999985812
 21
-0.3824547329596726
 31
0.0
  0
LINE
  5
18C
330
158
100
AcDbEntity
  8
Screw
 62
     7
370
     9
100
AcDbLine
 10
0.0824999999986176
 20
-0.3954451140165247
 30
0.0
 11
0.0599999999986949
 21
-0.4084354950732632
 31
0.0
  0
LINE
  5
18D
330
158
100
AcDbEntity
  8
Screw
 62
     7
370
     9
100
AcDbLine
 10
0.0599999999986949
 20
-0.3426461200732547
 30
0.0
 11
0.0599999999986949
 21
-0.3824547329596726
 31
0.0
  0
LINE
  5
18E
330
158
100
AcDbEntity
  8
Screw
 62
     7
370
     9
100
AcDbLine
 10
0.0824999999986176
 20
-0.2638663640165078
 30
0.0
 11
0.0599999999986949
 21
-0.2768567450731325
 31
0.0
  0
LINE
  5
18F
330
158
100
AcDbEntity
  8
Screw
 62
     7
370
     9
100
AcDbLine
 10
0.0599999999986949
 20
-0.2768567450731325
 30
0.0
 11
0.0599999999986949
 21
-0.3166653579597778
 31
0.0
  0
LINE
  5
190
330
158
100
AcDbEntity
  8
Screw
 62
     7
370
     9
100
AcDbLine
 10
-0.0000000000007958
 20
-0.6249999999979537
 30
0.0
 11
0.022931124344268
 21
-0.569639368603248
 31
0.0
  0
LINE
  5
191
330
158
100
AcDbEntity
  8
Screw
 62
     7
370
     9
100
AcDbLine
 10
0.0824999999985039
 20
-0.4612344890164195
 30
0.0
 11
0.0684796239820571
 21
-0.4531398211491933
 31
0.0
  0
LINE
  5
192
330
158
100
AcDbEntity
  8
Screw
 62
     7
370
     9
100
AcDbLine
 10
0.0824999999985039
 20
-0.4612344890164195
 30
0.0
 11
0.0632241464038543
 21
-0.4723634082780564
 31
0.0
  0
LINE
  5
193
330
158
100
AcDbEntity
  8
Screw
 62
     7
370
     9
100
AcDbLine
 10
0.0550146141443975
 20
-0.5253624430695254
 30
0.0
 11
0.0439236020390581
 21
-0.5189590442449799
 31
0.0
  0
LINE
  5
194
330
158
100
AcDbEntity
  8
Screw
 62
     7
370
     9
100
AcDbLine
 10
0.0550146141443975
 20
-0.5253624430695254
 30
0.0
 11
0.0369515003607148
 21
-0.5357911866749419
 31
0.0
  0
LINE
  5
195
330
158
100
AcDbEntity
  8
Screw
 62
     7
370
     9
100
AcDbLine
 10
0.0578546239827347
 20
-0.4853265821307105
 30
0.0
 11
0.063224146403968
 21
-0.4723634082781701
 31
0.0
  0
LINE
  5
196
330
158
100
AcDbEntity
  8
Screw
 62
     7
370
     9
100
AcDbLine
 10
0.0299032260226113
 20
-0.552807226173286
 30
0.0
 11
0.0369515003607148
 21
-0.5357911866749419
 31
0.0
  0
LINE
  5
197
330
158
100
AcDbEntity
  8
Screw
 62
     7
370
     9
100
AcDbLine
 10
-0.0299032260243166
 20
-0.552807226173286
 30
0.0
 11
-0.049041047168771
 21
-0.5066044388121327
 31
0.0
  0
LINE
  5
198
330
158
100
AcDbEntity
  8
Screw
 62
     7
370
     9
100
AcDbLine
 10
-0.0409942381297697
 20
-0.5592106249979452
 30
0.0
 11
-0.022931124346087
 21
-0.569639368603248
 31
0.0
  0
LINE
  5
199
330
158
100
AcDbEntity
  8
Screw
 62
     7
370
     9
100
AcDbLine
 10
-0.0409942381297697
 20
-0.5592106249979452
 30
0.0
 11
-0.0299032260243166
 21
-0.552807226173286
 31
0.0
  0
LINE
  5
19A
330
158
100
AcDbEntity
  8
Screw
 62
     7
370
     9
100
AcDbLine
 10
-0.0718750000008868
 20
-0.4934212499979367
 30
0.0
 11
-0.049041047168771
 21
-0.5066044388121327
 31
0.0
  0
LINE
  5
19B
330
158
100
AcDbEntity
  8
Screw
 62
     7
370
     9
100
AcDbLine
 10
-0.0718750000008868
 20
-0.493421249997823
 30
0.0
 11
-0.0600000000015371
 21
-0.48656521555165
 31
0.0
  0
LINE
  5
19C
330
158
100
AcDbEntity
  8
Screw
 62
     7
370
     9
100
AcDbLine
 10
-0.0000000000007958
 20
-0.6249999999979537
 30
0.0
 11
-0.022931124346087
 21
-0.569639368603248
 31
0.0
  0
LINE
  5
19D
330
158
100
AcDbEntity
  8
Screw
 62
     7
370
     9
100
AcDbLine
 10
0.0578546239827347
 20
-0.4853265821307105
 30
0.0
 11
0.0490410471670657
 21
-0.5066044388121327
 31
0.0
  0
LINE
  5
19E
330
158
100
AcDbEntity
  8
Screw
 62
     7
370
     9
100
AcDbLine
 10
0.0299032260226113
 20
-0.552807226173286
 30
0.0
 11
0.022931124344268
 21
-0.569639368603248
 31
0.0
  0
LINE
  5
19F
330
158
100
AcDbEntity
  8
Screw
 62
     7
370
     9
100
AcDbLine
 10
0.0439236020390581
 20
-0.5189590442449799
 30
0.0
 11
0.0490410471670657
 21
-0.5066044388121327
 31
0.0
  0
LINE
  5
1A0
330
158
100
AcDbEntity
  8
Screw
 62
     7
370
     9
100
AcDbLine
 10
0.0824999999987313
 20
-0.4612344890164195
 30
0.0
 11
-0.0718750000008868
 21
-0.493421249997823
 31
0.0
  0
LINE
  5
1A1
330
158
100
AcDbEntity
  8
Screw
 62
     7
370
     9
100
AcDbLine
 10
0.0550146141443975
 20
-0.5253624430695254
 30
0.0
 11
-0.0409942381297697
 21
-0.5592106249979452
 31
0.0
  0
LINE
  5
1A2
330
158
100
AcDbEntity
  8
Screw
 62
     7
370
     9
100
AcDbLine
 10
-0.1450000000420459
 20
-0.0000000000001137
 30
0.0
 11
0.1449999999986176
 21
0.0000000000001137
 31
0.0
  0
LINE
  5
1A3
330
158
100
AcDbEntity
  8
Screw
 62
     7
370
     9
100
AcDbLine
 10
-0.1450000000385216
 20
0.0500000000004093
 30
0.0
 11
0.1449999999986176
 21
0.050000000000523
 31
0.0
  0
ARC
  5
1A4
330
158
100
AcDbEntity
  8
Screw
 62
     7
370
     9
100
AcDbCircle
 10
0.1449999999986176
 20
0.0100000000001046
 30
0.0
 40
0.01
100
AcDbArc
 50
270.0
 51
0.0
  0
ARC
  5
1A5
330
158
100
AcDbEntity
  8
Screw
 62
     7
370
     9
100
AcDbCircle
 10
-0.1450000000420459
 20
0.0099999999998772
 30
0.0
 40
0.01
100
AcDbArc
 50
179.9999999934667
 51
270.0
  0
LINE
  5
1A6
330
158
100
AcDbEntity
  8
Screw
 62
     7
370
     9
100
AcDbLine
 10
-0.0570000000392383
 20
0.1000000000004775
 30
0.0
 11
0.0569999999995616
 21
0.1000000000003638
 31
0.0
  0
ARC
  5
1A7
330
158
100
AcDbEntity
  8
Screw
 62
     7
370
     9
100
AcDbCircle
 10
0.1449999999986176
 20
0.0400000000003047
 30
0.0
 40
0.01
100
AcDbArc
 50
0.0
 51
90.0
  0
ARC
  5
1A8
330
158
100
AcDbEntity
  8
Screw
 62
     7
370
     9
100
AcDbCircle
 10
-0.1450000000385216
 20
0.040000000000191
 30
0.0
 40
0.01
100
AcDbArc
 50
90.0
 51
179.9999999934862
  0
ARC
  5
1A9
330
158
100
AcDbEntity
  8
Screw
 62
     7
370
     9
100
AcDbCircle
 10
-0.0000000000198952
 20
-0.1142505253642412
 30
0.0
 40
0.2217031520327291
100
AcDbArc
 50
46.77058113432305
 51
75.10191228261263
  0
ARC
  5
1AA
330
158
100
AcDbEntity
  8
Screw
 62
     7
370
     9
100
AcDbCircle
 10
-0.0000000000198952
 20
-0.1142505253642412
 30
0.0
 40
0.2217031520327291
100
AcDbArc
 50
104.8980877173874
 51
133.2294188657414
  0
ENDBLK
  5
1AB
330
158
100
AcDbEntity
  8
0
 62
     5
100
AcDbBlockEnd
  0
BLOCK
  5
6C
330
6B
100
AcDbEntity
  8
0
100
AcDbBlockBegin
  2
*D4
 70
     1
 10
0.0
 20
0.0
 30
0.0
  3
*D4
  1

  0
LINE
  5
6D
330
6B
100
AcDbEntity
  8
0
 62
     0
370
    -2
100
AcDbLine
 10
9.612855200137801
 20
23.2396139171506
 30
0.0
 11
9.612855200137801
 21
24.43100224133312
 31
0.0
  0
LINE
  5
6E
330
6B
100
AcDbEntity
  8
0
 62
     0
370
    -2
100
AcDbLine
 10
6.112355200138154
 20
24.00561391715022
 30
0.0
 11
6.112355200138154
 21
24.43100224133312
 31
0.0
  0
LINE
  5
6F
330
6B
100
AcDbEntity
  8
0
 62
     0
370
    -2
100
AcDbLine
 10
9.612855200137801
 20
24.40100224133312
 30
0.0
 11
8.312863380741372
 21
24.40100224133312
 31
0.0
  0
LINE
  5
70
330
6B
100
AcDbEntity
  8
0
 62
     0
370
    -2
100
AcDbLine
 10
6.112355200138154
 20
24.40100224133312
 30
0.0
 11
7.412347019534581
 21
24.40100224133312
 31
0.0
  0
INSERT
  5
71
330
6B
100
AcDbEntity
  8
0
 62
     0
370
    -2
100
AcDbBlockReference
  2
_ArchTick
 10
9.612855200137801
 20
24.40100224133312
 30
0.0
 41
0.156
 42
0.156
 43
0.156
  0
INSERT
  5
72
330
6B
100
AcDbEntity
  8
0
 62
     0
370
    -2
100
AcDbBlockReference
  2
_ArchTick
 10
6.112355200138154
 20
24.40100224133312
 30
0.0
 41
0.156
 42
0.156
 43
0.156
 50
180.0
  0
MTEXT
  5
73
330
6B
100
AcDbEntity
  8
0
 62
     0
100
AcDbMText
 10
7.862605200137977
 20
24.60334672687447
 30
0.0
 40
0.3125
 41
0.0
 71
     5
 72
     1
  1
\A1;3 1/2"
 73
     1
 44
1.0
1001
ACAD
1000
MTEXTBEGIN
1070
    73
1070
     1
1070
    44
1040
1.0
1070
    74
1070
     0
1000
MTEXTEND
  0
MTEXT
  5
74
330
6B
100
AcDbEntity
  8
0
 62
     0
100
AcDbMText
 10
7.862605200137977
 20
24.18110984052612
 30
0.0
 40
0.3125
 41
0.0
 71
     5
 72
     1
  1
\A1;[89mm]
 73
     1
 44
1.0
1001
ACAD
1000
MTEXTBEGIN
1070
    73
1070
     1
1070
    44
1040
1.0
1070
    74
1070
     0
1000
MTEXTEND
  0
POINT
  5
75
330
6B
100
AcDbEntity
  8
Defpoints
 62
     0
100
AcDbPoint
 10
9.612855200137801
 20
23.1996139171506
 30
0.0
  0
POINT
  5
77
330
6B
100
AcDbEntity
  8
Defpoints
 62
     0
100
AcDbPoint
 10
6.112355200138154
 20
23.96561391715022
 30
0.0
  0
POINT
  5
78
330
6B
100
AcDbEntity
  8
Defpoints
 62
     0
100
AcDbPoint
 10
6.112355200138154
 20
24.40100224133312
 30
0.0
  0
ENDBLK
  5
79
330
6B
100
AcDbEntity
  8
0
100
AcDbBlockEnd
  0
BLOCK
  5
7C
330
7B
100
AcDbEntity
  8
0
100
AcDbBlockBegin
  2
*D5
 70
     1
 10
0.0
 20
0.0
 30
0.0
  3
*D5
  1

  0
LINE
  5
7D
330
7B
100
AcDbEntity
  8
0
 62
     0
370
    -2
100
AcDbLine
 10
9.6528552001378
 20
23.1996139171506
 30
0.0
 11
11.45871661207618
 21
23.1996139171506
 31
0.0
  0
LINE
  5
7E
330
7B
100
AcDbEntity
  8
0
 62
     0
370
    -2
100
AcDbLine
 10
9.6528552001378
 20
15.31184162624322
 30
0.0
 11
11.45871661207618
 21
15.31184162624322
 31
0.0
  0
LINE
  5
7F
330
7B
100
AcDbEntity
  8
0
 62
     0
370
    -2
100
AcDbLine
 10
11.42871661207619
 20
23.1996139171506
 30
0.0
 11
11.42871661207618
 21
19.45807225723827
 31
0.0
  0
LINE
  5
80
330
7B
100
AcDbEntity
  8
0
 62
     0
370
    -2
100
AcDbLine
 10
11.42871661207618
 20
15.31184162624322
 30
0.0
 11
11.42871661207618
 21
19.05338328615555
 31
0.0
  0
INSERT
  5
81
330
7B
100
AcDbEntity
  8
0
 62
     0
370
    -2
100
AcDbBlockReference
  2
_ArchTick
 10
11.42871661207619
 20
23.1996139171506
 30
0.0
 41
0.156
 42
0.156
 43
0.156
 50
90.0
  0
INSERT
  5
82
330
7B
100
AcDbEntity
  8
0
 62
     0
370
    -2
100
AcDbBlockReference
  2
_ArchTick
 10
11.42871661207618
 20
15.31184162624322
 30
0.0
 41
0.156
 42
0.156
 43
0.156
 50
270.0
  0
MTEXT
  5
83
330
7B
100
AcDbEntity
  8
0
 62
     0
100
AcDbMText
 10
11.42871661207618
 20
19.25572777169691
 30
0.0
 40
0.3125
 41
0.0
 71
     5
 72
     1
  1
\A1;BOX
 73
     1
 44
1.0
1001
ACAD
1000
MTEXTBEGIN
1070
    73
1070
     1
1070
    44
1040
1.0
1070
    74
1070
     0
1000
MTEXTEND
  0
POINT
  5
84
330
7B
100
AcDbEntity
  8
Defpoints
 62
     0
100
AcDbPoint
 10
9.612855200137801
 20
23.1996139171506
 30
0.0
  0
POINT
  5
85
330
7B
100
AcDbEntity
  8
Defpoints
 62
     0
100
AcDbPoint
 10
9.612855200137801
 20
15.31184162624322
 30
0.0
  0
POINT
  5
86
330
7B
100
AcDbEntity
  8
Defpoints
 62
     0
100
AcDbPoint
 10
11.42871661207618
 20
15.31184162624322
 30
0.0
  0
ENDBLK
  5
87
330
7B
100
AcDbEntity
  8
0
100
AcDbBlockEnd
  0
BLOCK
  5
8A
330
89
100
AcDbEntity
  8
0
100
AcDbBlockBegin
  2
*D6
 70
     1
 10
0.0
 20
0.0
 30
0.0
  3
*D6
  1

  0
LINE
  5
8B
330
89
100
AcDbEntity
  8
0
 62
     0
370
    -2
100
AcDbLine
 10
6.351064555120667
 20
19.98111391715065
 30
0.0
 11
4.663712754520421
 21
19.98111391715065
 31
0.0
  0
LINE
  5
8C
330
89
100
AcDbEntity
  8
0
 62
     0
370
    -2
100
AcDbLine
 10
6.135355200137548
 20
22.29361391715065
 30
0.0
 11
4.663712754520422
 21
22.29361391715065
 31
0.0
  0
LINE
  5
8D
330
89
100
AcDbEntity
  8
0
 62
     0
370
    -2
100
AcDbLine
 10
4.693712754520421
 20
19.98111391715065
 30
0.0
 11
4.693712754520421
 21
20.7151270308023
 31
0.0
  0
LINE
  5
8E
330
89
100
AcDbEntity
  8
0
 62
     0
370
    -2
100
AcDbLine
 10
4.693712754520422
 20
22.29361391715065
 30
0.0
 11
4.693712754520421
 21
21.559600803499
 31
0.0
  0
INSERT
  5
8F
330
89
100
AcDbEntity
  8
0
 62
     0
370
    -2
100
AcDbBlockReference
  2
_ArchTick
 10
4.693712754520421
 20
19.98111391715065
 30
0.0
 41
0.156
 42
0.156
 43
0.156
 50
270.0
  0
INSERT
  5
90
330
89
100
AcDbEntity
  8
0
 62
     0
370
    -2
100
AcDbBlockReference
  2
_ArchTick
 10
4.693712754520422
 20
22.29361391715065
 30
0.0
 41
0.156
 42
0.156
 43
0.156
 50
90.0
  0
MTEXT
  5
91
330
89
100
AcDbEntity
  8
0
 62
     0
100
AcDbMText
 10
4.693712754520418
 20
21.33970840269201
 30
0.0
 40
0.3125
 41
0.0
 71
     5
 72
     1
  1
\A1;2 5/16"
 73
     1
 44
1.0
1001
ACAD
1000
MTEXTBEGIN
1070
    73
1070
     1
1070
    44
1040
1.0
1070
    74
1070
     0
1000
MTEXTEND
  0
MTEXT
  5
92
330
89
100
AcDbEntity
  8
0
 62
     0
100
AcDbMText
 10
4.693712754520418
 20
20.91747151634366
 30
0.0
 40
0.3125
 41
0.0
 71
     5
 72
     1
  1
\A1;[59mm]
 73
     1
 44
1.0
1001
ACAD
1000
MTEXTBEGIN
1070
    73
1070
     1
1070
    44
1040
1.0
1070
    74
1070
     0
1000
MTEXTEND
  0
POINT
  5
93
330
89
100
AcDbEntity
  8
Defpoints
 62
     0
100
AcDbPoint
 10
6.391064555120667
 20
19.98111391715065
 30
0.0
  0
POINT
  5
94
330
89
100
AcDbEntity
  8
Defpoints
 62
     0
100
AcDbPoint
 10
6.175355200137548
 20
22.29361391715065
 30
0.0
  0
POINT
  5
95
330
89
100
AcDbEntity
  8
Defpoints
 62
     0
100
AcDbPoint
 10
4.693712754520422
 20
22.29361391715065
 30
0.0
  0
ENDBLK
  5
96
330
89
100
AcDbEntity
  8
0
100
AcDbBlockEnd
  0
BLOCK
  5
99
330
98
100
AcDbEntity
  8
0
100
AcDbBlockBegin
  2
*D7
 70
     1
 10
0.0
 20
0.0
 30
0.0
  3
*D7
  1

  0
LINE
  5
9A
330
98
100
AcDbEntity
  8
0
 62
     0
370
    -2
100
AcDbLine
 10
5.071355200137822
 20
23.1996139171506
 30
0.0
 11
3.40832618709348
 21
23.1996139171506
 31
0.0
  0
LINE
  5
9B
330
98
100
AcDbEntity
  8
0
 62
     0
370
    -2
100
AcDbLine
 10
6.351064555120919
 20
19.98111391715065
 30
0.0
 11
3.40832618709348
 21
19.98111391715065
 31
0.0
  0
LINE
  5
9C
330
98
100
AcDbEntity
  8
0
 62
     0
370
    -2
100
AcDbLine
 10
3.438326187093481
 20
23.1996139171506
 30
0.0
 11
3.43832618709348
 21
22.01260080349898
 31
0.0
  0
LINE
  5
9D
330
98
100
AcDbEntity
  8
0
 62
     0
370
    -2
100
AcDbLine
 10
3.43832618709348
 20
19.98111391715065
 30
0.0
 11
3.43832618709348
 21
21.16812703080228
 31
0.0
  0
INSERT
  5
9E
330
98
100
AcDbEntity
  8
0
 62
     0
370
    -2
100
AcDbBlockReference
  2
_ArchTick
 10
3.438326187093481
 20
23.1996139171506
 30
0.0
 41
0.156
 42
0.156
 43
0.156
 50
90.0
  0
INSERT
  5
9F
330
98
100
AcDbEntity
  8
0
 62
     0
370
    -2
100
AcDbBlockReference
  2
_ArchTick
 10
3.43832618709348
 20
19.98111391715065
 30
0.0
 41
0.156
 42
0.156
 43
0.156
 50
270.0
  0
MTEXT
  5
A0
330
98
100
AcDbEntity
  8
0
 62
     0
100
AcDbMText
 10
3.438326187093477
 20
21.79270840269198
 30
0.0
 40
0.3125
 41
0.0
 71
     5
 72
     1
  1
\A1;3 7/32"
 73
     1
 44
1.0
1001
ACAD
1000
MTEXTBEGIN
1070
    73
1070
     1
1070
    44
1040
1.0
1070
    74
1070
     0
1000
MTEXTEND
  0
MTEXT
  5
A1
330
98
100
AcDbEntity
  8
0
 62
     0
100
AcDbMText
 10
3.438326187093477
 20
21.37047151634363
 30
0.0
 40
0.3125
 41
0.0
 71
     5
 72
     1
  1
\A1;[82mm]
 73
     1
 44
1.0
1001
ACAD
1000
MTEXTBEGIN
1070
    73
1070
     1
1070
    44
1040
1.0
1070
    74
1070
     0
1000
MTEXTEND
  0
POINT
  5
A2
330
98
100
AcDbEntity
  8
Defpoints
 62
     0
100
AcDbPoint
 10
5.111355200137822
 20
23.1996139171506
 30
0.0
  0
POINT
  5
A3
330
98
100
AcDbEntity
  8
Defpoints
 62
     0
100
AcDbPoint
 10
6.391064555120919
 20
19.98111391715065
 30
0.0
  0
POINT
  5
A4
330
98
100
AcDbEntity
  8
Defpoints
 62
     0
100
AcDbPoint
 10
3.43832618709348
 20
19.98111391715065
 30
0.0
  0
ENDBLK
  5
A5
330
98
100
AcDbEntity
  8
0
100
AcDbBlockEnd
  0
BLOCK
  5
A8
330
A7
100
AcDbEntity
  8
0
100
AcDbBlockBegin
  2
*D8
 70
     1
 10
0.0
 20
0.0
 30
0.0
  3
*D8
  1

  0
LINE
  5
A9
330
A7
100
AcDbEntity
  8
0
 62
     0
370
    -2
100
AcDbLine
 10
6.351064555120667
 20
18.53034162624408
 30
0.0
 11
4.663712754520423
 21
18.53034162624408
 31
0.0
  0
LINE
  5
AA
330
A7
100
AcDbEntity
  8
0
 62
     0
370
    -2
100
AcDbLine
 10
6.135355200138913
 20
16.21784162624317
 30
0.0
 11
4.663712754520422
 21
16.21784162624317
 31
0.0
  0
LINE
  5
AB
330
A7
100
AcDbEntity
  8
0
 62
     0
370
    -2
100
AcDbLine
 10
4.693712754520423
 20
18.53034162624408
 30
0.0
 11
4.693712754520422
 21
17.79632851259197
 31
0.0
  0
LINE
  5
AC
330
A7
100
AcDbEntity
  8
0
 62
     0
370
    -2
100
AcDbLine
 10
4.693712754520422
 20
16.21784162624317
 30
0.0
 11
4.693712754520422
 21
16.95185473989527
 31
0.0
  0
INSERT
  5
AD
330
A7
100
AcDbEntity
  8
0
 62
     0
370
    -2
100
AcDbBlockReference
  2
_ArchTick
 10
4.693712754520423
 20
18.53034162624408
 30
0.0
 41
0.156
 42
0.156
 43
0.156
 50
90.0
  0
INSERT
  5
AE
330
A7
100
AcDbEntity
  8
0
 62
     0
370
    -2
100
AcDbBlockReference
  2
_ArchTick
 10
4.693712754520422
 20
16.21784162624317
 30
0.0
 41
0.156
 42
0.156
 43
0.156
 50
270.0
  0
MTEXT
  5
AF
330
A7
100
AcDbEntity
  8
0
 62
     0
100
AcDbMText
 10
4.69371275452042
 20
17.57643611178498
 30
0.0
 40
0.3125
 41
0.0
 71
     5
 72
     1
  1
\A1;2 5/16"
 73
     1
 44
1.0
1001
ACAD
1000
MTEXTBEGIN
1070
    73
1070
     1
1070
    44
1040
1.0
1070
    74
1070
     0
1000
MTEXTEND
  0
MTEXT
  5
B0
330
A7
100
AcDbEntity
  8
0
 62
     0
100
AcDbMText
 10
4.69371275452042
 20
17.15419922543663
 30
0.0
 40
0.3125
 41
0.0
 71
     5
 72
     1
  1
\A1;[59mm]
 73
     1
 44
1.0
1001
ACAD
1000
MTEXTBEGIN
1070
    73
1070
     1
1070
    44
1040
1.0
1070
    74
1070
     0
1000
MTEXTEND
  0
POINT
  5
B1
330
A7
100
AcDbEntity
  8
Defpoints
 62
     0
100
AcDbPoint
 10
6.391064555120667
 20
18.53034162624408
 30
0.0
  0
POINT
  5
B2
330
A7
100
AcDbEntity
  8
Defpoints
 62
     0
100
AcDbPoint
 10
6.175355200138913
 20
16.21784162624317
 30
0.0
  0
POINT
  5
B3
330
A7
100
AcDbEntity
  8
Defpoints
 62
     0
100
AcDbPoint
 10
4.693712754520422
 20
16.21784162624317
 30
0.0
  0
ENDBLK
  5
B4
330
A7
100
AcDbEntity
  8
0
100
AcDbBlockEnd
  0
BLOCK
  5
B7
330
B6
100
AcDbEntity
  8
0
100
AcDbBlockBegin
  2
*D9
 70
     1
 10
0.0
 20
0.0
 30
0.0
  3
*D9
  1

  0
LINE
  5
B8
330
B6
100
AcDbEntity
  8
0
 62
     0
370
    -2
100
AcDbLine
 10
6.35106455512001
 20
18.53034162624499
 30
0.0
 11
3.408326187095957
 21
18.53034162624499
 31
0.0
  0
LINE
  5
B9
330
B6
100
AcDbEntity
  8
0
 62
     0
370
    -2
100
AcDbLine
 10
6.667355200137953
 20
15.31184162624322
 30
0.0
 11
3.408326187095956
 21
15.31184162624322
 31
0.0
  0
LINE
  5
BA
330
B6
100
AcDbEntity
  8
0
 62
     0
370
    -2
100
AcDbLine
 10
3.438326187095956
 20
18.53034162624499
 30
0.0
 11
3.438326187095956
 21
17.34332851259245
 31
0.0
  0
LINE
  5
BB
330
B6
100
AcDbEntity
  8
0
 62
     0
370
    -2
100
AcDbLine
 10
3.438326187095956
 20
15.31184162624322
 30
0.0
 11
3.438326187095956
 21
16.49885473989575
 31
0.0
  0
INSERT
  5
BC
330
B6
100
AcDbEntity
  8
0
 62
     0
370
    -2
100
AcDbBlockReference
  2
_ArchTick
 10
3.438326187095956
 20
18.53034162624499
 30
0.0
 41
0.156
 42
0.156
 43
0.156
 50
90.0
  0
INSERT
  5
BD
330
B6
100
AcDbEntity
  8
0
 62
     0
370
    -2
100
AcDbBlockReference
  2
_ArchTick
 10
3.438326187095956
 20
15.31184162624322
 30
0.0
 41
0.156
 42
0.156
 43
0.156
 50
270.0
  0
MTEXT
  5
BE
330
B6
100
AcDbEntity
  8
0
 62
     0
100
AcDbMText
 10
3.438326187095953
 20
17.12343611178546
 30
0.0
 40
0.3125
 41
0.0
 71
     5
 72
     1
  1
\A1;3 7/32"
 73
     1
 44
1.0
1001
ACAD
1000
MTEXTBEGIN
1070
    73
1070
     1
1070
    44
1040
1.0
1070
    74
1070
     0
1000
MTEXTEND
  0
MTEXT
  5
BF
330
B6
100
AcDbEntity
  8
0
 62
     0
100
AcDbMText
 10
3.438326187095953
 20
16.70119922543711
 30
0.0
 40
0.3125
 41
0.0
 71
     5
 72
     1
  1
\A1;[82mm]
 73
     1
 44
1.0
1001
ACAD
1000
MTEXTBEGIN
1070
    73
1070
     1
1070
    44
1040
1.0
1070
    74
1070
     0
1000
MTEXTEND
  0
POINT
  5
C0
330
B6
100
AcDbEntity
  8
Defpoints
 62
     0
100
AcDbPoint
 10
6.39106455512001
 20
18.53034162624499
 30
0.0
  0
POINT
  5
C1
330
B6
100
AcDbEntity
  8
Defpoints
 62
     0
100
AcDbPoint
 10
6.707355200137953
 20
15.31184162624322
 30
0.0
  0
POINT
  5
C2
330
B6
100
AcDbEntity
  8
Defpoints
 62
     0
100
AcDbPoint
 10
3.438326187095956
 20
15.31184162624322
 30
0.0
  0
ENDBLK
  5
C3
330
B6
100
AcDbEntity
  8
0
100
AcDbBlockEnd
  0
BLOCK
  5
C6
330
C5
100
AcDbEntity
  8
0
100
AcDbBlockBegin
  2
*D10
 70
     1
 10
0.0
 20
0.0
 30
0.0
  3
*D10
  1

  0
LINE
  5
C7
330
C5
100
AcDbEntity
  8
0
 62
     0
370
    -2
100
AcDbLine
 10
6.351064555120919
 20
19.98111391715065
 30
0.0
 11
4.663712754520674
 21
19.98111391715065
 31
0.0
  0
LINE
  5
C8
330
C5
100
AcDbEntity
  8
0
 62
     0
370
    -2
100
AcDbLine
 10
6.351064555120465
 20
18.53034162624408
 30
0.0
 11
4.663712754520674
 21
18.53034162624408
 31
0.0
  0
LINE
  5
C9
330
C5
100
AcDbEntity
  8
0
 62
     0
370
    -2
100
AcDbLine
 10
4.693712754520674
 20
19.98111391715065
 30
0.0
 11
4.693712754520674
 21
19.45807225723872
 31
0.0
  0
LINE
  5
CA
330
C5
100
AcDbEntity
  8
0
 62
     0
370
    -2
100
AcDbLine
 10
4.693712754520674
 20
18.53034162624408
 30
0.0
 11
4.693712754520674
 21
19.053383286156
 31
0.0
  0
INSERT
  5
CB
330
C5
100
AcDbEntity
  8
0
 62
     0
370
    -2
100
AcDbBlockReference
  2
_ArchTick
 10
4.693712754520674
 20
19.98111391715065
 30
0.0
 41
0.156
 42
0.156
 43
0.156
 50
90.0
  0
INSERT
  5
CC
330
C5
100
AcDbEntity
  8
0
 62
     0
370
    -2
100
AcDbBlockReference
  2
_ArchTick
 10
4.693712754520674
 20
18.53034162624408
 30
0.0
 41
0.156
 42
0.156
 43
0.156
 50
270.0
  0
MTEXT
  5
CD
330
C5
100
AcDbEntity
  8
0
 62
     0
100
AcDbMText
 10
4.693712754520671
 20
19.25572777169736
 30
0.0
 40
0.3125
 41
0.0
 71
     5
 72
     1
  1
\A1;DAYLIGHT OPENING
 73
     1
 44
1.0
1001
ACAD
1000
MTEXTBEGIN
1070
    73
1070
     1
1070
    44
1040
1.0
1070
    74
1070
     0
1000
MTEXTEND
  0
POINT
  5
CE
330
C5
100
AcDbEntity
  8
Defpoints
 62
     0
100
AcDbPoint
 10
6.391064555120919
 20
19.98111391715065
 30
0.0
  0
POINT
  5
CF
330
C5
100
AcDbEntity
  8
Defpoints
 62
     0
100
AcDbPoint
 10
6.391064555120465
 20
18.53034162624408
 30
0.0
  0
POINT
  5
D0
330
C5
100
AcDbEntity
  8
Defpoints
 62
     0
100
AcDbPoint
 10
4.693712754520674
 20
18.53034162624408
 30
0.0
  0
ENDBLK
  5
D1
330
C5
100
AcDbEntity
  8
0
100
AcDbBlockEnd
  0
BLOCK
  5
D4
330
D3
100
AcDbEntity
  8
0
100
AcDbBlockBegin
  2
*D11
 70
     1
 10
0.0
 20
0.0
 30
0.0
  3
*D11
  1

  0
LINE
  5
D5
330
D3
100
AcDbEntity
  8
0
 62
     0
370
    -2
100
AcDbLine
 10
9.6528552001378
 20
23.1996139171506
 30
0.0
 11
11.45871661207551
 21
23.1996139171506
 31
0.0
  0
LINE
  5
D6
330
D3
100
AcDbEntity
  8
0
 62
     0
370
    -2
100
AcDbLine
 10
9.6528552001378
 20
23.7621139171506
 30
0.0
 11
11.45871661207551
 21
23.7621139171506
 31
0.0
  0
LINE
  5
D7
330
D3
100
AcDbEntity
  8
0
 62
     0
370
    -2
100
AcDbLine
 10
11.42871661207552
 20
23.1996139171506
 30
0.0
 11
11.42871661207552
 21
23.7621139171506
 31
0.0
  0
LINE
  5
D8
330
D3
100
AcDbEntity
  8
0
 62
     0
370
    -2
100
AcDbLine
 10
11.42871661207552
 20
23.7621139171506
 30
0.0
 11
11.42871661207552
 21
24.43369193547642
 31
0.0
  0
LINE
  5
D9
330
D3
100
AcDbEntity
  8
0
 62
     0
370
    -2
100
AcDbLine
 10
11.42871661207552
 20
24.43369193547642
 30
0.0
 11
11.58471661207552
 21
24.43369193547642
 31
0.0
  0
INSERT
  5
DA
330
D3
100
AcDbEntity
  8
0
 62
     0
370
    -2
100
AcDbBlockReference
  2
_ArchTick
 10
11.42871661207552
 20
23.1996139171506
 30
0.0
 41
0.156
 42
0.156
 43
0.156
 50
270.0
  0
INSERT
  5
DB
330
D3
100
AcDbEntity
  8
0
 62
     0
370
    -2
100
AcDbBlockReference
  2
_ArchTick
 10
11.42871661207552
 20
23.7621139171506
 30
0.0
 41
0.156
 42
0.156
 43
0.156
 50
90.0
  0
MTEXT
  5
DC
330
D3
100
AcDbEntity
  8
0
 62
     0
100
AcDbMText
 10
12.11524206522381
 20
24.43369193547642
 30
0.0
 40
0.3125
 41
0.0
 71
     5
 72
     1
  1
\A1;9/16"\P [14mm]
 73
     1
 44
1.0
1001
ACAD
1000
MTEXTBEGIN
1070
    73
1070
     1
1070
    44
1040
1.0
1070
    74
1070
     0
1000
MTEXTEND
  0
POINT
  5
DD
330
D3
100
AcDbEntity
  8
Defpoints
 62
     0
100
AcDbPoint
 10
9.612855200137801
 20
23.1996139171506
 30
0.0
  0
POINT
  5
DE
330
D3
100
AcDbEntity
  8
Defpoints
 62
     0
100
AcDbPoint
 10
9.612855200137801
 20
23.7621139171506
 30
0.0
  0
POINT
  5
DF
330
D3
100
AcDbEntity
  8
Defpoints
 62
     0
100
AcDbPoint
 10
11.42871661207552
 20
23.7621139171506
 30
0.0
  0
ENDBLK
  5
E0
330
D3
100
AcDbEntity
  8
0
100
AcDbBlockEnd
  0
BLOCK
  5
E3
330
E2
100
AcDbEntity
  8
0
100
AcDbBlockBegin
  2
*D12
 70
     1
 10
0.0
 20
0.0
 30
0.0
  3
*D12
  1

  0
LINE
  5
E4
330
E2
100
AcDbEntity
  8
0
 62
     0
370
    -2
100
AcDbLine
 10
9.6528552001378
 20
23.7621139171506
 30
0.0
 11
12.61966862987881
 21
23.7621139171506
 31
0.0
  0
LINE
  5
E5
330
E2
100
AcDbEntity
  8
0
 62
     0
370
    -2
100
AcDbLine
 10
7.340355200137801
 20
14.62484162624332
 30
0.0
 11
12.61966862987881
 21
14.62484162624332
 31
0.0
  0
LINE
  5
E6
330
E2
100
AcDbEntity
  8
0
 62
     0
370
    -2
100
AcDbLine
 10
12.58966862987882
 20
23.7621139171506
 30
0.0
 11
12.58966862987881
 21
19.65928616667566
 31
0.0
  0
LINE
  5
E7
330
E2
100
AcDbEntity
  8
0
 62
     0
370
    -2
100
AcDbLine
 10
12.58966862987881
 20
14.62484162624332
 30
0.0
 11
12.58966862987881
 21
18.72766937671826
 31
0.0
  0
INSERT
  5
E8
330
E2
100
AcDbEntity
  8
0
 62
     0
370
    -2
100
AcDbBlockReference
  2
_ArchTick
 10
12.58966862987882
 20
23.7621139171506
 30
0.0
 41
0.156
 42
0.156
 43
0.156
 50
90.0
  0
INSERT
  5
E9
330
E2
100
AcDbEntity
  8
0
 62
     0
370
    -2
100
AcDbBlockReference
  2
_ArchTick
 10
12.58966862987881
 20
14.62484162624332
 30
0.0
 41
0.156
 42
0.156
 43
0.156
 50
270.0
  0
MTEXT
  5
EA
330
E2
100
AcDbEntity
  8
0
 62
     0
100
AcDbMText
 10
12.58966862987881
 20
19.19347777169696
 30
0.0
 40
0.3125
 41
0.0
 71
     5
 72
     1
  1
\A1;ROUGH\POPENING
 73
     1
 44
1.0
1001
ACAD
1000
MTEXTBEGIN
1070
    73
1070
     1
1070
    44
1040
1.0
1070
    74
1070
     0
1000
MTEXTEND
  0
POINT
  5
EB
330
E2
100
AcDbEntity
  8
Defpoints
 62
     0
100
AcDbPoint
 10
9.612855200137801
 20
23.7621139171506
 30
0.0
  0
POINT
  5
EC
330
E2
100
AcDbEntity
  8
Defpoints
 62
     0
100
AcDbPoint
 10
7.300355200137801
 20
14.62484162624332
 30
0.0
  0
POINT
  5
ED
330
E2
100
AcDbEntity
  8
Defpoints
 62
     0
100
AcDbPoint
 10
12.58966862987881
 20
14.62484162624332
 30
0.0
  0
ENDBLK
  5
EE
330
E2
100
AcDbEntity
  8
0
100
AcDbBlockEnd
  0
BLOCK
  5
F1
330
F0
100
AcDbEntity
  8
0
100
AcDbBlockBegin
  2
*D13
 70
     1
 10
0.0
 20
0.0
 30
0.0
  3
*D13
  1

  0
LINE
  5
F2
330
F0
100
AcDbEntity
  8
0
 62
     0
370
    -2
100
AcDbLine
 10
9.6528552001378
 20
15.31184162624322
 30
0.0
 11
11.45871661207595
 21
15.31184162624322
 31
0.0
  0
LINE
  5
F3
330
F0
100
AcDbEntity
  8
0
 62
     0
370
    -2
100
AcDbLine
 10
9.6528552001378
 20
14.62484162624332
 30
0.0
 11
11.45871661207595
 21
14.62484162624332
 31
0.0
  0
LINE
  5
F4
330
F0
100
AcDbEntity
  8
0
 62
     0
370
    -2
100
AcDbLine
 10
11.42871661207595
 20
15.31184162624322
 30
0.0
 11
11.42871661207595
 21
14.62484162624332
 31
0.0
  0
LINE
  5
F5
330
F0
100
AcDbEntity
  8
0
 62
     0
370
    -2
100
AcDbLine
 10
11.42871661207595
 20
14.62484162624332
 30
0.0
 11
11.42871661207595
 21
13.96514360959008
 31
0.0
  0
LINE
  5
F6
330
F0
100
AcDbEntity
  8
0
 62
     0
370
    -2
100
AcDbLine
 10
11.42871661207595
 20
13.96514360959008
 30
0.0
 11
11.27271661207595
 21
13.96514360959008
 31
0.0
  0
INSERT
  5
F7
330
F0
100
AcDbEntity
  8
0
 62
     0
370
    -2
100
AcDbBlockReference
  2
_ArchTick
 10
11.42871661207595
 20
15.31184162624322
 30
0.0
 41
0.156
 42
0.156
 43
0.156
 50
90.0
  0
INSERT
  5
F8
330
F0
100
AcDbEntity
  8
0
 62
     0
370
    -2
100
AcDbBlockReference
  2
_ArchTick
 10
11.42871661207595
 20
14.62484162624332
 30
0.0
 41
0.156
 42
0.156
 43
0.156
 50
270.0
  0
MTEXT
  5
F9
330
F0
100
AcDbEntity
  8
0
 62
     0
100
AcDbMText
 10
10.74219115892765
 20
13.96514360959008
 30
0.0
 40
0.3125
 41
0.0
 71
     5
 72
     1
  1
\A1;11/16"\P [17mm]
 73
     1
 44
1.0
1001
ACAD
1000
MTEXTBEGIN
1070
    73
1070
     1
1070
    44
1040
1.0
1070
    74
1070
     0
1000
MTEXTEND
  0
POINT
  5
FA
330
F0
100
AcDbEntity
  8
Defpoints
 62
     0
100
AcDbPoint
 10
9.612855200137801
 20
15.31184162624322
 30
0.0
  0
POINT
  5
FB
330
F0
100
AcDbEntity
  8
Defpoints
 62
     0
100
AcDbPoint
 10
9.612855200137801
 20
14.62484162624332
 30
0.0
  0
POINT
  5
FC
330
F0
100
AcDbEntity
  8
Defpoints
 62
     0
100
AcDbPoint
 10
11.42871661207595
 20
14.62484162624332
 30
0.0
  0
ENDBLK
  5
FD
330
F0
100
AcDbEntity
  8
0
100
AcDbBlockEnd
  0
BLOCK
  5
1E8
330
1E7
100
AcDbEntity
  8
0
100
AcDbBlockBegin
  2
*D14
 70
     1
 10
0.0
 20
0.0
 30
0.0
  3
*D14
  1

  0
LINE
  5
1E9
330
1E7
100
AcDbEntity
  8
0
 62
     0
370
    -2
100
AcDbLine
 10
4.114136680817373
 20
9.048275379875661
 30
0.0
 11
2.922748356634857
 21
9.048275379875663
 31
0.0
  0
LINE
  5
1EA
330
1E7
100
AcDbEntity
  8
0
 62
     0
370
    -2
100
AcDbLine
 10
3.348136680817751
 20
5.547775379876469
 30
0.0
 11
2.922748356634856
 21
5.547775379876469
 31
0.0
  0
LINE
  5
1EB
330
1E7
100
AcDbEntity
  8
0
 62
     0
370
    -2
100
AcDbLine
 10
2.952748356634857
 20
9.048275379875663
 30
0.0
 11
2.952748356634856
 21
7.720262266224419
 31
0.0
  0
LINE
  5
1EC
330
1E7
100
AcDbEntity
  8
0
 62
     0
370
    -2
100
AcDbLine
 10
2.952748356634856
 20
5.547775379876469
 30
0.0
 11
2.952748356634856
 21
6.875788493527713
 31
0.0
  0
INSERT
  5
1ED
330
1E7
100
AcDbEntity
  8
0
 62
     0
370
    -2
100
AcDbBlockReference
  2
_ArchTick
 10
2.952748356634857
 20
9.048275379875663
 30
0.0
 41
0.156
 42
0.156
 43
0.156
 50
90.0
  0
INSERT
  5
1EE
330
1E7
100
AcDbEntity
  8
0
 62
     0
370
    -2
100
AcDbBlockReference
  2
_ArchTick
 10
2.952748356634856
 20
5.547775379876469
 30
0.0
 41
0.156
 42
0.156
 43
0.156
 50
270.0
  0
MTEXT
  5
1EF
330
1E7
100
AcDbEntity
  8
0
 62
     0
100
AcDbMText
 10
2.952748356634855
 20
7.500369865417425
 30
0.0
 40
0.3125
 41
0.0
 71
     5
 72
     1
  1
\A1;3 1/2"
 73
     1
 44
1.0
1001
ACAD
1000
MTEXTBEGIN
1070
    73
1070
     1
1070
    44
1040
1.0
1070
    74
1070
     0
1000
MTEXTEND
  0
MTEXT
  5
1F0
330
1E7
100
AcDbEntity
  8
0
 62
     0
100
AcDbMText
 10
2.952748356634855
 20
7.078132979069073
 30
0.0
 40
0.3125
 41
0.0
 71
     5
 72
     1
  1
\A1;[89mm]
 73
     1
 44
1.0
1001
ACAD
1000
MTEXTBEGIN
1070
    73
1070
     1
1070
    44
1040
1.0
1070
    74
1070
     0
1000
MTEXTEND
  0
POINT
  5
1F1
330
1E7
100
AcDbEntity
  8
Defpoints
 62
     0
100
AcDbPoint
 10
4.154136680817373
 20
9.048275379875661
 30
0.0
  0
POINT
  5
1F2
330
1E7
100
AcDbEntity
  8
Defpoints
 62
     0
100
AcDbPoint
 10
3.388136680817751
 20
5.547775379876469
 30
0.0
  0
POINT
  5
1F3
330
1E7
100
AcDbEntity
  8
Defpoints
 62
     0
100
AcDbPoint
 10
2.952748356634856
 20
5.547775379876469
 30
0.0
  0
ENDBLK
  5
1F4
330
1E7
100
AcDbEntity
  8
0
100
AcDbBlockEnd
  0
BLOCK
  5
1F9
330
1F8
100
AcDbEntity
  8
0
100
AcDbBlockBegin
  2
*D15
 70
     1
 10
0.0
 20
0.0
 30
0.0
  3
*D15
  1

  0
LINE
  5
1FA
330
1F8
100
AcDbEntity
  8
0
 62
     0
370
    -2
100
AcDbLine
 10
7.372636680817322
 20
5.78648473485878
 30
0.0
 11
7.372636680817322
 21
4.09913293425808
 31
0.0
  0
LINE
  5
1FB
330
1F8
100
AcDbEntity
  8
0
 62
     0
370
    -2
100
AcDbLine
 10
5.060136680817322
 20
5.570775379875661
 30
0.0
 11
5.060136680817322
 21
4.09913293425808
 31
0.0
  0
LINE
  5
1FC
330
1F8
100
AcDbEntity
  8
0
 62
     0
370
    -2
100
AcDbLine
 10
7.372636680817322
 20
4.12913293425808
 30
0.0
 11
6.734281857127142
 21
4.12913293425808
 31
0.0
  0
LINE
  5
1FD
330
1F8
100
AcDbEntity
  8
0
 62
     0
370
    -2
100
AcDbLine
 10
5.060136680817322
 20
4.12913293425808
 30
0.0
 11
5.698491504507502
 21
4.12913293425808
 31
0.0
  0
INSERT
  5
1FE
330
1F8
100
AcDbEntity
  8
0
 62
     0
370
    -2
100
AcDbBlockReference
  2
_ArchTick
 10
7.372636680817322
 20
4.12913293425808
 30
0.0
 41
0.156
 42
0.156
 43
0.156
  0
INSERT
  5
1FF
330
1F8
100
AcDbEntity
  8
0
 62
     0
370
    -2
100
AcDbBlockReference
  2
_ArchTick
 10
5.060136680817322
 20
4.12913293425808
 30
0.0
 41
0.156
 42
0.156
 43
0.156
 50
180.0
  0
MTEXT
  5
200
330
1F8
100
AcDbEntity
  8
0
 62
     0
100
AcDbMText
 10
6.216386680817322
 20
4.331477419799439
 30
0.0
 40
0.3125
 41
0.0
 71
     5
 72
     1
  1
\A1;2 5/16"
 73
     1
 44
1.0
1001
ACAD
1000
MTEXTBEGIN
1070
    73
1070
     1
1070
    44
1040
1.0
1070
    74
1070
     0
1000
MTEXTEND
  0
MTEXT
  5
201
330
1F8
100
AcDbEntity
  8
0
 62
     0
100
AcDbMText
 10
6.216386680817322
 20
3.909240533451086
 30
0.0
 40
0.3125
 41
0.0
 71
     5
 72
     1
  1
\A1;[59mm]
 73
     1
 44
1.0
1001
ACAD
1000
MTEXTBEGIN
1070
    73
1070
     1
1070
    44
1040
1.0
1070
    74
1070
     0
1000
MTEXTEND
  0
POINT
  5
202
330
1F8
100
AcDbEntity
  8
Defpoints
 62
     0
100
AcDbPoint
 10
7.372636680817322
 20
5.82648473485878
 30
0.0
  0
POINT
  5
203
330
1F8
100
AcDbEntity
  8
Defpoints
 62
     0
100
AcDbPoint
 10
5.060136680817322
 20
5.610775379875661
 30
0.0
  0
POINT
  5
204
330
1F8
100
AcDbEntity
  8
Defpoints
 62
     0
100
AcDbPoint
 10
5.060136680817322
 20
4.12913293425808
 30
0.0
  0
ENDBLK
  5
205
330
1F8
100
AcDbEntity
  8
0
100
AcDbBlockEnd
  0
BLOCK
  5
208
330
207
100
AcDbEntity
  8
0
100
AcDbBlockBegin
  2
*D16
 70
     1
 10
0.0
 20
0.0
 30
0.0
  3
*D16
  1

  0
LINE
  5
209
330
207
100
AcDbEntity
  8
0
 62
     0
370
    -2
100
AcDbLine
 10
4.154136680817373
 20
4.506775379876265
 30
0.0
 11
4.154136680817373
 21
2.843746366830885
 31
0.0
  0
LINE
  5
20A
330
207
100
AcDbEntity
  8
0
 62
     0
370
    -2
100
AcDbLine
 10
7.372636680817322
 20
5.78648473485878
 30
0.0
 11
7.372636680817322
 21
2.843746366830886
 31
0.0
  0
LINE
  5
20B
330
207
100
AcDbEntity
  8
0
 62
     0
370
    -2
100
AcDbLine
 10
4.154136680817373
 20
2.873746366830886
 30
0.0
 11
5.242101474322896
 21
2.873746366830886
 31
0.0
  0
LINE
  5
20C
330
207
100
AcDbEntity
  8
0
 62
     0
370
    -2
100
AcDbLine
 10
7.372636680817322
 20
2.873746366830886
 30
0.0
 11
6.284671887311799
 21
2.873746366830886
 31
0.0
  0
INSERT
  5
20D
330
207
100
AcDbEntity
  8
0
 62
     0
370
    -2
100
AcDbBlockReference
  2
_ArchTick
 10
4.154136680817373
 20
2.873746366830886
 30
0.0
 41
0.156
 42
0.156
 43
0.156
 50
180.0
  0
INSERT
  5
20E
330
207
100
AcDbEntity
  8
0
 62
     0
370
    -2
100
AcDbBlockReference
  2
_ArchTick
 10
7.372636680817322
 20
2.873746366830886
 30
0.0
 41
0.156
 42
0.156
 43
0.156
  0
MTEXT
  5
20F
330
207
100
AcDbEntity
  8
0
 62
     0
100
AcDbMText
 10
5.763386680817347
 20
3.076090852372244
 30
0.0
 40
0.3125
 41
0.0
 71
     5
 72
     1
  1
\A1;3 7/32"
 73
     1
 44
1.0
1001
ACAD
1000
MTEXTBEGIN
1070
    73
1070
     1
1070
    44
1040
1.0
1070
    74
1070
     0
1000
MTEXTEND
  0
MTEXT
  5
210
330
207
100
AcDbEntity
  8
0
 62
     0
100
AcDbMText
 10
5.763386680817347
 20
2.653853966023892
 30
0.0
 40
0.3125
 41
0.0
 71
     5
 72
     1
  1
\A1;[82mm]
 73
     1
 44
1.0
1001
ACAD
1000
MTEXTBEGIN
1070
    73
1070
     1
1070
    44
1040
1.0
1070
    74
1070
     0
1000
MTEXTEND
  0
POINT
  5
211
330
207
100
AcDbEntity
  8
Defpoints
 62
     0
100
AcDbPoint
 10
4.154136680817373
 20
4.546775379876265
 30
0.0
  0
POINT
  5
212
330
207
100
AcDbEntity
  8
Defpoints
 62
     0
100
AcDbPoint
 10
7.372636680817322
 20
5.82648473485878
 30
0.0
  0
POINT
  5
213
330
207
100
AcDbEntity
  8
Defpoints
 62
     0
100
AcDbPoint
 10
7.372636680817322
 20
2.873746366830886
 30
0.0
  0
ENDBLK
  5
214
330
207
100
AcDbEntity
  8
0
100
AcDbBlockEnd
  0
BLOCK
  5
219
330
218
100
AcDbEntity
  8
0
100
AcDbBlockBegin
  2
*D17
 70
     1
 10
0.0
 20
0.0
 30
0.0
  3
*D17
  1

  0
LINE
  5
21A
330
218
100
AcDbEntity
  8
0
 62
     0
370
    -2
100
AcDbLine
 10
6.770136680817322
 20
5.485775379875661
 30
0.0
 11
6.439733488349983
 21
5.485775379875661
 31
0.0
  0
LINE
  5
21B
330
218
100
AcDbEntity
  8
0
 62
     0
370
    -2
100
AcDbLine
 10
6.770136680817322
 20
7.109499503144974
 30
0.0
 11
6.439733488349983
 21
7.109499503144974
 31
0.0
  0
LINE
  5
21C
330
218
100
AcDbEntity
  8
0
 62
     0
370
    -2
100
AcDbLine
 10
6.469733488349983
 20
5.485775379875661
 30
0.0
 11
6.469733488349984
 21
7.109499503144974
 31
0.0
  0
LINE
  5
21D
330
218
100
AcDbEntity
  8
0
 62
     0
370
    -2
100
AcDbLine
 10
6.469733488349984
 20
7.109499503144974
 30
0.0
 11
6.469733488349984
 21
7.677715181282982
 31
0.0
  0
LINE
  5
21E
330
218
100
AcDbEntity
  8
0
 62
     0
370
    -2
100
AcDbLine
 10
6.469733488349984
 20
7.677715181282982
 30
0.0
 11
6.625733488349983
 21
7.677715181282982
 31
0.0
  0
INSERT
  5
21F
330
218
100
AcDbEntity
  8
0
 62
     0
370
    -2
100
AcDbBlockReference
  2
_ArchTick
 10
6.469733488349983
 20
5.485775379875661
 30
0.0
 41
0.156
 42
0.156
 43
0.156
 50
270.0
  0
INSERT
  5
220
330
218
100
AcDbEntity
  8
0
 62
     0
370
    -2
100
AcDbBlockReference
  2
_ArchTick
 10
6.469733488349984
 20
7.109499503144974
 30
0.0
 41
0.156
 42
0.156
 43
0.156
 50
90.0
  0
MTEXT
  5
221
330
218
100
AcDbEntity
  8
0
 62
     0
100
AcDbMText
 10
7.15625894149828
 20
7.677715181282984
 30
0.0
 40
0.3125
 41
0.0
 71
     5
 72
     1
  1
\A1;1 5/8"\P [41mm]
 73
     1
 44
1.0
1001
ACAD
1000
MTEXTBEGIN
1070
    73
1070
     1
1070
    44
1040
1.0
1070
    74
1070
     0
1000
MTEXTEND
  0
POINT
  5
222
330
218
100
AcDbEntity
  8
Defpoints
 62
     0
100
AcDbPoint
 10
6.810136680817322
 20
5.485775379875661
 30
0.0
  0
POINT
  5
223
330
218
100
AcDbEntity
  8
Defpoints
 62
     0
100
AcDbPoint
 10
6.810136680817322
 20
7.109499503144974
 30
0.0
  0
POINT
  5
224
330
218
100
AcDbEntity
  8
Defpoints
 62
     0
100
AcDbPoint
 10
6.469733488349984
 20
7.109499503144974
 30
0.0
  0
ENDBLK
  5
225
330
218
100
AcDbEntity
  8
0
100
AcDbBlockEnd
  0
BLOCK
  5
251
330
250
100
AcDbEntity
  8
0
100
AcDbBlockBegin
  2
*D18
 70
     1
 10
0.0
 20
0.0
 30
0.0
  3
*D18
  1

  0
LINE
  5
252
330
250
100
AcDbEntity
  8
0
 62
     0
370
    -2
100
AcDbLine
 10
9.795961083581005
 20
5.78648473485878
 30
0.0
 11
9.795961083581005
 21
4.09913293425808
 31
0.0
  0
LINE
  5
253
330
250
100
AcDbEntity
  8
0
 62
     0
370
    -2
100
AcDbLine
 10
12.108461083581
 20
5.570775379875661
 30
0.0
 11
12.108461083581
 21
4.09913293425808
 31
0.0
  0
LINE
  5
254
330
250
100
AcDbEntity
  8
0
 62
     0
370
    -2
100
AcDbLine
 10
9.795961083581005
 20
4.12913293425808
 30
0.0
 11
10.43431590727118
 21
4.12913293425808
 31
0.0
  0
LINE
  5
255
330
250
100
AcDbEntity
  8
0
 62
     0
370
    -2
100
AcDbLine
 10
12.108461083581
 20
4.12913293425808
 30
0.0
 11
11.47010625989082
 21
4.12913293425808
 31
0.0
  0
INSERT
  5
256
330
250
100
AcDbEntity
  8
0
 62
     0
370
    -2
100
AcDbBlockReference
  2
_ArchTick
 10
9.795961083581005
 20
4.12913293425808
 30
0.0
 41
0.156
 42
0.156
 43
0.156
 50
180.0
  0
INSERT
  5
257
330
250
100
AcDbEntity
  8
0
 62
     0
370
    -2
100
AcDbBlockReference
  2
_ArchTick
 10
12.108461083581
 20
4.12913293425808
 30
0.0
 41
0.156
 42
0.156
 43
0.156
  0
MTEXT
  5
258
330
250
100
AcDbEntity
  8
0
 62
     0
100
AcDbMText
 10
10.952211083581
 20
4.331477419799439
 30
0.0
 40
0.3125
 41
0.0
 71
     5
 72
     1
  1
\A1;2 5/16"
 73
     1
 44
1.0
1001
ACAD
1000
MTEXTBEGIN
1070
    73
1070
     1
1070
    44
1040
1.0
1070
    74
1070
     0
1000
MTEXTEND
  0
MTEXT
  5
259
330
250
100
AcDbEntity
  8
0
 62
     0
100
AcDbMText
 10
10.952211083581
 20
3.909240533451086
 30
0.0
 40
0.3125
 41
0.0
 71
     5
 72
     1
  1
\A1;[59mm]
 73
     1
 44
1.0
1001
ACAD
1000
MTEXTBEGIN
1070
    73
1070
     1
1070
    44
1040
1.0
1070
    74
1070
     0
1000
MTEXTEND
  0
POINT
  5
25A
330
250
100
AcDbEntity
  8
Defpoints
 62
     0
100
AcDbPoint
 10
9.795961083581005
 20
5.82648473485878
 30
0.0
  0
POINT
  5
25B
330
250
100
AcDbEntity
  8
Defpoints
 62
     0
100
AcDbPoint
 10
12.108461083581
 20
5.610775379875661
 30
0.0
  0
POINT
  5
25C
330
250
100
AcDbEntity
  8
Defpoints
 62
     0
100
AcDbPoint
 10
12.108461083581
 20
4.12913293425808
 30
0.0
  0
ENDBLK
  5
25D
330
250
100
AcDbEntity
  8
0
100
AcDbBlockEnd
  0
BLOCK
  5
260
330
25F
100
AcDbEntity
  8
0
100
AcDbBlockBegin
  2
*D19
 70
     1
 10
0.0
 20
0.0
 30
0.0
  3
*D19
  1

  0
LINE
  5
261
330
25F
100
AcDbEntity
  8
0
 62
     0
370
    -2
100
AcDbLine
 10
13.01446108358095
 20
4.506775379876265
 30
0.0
 11
13.01446108358095
 21
2.843746366830885
 31
0.0
  0
LINE
  5
262
330
25F
100
AcDbEntity
  8
0
 62
     0
370
    -2
100
AcDbLine
 10
9.795961083581005
 20
5.78648473485878
 30
0.0
 11
9.795961083581005
 21
2.843746366830886
 31
0.0
  0
LINE
  5
263
330
25F
100
AcDbEntity
  8
0
 62
     0
370
    -2
100
AcDbLine
 10
13.01446108358095
 20
2.873746366830886
 30
0.0
 11
11.92649629007543
 21
2.873746366830886
 31
0.0
  0
LINE
  5
264
330
25F
100
AcDbEntity
  8
0
 62
     0
370
    -2
100
AcDbLine
 10
9.795961083581005
 20
2.873746366830886
 30
0.0
 11
10.88392587708653
 21
2.873746366830886
 31
0.0
  0
INSERT
  5
265
330
25F
100
AcDbEntity
  8
0
 62
     0
370
    -2
100
AcDbBlockReference
  2
_ArchTick
 10
13.01446108358095
 20
2.873746366830886
 30
0.0
 41
0.156
 42
0.156
 43
0.156
  0
INSERT
  5
266
330
25F
100
AcDbEntity
  8
0
 62
     0
370
    -2
100
AcDbBlockReference
  2
_ArchTick
 10
9.795961083581005
 20
2.873746366830886
 30
0.0
 41
0.156
 42
0.156
 43
0.156
 50
180.0
  0
MTEXT
  5
267
330
25F
100
AcDbEntity
  8
0
 62
     0
100
AcDbMText
 10
11.40521108358098
 20
3.076090852372244
 30
0.0
 40
0.3125
 41
0.0
 71
     5
 72
     1
  1
\A1;3 7/32"
 73
     1
 44
1.0
1001
ACAD
1000
MTEXTBEGIN
1070
    73
1070
     1
1070
    44
1040
1.0
1070
    74
1070
     0
1000
MTEXTEND
  0
MTEXT
  5
268
330
25F
100
AcDbEntity
  8
0
 62
     0
100
AcDbMText
 10
11.40521108358098
 20
2.653853966023892
 30
0.0
 40
0.3125
 41
0.0
 71
     5
 72
     1
  1
\A1;[82mm]
 73
     1
 44
1.0
1001
ACAD
1000
MTEXTBEGIN
1070
    73
1070
     1
1070
    44
1040
1.0
1070
    74
1070
     0
1000
MTEXTEND
  0
POINT
  5
269
330
25F
100
AcDbEntity
  8
Defpoints
 62
     0
100
AcDbPoint
 10
13.01446108358095
 20
4.546775379876265
 30
0.0
  0
POINT
  5
26A
330
25F
100
AcDbEntity
  8
Defpoints
 62
     0
100
AcDbPoint
 10
9.795961083581005
 20
5.82648473485878
 30
0.0
  0
POINT
  5
26B
330
25F
100
AcDbEntity
  8
Defpoints
 62
     0
100
AcDbPoint
 10
9.795961083581005
 20
2.873746366830886
 30
0.0
  0
ENDBLK
  5
26C
330
25F
100
AcDbEntity
  8
0
100
AcDbBlockEnd
  0
BLOCK
  5
271
330
270
100
AcDbEntity
  8
0
100
AcDbBlockBegin
  2
*D20
 70
     1
 10
0.0
 20
0.0
 30
0.0
  3
*D20
  1

  0
LINE
  5
272
330
270
100
AcDbEntity
  8
0
 62
     0
370
    -2
100
AcDbLine
 10
7.372636680817322
 20
5.78648473485878
 30
0.0
 11
7.372636680817322
 21
4.09913293425808
 31
0.0
  0
LINE
  5
273
330
270
100
AcDbEntity
  8
0
 62
     0
370
    -2
100
AcDbLine
 10
9.795961083581005
 20
5.786484734857871
 30
0.0
 11
9.795961083581005
 21
4.09913293425808
 31
0.0
  0
LINE
  5
274
330
270
100
AcDbEntity
  8
0
 62
     0
370
    -2
100
AcDbLine
 10
7.372636680817322
 20
4.12913293425808
 30
0.0
 11
7.984222720684232
 21
4.12913293425808
 31
0.0
  0
LINE
  5
275
330
270
100
AcDbEntity
  8
0
 62
     0
370
    -2
100
AcDbLine
 10
9.795961083581005
 20
4.12913293425808
 30
0.0
 11
9.184375043714094
 21
4.12913293425808
 31
0.0
  0
INSERT
  5
276
330
270
100
AcDbEntity
  8
0
 62
     0
370
    -2
100
AcDbBlockReference
  2
_ArchTick
 10
7.372636680817322
 20
4.12913293425808
 30
0.0
 41
0.156
 42
0.156
 43
0.156
 50
180.0
  0
INSERT
  5
277
330
270
100
AcDbEntity
  8
0
 62
     0
370
    -2
100
AcDbBlockReference
  2
_ArchTick
 10
9.795961083581005
 20
4.12913293425808
 30
0.0
 41
0.156
 42
0.156
 43
0.156
  0
MTEXT
  5
278
330
270
100
AcDbEntity
  8
0
 62
     0
100
AcDbMText
 10
8.584298882199163
 20
4.12913293425808
 30
0.0
 40
0.3125
 41
0.0
 71
     5
 72
     1
  1
\A1;DAYLIGHT\POPENING
 73
     1
 44
1.0
1001
ACAD
1000
MTEXTBEGIN
1070
    73
1070
     1
1070
    44
1040
1.0
1070
    74
1070
     0
1000
MTEXTEND
  0
POINT
  5
279
330
270
100
AcDbEntity
  8
Defpoints
 62
     0
100
AcDbPoint
 10
7.372636680817322
 20
5.82648473485878
 30
0.0
  0
POINT
  5
27A
330
270
100
AcDbEntity
  8
Defpoints
 62
     0
100
AcDbPoint
 10
9.795961083581005
 20
5.826484734857871
 30
0.0
  0
POINT
  5
27B
330
270
100
AcDbEntity
  8
Defpoints
 62
     0
100
AcDbPoint
 10
9.795961083581005
 20
4.12913293425808
 30
0.0
  0
ENDBLK
  5
27C
330
270
100
AcDbEntity
  8
0
100
AcDbBlockEnd
  0
BLOCK
  5
281
330
280
100
AcDbEntity
  8
0
100
AcDbBlockBegin
  2
*D21
 70
     1
 10
0.0
 20
0.0
 30
0.0
  3
*D21
  1

  0
LINE
  5
282
330
280
100
AcDbEntity
  8
0
 62
     0
370
    -2
100
AcDbLine
 10
12.34346108358068
 20
7.09127537987529
 30
0.0
 11
12.34346108358068
 21
6.971962540557172
 31
0.0
  0
LINE
  5
283
330
280
100
AcDbEntity
  8
0
 62
     0
370
    -2
100
AcDbLine
 10
13.01446108358095
 20
7.09127537987529
 30
0.0
 11
13.01446108358095
 21
6.971962540557172
 31
0.0
  0
LINE
  5
284
330
280
100
AcDbEntity
  8
0
 62
     0
370
    -2
100
AcDbLine
 10
12.34346108358068
 20
7.001962540557173
 30
0.0
 11
13.01446108358095
 21
7.001962540557173
 31
0.0
  0
LINE
  5
285
330
280
100
AcDbEntity
  8
0
 62
     0
370
    -2
100
AcDbLine
 10
13.01446108358095
 20
7.001962540557173
 30
0.0
 11
13.17046108358095
 21
7.001962540557173
 31
0.0
  0
INSERT
  5
286
330
280
100
AcDbEntity
  8
0
 62
     0
370
    -2
100
AcDbBlockReference
  2
_ArchTick
 10
12.34346108358068
 20
7.001962540557173
 30
0.0
 41
0.156
 42
0.156
 43
0.156
 50
180.0
  0
INSERT
  5
287
330
280
100
AcDbEntity
  8
0
 62
     0
370
    -2
100
AcDbBlockReference
  2
_ArchTick
 10
13.01446108358095
 20
7.001962540557173
 30
0.0
 41
0.156
 42
0.156
 43
0.156
  0
MTEXT
  5
288
330
280
100
AcDbEntity
  8
0
 62
     0
100
AcDbMText
 10
13.61339934159891
 20
7.204307026098531
 30
0.0
 40
0.3125
 41
0.0
 71
     5
 72
     1
  1
\A1;11/16"
 73
     1
 44
1.0
1001
ACAD
1000
MTEXTBEGIN
1070
    73
1070
     1
1070
    44
1040
1.0
1070
    74
1070
     0
1000
MTEXTEND
  0
MTEXT
  5
289
330
280
100
AcDbEntity
  8
0
 62
     0
100
AcDbMText
 10
13.61339934159891
 20
6.782070139750179
 30
0.0
 40
0.3125
 41
0.0
 71
     5
 72
     1
  1
\A1;[17mm]
 73
     1
 44
1.0
1001
ACAD
1000
MTEXTBEGIN
1070
    73
1070
     1
1070
    44
1040
1.0
1070
    74
1070
     0
1000
MTEXTEND
  0
POINT
  5
28A
330
280
100
AcDbEntity
  8
Defpoints
 62
     0
100
AcDbPoint
 10
12.34346108358068
 20
7.13127537987529
 30
0.0
  0
POINT
  5
28B
330
280
100
AcDbEntity
  8
Defpoints
 62
     0
100
AcDbPoint
 10
13.01446108358095
 20
7.13127537987529
 30
0.0
  0
POINT
  5
28C
330
280
100
AcDbEntity
  8
Defpoints
 62
     0
100
AcDbPoint
 10
13.01446108358095
 20
7.001962540557173
 30
0.0
  0
ENDBLK
  5
28D
330
280
100
AcDbEntity
  8
0
100
AcDbBlockEnd
  0
BLOCK
  5
2A7
330
2A6
100
AcDbEntity
  8
0
 62
     5
100
AcDbBlockBegin
  2
8 x 2 FH
 70
     0
 10
0.0
 20
0.0
 30
0.0
  3
8 x 2 FH
  1

  0
LINE
  5
2A8
330
2A6
100
AcDbEntity
  8
Screw
 62
     7
370
     9
100
AcDbLine
 10
-0.0825000000012324
 20
-0.8123601098773178
 30
0.0
 11
-0.0600000000013097
 21
-0.7993697288206932
 31
0.0
  0
LINE
  5
2A9
330
2A6
100
AcDbEntity
  8
Screw
 62
     7
370
     9
100
AcDbLine
 10
-0.0825000000012324
 20
-0.8123601098775452
 30
0.0
 11
-0.0600000000013097
 21
-0.82535049093417
 31
0.0
  0
LINE
  5
2AA
330
2A6
100
AcDbEntity
  8
Screw
 62
     7
370
     9
100
AcDbLine
 10
-0.0600000000013097
 20
-0.8253504909340563
 30
0.0
 11
-0.0600000000013097
 21
-0.8651591038204742
 31
0.0
  0
LINE
  5
2AB
330
2A6
100
AcDbEntity
  8
Screw
 62
     7
370
     9
100
AcDbLine
 10
0.0599999999988086
 20
-0.7965948700733634
 30
0.0
 11
0.0599999999988086
 21
-0.8364034829597812
 31
0.0
  0
LINE
  5
2AC
330
2A6
100
AcDbEntity
  8
Screw
 62
     7
370
     9
100
AcDbLine
 10
0.0824999999987313
 20
-0.7836044890165113
 30
0.0
 11
0.0599999999988086
 21
-0.7965948700733634
 31
0.0
  0
LINE
  5
2AD
330
2A6
100
AcDbEntity
  8
Screw
 62
     7
370
     9
100
AcDbLine
 10
0.0824999999987313
 20
-0.7836044890165113
 30
0.0
 11
0.0599999999988086
 21
-0.7706141079598865
 31
0.0
  0
LINE
  5
2AE
330
2A6
100
AcDbEntity
  8
Screw
 62
     7
370
     9
100
AcDbLine
 10
0.0824999999987313
 20
-0.7836044890165113
 30
0.0
 11
-0.0825000000013461
 21
-0.8123601098774315
 31
0.0
  0
LINE
  5
2AF
330
2A6
100
AcDbEntity
  8
Screw
 62
     7
370
     9
100
AcDbLine
 10
-0.0825000000012324
 20
-1.009728234877343
 30
0.0
 11
-0.0600000000013097
 21
-0.9967378538207185
 31
0.0
  0
LINE
  5
2B0
330
2A6
100
AcDbEntity
  8
Screw
 62
     7
370
     9
100
AcDbLine
 10
-0.0825000000012324
 20
-1.00972823487757
 30
0.0
 11
-0.0600000000013097
 21
-1.022718615934195
 31
0.0
  0
LINE
  5
2B1
330
2A6
100
AcDbEntity
  8
Screw
 62
     7
370
     9
100
AcDbLine
 10
-0.0825000000012324
 20
-0.9439388598774485
 30
0.0
 11
-0.0600000000013097
 21
-0.9569292409343006
 31
0.0
  0
LINE
  5
2B2
330
2A6
100
AcDbEntity
  8
Screw
 62
     7
370
     9
100
AcDbLine
 10
-0.0825000000012324
 20
-0.9439388598774485
 30
0.0
 11
-0.0600000000013097
 21
-0.93094847882071
 31
0.0
  0
LINE
  5
2B3
330
2A6
100
AcDbEntity
  8
Screw
 62
     7
370
     9
100
AcDbLine
 10
-0.0600000000013097
 20
-0.9569292409339595
 30
0.0
 11
-0.0600000000013097
 21
-0.9967378538206048
 31
0.0
  0
LINE
  5
2B4
330
2A6
100
AcDbEntity
  8
Screw
 62
     7
370
     9
100
AcDbLine
 10
-0.0600000000013097
 20
-0.1430000000001428
 30
0.0
 11
-0.0600000000013097
 21
-0.7993697288205795
 31
0.0
  0
LINE
  5
2B5
330
2A6
100
AcDbEntity
  8
Screw
 62
     7
370
     9
100
AcDbLine
 10
-0.0600000000013097
 20
-0.8911398659340648
 30
0.0
 11
-0.0600000000013097
 21
-0.9309484788204827
 31
0.0
  0
LINE
  5
2B6
330
2A6
100
AcDbEntity
  8
Screw
 62
     7
370
     9
100
AcDbLine
 10
-0.0825000000012324
 20
-0.8781494848775537
 30
0.0
 11
-0.0600000000013097
 21
-0.8911398659341784
 31
0.0
  0
LINE
  5
2B7
330
2A6
100
AcDbEntity
  8
Screw
 62
     7
370
     9
100
AcDbLine
 10
-0.0825000000012324
 20
-0.8781494848773263
 30
0.0
 11
-0.0600000000013097
 21
-0.8651591038207016
 31
0.0
  0
LINE
  5
2B8
330
2A6
100
AcDbEntity
  8
Screw
 62
     7
370
     9
100
AcDbLine
 10
-0.0600000000013097
 20
-1.022718615934081
 30
0.0
 11
-0.0600000000013097
 21
-1.062527228820499
 31
0.0
  0
LINE
  5
2B9
330
2A6
100
AcDbEntity
  8
Screw
 62
     7
370
     9
100
AcDbLine
 10
-0.0825000000012324
 20
-1.14130698487736
 30
0.0
 11
-0.0600000000013097
 21
-1.128316603820735
 31
0.0
  0
LINE
  5
2BA
330
2A6
100
AcDbEntity
  8
Screw
 62
     7
370
     9
100
AcDbLine
 10
-0.0825000000012324
 20
-1.141306984877587
 30
0.0
 11
-0.0600000000013097
 21
-1.154297365934212
 31
0.0
  0
LINE
  5
2BB
330
2A6
100
AcDbEntity
  8
Screw
 62
     7
370
     9
100
AcDbLine
 10
-0.0825000000012324
 20
-1.075517609877465
 30
0.0
 11
-0.0600000000013097
 21
-1.088507990934317
 31
0.0
  0
LINE
  5
2BC
330
2A6
100
AcDbEntity
  8
Screw
 62
     7
370
     9
100
AcDbLine
 10
-0.0825000000012324
 20
-1.075517609877465
 30
0.0
 11
-0.0600000000013097
 21
-1.062527228820727
 31
0.0
  0
LINE
  5
2BD
330
2A6
100
AcDbEntity
  8
Screw
 62
     7
370
     9
100
AcDbLine
 10
-0.0600000000013097
 20
-1.154297365934098
 30
0.0
 11
-0.0600000000013097
 21
-1.194105978820516
 31
0.0
  0
LINE
  5
2BE
330
2A6
100
AcDbEntity
  8
Screw
 62
     7
370
     9
100
AcDbLine
 10
-0.0600000000013097
 20
-1.088507990933976
 30
0.0
 11
-0.0600000000013097
 21
-1.128316603820621
 31
0.0
  0
LINE
  5
2BF
330
2A6
100
AcDbEntity
  8
Screw
 62
     7
370
     9
100
AcDbLine
 10
0.0599999999988086
 20
-0.9281736200732666
 30
0.0
 11
0.0599999999988086
 21
-0.9679822329599119
 31
0.0
  0
LINE
  5
2C0
330
2A6
100
AcDbEntity
  8
Screw
 62
     7
370
     9
100
AcDbLine
 10
0.0824999999987313
 20
-0.9151832390166418
 30
0.0
 11
0.0599999999988086
 21
-0.9281736200732666
 31
0.0
  0
LINE
  5
2C1
330
2A6
100
AcDbEntity
  8
Screw
 62
     7
370
     9
100
AcDbLine
 10
0.0824999999987313
 20
-0.9809726140165366
 30
0.0
 11
0.0599999999988086
 21
-0.9939629950733888
 31
0.0
  0
LINE
  5
2C2
330
2A6
100
AcDbEntity
  8
Screw
 62
     7
370
     9
100
AcDbLine
 10
0.0824999999987313
 20
-0.9809726140165366
 30
0.0
 11
0.0599999999988086
 21
-0.9679822329599119
 31
0.0
  0
LINE
  5
2C3
330
2A6
100
AcDbEntity
  8
Screw
 62
     7
370
     9
100
AcDbLine
 10
0.0824999999987313
 20
-0.9151832390166418
 30
0.0
 11
-0.0825000000013461
 21
-0.9439388598774485
 31
0.0
  0
LINE
  5
2C4
330
2A6
100
AcDbEntity
  8
Screw
 62
     7
370
     9
100
AcDbLine
 10
0.0824999999987313
 20
-0.9809726140165366
 30
0.0
 11
-0.0825000000013461
 21
-1.009728234877456
 31
0.0
  0
LINE
  5
2C5
330
2A6
100
AcDbEntity
  8
Screw
 62
     7
370
     9
100
AcDbLine
 10
0.0824999999987313
 20
-0.9151832390166418
 30
0.0
 11
0.0599999999988086
 21
-0.9021928579599034
 31
0.0
  0
LINE
  5
2C6
330
2A6
100
AcDbEntity
  8
Screw
 62
     7
370
     9
100
AcDbLine
 10
0.0824999999987313
 20
-0.8493938640165197
 30
0.0
 11
-0.0825000000013461
 21
-0.87814948487744
 31
0.0
  0
LINE
  5
2C7
330
2A6
100
AcDbEntity
  8
Screw
 62
     7
370
     9
100
AcDbLine
 10
0.0824999999987313
 20
-0.8493938640165197
 30
0.0
 11
0.0599999999988086
 21
-0.8364034829598949
 31
0.0
  0
LINE
  5
2C8
330
2A6
100
AcDbEntity
  8
Screw
 62
     7
370
     9
100
AcDbLine
 10
0.0824999999987313
 20
-0.8493938640165197
 30
0.0
 11
0.0599999999988086
 21
-0.8623842450733718
 31
0.0
  0
LINE
  5
2C9
330
2A6
100
AcDbEntity
  8
Screw
 62
     7
370
     9
100
AcDbLine
 10
0.0599999999988086
 20
-0.8623842450733718
 30
0.0
 11
0.0599999999988086
 21
-0.9021928579597897
 31
0.0
  0
LINE
  5
2CA
330
2A6
100
AcDbEntity
  8
Screw
 62
     7
370
     9
100
AcDbLine
 10
0.0599999999989223
 20
-0.1430000000001428
 30
0.0
 11
0.0599999999989223
 21
-0.7706141079600002
 31
0.0
  0
LINE
  5
2CB
330
2A6
100
AcDbEntity
  8
Screw
 62
     7
370
     9
100
AcDbLine
 10
0.0599999999988086
 20
-0.9939629950733888
 30
0.0
 11
0.0599999999988086
 21
-1.033771607959806
 31
0.0
  0
LINE
  5
2CC
330
2A6
100
AcDbEntity
  8
Screw
 62
     7
370
     9
100
AcDbLine
 10
0.0599999999988086
 20
-1.059752370073283
 30
0.0
 11
0.0599999999988086
 21
-1.099560982959928
 31
0.0
  0
LINE
  5
2CD
330
2A6
100
AcDbEntity
  8
Screw
 62
     7
370
     9
100
AcDbLine
 10
0.0824999999987313
 20
-1.046761989016658
 30
0.0
 11
0.0599999999988086
 21
-1.059752370073283
 31
0.0
  0
LINE
  5
2CE
330
2A6
100
AcDbEntity
  8
Screw
 62
     7
370
     9
100
AcDbLine
 10
0.0599999999988086
 20
-1.125541745073405
 30
0.0
 11
0.0599999999988086
 21
-1.165350357959823
 31
0.0
  0
LINE
  5
2CF
330
2A6
100
AcDbEntity
  8
Screw
 62
     7
370
     9
100
AcDbLine
 10
0.0824999999987313
 20
-1.112551364016553
 30
0.0
 11
0.0599999999988086
 21
-1.125541745073405
 31
0.0
  0
LINE
  5
2D0
330
2A6
100
AcDbEntity
  8
Screw
 62
     7
370
     9
100
AcDbLine
 10
0.0824999999987313
 20
-1.112551364016553
 30
0.0
 11
0.0599999999988086
 21
-1.099560982959928
 31
0.0
  0
LINE
  5
2D1
330
2A6
100
AcDbEntity
  8
Screw
 62
     7
370
     9
100
AcDbLine
 10
0.0824999999987313
 20
-1.046761989016658
 30
0.0
 11
-0.0825000000013461
 21
-1.075517609877465
 31
0.0
  0
LINE
  5
2D2
330
2A6
100
AcDbEntity
  8
Screw
 62
     7
370
     9
100
AcDbLine
 10
0.0824999999987313
 20
-1.112551364016553
 30
0.0
 11
-0.0825000000013461
 21
-1.141306984877473
 31
0.0
  0
LINE
  5
2D3
330
2A6
100
AcDbEntity
  8
Screw
 62
     7
370
     9
100
AcDbLine
 10
0.0824999999987313
 20
-1.046761989016658
 30
0.0
 11
0.0599999999988086
 21
-1.03377160795992
 31
0.0
  0
LINE
  5
2D4
330
2A6
100
AcDbEntity
  8
Screw
 62
     7
370
     9
100
AcDbLine
 10
0.0550146141445112
 20
-1.900362443069752
 30
0.0
 11
-0.040994238129656
 21
-1.934210624998172
 31
0.0
  0
LINE
  5
2D5
330
2A6
100
AcDbEntity
  8
Screw
 62
     7
370
     9
100
AcDbLine
 10
0.082499999998845
 20
-1.836234489016646
 30
0.0
 11
-0.0718750000007731
 21
-1.86842124999805
 31
0.0
  0
LINE
  5
2D6
330
2A6
100
AcDbEntity
  8
Screw
 62
     7
370
     9
100
AcDbLine
 10
0.0439236020391718
 20
-1.893959044245207
 30
0.0
 11
0.0490410471671794
 21
-1.88160443881236
 31
0.0
  0
LINE
  5
2D7
330
2A6
100
AcDbEntity
  8
Screw
 62
     7
370
     9
100
AcDbLine
 10
0.029903226022725
 20
-1.927807226173513
 30
0.0
 11
0.0229311243443817
 21
-1.944639368603475
 31
0.0
  0
LINE
  5
2D8
330
2A6
100
AcDbEntity
  8
Screw
 62
     7
370
     9
100
AcDbLine
 10
0.0578546239828484
 20
-1.860326582130937
 30
0.0
 11
0.0490410471671794
 21
-1.88160443881236
 31
0.0
  0
LINE
  5
2D9
330
2A6
100
AcDbEntity
  8
Screw
 62
     7
370
     9
100
AcDbLine
 10
-0.0000000000006821
 20
-1.999999999998181
 30
0.0
 11
-0.0229311243459733
 21
-1.944639368603475
 31
0.0
  0
LINE
  5
2DA
330
2A6
100
AcDbEntity
  8
Screw
 62
     7
370
     9
100
AcDbLine
 10
-0.0718750000007731
 20
-1.86842124999805
 30
0.0
 11
-0.0600000000014234
 21
-1.861565215551877
 31
0.0
  0
LINE
  5
2DB
330
2A6
100
AcDbEntity
  8
Screw
 62
     7
370
     9
100
AcDbLine
 10
-0.0718750000007731
 20
-1.868421249998164
 30
0.0
 11
-0.0490410471686573
 21
-1.88160443881236
 31
0.0
  0
LINE
  5
2DC
330
2A6
100
AcDbEntity
  8
Screw
 62
     7
370
     9
100
AcDbLine
 10
-0.040994238129656
 20
-1.934210624998172
 30
0.0
 11
-0.0299032260242029
 21
-1.927807226173513
 31
0.0
  0
LINE
  5
2DD
330
2A6
100
AcDbEntity
  8
Screw
 62
     7
370
     9
100
AcDbLine
 10
-0.040994238129656
 20
-1.934210624998172
 30
0.0
 11
-0.0229311243459733
 21
-1.944639368603475
 31
0.0
  0
LINE
  5
2DE
330
2A6
100
AcDbEntity
  8
Screw
 62
     7
370
     9
100
AcDbLine
 10
-0.0299032260242029
 20
-1.927807226173513
 30
0.0
 11
-0.0490410471686573
 21
-1.88160443881236
 31
0.0
  0
LINE
  5
2DF
330
2A6
100
AcDbEntity
  8
Screw
 62
     7
370
     9
100
AcDbLine
 10
0.029903226022725
 20
-1.927807226173513
 30
0.0
 11
0.0369515003608285
 21
-1.910791186675169
 31
0.0
  0
LINE
  5
2E0
330
2A6
100
AcDbEntity
  8
Screw
 62
     7
370
     9
100
AcDbLine
 10
0.0578546239828484
 20
-1.860326582130937
 30
0.0
 11
0.0632241464040817
 21
-1.847363408278397
 31
0.0
  0
LINE
  5
2E1
330
2A6
100
AcDbEntity
  8
Screw
 62
     7
370
     9
100
AcDbLine
 10
0.0550146141445112
 20
-1.900362443069752
 30
0.0
 11
0.0369515003608285
 21
-1.910791186675169
 31
0.0
  0
LINE
  5
2E2
330
2A6
100
AcDbEntity
  8
Screw
 62
     7
370
     9
100
AcDbLine
 10
0.0550146141445112
 20
-1.900362443069752
 30
0.0
 11
0.0439236020391718
 21
-1.893959044245207
 31
0.0
  0
LINE
  5
2E3
330
2A6
100
AcDbEntity
  8
Screw
 62
     7
370
     9
100
AcDbLine
 10
0.0824999999986176
 20
-1.836234489016646
 30
0.0
 11
0.063224146403968
 21
-1.847363408278283
 31
0.0
  0
LINE
  5
2E4
330
2A6
100
AcDbEntity
  8
Screw
 62
     7
370
     9
100
AcDbLine
 10
0.0824999999986176
 20
-1.836234489016646
 30
0.0
 11
0.0684796239821708
 21
-1.82813982114942
 31
0.0
  0
LINE
  5
2E5
330
2A6
100
AcDbEntity
  8
Screw
 62
     7
370
     9
100
AcDbLine
 10
-0.0000000000006821
 20
-1.999999999998181
 30
0.0
 11
0.0229311243443817
 21
-1.944639368603475
 31
0.0
  0
LINE
  5
2E6
330
2A6
100
AcDbEntity
  8
Screw
 62
     7
370
     9
100
AcDbLine
 10
0.0599999999988086
 20
-1.651856745073359
 30
0.0
 11
0.0599999999988086
 21
-1.691665357960005
 31
0.0
  0
LINE
  5
2E7
330
2A6
100
AcDbEntity
  8
Screw
 62
     7
370
     9
100
AcDbLine
 10
0.0824999999987313
 20
-1.638866364016735
 30
0.0
 11
0.0599999999988086
 21
-1.651856745073359
 31
0.0
  0
LINE
  5
2E8
330
2A6
100
AcDbEntity
  8
Screw
 62
     7
370
     9
100
AcDbLine
 10
0.0599999999988086
 20
-1.717646120073482
 30
0.0
 11
0.0599999999988086
 21
-1.757454732959899
 31
0.0
  0
LINE
  5
2E9
330
2A6
100
AcDbEntity
  8
Screw
 62
     7
370
     9
100
AcDbLine
 10
0.0824999999987313
 20
-1.770445114016752
 30
0.0
 11
0.0599999999988086
 21
-1.78343549507349
 31
0.0
  0
LINE
  5
2EA
330
2A6
100
AcDbEntity
  8
Screw
 62
     7
370
     9
100
AcDbLine
 10
0.0824999999987313
 20
-1.770445114016752
 30
0.0
 11
0.0599999999986949
 21
-1.757454732959899
 31
0.0
  0
LINE
  5
2EB
330
2A6
100
AcDbEntity
  8
Screw
 62
     7
370
     9
100
AcDbLine
 10
0.0824999999987313
 20
-1.704655739016629
 30
0.0
 11
0.0599999999988086
 21
-1.717646120073482
 31
0.0
  0
LINE
  5
2EC
330
2A6
100
AcDbEntity
  8
Screw
 62
     7
370
     9
100
AcDbLine
 10
0.0824999999987313
 20
-1.704655739016629
 30
0.0
 11
0.0599999999988086
 21
-1.691665357960005
 31
0.0
  0
LINE
  5
2ED
330
2A6
100
AcDbEntity
  8
Screw
 62
     7
370
     9
100
AcDbLine
 10
0.0824999999987313
 20
-1.638866364016735
 30
0.0
 11
-0.0825000000013461
 21
-1.667621984877541
 31
0.0
  0
LINE
  5
2EE
330
2A6
100
AcDbEntity
  8
Screw
 62
     7
370
     9
100
AcDbLine
 10
0.0824999999987313
 20
-1.770445114016752
 30
0.0
 11
-0.0825000000013461
 21
-1.799200734877558
 31
0.0
  0
LINE
  5
2EF
330
2A6
100
AcDbEntity
  8
Screw
 62
     7
370
     9
100
AcDbLine
 10
0.0824999999987313
 20
-1.704655739016629
 30
0.0
 11
-0.0825000000013461
 21
-1.73341135987755
 31
0.0
  0
LINE
  5
2F0
330
2A6
100
AcDbEntity
  8
Screw
 62
     7
370
     9
100
AcDbLine
 10
0.0824999999987313
 20
-1.638866364016735
 30
0.0
 11
0.0599999999988086
 21
-1.625875982959996
 31
0.0
  0
LINE
  5
2F1
330
2A6
100
AcDbEntity
  8
Screw
 62
     7
370
     9
100
AcDbLine
 10
0.0824999999987313
 20
-1.83623448901676
 30
0.0
 11
0.0599999999986949
 21
-1.823244107959908
 31
0.0
  0
LINE
  5
2F2
330
2A6
100
AcDbEntity
  8
Screw
 62
     7
370
     9
100
AcDbLine
 10
0.0599999999988086
 20
-1.78343549507349
 30
0.0
 11
0.0599999999988086
 21
-1.823244107959908
 31
0.0
  0
LINE
  5
2F3
330
2A6
100
AcDbEntity
  8
Screw
 62
     7
370
     9
100
AcDbLine
 10
-0.0825000000012324
 20
-1.733411359877436
 30
0.0
 11
-0.0600000000013097
 21
-1.720420978820811
 31
0.0
  0
LINE
  5
2F4
330
2A6
100
AcDbEntity
  8
Screw
 62
     7
370
     9
100
AcDbLine
 10
-0.0825000000012324
 20
-1.733411359877663
 30
0.0
 11
-0.0600000000013097
 21
-1.746401740934288
 31
0.0
  0
LINE
  5
2F5
330
2A6
100
AcDbEntity
  8
Screw
 62
     7
370
     9
100
AcDbLine
 10
-0.0825000000012324
 20
-1.799200734877558
 30
0.0
 11
-0.0600000000013097
 21
-1.786210353820706
 31
0.0
  0
LINE
  5
2F6
330
2A6
100
AcDbEntity
  8
Screw
 62
     7
370
     9
100
AcDbLine
 10
-0.0825000000012324
 20
-1.799200734877558
 30
0.0
 11
-0.0600000000013097
 21
-1.812191115934297
 31
0.0
  0
LINE
  5
2F7
330
2A6
100
AcDbEntity
  8
Screw
 62
     7
370
     9
100
AcDbLine
 10
-0.0825000000012324
 20
-1.667621984877541
 30
0.0
 11
-0.0600000000013097
 21
-1.680612365934393
 31
0.0
  0
LINE
  5
2F8
330
2A6
100
AcDbEntity
  8
Screw
 62
     7
370
     9
100
AcDbLine
 10
-0.0825000000012324
 20
-1.667621984877541
 30
0.0
 11
-0.0600000000013097
 21
-1.654631603820803
 31
0.0
  0
LINE
  5
2F9
330
2A6
100
AcDbEntity
  8
Screw
 62
     7
370
     9
100
AcDbLine
 10
-0.0600000000013097
 20
-1.812191115934297
 30
0.0
 11
-0.0600000000013097
 21
-1.861565215551991
 31
0.0
  0
LINE
  5
2FA
330
2A6
100
AcDbEntity
  8
Screw
 62
     7
370
     9
100
AcDbLine
 10
-0.0600000000013097
 20
-1.746401740934174
 30
0.0
 11
-0.0600000000013097
 21
-1.786210353820592
 31
0.0
  0
LINE
  5
2FB
330
2A6
100
AcDbEntity
  8
Screw
 62
     7
370
     9
100
AcDbLine
 10
-0.0600000000013097
 20
-1.680612365934052
 30
0.0
 11
-0.0600000000013097
 21
-1.720420978820698
 31
0.0
  0
LINE
  5
2FC
330
2A6
100
AcDbEntity
  8
Screw
 62
     7
370
     9
100
AcDbLine
 10
0.0824999999987313
 20
-1.507287614016718
 30
0.0
 11
0.0599999999988086
 21
-1.494297232959979
 31
0.0
  0
LINE
  5
2FD
330
2A6
100
AcDbEntity
  8
Screw
 62
     7
370
     9
100
AcDbLine
 10
0.0824999999987313
 20
-1.573076989016612
 30
0.0
 11
-0.0825000000013461
 21
-1.601832609877533
 31
0.0
  0
LINE
  5
2FE
330
2A6
100
AcDbEntity
  8
Screw
 62
     7
370
     9
100
AcDbLine
 10
0.0824999999987313
 20
-1.507287614016718
 30
0.0
 11
-0.0825000000013461
 21
-1.536043234877524
 31
0.0
  0
LINE
  5
2FF
330
2A6
100
AcDbEntity
  8
Screw
 62
     7
370
     9
100
AcDbLine
 10
0.0824999999987313
 20
-1.573076989016612
 30
0.0
 11
0.0599999999988086
 21
-1.560086607959988
 31
0.0
  0
LINE
  5
300
330
2A6
100
AcDbEntity
  8
Screw
 62
     7
370
     9
100
AcDbLine
 10
0.0824999999987313
 20
-1.573076989016612
 30
0.0
 11
0.0599999999988086
 21
-1.586067370073465
 31
0.0
  0
LINE
  5
301
330
2A6
100
AcDbEntity
  8
Screw
 62
     7
370
     9
100
AcDbLine
 10
0.0599999999988086
 20
-1.586067370073465
 30
0.0
 11
0.0599999999988086
 21
-1.625875982959883
 31
0.0
  0
LINE
  5
302
330
2A6
100
AcDbEntity
  8
Screw
 62
     7
370
     9
100
AcDbLine
 10
0.0824999999987313
 20
-1.507287614016718
 30
0.0
 11
0.0599999999988086
 21
-1.520277995073342
 31
0.0
  0
LINE
  5
303
330
2A6
100
AcDbEntity
  8
Screw
 62
     7
370
     9
100
AcDbLine
 10
0.0599999999988086
 20
-1.520277995073342
 30
0.0
 11
0.0599999999988086
 21
-1.560086607959988
 31
0.0
  0
LINE
  5
304
330
2A6
100
AcDbEntity
  8
Screw
 62
     7
370
     9
100
AcDbLine
 10
-0.0600000000013097
 20
-1.549033615934035
 30
0.0
 11
-0.0600000000013097
 21
-1.588842228820681
 31
0.0
  0
LINE
  5
305
330
2A6
100
AcDbEntity
  8
Screw
 62
     7
370
     9
100
AcDbLine
 10
-0.0600000000013097
 20
-1.614822990934158
 30
0.0
 11
-0.0600000000013097
 21
-1.654631603820575
 31
0.0
  0
LINE
  5
306
330
2A6
100
AcDbEntity
  8
Screw
 62
     7
370
     9
100
AcDbLine
 10
-0.0825000000012324
 20
-1.536043234877524
 30
0.0
 11
-0.0600000000013097
 21
-1.523052853820786
 31
0.0
  0
LINE
  5
307
330
2A6
100
AcDbEntity
  8
Screw
 62
     7
370
     9
100
AcDbLine
 10
-0.0825000000012324
 20
-1.536043234877524
 30
0.0
 11
-0.0600000000013097
 21
-1.549033615934376
 31
0.0
  0
LINE
  5
308
330
2A6
100
AcDbEntity
  8
Screw
 62
     7
370
     9
100
AcDbLine
 10
-0.0825000000012324
 20
-1.601832609877646
 30
0.0
 11
-0.0600000000013097
 21
-1.614822990934271
 31
0.0
  0
LINE
  5
309
330
2A6
100
AcDbEntity
  8
Screw
 62
     7
370
     9
100
AcDbLine
 10
-0.0825000000012324
 20
-1.601832609877419
 30
0.0
 11
-0.0600000000013097
 21
-1.588842228820794
 31
0.0
  0
LINE
  5
30A
330
2A6
100
AcDbEntity
  8
Screw
 62
     7
370
     9
100
AcDbLine
 10
0.0599999999988086
 20
-1.454488620073448
 30
0.0
 11
0.0599999999988086
 21
-1.494297232959866
 31
0.0
  0
LINE
  5
30B
330
2A6
100
AcDbEntity
  8
Screw
 62
     7
370
     9
100
AcDbLine
 10
-0.0600000000013097
 20
-1.483244240934141
 30
0.0
 11
-0.0600000000013097
 21
-1.523052853820558
 31
0.0
  0
LINE
  5
30C
330
2A6
100
AcDbEntity
  8
Screw
 62
     7
370
     9
100
AcDbLine
 10
-0.0825000000012324
 20
-1.338675109877385
 30
0.0
 11
-0.0600000000013097
 21
-1.32568472882076
 31
0.0
  0
LINE
  5
30D
330
2A6
100
AcDbEntity
  8
Screw
 62
     7
370
     9
100
AcDbLine
 10
-0.0825000000012324
 20
-1.338675109877613
 30
0.0
 11
-0.0600000000013097
 21
-1.351665490934237
 31
0.0
  0
LINE
  5
30E
330
2A6
100
AcDbEntity
  8
Screw
 62
     7
370
     9
100
AcDbLine
 10
-0.0825000000012324
 20
-1.27288573487749
 30
0.0
 11
-0.0600000000013097
 21
-1.285876115934343
 31
0.0
  0
LINE
  5
30F
330
2A6
100
AcDbEntity
  8
Screw
 62
     7
370
     9
100
AcDbLine
 10
-0.0825000000012324
 20
-1.27288573487749
 30
0.0
 11
-0.0600000000013097
 21
-1.259895353820752
 31
0.0
  0
LINE
  5
310
330
2A6
100
AcDbEntity
  8
Screw
 62
     7
370
     9
100
AcDbLine
 10
-0.0600000000013097
 20
-1.351665490934124
 30
0.0
 11
-0.0600000000013097
 21
-1.391474103820542
 31
0.0
  0
LINE
  5
311
330
2A6
100
AcDbEntity
  8
Screw
 62
     7
370
     9
100
AcDbLine
 10
-0.0600000000013097
 20
-1.285876115934001
 30
0.0
 11
-0.0600000000013097
 21
-1.325684728820647
 31
0.0
  0
LINE
  5
312
330
2A6
100
AcDbEntity
  8
Screw
 62
     7
370
     9
100
AcDbLine
 10
0.0599999999988086
 20
-1.257120495073309
 30
0.0
 11
0.0599999999988086
 21
-1.296929107959954
 31
0.0
  0
LINE
  5
313
330
2A6
100
AcDbEntity
  8
Screw
 62
     7
370
     9
100
AcDbLine
 10
0.0824999999987313
 20
-1.244130114016684
 30
0.0
 11
0.0599999999988086
 21
-1.257120495073309
 31
0.0
  0
LINE
  5
314
330
2A6
100
AcDbEntity
  8
Screw
 62
     7
370
     9
100
AcDbLine
 10
0.0599999999988086
 20
-1.322909870073431
 30
0.0
 11
0.0599999999988086
 21
-1.362718482959849
 31
0.0
  0
LINE
  5
315
330
2A6
100
AcDbEntity
  8
Screw
 62
     7
370
     9
100
AcDbLine
 10
0.0824999999987313
 20
-1.309919489016579
 30
0.0
 11
0.0599999999988086
 21
-1.322909870073431
 31
0.0
  0
LINE
  5
316
330
2A6
100
AcDbEntity
  8
Screw
 62
     7
370
     9
100
AcDbLine
 10
0.0824999999987313
 20
-1.309919489016579
 30
0.0
 11
0.0599999999988086
 21
-1.296929107959954
 31
0.0
  0
LINE
  5
317
330
2A6
100
AcDbEntity
  8
Screw
 62
     7
370
     9
100
AcDbLine
 10
0.0824999999987313
 20
-1.244130114016684
 30
0.0
 11
-0.0825000000013461
 21
-1.27288573487749
 31
0.0
  0
LINE
  5
318
330
2A6
100
AcDbEntity
  8
Screw
 62
     7
370
     9
100
AcDbLine
 10
0.0824999999987313
 20
-1.309919489016579
 30
0.0
 11
-0.0825000000013461
 21
-1.338675109877499
 31
0.0
  0
LINE
  5
319
330
2A6
100
AcDbEntity
  8
Screw
 62
     7
370
     9
100
AcDbLine
 10
0.0824999999987313
 20
-1.244130114016684
 30
0.0
 11
0.0599999999988086
 21
-1.231139732959945
 31
0.0
  0
LINE
  5
31A
330
2A6
100
AcDbEntity
  8
Screw
 62
     7
370
     9
100
AcDbLine
 10
-0.0600000000013097
 20
-1.417454865934018
 30
0.0
 11
-0.0600000000013097
 21
-1.457263478820664
 31
0.0
  0
LINE
  5
31B
330
2A6
100
AcDbEntity
  8
Screw
 62
     7
370
     9
100
AcDbLine
 10
-0.0825000000012324
 20
-1.404464484877507
 30
0.0
 11
-0.0600000000013097
 21
-1.391474103820769
 31
0.0
  0
LINE
  5
31C
330
2A6
100
AcDbEntity
  8
Screw
 62
     7
370
     9
100
AcDbLine
 10
-0.0825000000012324
 20
-1.404464484877507
 30
0.0
 11
-0.0600000000013097
 21
-1.417454865934359
 31
0.0
  0
LINE
  5
31D
330
2A6
100
AcDbEntity
  8
Screw
 62
     7
370
     9
100
AcDbLine
 10
-0.0825000000012324
 20
-1.47025385987763
 30
0.0
 11
-0.0600000000013097
 21
-1.483244240934254
 31
0.0
  0
LINE
  5
31E
330
2A6
100
AcDbEntity
  8
Screw
 62
     7
370
     9
100
AcDbLine
 10
-0.0825000000012324
 20
-1.470253859877402
 30
0.0
 11
-0.0600000000013097
 21
-1.457263478820777
 31
0.0
  0
LINE
  5
31F
330
2A6
100
AcDbEntity
  8
Screw
 62
     7
370
     9
100
AcDbLine
 10
0.0824999999987313
 20
-1.375708864016701
 30
0.0
 11
0.0599999999988086
 21
-1.362718482959962
 31
0.0
  0
LINE
  5
320
330
2A6
100
AcDbEntity
  8
Screw
 62
     7
370
     9
100
AcDbLine
 10
0.0824999999987313
 20
-1.441498239016596
 30
0.0
 11
-0.0825000000013461
 21
-1.470253859877516
 31
0.0
  0
LINE
  5
321
330
2A6
100
AcDbEntity
  8
Screw
 62
     7
370
     9
100
AcDbLine
 10
0.0824999999987313
 20
-1.375708864016701
 30
0.0
 11
-0.0825000000013461
 21
-1.404464484877507
 31
0.0
  0
LINE
  5
322
330
2A6
100
AcDbEntity
  8
Screw
 62
     7
370
     9
100
AcDbLine
 10
0.0824999999987313
 20
-1.441498239016596
 30
0.0
 11
0.0599999999988086
 21
-1.428507857959971
 31
0.0
  0
LINE
  5
323
330
2A6
100
AcDbEntity
  8
Screw
 62
     7
370
     9
100
AcDbLine
 10
0.0824999999987313
 20
-1.441498239016596
 30
0.0
 11
0.0599999999988086
 21
-1.454488620073448
 31
0.0
  0
LINE
  5
324
330
2A6
100
AcDbEntity
  8
Screw
 62
     7
370
     9
100
AcDbLine
 10
0.0824999999987313
 20
-1.375708864016701
 30
0.0
 11
0.0599999999988086
 21
-1.388699245073325
 31
0.0
  0
LINE
  5
325
330
2A6
100
AcDbEntity
  8
Screw
 62
     7
370
     9
100
AcDbLine
 10
0.0599999999988086
 20
-1.388699245073325
 30
0.0
 11
0.0599999999988086
 21
-1.428507857959971
 31
0.0
  0
LINE
  5
326
330
2A6
100
AcDbEntity
  8
Screw
 62
     7
370
     9
100
AcDbLine
 10
-0.1550000000002001
 20
0.0000000000001137
 30
0.0
 11
-0.1550000000020191
 21
-0.015999999999849
 31
0.0
  0
LINE
  5
327
330
2A6
100
AcDbEntity
  8
Screw
 62
     7
370
     9
100
AcDbLine
 10
0.1549999999986085
 20
0.0
 30
0.0
 11
0.1549999999986085
 21
-0.0159999999999627
 31
0.0
  0
LINE
  5
328
330
2A6
100
AcDbEntity
  8
Screw
 62
     7
370
     9
100
AcDbLine
 10
0.1549999999987222
 20
-0.0160000000006448
 30
0.0
 11
-0.155000000001337
 21
-0.0159999999999627
 31
0.0
  0
LINE
  5
329
330
2A6
100
AcDbEntity
  8
Screw
 62
     7
370
     9
100
AcDbLine
 10
0.1549999999987222
 20
0.0
 30
0.0
 11
-0.155000000001337
 21
0.0
 31
0.0
  0
LINE
  5
32A
330
2A6
100
AcDbEntity
  8
Screw
 62
     7
370
     9
100
AcDbLine
 10
0.0599999999989223
 20
-0.1430000000000291
 30
0.0
 11
-0.0600000000013097
 21
-0.1430000000000291
 31
0.0
  0
LINE
  5
32B
330
2A6
100
AcDbEntity
  8
Screw
 62
     7
370
     9
100
AcDbLine
 10
0.1549999999986085
 20
-0.0160000000006448
 30
0.0
 11
0.0599999999988086
 21
-0.1430000000001428
 31
0.0
  0
LINE
  5
32C
330
2A6
100
AcDbEntity
  8
Screw
 62
     7
370
     9
100
AcDbLine
 10
-0.1550000000020191
 20
-0.0159999999999627
 30
0.0
 11
-0.0600000000013097
 21
-0.1430000000001428
 31
0.0
  0
LINE
  5
32D
330
2A6
100
AcDbEntity
  8
Screw
 62
     7
370
     9
100
AcDbLine
 10
0.0824999999987313
 20
-1.178340739016675
 30
0.0
 11
0.0599999999988086
 21
-1.165350357959937
 31
0.0
  0
LINE
  5
32E
330
2A6
100
AcDbEntity
  8
Screw
 62
     7
370
     9
100
AcDbLine
 10
0.0824999999987313
 20
-1.178340739016675
 30
0.0
 11
-0.0825000000013461
 21
-1.207096359877482
 31
0.0
  0
LINE
  5
32F
330
2A6
100
AcDbEntity
  8
Screw
 62
     7
370
     9
100
AcDbLine
 10
0.0824999999987313
 20
-1.178340739016675
 30
0.0
 11
0.0599999999988086
 21
-1.1913311200733
 31
0.0
  0
LINE
  5
330
330
2A6
100
AcDbEntity
  8
Screw
 62
     7
370
     9
100
AcDbLine
 10
0.0599999999988086
 20
-1.1913311200733
 30
0.0
 11
0.0599999999988086
 21
-1.231139732959945
 31
0.0
  0
LINE
  5
331
330
2A6
100
AcDbEntity
  8
Screw
 62
     7
370
     9
100
AcDbLine
 10
-0.0600000000013097
 20
-1.220086740933993
 30
0.0
 11
-0.0600000000013097
 21
-1.259895353820638
 31
0.0
  0
LINE
  5
332
330
2A6
100
AcDbEntity
  8
Screw
 62
     7
370
     9
100
AcDbLine
 10
-0.0825000000012324
 20
-1.207096359877482
 30
0.0
 11
-0.0600000000013097
 21
-1.194105978820743
 31
0.0
  0
LINE
  5
333
330
2A6
100
AcDbEntity
  8
Screw
 62
     7
370
     9
100
AcDbLine
 10
-0.0825000000012324
 20
-1.207096359877482
 30
0.0
 11
-0.0600000000013097
 21
-1.220086740934334
 31
0.0
  0
LINE
  5
334
330
2A6
100
AcDbEntity
  8
Screw
  6
CENTER
 62
     7
370
     9
100
AcDbLine
 10
0.0
 20
0.0516137131638743
 30
0.0
 11
0.0
 21
-2.051211668604537
 31
0.0
  0
ENDBLK
  5
335
330
2A6
100
AcDbEntity
  8
0
 62
     5
100
AcDbBlockEnd
  0
BLOCK
  5
373
330
372
100
AcDbEntity
  8
0
100
AcDbBlockBegin
  2
*D23
 70
     1
 10
0.0
 20
0.0
 30
0.0
  3
*D23
  1

  0
LINE
  5
374
330
372
100
AcDbEntity
  8
0
 62
     0
370
    -2
100
AcDbLine
 10
6.050355200137801
 20
20.5836139171501
 30
0.0
 11
6.050355200137801
 21
20.78959102368067
 31
0.0
  0
LINE
  5
375
330
372
100
AcDbEntity
  8
0
 62
     0
370
    -2
100
AcDbLine
 10
7.674079323406701
 20
20.5836139171501
 30
0.0
 11
7.674079323406701
 21
20.78959102368067
 31
0.0
  0
LINE
  5
376
330
372
100
AcDbEntity
  8
0
 62
     0
370
    -2
100
AcDbLine
 10
6.050355200137801
 20
20.75959102368067
 30
0.0
 11
7.674079323406701
 21
20.75959102368067
 31
0.0
  0
LINE
  5
377
330
372
100
AcDbEntity
  8
0
 62
     0
370
    -2
100
AcDbLine
 10
7.674079323406701
 20
20.75959102368067
 30
0.0
 11
7.8300793234067
 21
20.75959102368067
 31
0.0
  0
INSERT
  5
378
330
372
100
AcDbEntity
  8
0
 62
     0
370
    -2
100
AcDbBlockReference
  2
_ArchTick
 10
6.050355200137801
 20
20.75959102368067
 30
0.0
 41
0.156
 42
0.156
 43
0.156
 50
180.0
  0
INSERT
  5
379
330
372
100
AcDbEntity
  8
0
 62
     0
370
    -2
100
AcDbBlockReference
  2
_ArchTick
 10
7.674079323406701
 20
20.75959102368067
 30
0.0
 41
0.156
 42
0.156
 43
0.156
  0
MTEXT
  5
37A
330
372
100
AcDbEntity
  8
0
 62
     0
100
AcDbMText
 10
8.360604776554998
 20
20.75959102368067
 30
0.0
 40
0.3125
 41
0.0
 71
     5
 72
     1
  1
\A1;1 5/8"\P [41mm]
 73
     1
 44
1.0
1001
ACAD
1000
MTEXTBEGIN
1070
    73
1070
     1
1070
    44
1040
1.0
1070
    74
1070
     0
1000
MTEXTEND
  0
POINT
  5
37B
330
372
100
AcDbEntity
  8
Defpoints
 62
     0
100
AcDbPoint
 10
6.050355200137801
 20
20.5436139171501
 30
0.0
  0
POINT
  5
37C
330
372
100
AcDbEntity
  8
Defpoints
 62
     0
100
AcDbPoint
 10
7.674079323406701
 20
20.5436139171501
 30
0.0
  0
POINT
  5
37D
330
372
100
AcDbEntity
  8
Defpoints
 62
     0
100
AcDbPoint
 10
7.674079323406701
 20
20.75959102368067
 30
0.0
  0
ENDBLK
  5
37E
330
372
100
AcDbEntity
  8
0
100
AcDbBlockEnd
  0
BLOCK
  5
383
330
382
100
AcDbEntity
  8
0
100
AcDbBlockBegin
  2
*D24
 70
     1
 10
0.0
 20
0.0
 30
0.0
  3
*D24
  1

  0
LINE
  5
384
330
382
100
AcDbEntity
  8
0
 62
     0
370
    -2
100
AcDbLine
 10
13.01446108358095
 20
9.088275379875661
 30
0.0
 11
13.01446108358095
 21
10.12309888595135
 31
0.0
  0
LINE
  5
385
330
382
100
AcDbEntity
  8
0
 62
     0
370
    -2
100
AcDbLine
 10
4.154136680817373
 20
9.088275379875661
 30
0.0
 11
4.154136680817373
 21
10.12309888595135
 31
0.0
  0
LINE
  5
386
330
382
100
AcDbEntity
  8
0
 62
     0
370
    -2
100
AcDbLine
 10
13.01446108358095
 20
10.09309888595135
 30
0.0
 11
8.825714569605151
 21
10.09309888595135
 31
0.0
  0
LINE
  5
387
330
382
100
AcDbEntity
  8
0
 62
     0
370
    -2
100
AcDbLine
 10
4.154136680817373
 20
10.09309888595135
 30
0.0
 11
8.342883194793175
 21
10.09309888595135
 31
0.0
  0
INSERT
  5
388
330
382
100
AcDbEntity
  8
0
 62
     0
370
    -2
100
AcDbBlockReference
  2
_ArchTick
 10
13.01446108358095
 20
10.09309888595135
 30
0.0
 41
0.156
 42
0.156
 43
0.156
  0
INSERT
  5
389
330
382
100
AcDbEntity
  8
0
 62
     0
370
    -2
100
AcDbBlockReference
  2
_ArchTick
 10
4.154136680817373
 20
10.09309888595135
 30
0.0
 41
0.156
 42
0.156
 43
0.156
 50
180.0
  0
MTEXT
  5
38A
330
382
100
AcDbEntity
  8
0
 62
     0
100
AcDbMText
 10
8.584298882199163
 20
10.09309888595135
 30
0.0
 40
0.3125
 41
0.0
 71
     5
 72
     1
  1
\A1;BOX
 73
     1
 44
1.0
1001
ACAD
1000
MTEXTBEGIN
1070
    73
1070
     1
1070
    44
1040
1.0
1070
    74
1070
     0
1000
MTEXTEND
  0
POINT
  5
38B
330
382
100
AcDbEntity
  8
Defpoints
 62
     0
100
AcDbPoint
 10
13.01446108358095
 20
9.048275379875661
 30
0.0
  0
POINT
  5
38C
330
382
100
AcDbEntity
  8
Defpoints
 62
     0
100
AcDbPoint
 10
4.154136680817373
 20
9.048275379875661
 30
0.0
  0
POINT
  5
38D
330
382
100
AcDbEntity
  8
Defpoints
 62
     0
100
AcDbPoint
 10
4.154136680817373
 20
10.09309888595135
 30
0.0
  0
ENDBLK
  5
38E
330
382
100
AcDbEntity
  8
0
100
AcDbBlockEnd
  0
BLOCK
  5
391
330
390
100
AcDbEntity
  8
0
100
AcDbBlockBegin
  2
*D25
 70
     1
 10
0.0
 20
0.0
 30
0.0
  3
*D25
  1

  0
LINE
  5
392
330
390
100
AcDbEntity
  8
0
 62
     0
370
    -2
100
AcDbLine
 10
4.154136680817373
 20
9.645687132913504
 30
0.0
 11
4.154136680817373
 21
10.12309888595135
 31
0.0
  0
LINE
  5
393
330
390
100
AcDbEntity
  8
0
 62
     0
370
    -2
100
AcDbLine
 10
3.654136680817373
 20
9.645687132913504
 30
0.0
 11
3.654136680817373
 21
10.12309888595135
 31
0.0
  0
LINE
  5
394
330
390
100
AcDbEntity
  8
0
 62
     0
370
    -2
100
AcDbLine
 10
4.154136680817373
 20
10.09309888595135
 30
0.0
 11
3.654136680817373
 21
10.09309888595135
 31
0.0
  0
LINE
  5
395
330
390
100
AcDbEntity
  8
0
 62
     0
370
    -2
100
AcDbLine
 10
3.654136680817373
 20
10.09309888595135
 30
0.0
 11
3.498136680817373
 21
10.09309888595135
 31
0.0
  0
INSERT
  5
396
330
390
100
AcDbEntity
  8
0
 62
     0
370
    -2
100
AcDbBlockReference
  2
_ArchTick
 10
4.154136680817373
 20
10.09309888595135
 30
0.0
 41
0.156
 42
0.156
 43
0.156
  0
INSERT
  5
397
330
390
100
AcDbEntity
  8
0
 62
     0
370
    -2
100
AcDbBlockReference
  2
_ArchTick
 10
3.654136680817373
 20
10.09309888595135
 30
0.0
 41
0.156
 42
0.156
 43
0.156
 50
180.0
  0
MTEXT
  5
398
330
390
100
AcDbEntity
  8
0
 62
     0
100
AcDbMText
 10
3.057904397701579
 20
10.2954433714927
 30
0.0
 40
0.3125
 41
0.0
 71
     5
 72
     1
  1
\A1;1/2"
 73
     1
 44
1.0
1001
ACAD
1000
MTEXTBEGIN
1070
    73
1070
     1
1070
    44
1040
1.0
1070
    74
1070
     0
1000
MTEXTEND
  0
MTEXT
  5
399
330
390
100
AcDbEntity
  8
0
 62
     0
100
AcDbMText
 10
3.057904397701579
 20
9.873206485144356
 30
0.0
 40
0.3125
 41
0.0
 71
     5
 72
     1
  1
\A1;[13mm]
 73
     1
 44
1.0
1001
ACAD
1000
MTEXTBEGIN
1070
    73
1070
     1
1070
    44
1040
1.0
1070
    74
1070
     0
1000
MTEXTEND
  0
POINT
  5
39A
330
390
100
AcDbEntity
  8
Defpoints
 62
     0
100
AcDbPoint
 10
4.154136680817373
 20
9.605687132913505
 30
0.0
  0
POINT
  5
39B
330
390
100
AcDbEntity
  8
Defpoints
 62
     0
100
AcDbPoint
 10
3.654136680817373
 20
9.605687132913505
 30
0.0
  0
POINT
  5
39C
330
390
100
AcDbEntity
  8
Defpoints
 62
     0
100
AcDbPoint
 10
3.654136680817373
 20
10.09309888595135
 30
0.0
  0
ENDBLK
  5
39D
330
390
100
AcDbEntity
  8
0
100
AcDbBlockEnd
  0
BLOCK
  5
3A0
330
39F
100
AcDbEntity
  8
0
100
AcDbBlockBegin
  2
*D26
 70
     1
 10
0.0
 20
0.0
 30
0.0
  3
*D26
  1

  0
LINE
  5
3A1
330
39F
100
AcDbEntity
  8
0
 62
     0
370
    -2
100
AcDbLine
 10
13.01446108358095
 20
9.645687132913504
 30
0.0
 11
13.01446108358095
 21
10.12309888595135
 31
0.0
  0
LINE
  5
3A2
330
39F
100
AcDbEntity
  8
0
 62
     0
370
    -2
100
AcDbLine
 10
13.51446108358095
 20
9.645687132913504
 30
0.0
 11
13.51446108358095
 21
10.12309888595135
 31
0.0
  0
LINE
  5
3A3
330
39F
100
AcDbEntity
  8
0
 62
     0
370
    -2
100
AcDbLine
 10
13.01446108358095
 20
10.09309888595135
 30
0.0
 11
13.51446108358095
 21
10.09309888595135
 31
0.0
  0
LINE
  5
3A4
330
39F
100
AcDbEntity
  8
0
 62
     0
370
    -2
100
AcDbLine
 10
13.51446108358095
 20
10.09309888595135
 30
0.0
 11
13.67046108358095
 21
10.09309888595135
 31
0.0
  0
INSERT
  5
3A5
330
39F
100
AcDbEntity
  8
0
 62
     0
370
    -2
100
AcDbBlockReference
  2
_ArchTick
 10
13.01446108358095
 20
10.09309888595135
 30
0.0
 41
0.156
 42
0.156
 43
0.156
 50
180.0
  0
INSERT
  5
3A6
330
39F
100
AcDbEntity
  8
0
 62
     0
370
    -2
100
AcDbBlockReference
  2
_ArchTick
 10
13.51446108358095
 20
10.09309888595135
 30
0.0
 41
0.156
 42
0.156
 43
0.156
  0
MTEXT
  5
3A7
330
39F
100
AcDbEntity
  8
0
 62
     0
100
AcDbMText
 10
14.11069336669674
 20
10.2954433714927
 30
0.0
 40
0.3125
 41
0.0
 71
     5
 72
     1
  1
\A1;1/2"
 73
     1
 44
1.0
1001
ACAD
1000
MTEXTBEGIN
1070
    73
1070
     1
1070
    44
1040
1.0
1070
    74
1070
     0
1000
MTEXTEND
  0
MTEXT
  5
3A8
330
39F
100
AcDbEntity
  8
0
 62
     0
100
AcDbMText
 10
14.11069336669674
 20
9.873206485144356
 30
0.0
 40
0.3125
 41
0.0
 71
     5
 72
     1
  1
\A1;[13mm]
 73
     1
 44
1.0
1001
ACAD
1000
MTEXTBEGIN
1070
    73
1070
     1
1070
    44
1040
1.0
1070
    74
1070
     0
1000
MTEXTEND
  0
POINT
  5
3A9
330
39F
100
AcDbEntity
  8
Defpoints
 62
     0
100
AcDbPoint
 10
13.01446108358095
 20
9.605687132913505
 30
0.0
  0
POINT
  5
3AA
330
39F
100
AcDbEntity
  8
Defpoints
 62
     0
100
AcDbPoint
 10
13.51446108358095
 20
9.605687132913505
 30
0.0
  0
POINT
  5
3AB
330
39F
100
AcDbEntity
  8
Defpoints
 62
     0
100
AcDbPoint
 10
13.51446108358095
 20
10.09309888595135
 30
0.0
  0
ENDBLK
  5
3AC
330
39F
100
AcDbEntity
  8
0
100
AcDbBlockEnd
  0
BLOCK
  5
3AF
330
3AE
100
AcDbEntity
  8
0
100
AcDbBlockBegin
  2
*D27
 70
     1
 10
0.0
 20
0.0
 30
0.0
  3
*D27
  1

  0
LINE
  5
3B0
330
3AE
100
AcDbEntity
  8
0
 62
     0
370
    -2
100
AcDbLine
 10
13.51446108358095
 20
9.645687132913504
 30
0.0
 11
13.51446108358095
 21
10.93217310919412
 31
0.0
  0
LINE
  5
3B1
330
3AE
100
AcDbEntity
  8
0
 62
     0
370
    -2
100
AcDbLine
 10
3.654136680817373
 20
9.645687132913504
 30
0.0
 11
3.654136680817373
 21
10.93217310919412
 31
0.0
  0
LINE
  5
3B2
330
3AE
100
AcDbEntity
  8
0
 62
     0
370
    -2
100
AcDbLine
 10
13.51446108358095
 20
10.90217310919412
 30
0.0
 11
9.53598482851571
 21
10.90217310919412
 31
0.0
  0
LINE
  5
3B3
330
3AE
100
AcDbEntity
  8
0
 62
     0
370
    -2
100
AcDbLine
 10
3.654136680817373
 20
10.90217310919412
 30
0.0
 11
7.632612935882618
 21
10.90217310919412
 31
0.0
  0
INSERT
  5
3B4
330
3AE
100
AcDbEntity
  8
0
 62
     0
370
    -2
100
AcDbBlockReference
  2
_ArchTick
 10
13.51446108358095
 20
10.90217310919412
 30
0.0
 41
0.156
 42
0.156
 43
0.156
  0
INSERT
  5
3B5
330
3AE
100
AcDbEntity
  8
0
 62
     0
370
    -2
100
AcDbBlockReference
  2
_ArchTick
 10
3.654136680817373
 20
10.90217310919412
 30
0.0
 41
0.156
 42
0.156
 43
0.156
 50
180.0
  0
MTEXT
  5
3B6
330
3AE
100
AcDbEntity
  8
0
 62
     0
100
AcDbMText
 10
8.584298882199163
 20
10.90217310919412
 30
0.0
 40
0.3125
 41
0.0
 71
     5
 72
     1
  1
\A1;ROUGH OPENING
 73
     1
 44
1.0
1001
ACAD
1000
MTEXTBEGIN
1070
    73
1070
     1
1070
    44
1040
1.0
1070
    74
1070
     0
1000
MTEXTEND
  0
POINT
  5
3B7
330
3AE
100
AcDbEntity
  8
Defpoints
 62
     0
100
AcDbPoint
 10
13.51446108358095
 20
9.605687132913505
 30
0.0
  0
POINT
  5
3B8
330
3AE
100
AcDbEntity
  8
Defpoints
 62
     0
100
AcDbPoint
 10
3.654136680817373
 20
9.605687132913505
 30
0.0
  0
POINT
  5
3B9
330
3AE
100
AcDbEntity
  8
Defpoints
 62
     0
100
AcDbPoint
 10
3.654136680817373
 20
10.90217310919412
 30
0.0
  0
ENDBLK
  5
3BA
330
3AE
100
AcDbEntity
  8
0
100
AcDbBlockEnd
  0
ENDSEC
  0
SECTION
  2
ENTITIES
  0
DIMENSION
  5
6A
330
2
100
AcDbEntity
  8
0
100
AcDbDimension
  2
*D4
 10
6.112355200138154
 20
24.40100224133312
 30
0.0
 11
7.862605200137977
 21
24.40100224133312
 31
0.0
 71
     5
 42
3.500499999999647
  3
Knife
100
AcDbAlignedDimension
 13
9.612855200137801
 23
23.1996139171506
 33
0.0
 14
6.112355200138154
 24
23.96561391715022
 34
0.0
100
AcDbRotatedDimension
1001
ACAD
1000
DSTYLE
1002
{
1070
    40
1040
1.0
1002
}
  0
DIMENSION
  5
7A
330
2
100
AcDbEntity
  8
0
100
AcDbDimension
  2
*D5
 10
11.42871661207618
 20
15.31184162624322
 30
0.0
 11
11.42871661207618
 21
19.25572777169691
 31
0.0
  1
BOX
 71
     5
 42
7.887772290907379
  3
Knife
100
AcDbAlignedDimension
 13
9.612855200137801
 23
23.1996139171506
 33
0.0
 14
9.612855200137801
 24
15.31184162624322
 34
0.0
 50
90.0
100
AcDbRotatedDimension
1001
ACAD
1000
DSTYLE
1002
{
1070
    40
1040
1.0
1002
}
  0
DIMENSION
  5
88
330
2
100
AcDbEntity
  8
0
100
AcDbDimension
  2
*D6
 10
4.693712754520422
 20
22.29361391715065
 30
0.0
 11
4.693712754520418
 21
21.13736391715065
 31
0.0
 71
     5
 42
2.3125
  3
Knife
100
AcDbAlignedDimension
 13
6.391064555120667
 23
19.98111391715065
 33
0.0
 14
6.175355200137548
 24
22.29361391715065
 34
0.0
 50
90.0
100
AcDbRotatedDimension
1001
ACAD
1000
DSTYLE
1002
{
1070
    40
1040
1.0
1002
}
  0
DIMENSION
  5
97
330
2
100
AcDbEntity
  8
0
100
AcDbDimension
  2
*D7
 10
3.43832618709348
 20
19.98111391715065
 30
0.0
 11
3.438326187093477
 21
21.59036391715063
 31
0.0
 71
     5
 42
3.218499999999949
  3
Knife
100
AcDbAlignedDimension
 13
5.111355200137822
 23
23.1996139171506
 33
0.0
 14
6.391064555120919
 24
19.98111391715065
 34
0.0
 50
90.0
100
AcDbRotatedDimension
1001
ACAD
1000
DSTYLE
1002
{
1070
    40
1040
1.0
1002
}
  0
DIMENSION
  5
A6
330
2
100
AcDbEntity
  8
0
100
AcDbDimension
  2
*D8
 10
4.693712754520422
 20
16.21784162624317
 30
0.0
 11
4.69371275452042
 21
17.37409162624362
 31
0.0
 71
     5
 42
2.312500000000909
  3
Knife
100
AcDbAlignedDimension
 13
6.391064555120667
 23
18.53034162624408
 33
0.0
 14
6.175355200138913
 24
16.21784162624317
 34
0.0
 50
90.0
100
AcDbRotatedDimension
1001
ACAD
1000
DSTYLE
1002
{
1070
    40
1040
1.0
1002
}
  0
DIMENSION
  5
B5
330
2
100
AcDbEntity
  8
0
100
AcDbDimension
  2
*D9
 10
3.438326187095956
 20
15.31184162624322
 30
0.0
 11
3.438326187095953
 21
16.9210916262441
 31
0.0
 71
     5
 42
3.218500000001766
  3
Knife
100
AcDbAlignedDimension
 13
6.39106455512001
 23
18.53034162624499
 33
0.0
 14
6.707355200137953
 24
15.31184162624322
 34
0.0
 50
90.0
100
AcDbRotatedDimension
1001
ACAD
1000
DSTYLE
1002
{
1070
    40
1040
1.0
1002
}
  0
DIMENSION
  5
C4
330
2
100
AcDbEntity
  8
0
100
AcDbDimension
  2
*D10
 10
4.693712754520674
 20
18.53034162624408
 30
0.0
 11
4.693712754520671
 21
19.25572777169736
 31
0.0
  1
DAYLIGHT OPENING
 71
     5
 42
1.45077229090657
  3
Knife
100
AcDbAlignedDimension
 13
6.391064555120919
 23
19.98111391715065
 33
0.0
 14
6.391064555120465
 24
18.53034162624408
 34
0.0
 50
90.0
100
AcDbRotatedDimension
1001
ACAD
1000
DSTYLE
1002
{
1070
    40
1040
1.0
1002
}
  0
DIMENSION
  5
D2
330
2
100
AcDbEntity
  8
0
100
AcDbDimension
  2
*D11
 10
11.42871661207552
 20
23.7621139171506
 30
0.0
 11
12.11524206522381
 21
24.43369193547642
 31
0.0
 70
   128
 71
     5
 42
0.5625
  3
Knife
100
AcDbAlignedDimension
 13
9.612855200137801
 23
23.1996139171506
 33
0.0
 14
9.612855200137801
 24
23.7621139171506
 34
0.0
 50
90.0
100
AcDbRotatedDimension
1001
ACAD
1000
DSTYLE
1002
{
1070
    40
1040
1.0
1002
}
  0
DIMENSION
  5
E1
330
2
100
AcDbEntity
  8
0
100
AcDbDimension
  2
*D12
 10
12.58966862987881
 20
14.62484162624332
 30
0.0
 11
12.58966862987881
 21
19.19347777169696
 31
0.0
  1
ROUGH\POPENING
 71
     5
 42
9.137272290907278
  3
Knife
100
AcDbAlignedDimension
 13
9.612855200137801
 23
23.7621139171506
 33
0.0
 14
7.300355200137801
 24
14.62484162624332
 34
0.0
 50
90.0
100
AcDbRotatedDimension
1001
ACAD
1000
DSTYLE
1002
{
1070
    40
1040
1.0
1002
}
  0
DIMENSION
  5
EF
330
2
100
AcDbEntity
  8
0
100
AcDbDimension
  2
*D13
 10
11.42871661207595
 20
14.62484162624332
 30
0.0
 11
10.74219115892765
 21
13.96514360959008
 31
0.0
 70
   128
 71
     5
 42
0.6869999999998982
  3
Knife
100
AcDbAlignedDimension
 13
9.612855200137801
 23
15.31184162624322
 33
0.0
 14
9.612855200137801
 24
14.62484162624332
 34
0.0
 50
90.0
100
AcDbRotatedDimension
1001
ACAD
1000
DSTYLE
1002
{
1070
    40
1040
1.0
1002
}
  0
TEXT
  5
FE
330
2
100
AcDbEntity
  8
0
100
AcDbText
 10
5.62614549053122
 20
12.75830140319431
 30
0.0
 40
0.375
  1
%%UOCTAGON - HEAD & SILL JAMB DETAIL
 41
0.6
 51
5.0
  7
DIMTXT
 72
     1
 11
8.694513009024831
 21
12.75830140319431
 31
0.0
100
AcDbText
  0
LWPOLYLINE
  5
100
102
{ACAD_REACTORS
330
1E6
102
}
330
2
100
AcDbEntity
  8
0
100
AcDbPolyline
 90
       15
 70
     0
 43
0.0
 10
4.576136680817853
 20
4.546775379876265
 42
0.4142135623730951
 10
4.638136680817751
 20
4.608775379876163
 10
4.638136680817751
 20
5.485775379875661
 10
3.388136680817751
 20
5.485775379876571
 10
3.388136680817751
 20
5.547775379876469
 10
2.763136680817751
 20
5.547775379876469
 10
2.763136680817751
 20
4.484775379876367
 42
0.4142135623731003
 10
2.825136680817649
 20
4.422775379876469
 10
3.357136680817802
 20
4.422775379876469
 42
0.4142135623730951
 10
3.388136680817751
 20
4.453775379875509
 10
3.388136680817751
 20
4.484775379876367
 10
3.607136680817802
 20
4.484775379876367
 42
0.4142135623730951
 10
3.638136680817751
 20
4.515775379875407
 10
3.638136680817751
 20
4.546775379876265
 10
4.576136671348194
 20
4.546775379876265
  0
HATCH
  5
101
330
2
100
AcDbEntity
  8
0
  6
Continuous
100
AcDbHatch
 10
0.0
 20
0.0
 30
0.0
210
0.0
220
0.0
230
1.0
  2
STEEL
 70
     0
 71
     0
 91
        1
 92
        7
 72
     0
 73
     1
 93
        6
 10
4.142136680817657
 20
5.547775379876469
 10
3.422318416881807
 20
5.547775379876469
 10
3.422318416881807
 20
5.485775379875661
 10
4.204136680817555
 20
5.485775379875661
 10
4.204136680817555
 20
6.142906774150645
 10
4.142136680817657
 20
6.142906774150645
 97
        0
 75
     0
 76
     1
 52
89.99999999999998
 41
1.0
 77
     0
 78
     2
 53
135.0
 43
47.40818916182525
 44
103.441160215401
 45
-0.0883883476483185
 46
-0.0883883476483184
 79
     0
 53
135.0
 43
47.34568916182524
 44
103.441160215401
 45
-0.0883883476483185
 46
-0.0883883476483184
 79
     0
 47
0.003572857848563
 98
        1
 10
4.169754767773611
 20
5.656350945020307
  0
LINE
  5
102
330
2
100
AcDbEntity
  8
0
100
AcDbLine
 10
3.422318416881807
 20
5.485775379875661
 30
0.0
 11
4.204136680817555
 21
5.485775379875661
 31
0.0
  0
LINE
  5
103
330
2
100
AcDbEntity
  8
0
  6
Continuous
100
AcDbLine
 10
4.204136680817555
 20
5.485775379875661
 30
0.0
 11
4.204136680817555
 21
6.142906774150645
 31
0.0
  0
LINE
  5
104
330
2
100
AcDbEntity
  8
0
  6
Continuous
100
AcDbLine
 10
4.142136680817657
 20
5.547775379876469
 30
0.0
 11
4.142136680817657
 21
6.142906774150645
 31
0.0
  0
LINE
  5
105
330
2
100
AcDbEntity
  8
0
  6
Continuous
100
AcDbLine
 10
4.142136680817657
 20
6.142906774150645
 30
0.0
 11
4.204136680817555
 21
6.142906774150645
 31
0.0
  0
LINE
  5
106
330
2
100
AcDbEntity
  8
0
100
AcDbLine
 10
3.422318416881807
 20
5.547775379876469
 30
0.0
 11
4.142136680817657
 21
5.547775379876469
 31
0.0
  0
INSERT
  5
107
330
2
100
AcDbEntity
  8
0
100
AcDbBlockReference
  2
8 x .75 FH
 10
3.782227548849277
 20
5.547775379876469
 30
0.0
  0
HATCH
  5
155
330
2
100
AcDbEntity
  8
0
  6
Continuous
100
AcDbHatch
 10
0.0
 20
0.0
 30
0.0
210
0.0
220
0.0
230
1.0
  2
SOLID
 70
     1
 71
     1
 91
        1
 92
        1
 93
        1
 72
     3
 10
4.421136680817198
 20
5.485775379875661
 11
0.078490521914425
 21
0.0
 40
0.4928082062716126
 50
0.0
 51
360.0
 73
     1
 97
        1
330
156
 75
     0
 76
     1
 98
        1
 10
56.62830060654323
 20
128.7338336453591
  0
ELLIPSE
  5
156
102
{ACAD_REACTORS
330
155
102
}
330
2
100
AcDbEntity
  8
0
  6
Continuous
100
AcDbEllipse
 10
4.421136680817198
 20
5.485775379875661
 30
0.0
 11
0.078490521914425
 21
0.0
 31
0.0
210
0.0
220
0.0
230
1.0
 40
0.4928082062716126
 41
0.0
 42
6.283185307179586
  0
INSERT
  5
157
330
2
100
AcDbEntity
  8
0
100
AcDbBlockReference
  2
8 X .625 PH
 10
4.142136680817657
 20
5.845341077013102
 30
0.0
 50
90.0
  0
LINE
  5
1AC
330
2
100
AcDbEntity
  8
0
100
AcDbLine
 10
3.422318416881807
 20
5.547775379876469
 30
0.0
 11
3.422318416881807
 21
5.485775379876571
 31
0.0
  0
LWPOLYLINE
  5
1AD
102
{ACAD_REACTORS
330
1E6
102
}
330
2
100
AcDbEntity
  8
0
  6
Continuous
100
AcDbPolyline
 90
       17
 70
     1
 43
0.0
 10
4.154136680817373
 20
8.749275379875683
 10
4.154136680817373
 20
7.67277537987556
 42
-0.9999999999999998
 10
4.154136680817373
 20
7.54777537987556
 10
4.154136680817373
 20
6.172775379876469
 10
4.279136680817373
 20
6.170593496759096
 10
4.279136680817373
 20
5.924084509745256
 10
4.204136680817555
 20
5.922775379876469
 10
4.204136680817555
 20
5.485775379875661
 10
4.7941366808177
 20
5.485775379875661
 42
0.4142135623730782
 10
4.825136680817649
 20
5.51677537987561
 10
4.825136680817649
 20
8.361275379875763
 10
4.732136680817802
 20
8.362898700913859
 10
4.732136680817802
 20
8.609652058837667
 10
4.825136680817649
 20
8.611275379875763
 10
4.825136680817649
 20
9.048275379875661
 10
4.154136680817373
 20
9.048275379875661
 10
4.154136680817373
 20
8.874275379875683
 42
-0.9999999999999998
  0
LWPOLYLINE
  5
1AE
330
2
100
AcDbEntity
  8
0
100
AcDbPolyline
 90
       20
 70
     1
 43
0.0
 10
4.747011680817649
 20
8.573190328037156
 10
4.825136680817649
 20
8.580025379875763
 10
4.825136680817649
 20
9.2352013684891
 10
5.73076435510984
 20
9.2352013684891
 42
-0.4142135623730951
 10
5.761764355109789
 20
9.204201368489151
 10
5.761764355109789
 20
8.301556053849338
 10
5.951218730016535
 20
8.298249115434003
 42
-0.4091108014277093
 10
6.012136680817548
 20
8.236258558334696
 10
6.012136680817548
 20
7.111275379875763
 10
5.887136680817548
 20
7.111275379875763
 10
5.761828034933841
 20
7.23658402575856
 10
5.205136680817759
 20
7.23658402575856
 10
5.205136680817759
 20
7.517584025759418
 10
5.125136680817831
 20
7.517584025759418
 10
5.125136680817831
 20
7.13127537987529
 10
4.825136680817649
 20
7.13127537987529
 10
4.825136680817649
 20
7.318275379875188
 42
0.3422459893048229
 10
4.825136680817649
 20
7.505275379875996
 10
4.825136680817649
 20
8.361275379875763
 10
4.747011680817649
 20
8.362639056823894
  0
INSERT
  5
1AF
330
2
100
AcDbEntity
  8
0
100
AcDbBlockReference
  2
86NPF141
 10
5.352371229987966
 20
6.048367666113875
 30
0.0
 43
2.0
 50
180.0
  0
LWPOLYLINE
  5
1CA
330
2
100
AcDbEntity
  8
0
100
AcDbPolyline
 90
       10
 70
     0
 43
0.0
 10
5.538136680817387
 20
7.14749950314453
 10
5.538136680817387
 20
7.144499503144828
 42
-0.4142135623730951
 10
5.52313668081706
 20
7.129499503144501
 10
5.296136680817198
 20
7.129499503144501
 42
-0.4142135623730951
 10
5.28113668081778
 20
7.144499503144828
 10
5.28113668081778
 20
7.201584025758705
 42
-0.4142135623730951
 10
5.296136680817198
 20
7.216584025759033
 10
5.52313668081706
 20
7.216584025759033
 42
-0.4142135623730951
 10
5.538136680817387
 20
7.201584025758705
 10
5.538136680817387
 20
7.144499499013903
  0
LWPOLYLINE
  5
1CB
330
2
100
AcDbEntity
  8
0
  6
Continuous
100
AcDbPolyline
 90
       28
 70
     1
 43
0.0
 10
5.175136680817104
 20
7.426584025759069
 10
5.175136680817104
 20
7.466584025759033
 10
5.155136680817577
 20
7.466584025759033
 10
5.155136680817577
 20
7.426584025759069
 10
5.125136680817831
 20
7.409263517683569
 10
5.125136680817831
 20
7.392359801694141
 10
5.155136680817577
 20
7.40968030976964
 10
5.155136680817577
 20
7.357209025759033
 10
5.125136680817831
 20
7.339888517683533
 10
5.125136680817831
 20
7.323322343726971
 10
5.155136680817577
 20
7.340642851802471
 10
5.155136680817577
 20
7.216584025759033
 10
5.263153927324765
 20
7.216584025759033
 42
0.0909348008123668
 10
5.261136680817344
 20
7.20558402575952
 10
5.261136680817344
 20
7.140499503144923
 42
0.4142135623730951
 10
5.292136680817293
 20
7.109499503144974
 10
5.527136680817875
 20
7.109499503144974
 42
0.4142135623730991
 10
5.558136680817824
 20
7.140499503144923
 10
5.558136680817824
 20
7.20558402575952
 42
0.4142135623730911
 10
5.527136680816965
 20
7.23658402575856
 10
5.175136680817104
 20
7.23658402575856
 10
5.175136680817104
 20
7.339913589012752
 10
5.205136680817759
 20
7.322593080937252
 10
5.205136680817759
 20
7.33926351768386
 10
5.175136680817104
 20
7.35658402575936
 10
5.175136680817104
 20
7.409132953295369
 10
5.205136680817759
 20
7.39181244521896
 10
5.205136680817759
 20
7.409263517683569
  0
HATCH
  5
1CC
330
2
100
AcDbEntity
  8
0
100
AcDbHatch
 10
0.0
 20
0.0
 30
0.0
210
0.0
220
0.0
230
1.0
  2
SOLID
 70
     1
 71
     0
 91
        1
 92
        7
 72
     1
 73
     1
 93
        2
 10
7.247636680817322
 20
6.734499503144974
 42
0.0
 10
7.060136680817322
 20
6.734499503144974
 42
-0.6666666666666311
 97
        0
 75
     1
 76
     1
 47
0.0010014887122476
 98
        1
 10
7.132731484773557
 20
6.780559579492177
1001
GradientColor1ACI
1070
     5
1001
GradientColor2ACI
1070
     2
1001
ACAD
1010
0.0
1020
0.0
1030
0.0
  0
HATCH
  5
1CF
330
2
100
AcDbEntity
  8
0
100
AcDbHatch
 10
0.0
 20
0.0
 30
0.0
210
0.0
220
0.0
230
1.0
  2
SOLID
 70
     1
 71
     0
 91
        1
 92
        7
 72
     1
 73
     1
 93
        2
 10
7.247636680817322
 20
5.904009503144692
 42
0.0
 10
7.060136680817322
 20
5.904009503144692
 42
0.6666666666666311
 97
        0
 75
     1
 76
     1
 47
0.0010014887122476
 98
        1
 10
7.132731484773557
 20
5.857949426797489
1001
GradientColor1ACI
1070
     5
1001
GradientColor2ACI
1070
     2
1001
ACAD
1010
0.0
1020
0.0
1030
0.0
  0
LWPOLYLINE
  5
1D0
330
2
100
AcDbEntity
  8
0
100
AcDbPolyline
 90
       11
 70
     1
 43
0.0
 10
7.060136680817322
 20
5.904009503144692
 10
6.810136680817322
 20
5.904009503144692
 10
6.810136680817322
 20
5.530009503144896
 10
7.091636680817373
 20
5.530009503144896
 42
0.4142135623731695
 10
7.122636680817322
 20
5.561009503144845
 10
7.122636680817322
 20
5.607534271431717
 42
-0.235730494161761
 10
7.135004982496411
 20
5.632310466007396
 10
7.360268379138233
 20
5.801708540282191
 42
0.235730494161718
 10
7.372636680817322
 20
5.826484734857871
 10
7.372636680817322
 20
5.904009503144692
 10
7.247636680817322
 20
5.904009503144692
 42
-0.6666666666666588
  0
LWPOLYLINE
  5
1D1
330
2
100
AcDbEntity
  8
0
100
AcDbPolyline
 90
        4
 70
     0
 43
0.0
 10
7.536356624204472
 20
6.616129503144833
 10
6.9191366808177
 20
6.616129503144833
 10
6.9191366808177
 20
6.734499503144974
 10
7.53635660494956
 20
6.734499503144974
  0
LWPOLYLINE
  5
1D2
330
2
100
AcDbEntity
  8
0
100
AcDbPolyline
 90
       14
 70
     1
 43
0.0
 10
7.128961421766234
 20
6.131754503144833
 42
-0.3359746306540741
 10
7.149324180817984
 20
6.09925059339784
 10
7.125136680817831
 20
6.063379503145
 42
0.4142135623730951
 10
7.140761680817831
 20
6.047754503145
 10
7.322386680817999
 20
6.047754503145
 10
7.322386680817999
 20
6.590754503144665
 10
7.140761680817831
 20
6.590754503144665
 42
0.414213562373094
 10
7.125136680817831
 20
6.575129503144665
 10
7.149324180817984
 20
6.539641715086503
 42
-0.3208708054700532
 10
7.128598512685584
 20
6.506754503144833
 10
7.071761680817417
 20
6.506754503144833
 42
0.4142135623730951
 10
7.056136680817417
 20
6.491129503144833
 10
7.056136680817417
 20
6.147379503144833
 42
0.4142135623730951
 10
7.071761680817417
 20
6.131754503144833
  0
LWPOLYLINE
  5
1D3
330
2
100
AcDbEntity
  8
0
100
AcDbPolyline
 90
       14
 70
     1
 43
0.0
 10
7.130179821910587
 20
6.138754503145349
 42
-0.3593608004949541
 10
7.156083837791356
 20
6.096754615821367
 10
7.132336071072586
 20
6.061535668709069
 42
0.3524310491054993
 10
7.140761680817831
 20
6.054754503144607
 10
7.322386680817999
 20
6.054754503144607
 10
7.322386680817999
 20
6.583754503145058
 10
7.140761680817831
 20
6.583754503145058
 42
0.3518693664465323
 10
7.132339773456351
 20
6.576990175443455
 10
7.156143277635692
 20
6.542065784277468
 42
-0.3446308864324803
 10
7.129904363634068
 20
6.499754503144316
 10
7.071761680817417
 20
6.499754503144316
 42
0.4142135623730946
 10
7.063136680817933
 20
6.491129503144833
 10
7.063136680817933
 20
6.147379503144833
 42
0.4142135623730946
 10
7.071761680817417
 20
6.138754503145349
  0
LWPOLYLINE
  5
1D4
330
2
100
AcDbEntity
  8
0
100
AcDbPolyline
 90
       10
 70
     1
 43
0.0
 10
7.133699180817984
 20
6.163004503144833
 42
-0.3584554666094669
 10
7.180574180817984
 20
6.098100656991476
 10
7.180574180817984
 20
6.079004503145
 10
7.291136680817999
 20
6.079004503145
 10
7.291136680817999
 20
6.559504503144665
 10
7.180574180817984
 20
6.559504503144665
 10
7.180574180817984
 20
6.540408349298189
 42
-0.3467993108968364
 10
7.133699180817984
 20
6.475504503144833
 10
7.087386680817417
 20
6.475504503144833
 10
7.087386680817417
 20
6.163004503144833
  0
LWPOLYLINE
  5
1D5
330
2
100
AcDbEntity
  8
0
100
AcDbPolyline
 90
        6
 70
     0
 43
0.0
 10
7.2941366808177
 20
6.047754503145
 10
7.2941366808177
 20
6.038004503144833
 10
7.332136680818166
 20
6.038004503144833
 10
7.332136680818166
 20
6.600504503144833
 10
7.2941366808177
 20
6.600504503144833
 10
7.2941366808177
 20
6.590754503144665
  0
LINE
  5
1D6
330
2
100
AcDbEntity
  8
0
100
AcDbLine
 10
7.140761680817831
 20
6.590754503144665
 30
0.0
 11
7.140761680817831
 21
6.616129503144833
 31
0.0
  0
LINE
  5
1D7
330
2
100
AcDbEntity
  8
0
100
AcDbLine
 10
7.2941366808177
 20
6.590754503144665
 30
0.0
 11
7.2941366808177
 21
6.616129503144833
 31
0.0
  0
LINE
  5
1D8
330
2
100
AcDbEntity
  8
0
100
AcDbLine
 10
7.140761680817831
 20
6.047754503145
 30
0.0
 11
7.140761680817831
 21
6.022379503144833
 31
0.0
  0
LINE
  5
1D9
330
2
100
AcDbEntity
  8
0
100
AcDbLine
 10
7.2941366808177
 20
6.047754503145
 30
0.0
 11
7.2941366808177
 21
6.022379503144833
 31
0.0
  0
HATCH
  5
1DA
330
2
100
AcDbEntity
  8
0
  6
Continuous
100
AcDbHatch
 10
0.0
 20
0.0
 30
0.0
210
0.0
220
0.0
230
1.0
  2
DOTS
 70
     0
 71
     0
 91
        2
 92
        7
 72
     0
 73
     1
 93
        4
 10
7.140761680817831
 20
6.047754503145
 10
7.140761680817831
 20
6.022379503144833
 10
7.2941366808177
 20
6.022379503144833
 10
7.2941366808177
 20
6.047754503145
 97
        0
 92
        7
 72
     0
 73
     1
 93
        4
 10
7.140761680817831
 20
6.616129503144833
 10
7.140761680817831
 20
6.590754503144665
 10
7.2941366808177
 20
6.590754503144665
 10
7.2941366808177
 20
6.616129503144833
 97
        0
 75
     0
 76
     1
 52
450.0
 41
0.1
 77
     0
 78
     1
 53
90.0
 43
3.947471932419375
 44
-0.0711002423917366
 45
0.00625
 46
0.003125
 79
     2
 49
0.0
 49
-0.00625
 47
0.0006001443632006
 98
        2
 10
7.198346620866232
 20
6.036034212997577
 10
7.201947494665091
 20
6.605919142393389
  0
HATCH
  5
1DB
330
2
100
AcDbEntity
  8
0
  6
Continuous
100
AcDbHatch
 10
0.0
 20
0.0
 30
0.0
210
0.0
220
0.0
230
1.0
  2
DASH
 70
     0
 71
     0
 91
        1
 92
        7
 72
     1
 73
     1
 93
       16
 10
7.056136680817417
 20
6.491129503144833
 42
-0.4142135623730951
 10
7.071761680817417
 20
6.506754503144833
 42
0.0
 10
7.128598512685584
 20
6.506754503144833
 42
0.3208708054700533
 10
7.149324180817984
 20
6.539641715086503
 42
0.0
 10
7.125136680817831
 20
6.575129503144665
 42
-0.414213562373094
 10
7.140761680817831
 20
6.590754503144665
 42
0.0
 10
7.140761680817831
 20
6.616129503145742
 42
0.0
 10
6.91913668081861
 20
6.616129503143923
 42
0.0
 10
6.91913668081861
 20
6.022379503144833
 42
0.0
 10
7.140761680817831
 20
6.022379503144833
 42
0.0
 10
7.140761680817831
 20
6.047754503145
 42
-0.4142135623730951
 10
7.125136680817831
 20
6.063379503145
 42
0.0
 10
7.149324180817984
 20
6.09925059339784
 42
0.3359746306540741
 10
7.128961421766234
 20
6.131754503144833
 42
0.0
 10
7.071761680817417
 20
6.131754503144833
 42
-0.4142135623730951
 10
7.056136680817417
 20
6.147379503144833
 42
0.0
 97
        0
 75
     0
 76
     1
 52
450.0
 41
0.1
 77
     0
 78
     1
 53
90.0
 43
3.947471932419375
 44
-0.0711002423917366
 45
0.0125
 46
0.0125
 79
     2
 49
0.0125
 49
-0.0125
 47
0.0009600803746669
 98
        1
 10
7.005297408623391
 20
6.368275983229608
  0
LINE
  5
1DC
330
2
100
AcDbEntity
  8
0
100
AcDbLine
 10
6.810136680817322
 20
5.904009503144692
 30
0.0
 11
6.9191366808177
 21
6.734499503144974
 31
0.0
  0
LWPOLYLINE
  5
1DD
330
2
100
AcDbEntity
  8
0
100
AcDbPolyline
 90
        8
 70
     0
 43
0.0
 10
6.810136680817322
 20
5.904009503144692
 10
6.810136680817322
 20
6.734499503144974
 10
6.9191366808177
 20
6.734499503144974
 10
6.9191366808177
 20
5.904009503144692
 10
6.810136680817322
 20
5.904009503144692
 10
6.9191366808177
 20
6.734499503144974
 10
6.9191366808177
 20
5.904009503144692
 10
6.810136680817322
 20
6.734499503144974
  0
LWPOLYLINE
  5
1DE
102
{ACAD_REACTORS
330
217
102
}
330
2
100
AcDbEntity
  8
0
  6
ByBlock
100
AcDbPolyline
 90
       11
 70
     0
 43
0.0
 10
5.059994259271206
 20
5.815775379875589
 10
5.059994259271206
 20
6.907749503144799
 10
5.262136680817548
 20
6.907749503144799
 10
5.262136680817548
 20
7.094499503144646
 42
-0.4142135623730951
 10
5.277136680816965
 20
7.109499503144974
 10
7.121523910948326
 20
7.109499503144974
 10
7.121523910948326
 20
7.014460556026818
 42
-0.3899024490717824
 10
7.322696762275427
 20
6.829460556026418
 10
7.372303988046496
 20
6.829460556026418
 10
7.372303988046496
 20
6.734499503144974
 10
7.247303988046496
 20
6.734499503144974
  0
LWPOLYLINE
  5
1DF
102
{ACAD_REACTORS
330
1F7
330
217
102
}
330
2
100
AcDbEntity
  8
0
  6
ByBlock
100
AcDbPolyline
 90
       11
 70
     0
 43
0.0
 10
7.059803988046496
 20
6.734499503144974
 10
6.810136680817322
 20
6.734499503144974
 10
6.810136680817322
 20
6.548411833518542
 42
0.9946524064171082
 10
6.810136680817322
 20
6.361411833518644
 10
6.810136680817322
 20
5.485775379875661
 10
5.185136680817322
 20
5.485775379875661
 42
-0.4142135623730951
 10
5.060136680817322
 20
5.610775379875661
 10
5.060136680817322
 20
5.735775379875661
 10
5.376636680817227
 20
5.735775379875661
 10
5.376636680817227
 20
5.815775379875589
 10
5.064136680817227
 20
5.815775379875589
  0
ARC
  5
1E0
330
2
100
AcDbEntity
  8
0
100
AcDbCircle
 10
7.153553988046496
 20
6.695437003144974
 30
0.0
 40
0.1015624999999893
100
AcDbArc
 50
22.61986494803842
 51
157.3801350519615
  0
LWPOLYLINE
  5
1E1
330
2
100
AcDbEntity
  8
0
100
AcDbPolyline
 90
        4
 70
     0
 43
0.0
 10
7.536356720789171
 20
6.022379503144833
 10
6.9191366808177
 20
6.022379503144833
 10
6.9191366808177
 20
5.904009503144692
 10
7.536356740044993
 20
5.904009503144692
  0
LINE
  5
1E2
330
2
100
AcDbEntity
  8
0
  6
HIDDEN
100
AcDbLine
 10
7.536356740044993
 20
5.904009503144692
 30
0.0
 11
7.536356759300125
 21
6.022379503144833
 31
0.0
  0
DIMENSION
  5
1E4
102
{ACAD_XDICTIONARY
360
1E5
102
}
102
{ACAD_REACTORS
330
1E6
102
}
330
2
100
AcDbEntity
  8
0
100
AcDbDimension
  2
*D14
 10
2.952748356634856
 20
5.547775379876469
 30
0.0
 11
2.952748356634855
 21
7.298025379876067
 31
0.0
 71
     5
 42
3.500499999999193
  3
Knife
100
AcDbAlignedDimension
 13
4.154136680817373
 23
9.048275379875661
 33
0.0
 14
3.388136680817751
 24
5.547775379876469
 34
0.0
 50
90.0
100
AcDbRotatedDimension
1001
ACAD
1000
DSTYLE
1002
{
1070
    40
1040
1.0
1002
}
  0
DIMENSION
  5
1F5
102
{ACAD_XDICTIONARY
360
1F6
102
}
102
{ACAD_REACTORS
330
1F7
102
}
330
2
100
AcDbEntity
  8
0
100
AcDbDimension
  2
*D15
 10
5.060136680817322
 20
4.12913293425808
 30
0.0
 11
6.216386680817322
 21
4.12913293425808
 31
0.0
 71
     5
 42
2.3125
  3
Knife
100
AcDbAlignedDimension
 13
7.372636680817322
 23
5.82648473485878
 33
0.0
 14
5.060136680817322
 24
5.610775379875661
 34
0.0
 50
180.0
100
AcDbRotatedDimension
1001
ACAD
1000
DSTYLE
1002
{
1070
    40
1040
1.0
1002
}
  0
DIMENSION
  5
206
330
2
100
AcDbEntity
  8
0
100
AcDbDimension
  2
*D16
 10
7.372636680817322
 20
2.873746366830886
 30
0.0
 11
5.763386680817347
 21
2.873746366830886
 31
0.0
 71
     5
 42
3.218499999999949
  3
Knife
100
AcDbAlignedDimension
 13
4.154136680817373
 23
4.546775379876265
 33
0.0
 14
7.372636680817322
 24
5.82648473485878
 34
0.0
 50
180.0
100
AcDbRotatedDimension
1001
ACAD
1000
DSTYLE
1002
{
1070
    40
1040
1.0
1002
}
  0
DIMENSION
  5
215
102
{ACAD_XDICTIONARY
360
216
102
}
102
{ACAD_REACTORS
330
217
102
}
330
2
100
AcDbEntity
  8
0
100
AcDbDimension
  2
*D17
 10
6.469733488349984
 20
7.109499503144974
 30
0.0
 11
7.15625894149828
 21
7.677715181282984
 31
0.0
 70
   128
 71
     5
 42
1.623724123269312
  3
Knife
100
AcDbAlignedDimension
 13
6.810136680817322
 23
5.485775379875661
 33
0.0
 14
6.810136680817322
 24
7.109499503144974
 34
0.0
 50
90.0
100
AcDbRotatedDimension
1001
ACAD
1000
DSTYLE
1002
{
1070
    40
1040
1.0
1002
}
  0
TEXT
  5
226
330
2
100
AcDbEntity
  8
0
100
AcDbText
 10
6.166797200961772
 20
1.466795028883637
 30
0.0
 40
0.375
  1
%%UOCTAGON - SIDE JAMB DETAIL
 41
0.6
 51
5.0
  7
DIMTXT
 72
     1
 11
8.584298882199163
 21
1.466795028883637
 31
0.0
100
AcDbText
  0
LWPOLYLINE
  5
227
330
2
100
AcDbEntity
  8
0
100
AcDbPolyline
 90
       15
 70
     0
 43
0.0
 10
12.59246108358047
 20
4.546775379876265
 42
-0.4142135623730951
 10
12.53046108358057
 20
4.608775379876163
 10
12.53046108358057
 20
5.485775379875661
 10
13.78046108358057
 20
5.485775379876571
 10
13.78046108358057
 20
5.547775379876469
 10
14.40546108358057
 20
5.547775379876469
 10
14.40546108358057
 20
4.484775379876367
 42
-0.4142135623731003
 10
14.34346108358068
 20
4.422775379876469
 10
13.81146108358052
 20
4.422775379876469
 42
-0.4142135623730951
 10
13.78046108358057
 20
4.453775379875509
 10
13.78046108358057
 20
4.484775379876367
 10
13.56146108358052
 20
4.484775379876367
 42
-0.4142135623730951
 10
13.53046108358057
 20
4.515775379875407
 10
13.53046108358057
 20
4.546775379876265
 10
12.59246109305013
 20
4.546775379876265
  0
HATCH
  5
228
330
2
100
AcDbEntity
  8
0
  6
Continuous
100
AcDbHatch
 10
0.0
 20
0.0
 30
0.0
210
0.0
220
0.0
230
1.0
  2
STEEL
 70
     0
 71
     0
 91
        1
 92
        7
 72
     0
 73
     1
 93
        6
 10
13.02646108358067
 20
5.547775379876469
 10
13.74627934751652
 20
5.547775379876469
 10
13.74627934751652
 20
5.485775379875661
 10
12.96446108358077
 20
5.485775379875661
 10
12.96446108358077
 20
6.142906774150645
 10
13.02646108358067
 20
6.142906774150645
 97
        0
 75
     0
 76
     1
 52
89.99999999999998
 41
1.0
 77
     0
 78
     2
 53
135.0
 43
47.40818916182525
 44
103.441160215401
 45
-0.0883883476483185
 46
-0.0883883476483184
 79
     0
 53
135.0
 43
47.34568916182524
 44
103.441160215401
 45
-0.0883883476483185
 46
-0.0883883476483184
 79
     0
 47
0.003572857848563
 98
        1
 10
12.99884299662471
 20
5.656350945020307
  0
LINE
  5
229
330
2
100
AcDbEntity
  8
0
100
AcDbLine
 10
13.74627934751652
 20
5.485775379875661
 30
0.0
 11
12.96446108358077
 21
5.485775379875661
 31
0.0
  0
LINE
  5
22A
330
2
100
AcDbEntity
  8
0
  6
Continuous
100
AcDbLine
 10
12.96446108358077
 20
5.485775379875661
 30
0.0
 11
12.96446108358077
 21
6.142906774150645
 31
0.0
  0
LINE
  5
22B
330
2
100
AcDbEntity
  8
0
  6
Continuous
100
AcDbLine
 10
13.02646108358067
 20
5.547775379876469
 30
0.0
 11
13.02646108358067
 21
6.142906774150645
 31
0.0
  0
LINE
  5
22C
330
2
100
AcDbEntity
  8
0
  6
Continuous
100
AcDbLine
 10
13.02646108358067
 20
6.142906774150645
 30
0.0
 11
12.96446108358077
 21
6.142906774150645
 31
0.0
  0
LINE
  5
22D
330
2
100
AcDbEntity
  8
0
100
AcDbLine
 10
13.74627934751652
 20
5.547775379876469
 30
0.0
 11
13.02646108358067
 21
5.547775379876469
 31
0.0
  0
INSERT
  5
22E
330
2
100
AcDbEntity
  8
0
100
AcDbBlockReference
  2
8 x .75 FH
 10
13.38637021554905
 20
5.547775379876469
 30
0.0
 41
-1.0
  0
HATCH
  5
22F
330
2
100
AcDbEntity
  8
0
  6
Continuous
100
AcDbHatch
 10
0.0
 20
0.0
 30
0.0
210
0.0
220
0.0
230
1.0
  2
SOLID
 70
     1
 71
     1
 91
        1
 92
        1
 93
        1
 72
     3
 10
12.74746108358113
 20
5.485775379875661
 11
-0.078490521914425
 21
0.0
 40
0.4928082062716126
 50
0.0
 51
360.0
 73
     0
 97
        1
330
230
 75
     0
 76
     1
 98
        1
 10
-39.45970284214491
 20
128.7338336453591
  0
ELLIPSE
  5
230
102
{ACAD_REACTORS
330
22F
102
}
330
2
100
AcDbEntity
  8
0
  6
Continuous
100
AcDbEllipse
 10
12.74746108358113
 20
5.485775379875661
 30
0.0
 11
-0.078490521914425
 21
0.0
 31
0.0
210
0.0
220
0.0
230
-1.0
 40
0.4928082062716126
 41
0.0
 42
6.283185307179586
  0
INSERT
  5
231
330
2
100
AcDbEntity
  8
0
100
AcDbBlockReference
  2
8 X .625 PH
 10
13.02646108358067
 20
5.845341077013102
 30
0.0
 41
-1.0
 50
270.0
  0
LINE
  5
232
330
2
100
AcDbEntity
  8
0
100
AcDbLine
 10
13.74627934751652
 20
5.547775379876469
 30
0.0
 11
13.74627934751652
 21
5.485775379876571
 31
0.0
  0
LWPOLYLINE
  5
233
102
{ACAD_REACTORS
330
27F
330
381
102
}
330
2
100
AcDbEntity
  8
0
  6
Continuous
100
AcDbPolyline
 90
       17
 70
     1
 43
0.0
 10
13.01446108358095
 20
8.749275379875683
 10
13.01446108358095
 20
7.67277537987556
 42
0.9999999999999998
 10
13.01446108358095
 20
7.54777537987556
 10
13.01446108358095
 20
6.172775379876469
 10
12.88946108358095
 20
6.170593496759096
 10
12.88946108358095
 20
5.924084509745256
 10
12.96446108358077
 20
5.922775379876469
 10
12.96446108358077
 20
5.485775379875661
 10
12.37446108358063
 20
5.485775379875661
 42
-0.4142135623730782
 10
12.34346108358068
 20
5.51677537987561
 10
12.34346108358068
 20
8.361275379875763
 10
12.43646108358052
 20
8.362898700913859
 10
12.43646108358052
 20
8.609652058837667
 10
12.34346108358068
 20
8.611275379875763
 10
12.34346108358068
 20
9.048275379875661
 10
13.01446108358095
 20
9.048275379875661
 10
13.01446108358095
 20
8.874275379875683
 42
0.9999999999999998
  0
LWPOLYLINE
  5
234
102
{ACAD_REACTORS
330
27F
102
}
330
2
100
AcDbEntity
  8
0
100
AcDbPolyline
 90
       20
 70
     1
 43
0.0
 10
12.42158608358068
 20
8.573190328037156
 10
12.34346108358068
 20
8.580025379875763
 10
12.34346108358068
 20
9.2352013684891
 10
11.43783340928848
 20
9.2352013684891
 42
0.4142135623730951
 10
11.40683340928854
 20
9.204201368489151
 10
11.40683340928854
 20
8.301556053849338
 10
11.21737903438179
 20
8.298249115434003
 42
0.4091108014277093
 10
11.15646108358078
 20
8.236258558334696
 10
11.15646108358078
 20
7.111275379875763
 10
11.28146108358078
 20
7.111275379875763
 10
11.40676972946448
 20
7.23658402575856
 10
11.96346108358057
 20
7.23658402575856
 10
11.96346108358057
 20
7.517584025759418
 10
12.0434610835805
 20
7.517584025759418
 10
12.0434610835805
 20
7.13127537987529
 10
12.34346108358068
 20
7.13127537987529
 10
12.34346108358068
 20
7.318275379875188
 42
-0.3422459893048229
 10
12.34346108358068
 20
7.505275379875996
 10
12.34346108358068
 20
8.361275379875763
 10
12.42158608358068
 20
8.362639056823894
  0
INSERT
  5
235
330
2
100
AcDbEntity
  8
0
100
AcDbBlockReference
  2
86NPF141
 10
11.81622653441036
 20
6.048367666113875
 30
0.0
 41
-1.0
 43
2.0
 50
180.0
  0
LWPOLYLINE
  5
236
330
2
100
AcDbEntity
  8
0
100
AcDbPolyline
 90
       10
 70
     0
 43
0.0
 10
11.63046108358094
 20
7.14749950314453
 10
11.63046108358094
 20
7.144499503144828
 42
0.4142135623730951
 10
11.64546108358126
 20
7.129499503144501
 10
11.87246108358113
 20
7.129499503144501
 42
0.4142135623730951
 10
11.88746108358055
 20
7.144499503144828
 10
11.88746108358055
 20
7.201584025758705
 42
0.4142135623730951
 10
11.87246108358113
 20
7.216584025759033
 10
11.64546108358126
 20
7.216584025759033
 42
0.4142135623730951
 10
11.63046108358094
 20
7.201584025758705
 10
11.63046108358094
 20
7.144499499013903
  0
LWPOLYLINE
  5
237
330
2
100
AcDbEntity
  8
0
  6
Continuous
100
AcDbPolyline
 90
       28
 70
     1
 43
0.0
 10
11.99346108358122
 20
7.426584025759069
 10
11.99346108358122
 20
7.466584025759033
 10
12.01346108358075
 20
7.466584025759033
 10
12.01346108358075
 20
7.426584025759069
 10
12.0434610835805
 20
7.409263517683569
 10
12.0434610835805
 20
7.392359801694141
 10
12.01346108358075
 20
7.40968030976964
 10
12.01346108358075
 20
7.357209025759033
 10
12.0434610835805
 20
7.339888517683533
 10
12.0434610835805
 20
7.323322343726971
 10
12.01346108358075
 20
7.340642851802471
 10
12.01346108358075
 20
7.216584025759033
 10
11.90544383707356
 20
7.216584025759033
 42
-0.0909348008123668
 10
11.90746108358098
 20
7.20558402575952
 10
11.90746108358098
 20
7.140499503144923
 42
-0.4142135623730951
 10
11.87646108358103
 20
7.109499503144974
 10
11.64146108358045
 20
7.109499503144974
 42
-0.4142135623730991
 10
11.6104610835805
 20
7.140499503144923
 10
11.6104610835805
 20
7.20558402575952
 42
-0.4142135623730911
 10
11.64146108358136
 20
7.23658402575856
 10
11.99346108358122
 20
7.23658402575856
 10
11.99346108358122
 20
7.339913589012752
 10
11.96346108358057
 20
7.322593080937252
 10
11.96346108358057
 20
7.33926351768386
 10
11.99346108358122
 20
7.35658402575936
 10
11.99346108358122
 20
7.409132953295369
 10
11.96346108358057
 20
7.39181244521896
 10
11.96346108358057
 20
7.409263517683569
  0
HATCH
  5
238
330
2
100
AcDbEntity
  8
0
100
AcDbHatch
 10
0.0
 20
0.0
 30
0.0
210
0.0
220
0.0
230
1.0
  2
SOLID
 70
     1
 71
     0
 91
        1
 92
        7
 72
     1
 73
     1
 93
        2
 10
9.920961083581005
 20
6.734499503144974
 42
0.0
 10
10.108461083581
 20
6.734499503144974
 42
0.6666666666666311
 97
        0
 75
     1
 76
     1
 47
0.0010014887122476
 98
        1
 10
10.03586627962477
 20
6.780559579492177
1001
GradientColor1ACI
1070
     5
1001
GradientColor2ACI
1070
     2
1001
ACAD
1010
0.0
1020
0.0
1030
0.0
  0
HATCH
  5
239
330
2
100
AcDbEntity
  8
0
100
AcDbHatch
 10
0.0
 20
0.0
 30
0.0
210
0.0
220
0.0
230
1.0
  2
SOLID
 70
     1
 71
     0
 91
        1
 92
        7
 72
     1
 73
     1
 93
        2
 10
9.920961083581005
 20
5.904009503144692
 42
0.0
 10
10.108461083581
 20
5.904009503144692
 42
-0.6666666666666311
 97
        0
 75
     1
 76
     1
 47
0.0010014887122476
 98
        1
 10
10.03586627962477
 20
5.857949426797489
1001
GradientColor1ACI
1070
     5
1001
GradientColor2ACI
1070
     2
1001
ACAD
1010
0.0
1020
0.0
1030
0.0
  0
LWPOLYLINE
  5
23A
102
{ACAD_REACTORS
330
26F
102
}
330
2
100
AcDbEntity
  8
0
100
AcDbPolyline
 90
       11
 70
     1
 43
0.0
 10
10.108461083581
 20
5.904009503144692
 10
10.358461083581
 20
5.904009503144692
 10
10.358461083581
 20
5.530009503144896
 10
10.07696108358095
 20
5.530009503144896
 42
-0.4142135623731695
 10
10.045961083581
 20
5.561009503144845
 10
10.045961083581
 20
5.607534271431717
 42
0.235730494161761
 10
10.03359278190191
 20
5.632310466007396
 10
9.808329385260094
 20
5.801708540282191
 42
-0.235730494161718
 10
9.795961083581005
 20
5.826484734857871
 10
9.795961083581005
 20
5.904009503144692
 10
9.920961083581005
 20
5.904009503144692
 42
0.6666666666666588
  0
LWPOLYLINE
  5
23B
330
2
100
AcDbEntity
  8
0
100
AcDbPolyline
 90
        4
 70
     0
 43
0.0
 10
9.632241140193855
 20
6.616129503144833
 10
10.24946108358062
 20
6.616129503144833
 10
10.24946108358062
 20
6.734499503144974
 10
9.632241159448767
 20
6.734499503144974
  0
LWPOLYLINE
  5
23C
330
2
100
AcDbEntity
  8
0
100
AcDbPolyline
 90
       14
 70
     1
 43
0.0
 10
10.03963634263209
 20
6.131754503144833
 42
0.3359746306540741
 10
10.01927358358034
 20
6.09925059339784
 10
10.04346108358049
 20
6.063379503145
 42
-0.4142135623730951
 10
10.02783608358049
 20
6.047754503145
 10
9.846211083580328
 20
6.047754503145
 10
9.846211083580328
 20
6.590754503144665
 10
10.02783608358049
 20
6.590754503144665
 42
-0.414213562373094
 10
10.04346108358049
 20
6.575129503144665
 10
10.01927358358034
 20
6.539641715086503
 42
0.3208708054700532
 10
10.03999925171274
 20
6.506754503144833
 10
10.09683608358091
 20
6.506754503144833
 42
-0.4142135623730951
 10
10.11246108358091
 20
6.491129503144833
 10
10.11246108358091
 20
6.147379503144833
 42
-0.4142135623730951
 10
10.09683608358091
 20
6.131754503144833
  0
LWPOLYLINE
  5
23D
330
2
100
AcDbEntity
  8
0
100
AcDbPolyline
 90
       14
 70
     1
 43
0.0
 10
10.03841794248774
 20
6.138754503145349
 42
0.3593608004949541
 10
10.01251392660697
 20
6.096754615821367
 10
10.03626169332574
 20
6.061535668709069
 42
-0.3524310491054993
 10
10.02783608358049
 20
6.054754503144607
 10
9.846211083580328
 20
6.054754503144607
 10
9.846211083580328
 20
6.583754503145058
 10
10.02783608358049
 20
6.583754503145058
 42
-0.3518693664465323
 10
10.03625799094197
 20
6.576990175443455
 10
10.01245448676263
 20
6.542065784277468
 42
0.3446308864324803
 10
10.03869340076426
 20
6.499754503144316
 10
10.09683608358091
 20
6.499754503144316
 42
-0.4142135623730946
 10
10.10546108358039
 20
6.491129503144833
 10
10.10546108358039
 20
6.147379503144833
 42
-0.4142135623730946
 10
10.09683608358091
 20
6.138754503145349
  0
LWPOLYLINE
  5
23E
330
2
100
AcDbEntity
  8
0
100
AcDbPolyline
 90
       10
 70
     1
 43
0.0
 10
10.03489858358034
 20
6.163004503144833
 42
0.3584554666094669
 10
9.988023583580343
 20
6.098100656991476
 10
9.988023583580343
 20
6.079004503145
 10
9.877461083580328
 20
6.079004503145
 10
9.877461083580328
 20
6.559504503144665
 10
9.988023583580343
 20
6.559504503144665
 10
9.988023583580343
 20
6.540408349298189
 42
0.3467993108968364
 10
10.03489858358034
 20
6.475504503144833
 10
10.08121108358091
 20
6.475504503144833
 10
10.08121108358091
 20
6.163004503144833
  0
LWPOLYLINE
  5
23F
330
2
100
AcDbEntity
  8
0
100
AcDbPolyline
 90
        6
 70
     0
 43
0.0
 10
9.874461083580627
 20
6.047754503145
 10
9.874461083580627
 20
6.038004503144833
 10
9.836461083580161
 20
6.038004503144833
 10
9.836461083580161
 20
6.600504503144833
 10
9.874461083580627
 20
6.600504503144833
 10
9.874461083580627
 20
6.590754503144665
  0
LINE
  5
240
330
2
100
AcDbEntity
  8
0
100
AcDbLine
 10
10.02783608358049
 20
6.590754503144665
 30
0.0
 11
10.02783608358049
 21
6.616129503144833
 31
0.0
  0
LINE
  5
241
330
2
100
AcDbEntity
  8
0
100
AcDbLine
 10
9.874461083580627
 20
6.590754503144665
 30
0.0
 11
9.874461083580627
 21
6.616129503144833
 31
0.0
  0
LINE
  5
242
330
2
100
AcDbEntity
  8
0
100
AcDbLine
 10
10.02783608358049
 20
6.047754503145
 30
0.0
 11
10.02783608358049
 21
6.022379503144833
 31
0.0
  0
LINE
  5
243
330
2
100
AcDbEntity
  8
0
100
AcDbLine
 10
9.874461083580627
 20
6.047754503145
 30
0.0
 11
9.874461083580627
 21
6.022379503144833
 31
0.0
  0
HATCH
  5
244
330
2
100
AcDbEntity
  8
0
  6
Continuous
100
AcDbHatch
 10
0.0
 20
0.0
 30
0.0
210
0.0
220
0.0
230
1.0
  2
DOTS
 70
     0
 71
     0
 91
        2
 92
        7
 72
     0
 73
     1
 93
        4
 10
10.02783608358049
 20
6.047754503145
 10
10.02783608358049
 20
6.022379503144833
 10
9.874461083580627
 20
6.022379503144833
 10
9.874461083580627
 20
6.047754503145
 97
        0
 92
        7
 72
     0
 73
     1
 93
        4
 10
10.02783608358049
 20
6.616129503144833
 10
10.02783608358049
 20
6.590754503144665
 10
9.874461083580627
 20
6.590754503144665
 10
9.874461083580627
 20
6.616129503144833
 97
        0
 75
     0
 76
     1
 52
450.0
 41
0.1
 77
     0
 78
     1
 53
90.0
 43
3.947471932419375
 44
-0.0711002423917366
 45
0.00625
 46
0.003125
 79
     2
 49
0.0
 49
-0.00625
 47
0.0006001443632006
 98
        2
 10
9.970251143532095
 20
6.036034212997577
 10
9.966650269733236
 20
6.605919142393389
  0
HATCH
  5
245
330
2
100
AcDbEntity
  8
0
  6
Continuous
100
AcDbHatch
 10
0.0
 20
0.0
 30
0.0
210
0.0
220
0.0
230
1.0
  2
DASH
 70
     0
 71
     0
 91
        1
 92
        7
 72
     1
 73
     1
 93
       16
 10
10.11246108358091
 20
6.491129503144833
 42
0.4142135623730951
 10
10.09683608358091
 20
6.506754503144833
 42
0.0
 10
10.03999925171274
 20
6.506754503144833
 42
-0.3208708054700533
 10
10.01927358358034
 20
6.539641715086503
 42
0.0
 10
10.04346108358049
 20
6.575129503144665
 42
0.414213562373094
 10
10.02783608358049
 20
6.590754503144665
 42
0.0
 10
10.02783608358049
 20
6.616129503145742
 42
0.0
 10
10.24946108357972
 20
6.616129503143923
 42
0.0
 10
10.24946108357972
 20
6.022379503144833
 42
0.0
 10
10.02783608358049
 20
6.022379503144833
 42
0.0
 10
10.02783608358049
 20
6.047754503145
 42
0.4142135623730951
 10
10.04346108358049
 20
6.063379503145
 42
0.0
 10
10.01927358358034
 20
6.09925059339784
 42
-0.3359746306540741
 10
10.03963634263209
 20
6.131754503144833
 42
0.0
 10
10.09683608358091
 20
6.131754503144833
 42
0.4142135623730951
 10
10.11246108358091
 20
6.147379503144833
 42
0.0
 97
        0
 75
     0
 76
     1
 52
450.0
 41
0.1
 77
     0
 78
     1
 53
90.0
 43
3.947471932419375
 44
-0.0711002423917366
 45
0.0125
 46
0.0125
 79
     2
 49
0.0125
 49
-0.0125
 47
0.0009600803746669
 98
        1
 10
10.16330035577493
 20
6.368275983229608
  0
LINE
  5
246
330
2
100
AcDbEntity
  8
0
100
AcDbLine
 10
10.358461083581
 20
5.904009503144692
 30
0.0
 11
10.24946108358062
 21
6.734499503144974
 31
0.0
  0
LWPOLYLINE
  5
247
330
2
100
AcDbEntity
  8
0
100
AcDbPolyline
 90
        8
 70
     0
 43
0.0
 10
10.358461083581
 20
5.904009503144692
 10
10.358461083581
 20
6.734499503144974
 10
10.24946108358062
 20
6.734499503144974
 10
10.24946108358062
 20
5.904009503144692
 10
10.358461083581
 20
5.904009503144692
 10
10.24946108358062
 20
6.734499503144974
 10
10.24946108358062
 20
5.904009503144692
 10
10.358461083581
 20
6.734499503144974
  0
LWPOLYLINE
  5
248
330
2
100
AcDbEntity
  8
0
  6
ByBlock
100
AcDbPolyline
 90
       11
 70
     0
 43
0.0
 10
12.10860350512712
 20
5.815775379875589
 10
12.10860350512712
 20
6.907749503144799
 10
11.90646108358078
 20
6.907749503144799
 10
11.90646108358078
 20
7.094499503144646
 42
0.4142135623730951
 10
11.89146108358136
 20
7.109499503144974
 10
10.04707385345
 20
7.109499503144974
 10
10.04707385345
 20
7.014460556026818
 42
0.3899024490717824
 10
9.8459010021229
 20
6.829460556026418
 10
9.796293776351831
 20
6.829460556026418
 10
9.796293776351831
 20
6.734499503144974
 10
9.921293776351831
 20
6.734499503144974
  0
LWPOLYLINE
  5
249
102
{ACAD_REACTORS
330
24F
102
}
330
2
100
AcDbEntity
  8
0
  6
ByBlock
100
AcDbPolyline
 90
       11
 70
     0
 43
0.0
 10
10.10879377635183
 20
6.734499503144974
 10
10.358461083581
 20
6.734499503144974
 10
10.358461083581
 20
6.548411833518542
 42
-0.9946524064171082
 10
10.358461083581
 20
6.361411833518644
 10
10.358461083581
 20
5.485775379875661
 10
11.983461083581
 20
5.485775379875661
 42
0.4142135623730951
 10
12.108461083581
 20
5.610775379875661
 10
12.108461083581
 20
5.735775379875661
 10
11.7919610835811
 20
5.735775379875661
 10
11.7919610835811
 20
5.815775379875589
 10
12.1044610835811
 20
5.815775379875589
  0
ARC
  5
24A
330
2
100
AcDbEntity
  8
0
100
AcDbCircle
 10
10.01504377635183
 20
6.695437003144974
 30
0.0
 40
0.1015624999999893
100
AcDbArc
 50
22.61986494802841
 51
157.3801350519716
  0
LWPOLYLINE
  5
24B
330
2
100
AcDbEntity
  8
0
100
AcDbPolyline
 90
        4
 70
     0
 43
0.0
 10
9.632241043609155
 20
6.022379503144833
 10
10.24946108358062
 20
6.022379503144833
 10
10.24946108358062
 20
5.904009503144692
 10
9.632241024353334
 20
5.904009503144692
  0
LINE
  5
24C
330
2
100
AcDbEntity
  8
0
  6
HIDDEN
100
AcDbLine
 10
9.632241024353334
 20
5.904009503144692
 30
0.0
 11
9.632241005098201
 21
6.022379503144833
 31
0.0
  0
DIMENSION
  5
24D
102
{ACAD_XDICTIONARY
360
24E
102
}
102
{ACAD_REACTORS
330
24F
102
}
330
2
100
AcDbEntity
  8
0
100
AcDbDimension
  2
*D18
 10
12.108461083581
 20
4.12913293425808
 30
0.0
 11
10.952211083581
 21
4.12913293425808
 31
0.0
 71
     5
 42
2.3125
  3
Knife
100
AcDbAlignedDimension
 13
9.795961083581005
 23
5.82648473485878
 33
0.0
 14
12.108461083581
 24
5.610775379875661
 34
0.0
100
AcDbRotatedDimension
1001
ACAD
1000
DSTYLE
1002
{
1070
    40
1040
1.0
1002
}
  0
DIMENSION
  5
25E
330
2
100
AcDbEntity
  8
0
100
AcDbDimension
  2
*D19
 10
9.795961083581005
 20
2.873746366830886
 30
0.0
 11
11.40521108358098
 21
2.873746366830886
 31
0.0
 71
     5
 42
3.218499999999949
  3
Knife
100
AcDbAlignedDimension
 13
13.01446108358095
 23
4.546775379876265
 33
0.0
 14
9.795961083581005
 24
5.82648473485878
 34
0.0
100
AcDbRotatedDimension
1001
ACAD
1000
DSTYLE
1002
{
1070
    40
1040
1.0
1002
}
  0
DIMENSION
  5
26D
102
{ACAD_XDICTIONARY
360
26E
102
}
102
{ACAD_REACTORS
330
26F
102
}
330
2
100
AcDbEntity
  8
0
100
AcDbDimension
  2
*D20
 10
9.795961083581005
 20
4.12913293425808
 30
0.0
 11
8.584298882199163
 21
4.12913293425808
 31
0.0
  1
DAYLIGHT\POPENING
 71
     5
 42
2.423324402763682
  3
Knife
100
AcDbAlignedDimension
 13
7.372636680817322
 23
5.82648473485878
 33
0.0
 14
9.795961083581005
 24
5.826484734857871
 34
0.0
100
AcDbRotatedDimension
1001
ACAD
1000
DSTYLE
1002
{
1070
    40
1040
1.0
1002
}
  0
DIMENSION
  5
27D
102
{ACAD_XDICTIONARY
360
27E
102
}
102
{ACAD_REACTORS
330
27F
102
}
330
2
100
AcDbEntity
  8
0
100
AcDbDimension
  2
*D21
 10
13.01446108358095
 20
7.001962540557173
 30
0.0
 11
13.61339934159891
 21
7.001962540557173
 31
0.0
 71
     5
 42
0.6710000000002765
  3
Knife
100
AcDbAlignedDimension
 13
12.34346108358068
 23
7.13127537987529
 33
0.0
 14
13.01446108358095
 24
7.13127537987529
 34
0.0
100
AcDbRotatedDimension
1001
ACAD
1000
DSTYLE
1002
{
1070
   271
1070
     4
1070
    40
1040
1.0
1002
}
  0
LWPOLYLINE
  5
28E
330
2
100
AcDbEntity
  8
0
100
AcDbPolyline
 90
       19
 70
     0
 43
0.0
 10
4.861813256295477
 20
14.21250356153587
 10
4.861813256295477
 20
15.09035833219096
 42
-0.3738846794848057
 10
4.969416618675467
 20
15.21414184078366
 10
6.020355200137657
 20
15.36184162624332
 10
6.487355200137784
 20
15.36184162624329
 10
6.503151119271279
 20
15.38920096073477
 10
6.707355200137811
 20
15.38920096073477
 10
6.707355200137811
 20
15.3118416262433
 10
7.300355200137801
 20
15.31184162624333
 10
7.300355200137801
 20
14.62484162624332
 10
6.081355200137807
 20
14.62484162624332
 10
6.081355200137807
 20
14.37484162624332
 10
5.456355200137835
 20
14.37484162624332
 10
5.456355200137807
 20
14.14784162624332
 10
5.253117692620776
 20
14.11927845729406
 10
5.235721055000766
 20
14.24306196588674
 42
0.4075784039076131
 10
5.079261033272643
 20
14.09484449727071
 10
5.004642994767863
 20
14.08435761585539
 42
-0.4663076581549987
 10
4.862322503770485
 20
14.2125035615359
  0
LWPOLYLINE
  5
28F
330
2
100
AcDbEntity
  8
0
100
AcDbPolyline
 90
       15
 70
     0
 43
0.0
 10
5.111355200137822
 20
22.77761391715021
 42
0.4142135623730951
 10
5.173355200137834
 20
22.71561391715023
 10
6.050355200137786
 20
22.71561391715023
 10
6.0503552001379
 20
23.96561391715023
 10
6.112355200137855
 20
23.96561391715023
 10
6.112355200137827
 20
24.5906139171502
 10
5.049355200137839
 20
24.5906139171502
 42
0.4142135623731003
 10
4.987355200137827
 20
24.52861391715022
 10
4.987355200137827
 20
23.99661391715021
 42
0.4142135623730951
 10
5.018355200137833
 20
23.96561391715023
 10
5.049355200137839
 20
23.96561391715023
 10
5.049355200137839
 20
23.7466139171502
 42
0.4142135623730951
 10
5.080355200137844
 20
23.7156139171502
 10
5.111355200137822
 20
23.7156139171502
 10
5.111355200137822
 20
22.77761392661953
  0
HATCH
  5
290
330
2
100
AcDbEntity
  8
0
  6
Continuous
100
AcDbHatch
 10
0.0
 20
0.0
 30
0.0
210
0.0
220
0.0
230
1.0
  2
STEEL
 70
     0
 71
     0
 91
        1
 92
        7
 72
     0
 73
     1
 93
        6
 10
6.112355200137798
 20
23.21161391715021
 10
6.112355200137884
 20
23.93143218108589
 10
6.050355200137872
 20
23.93143218108589
 10
6.050355200137786
 20
23.1496139171502
 10
6.707486594412543
 20
23.1496139171502
 10
6.707486594412543
 20
23.21161391715021
 97
        0
 75
     0
 76
     1
 52
-0.0000000000000127
 41
1.0
 77
     0
 78
     2
 53
44.99999999999999
 43
104.0057400356636
 44
-20.0544385638569
 45
-0.0883883476483184
 46
0.0883883476483185
 79
     0
 53
44.99999999999999
 43
104.0057400356636
 44
-19.9919385638569
 45
-0.0883883476483184
 46
0.0883883476483185
 79
     0
 47
0.003572857848563
 98
        1
 10
6.220930765282204
 20
23.18399583019394
  0
LINE
  5
291
330
2
100
AcDbEntity
  8
0
100
AcDbLine
 10
6.050355200137872
 20
23.93143218108589
 30
0.0
 11
6.050355200137786
 21
23.1496139171502
 31
0.0
  0
LINE
  5
292
330
2
100
AcDbEntity
  8
0
  6
Continuous
100
AcDbLine
 10
6.050355200137786
 20
23.1496139171502
 30
0.0
 11
6.707486594412543
 21
23.1496139171502
 31
0.0
  0
LINE
  5
293
330
2
100
AcDbEntity
  8
0
  6
Continuous
100
AcDbLine
 10
6.112355200137798
 20
23.21161391715021
 30
0.0
 11
6.707486594412543
 21
23.21161391715021
 31
0.0
  0
LINE
  5
294
330
2
100
AcDbEntity
  8
0
  6
Continuous
100
AcDbLine
 10
6.707486594412543
 20
23.21161391715021
 30
0.0
 11
6.707486594412543
 21
23.1496139171502
 31
0.0
  0
LINE
  5
295
330
2
100
AcDbEntity
  8
0
100
AcDbLine
 10
6.112355200137884
 20
23.93143218108589
 30
0.0
 11
6.112355200137798
 21
23.21161391715021
 31
0.0
  0
INSERT
  5
296
330
2
100
AcDbEntity
  8
0
100
AcDbBlockReference
  2
8 x .75 FH
 10
6.112355200137827
 20
23.57152304911805
 30
0.0
 50
270.0
  0
HATCH
  5
297
330
2
100
AcDbEntity
  8
0
  6
Continuous
100
AcDbHatch
 10
0.0
 20
0.0
 30
0.0
210
0.0
220
0.0
230
1.0
  2
SOLID
 70
     1
 71
     1
 91
        1
 92
        1
 93
        1
 72
     3
 10
6.050355200137786
 20
22.93261391715021
 11
0.0
 21
-0.078490521914425
 40
0.4928082062716126
 50
0.0
 51
360.0
 73
     1
 97
        1
330
298
 75
     0
 76
     1
 98
        1
 10
129.2984134656218
 20
-29.2745500085758
  0
ELLIPSE
  5
298
102
{ACAD_REACTORS
330
297
102
}
330
2
100
AcDbEntity
  8
0
  6
Continuous
100
AcDbEllipse
 10
6.050355200137786
 20
22.93261391715021
 30
0.0
 11
0.0
 21
-0.078490521914425
 31
0.0
210
0.0
220
0.0
230
1.0
 40
0.4928082062716126
 41
0.0
 42
6.283185307179586
  0
INSERT
  5
299
330
2
100
AcDbEntity
  8
0
100
AcDbBlockReference
  2
8 X .625 PH
 10
6.409920897275171
 20
23.21161391715021
 30
0.0
  0
LINE
  5
29A
330
2
100
AcDbEntity
  8
0
100
AcDbLine
 10
6.112355200137884
 20
23.93143218108589
 30
0.0
 11
6.0503552001379
 21
23.9314321810859
 31
0.0
  0
LWPOLYLINE
  5
29B
330
2
100
AcDbEntity
  8
0
  6
Continuous
100
AcDbPolyline
 90
       17
 70
     1
 43
0.0
 10
9.31385520013778
 20
15.31184162624328
 10
8.23735520013777
 20
15.31184162624329
 42
0.9999999999999998
 10
8.11235520013777
 20
15.31184162624328
 10
6.737355200137784
 20
15.31184162624329
 10
6.735173317021761
 20
15.43684162624329
 10
6.488664330007395
 20
15.43684162624329
 10
6.487355200137784
 20
15.36184162624329
 10
6.050355200137786
 20
15.36184162624329
 10
6.050355200137786
 20
15.95184162624329
 42
-0.4142135623730782
 10
6.081355200137792
 20
15.98284162624329
 10
8.925855200137789
 20
15.98284162624329
 10
8.927478521176112
 20
15.88984162624329
 10
9.174231879099451
 20
15.88984162624329
 10
9.175855200137789
 20
15.98284162624329
 10
9.612855200137786
 20
15.98284162624329
 10
9.612855200137786
 20
15.31184162624328
 10
9.43885520013778
 20
15.31184162624329
 42
0.9999999999999998
  0
LWPOLYLINE
  5
29C
330
2
100
AcDbEntity
  8
0
100
AcDbPolyline
 90
       20
 70
     1
 43
0.0
 10
9.137770148299821
 20
15.9047166262434
 10
9.144605200137789
 20
15.9828416262434
 10
9.799781188751055
 20
15.9828416262434
 10
9.79978118875104
 20
16.88846930053525
 42
0.4142135623730951
 10
9.768781188751049
 20
16.91946930053526
 10
8.866135874111535
 20
16.91946930053527
 10
8.862828935696597
 20
17.1089236754424
 42
0.4091108014277093
 10
8.800838378596907
 20
17.16984162624329
 10
7.675855200137789
 20
17.16984162624329
 10
7.675855200137789
 20
17.04484162624329
 10
7.801163846021182
 20
16.91953298035989
 10
7.801163846021182
 20
16.36284162624329
 10
8.082163846021188
 20
16.36284162624329
 10
8.082163846021188
 20
16.28284162624329
 10
7.695855200137785
 20
16.28284162624329
 10
7.695855200137785
 20
15.98284162624329
 10
7.882855200137797
 20
15.98284162624329
 42
-0.3422459893048229
 10
8.069855200137794
 20
15.98284162624328
 10
8.925855200137789
 20
15.98284162624329
 10
8.927218877085309
 20
15.9047166262434
  0
INSERT
  5
29D
330
2
100
AcDbEntity
  8
0
100
AcDbBlockReference
  2
86NPF141
 10
6.612947486376057
 20
16.5100761754141
 30
0.0
 41
-1.0
 43
2.0
 50
90.0
  0
LWPOLYLINE
  5
29E
330
2
100
AcDbEntity
  8
0
100
AcDbPolyline
 90
       10
 70
     0
 43
0.0
 10
7.712079323406697
 20
16.69584162624328
 10
7.709079323406697
 20
16.69584162624328
 42
0.4142135623730951
 10
7.694079323406697
 20
16.68084162624328
 10
7.694079323406697
 20
16.45384162624329
 42
0.4142135623730951
 10
7.709079323406697
 20
16.43884162624329
 10
7.766163846021186
 20
16.43884162624329
 42
0.4142135623730951
 10
7.781163846021186
 20
16.45384162624329
 10
7.781163846021186
 20
16.68084162624328
 42
0.4142135623730951
 10
7.766163846021186
 20
16.69584162624328
 10
7.709079319276426
 20
16.69584162624328
  0
LWPOLYLINE
  5
29F
330
2
100
AcDbEntity
  8
0
  6
Continuous
100
AcDbPolyline
 90
       28
 70
     1
 43
0.0
 10
7.991163846021194
 20
16.3328416262433
 10
8.031163846021186
 20
16.3328416262433
 10
8.031163846021186
 20
16.31284162624328
 10
7.991163846021194
 20
16.31284162624328
 10
7.973843337945496
 20
16.28284162624327
 10
7.956939621956024
 20
16.28284162624327
 10
7.974260130031723
 20
16.31284162624328
 10
7.921788846021186
 20
16.31284162624328
 10
7.904468337945488
 20
16.28284162624327
 10
7.887902163988584
 20
16.28284162624327
 10
7.905222672064283
 20
16.31284162624328
 10
7.781163846021186
 20
16.31284162624328
 10
7.781163846021186
 20
16.42085887275092
 42
-0.0909348008123668
 10
7.770163846021191
 20
16.4188416262433
 10
7.705079323406707
 20
16.4188416262433
 42
-0.4142135623730951
 10
7.674079323406701
 20
16.4498416262433
 10
7.674079323406701
 20
16.6848416262433
 42
-0.4142135623730991
 10
7.705079323406707
 20
16.7158416262433
 10
7.770163846021191
 20
16.71584162624328
 42
-0.4142135623730911
 10
7.801163846021196
 20
16.68484162624327
 10
7.801163846021182
 20
16.33284162624328
 10
7.904493409274905
 20
16.33284162624328
 10
7.887172901199235
 20
16.36284162624329
 10
7.903843337945488
 20
16.36284162624329
 10
7.921163846021187
 20
16.33284162624328
 10
7.97371277355721
 20
16.33284162624328
 10
7.956392265481525
 20
16.36284162624329
 10
7.973843337945496
 20
16.36284162624329
  0
LWPOLYLINE
  5
2A0
330
2
100
AcDbEntity
  8
0
  6
Continuous
100
AcDbPolyline
 90
       17
 70
     1
 43
0.0
 10
9.31385520013778
 20
23.1996139171502
 10
8.23735520013777
 20
23.1996139171502
 42
-0.9999999999999998
 10
8.11235520013777
 20
23.1996139171502
 10
6.737355200137784
 20
23.1996139171502
 10
6.735173317021761
 20
23.07461391715019
 10
6.488664330007395
 20
23.07461391715019
 10
6.487355200137784
 20
23.1496139171502
 10
6.050355200137786
 20
23.1496139171502
 10
6.050355200137786
 20
22.5596139171502
 42
0.4142135623730782
 10
6.081355200137792
 20
22.5286139171502
 10
8.925855200137789
 20
22.5286139171502
 10
8.927478521176112
 20
22.6216139171502
 10
9.174231879099451
 20
22.6216139171502
 10
9.175855200137789
 20
22.5286139171502
 10
9.612855200137786
 20
22.5286139171502
 10
9.612855200137786
 20
23.1996139171502
 10
9.43885520013778
 20
23.1996139171502
 42
-0.9999999999999998
  0
LWPOLYLINE
  5
2A1
330
2
100
AcDbEntity
  8
0
100
AcDbPolyline
 90
       20
 70
     1
 43
0.0
 10
9.137770148299821
 20
22.60673891715009
 10
9.144605200137789
 20
22.52861391715009
 10
9.799781188751055
 20
22.52861391715009
 10
9.79978118875104
 20
21.62298624285823
 42
-0.4142135623730951
 10
9.768781188751049
 20
21.59198624285823
 10
8.866135874111535
 20
21.59198624285821
 10
8.862828935696597
 20
21.40253186795108
 42
-0.4091108014277093
 10
8.800838378596907
 20
21.3416139171502
 10
7.675855200137789
 20
21.3416139171502
 10
7.675855200137789
 20
21.4666139171502
 10
7.801163846021182
 20
21.59192256303359
 10
7.801163846021182
 20
22.1486139171502
 10
8.082163846021188
 20
22.1486139171502
 10
8.082163846021188
 20
22.2286139171502
 10
7.695855200137785
 20
22.2286139171502
 10
7.695855200137785
 20
22.5286139171502
 10
7.882855200137797
 20
22.5286139171502
 42
0.3422459893048229
 10
8.069855200137794
 20
22.5286139171502
 10
8.925855200137789
 20
22.5286139171502
 10
8.927218877085309
 20
22.60673891715009
  0
INSERT
  5
2A2
330
2
100
AcDbEntity
  8
0
100
AcDbBlockReference
  2
86NPF141
 10
6.612947486376057
 20
22.00137936797939
 30
0.0
 43
2.0
 50
90.0
  0
LWPOLYLINE
  5
2A3
330
2
100
AcDbEntity
  8
0
100
AcDbPolyline
 90
       10
 70
     0
 43
0.0
 10
7.712079323406697
 20
21.81561391715021
 10
7.709079323406697
 20
21.81561391715021
 42
-0.4142135623730951
 10
7.694079323406697
 20
21.83061391715021
 10
7.694079323406697
 20
22.05761391715019
 42
-0.4142135623730951
 10
7.709079323406697
 20
22.07261391715019
 10
7.766163846021186
 20
22.07261391715019
 42
-0.4142135623730951
 10
7.781163846021186
 20
22.05761391715019
 10
7.781163846021186
 20
21.83061391715021
 42
-0.4142135623730951
 10
7.766163846021186
 20
21.81561391715021
 10
7.709079319276426
 20
21.81561391715021
  0
LWPOLYLINE
  5
2A4
330
2
100
AcDbEntity
  8
0
  6
Continuous
100
AcDbPolyline
 90
       28
 70
     1
 43
0.0
 10
7.991163846021194
 20
22.17861391715019
 10
8.031163846021186
 20
22.17861391715019
 10
8.031163846021186
 20
22.19861391715021
 10
7.991163846021194
 20
22.19861391715021
 10
7.973843337945496
 20
22.22861391715021
 10
7.956939621956024
 20
22.22861391715021
 10
7.974260130031723
 20
22.19861391715021
 10
7.921788846021186
 20
22.19861391715021
 10
7.904468337945488
 20
22.22861391715021
 10
7.887902163988584
 20
22.22861391715021
 10
7.905222672064283
 20
22.19861391715021
 10
7.781163846021186
 20
22.19861391715021
 10
7.781163846021186
 20
22.09059667064257
 42
0.0909348008123668
 10
7.770163846021191
 20
22.09261391715019
 10
7.705079323406707
 20
22.09261391715019
 42
0.4142135623730951
 10
7.674079323406701
 20
22.06161391715019
 10
7.674079323406701
 20
21.82661391715019
 42
0.4142135623730991
 10
7.705079323406707
 20
21.79561391715019
 10
7.770163846021191
 20
21.79561391715021
 42
0.4142135623730911
 10
7.801163846021196
 20
21.82661391715021
 10
7.801163846021182
 20
22.17861391715021
 10
7.904493409274905
 20
22.17861391715021
 10
7.887172901199235
 20
22.14861391715019
 10
7.903843337945488
 20
22.14861391715019
 10
7.921163846021187
 20
22.17861391715021
 10
7.97371277355721
 20
22.17861391715021
 10
7.956392265481525
 20
22.14861391715019
 10
7.973843337945496
 20
22.14861391715019
  0
INSERT
  5
2A5
330
2
100
AcDbEntity
  8
0
100
AcDbBlockReference
  2
8 x 2 FH
 10
7.041149389716551
 20
23.1996139171502
 30
0.0
  0
LWPOLYLINE
  5
336
330
2
100
AcDbEntity
  8
0
100
AcDbPolyline
 90
        4
 70
     1
 43
0.0
 10
7.195855200137785
 20
22.5286139171502
 10
7.195855200137785
 20
22.2936139171502
 10
7.695855200137785
 20
22.2936139171502
 10
7.695855200137785
 20
22.5286139171502
  0
LINE
  5
337
330
2
100
AcDbEntity
  8
0
100
AcDbLine
 10
7.195855200137785
 20
22.2936139171502
 30
0.0
 11
7.695855200137785
 21
22.5286139171502
 31
0.0
  0
LINE
  5
338
330
2
100
AcDbEntity
  8
0
100
AcDbLine
 10
7.195855200137785
 20
22.5286139171502
 30
0.0
 11
7.695855200137785
 21
22.2936139171502
 31
0.0
  0
INSERT
  5
339
330
2
100
AcDbEntity
  8
0
100
AcDbBlockReference
  2
8 x 2 FH
 10
7.041149389716551
 20
15.31184162624134
 30
0.0
 41
-1.0
 50
180.0
  0
LWPOLYLINE
  5
33A
330
2
100
AcDbEntity
  8
0
100
AcDbPolyline
 90
        4
 70
     1
 43
0.0
 10
7.195855200137785
 20
15.98284162624134
 10
7.195855200137785
 20
16.21784162624134
 10
7.695855200137785
 20
16.21784162624134
 10
7.695855200137785
 20
15.98284162624134
  0
LINE
  5
33B
330
2
100
AcDbEntity
  8
0
100
AcDbLine
 10
7.195855200137785
 20
16.21784162624134
 30
0.0
 11
7.695855200137785
 21
15.98284162624134
 31
0.0
  0
LINE
  5
33C
330
2
100
AcDbEntity
  8
0
100
AcDbLine
 10
7.195855200137785
 20
15.98284162624134
 30
0.0
 11
7.695855200137785
 21
16.21784162624134
 31
0.0
  0
HATCH
  5
33D
330
2
100
AcDbEntity
  8
0
100
AcDbHatch
 10
0.0
 20
0.0
 30
0.0
210
0.0
220
0.0
230
1.0
  2
SOLID
 70
     1
 71
     0
 91
        1
 92
        7
 72
     1
 73
     1
 93
        2
 10
7.299079323406672
 20
18.40534162624328
 42
0.0
 10
7.299079323406701
 20
18.2178416262433
 42
0.6666666666666311
 97
        0
 75
     1
 76
     1
 47
0.0010014887122476
 98
        1
 10
7.345139399753591
 20
18.29043643019916
1001
GradientColor1ACI
1070
     5
1001
GradientColor2ACI
1070
     2
1001
ACAD
1010
0.0
1020
0.0
1030
0.0
  0
HATCH
  5
33E
330
2
100
AcDbEntity
  8
0
100
AcDbHatch
 10
0.0
 20
0.0
 30
0.0
210
0.0
220
0.0
230
1.0
  2
SOLID
 70
     1
 71
     0
 91
        1
 92
        7
 72
     1
 73
     1
 93
        2
 10
6.468589323406916
 20
18.40534162624328
 42
0.0
 10
6.468589323406888
 20
18.2178416262433
 42
-0.6666666666666311
 97
        0
 75
     1
 76
     1
 47
0.0010014887122476
 98
        1
 10
6.422529247059998
 20
18.29043643019916
1001
GradientColor1ACI
1070
     5
1001
GradientColor2ACI
1070
     2
1001
ACAD
1010
0.0
1020
0.0
1030
0.0
  0
LWPOLYLINE
  5
33F
330
2
100
AcDbEntity
  8
0
100
AcDbPolyline
 90
       11
 70
     1
 43
0.0
 10
6.468589323406888
 20
18.2178416262433
 10
6.468589323406888
 20
17.96784162624328
 10
6.094589323406893
 20
17.9678416262433
 10
6.094589323406864
 20
18.2493416262433
 42
-0.4142135623731695
 10
6.12558932340687
 20
18.28034162624329
 10
6.172114091693345
 20
18.28034162624328
 42
0.235730494161761
 10
6.196890286269365
 20
18.29270992792211
 10
6.366288360544388
 20
18.51797332456446
 42
-0.235730494161718
 10
6.391064555120408
 20
18.53034162624329
 10
6.468589323406916
 20
18.53034162624329
 10
6.468589323406916
 20
18.40534162624328
 42
0.6666666666666588
  0
LWPOLYLINE
  5
340
330
2
100
AcDbEntity
  8
0
100
AcDbPolyline
 90
        4
 70
     0
 43
0.0
 10
7.180709323406787
 20
18.69323298729903
 10
7.180709323406787
 20
18.07684162624365
 10
7.299079323406701
 20
18.07684162624365
 10
7.299079323406701
 20
18.69323298729903
  0
LWPOLYLINE
  5
341
330
2
100
AcDbEntity
  8
0
100
AcDbPolyline
 90
       14
 70
     1
 43
0.0
 10
6.696334323406787
 20
18.28666636719219
 42
0.3359746306540741
 10
6.663830413659795
 20
18.30702912624394
 10
6.627959323406955
 20
18.28284162624379
 42
-0.4142135623730951
 10
6.612334323406955
 20
18.29846662624379
 10
6.612334323406955
 20
18.48009162624395
 10
7.15533432340662
 20
18.48009162624395
 10
7.15533432340662
 20
18.29846662624379
 42
-0.414213562373094
 10
7.13970932340662
 20
18.28284162624379
 10
7.104221535348457
 20
18.30702912624394
 42
0.3208708054700532
 10
7.071334323406787
 20
18.28630345811154
 10
7.071334323406787
 20
18.22946662624337
 42
-0.4142135623730951
 10
7.055709323406787
 20
18.21384162624337
 10
6.711959323406787
 20
18.21384162624337
 42
-0.4142135623730951
 10
6.696334323406787
 20
18.22946662624337
  0
LWPOLYLINE
  5
342
330
2
100
AcDbEntity
  8
0
100
AcDbPolyline
 90
       14
 70
     1
 43
0.0
 10
6.703334323407304
 20
18.28788476733654
 42
0.3593608004949541
 10
6.661334436083322
 20
18.31378878321731
 10
6.626115488971024
 20
18.29004101649854
 42
-0.3524310491054993
 10
6.619334323406562
 20
18.29846662624379
 10
6.619334323406562
 20
18.48009162624395
 10
7.148334323407013
 20
18.48009162624395
 10
7.148334323407013
 20
18.29846662624379
 42
-0.3518693664465323
 10
7.14156999570541
 20
18.29004471888231
 10
7.106645604539423
 20
18.31384822306165
 42
0.3446308864324803
 10
7.064334323406271
 20
18.28760930906002
 10
7.064334323406271
 20
18.22946662624337
 42
-0.4142135623730946
 10
7.055709323406787
 20
18.22084162624389
 10
6.711959323406787
 20
18.22084162624389
 42
-0.4142135623730946
 10
6.703334323407304
 20
18.22946662624337
  0
LWPOLYLINE
  5
343
330
2
100
AcDbEntity
  8
0
100
AcDbPolyline
 90
       10
 70
     1
 43
0.0
 10
6.727584323406787
 20
18.29140412624394
 42
0.3584554666094669
 10
6.662680477253431
 20
18.33827912624394
 10
6.643584323406955
 20
18.33827912624394
 10
6.643584323406955
 20
18.44884162624395
 10
7.12408432340662
 20
18.44884162624395
 10
7.12408432340662
 20
18.33827912624394
 10
7.104988169560144
 20
18.33827912624394
 42
0.3467993108968364
 10
7.040084323406787
 20
18.29140412624394
 10
7.040084323406787
 20
18.24509162624337
 10
6.727584323406787
 20
18.24509162624337
  0
LWPOLYLINE
  5
344
330
2
100
AcDbEntity
  8
0
100
AcDbPolyline
 90
        6
 70
     0
 43
0.0
 10
6.612334323406955
 20
18.45184162624365
 10
6.602584323406787
 20
18.45184162624365
 10
6.602584323406787
 20
18.48984162624412
 10
7.165084323406787
 20
18.48984162624412
 10
7.165084323406787
 20
18.45184162624365
 10
7.15533432340662
 20
18.45184162624365
  0
LINE
  5
345
330
2
100
AcDbEntity
  8
0
100
AcDbLine
 10
7.15533432340662
 20
18.29846662624379
 30
0.0
 11
7.180709323406787
 21
18.29846662624379
 31
0.0
  0
LINE
  5
346
330
2
100
AcDbEntity
  8
0
100
AcDbLine
 10
7.15533432340662
 20
18.45184162624365
 30
0.0
 11
7.180709323406787
 21
18.45184162624365
 31
0.0
  0
LINE
  5
347
330
2
100
AcDbEntity
  8
0
100
AcDbLine
 10
6.612334323406955
 20
18.29846662624379
 30
0.0
 11
6.586959323406787
 21
18.29846662624379
 31
0.0
  0
LINE
  5
348
330
2
100
AcDbEntity
  8
0
100
AcDbLine
 10
6.612334323406955
 20
18.45184162624365
 30
0.0
 11
6.586959323406787
 21
18.45184162624365
 31
0.0
  0
HATCH
  5
349
330
2
100
AcDbEntity
  8
0
  6
Continuous
100
AcDbHatch
 10
0.0
 20
0.0
 30
0.0
210
0.0
220
0.0
230
1.0
  2
DOTS
 70
     0
 71
     0
 91
        2
 92
        7
 72
     0
 73
     1
 93
        4
 10
6.612334323406955
 20
18.29846662624379
 10
6.586959323406787
 20
18.29846662624379
 10
6.586959323406787
 20
18.45184162624365
 10
6.612334323406955
 20
18.45184162624365
 97
        0
 92
        7
 72
     0
 73
     1
 93
        4
 10
7.180709323406787
 20
18.29846662624379
 10
7.15533432340662
 20
18.29846662624379
 10
7.15533432340662
 20
18.45184162624365
 10
7.180709323406787
 20
18.45184162624365
 97
        0
 75
     0
 76
     1
 52
360.0
 41
0.1
 77
     0
 78
     1
 53
360.0
 43
0.4934795778702324
 44
22.40627866554842
 45
0.003125
 46
-0.00625
 79
     2
 49
0.0
 49
-0.00625
 47
0.0006001443632006
 98
        2
 10
6.600614033259532
 20
18.35605156629219
 10
7.170498962655344
 20
18.35965244009105
  0
HATCH
  5
34A
330
2
100
AcDbEntity
  8
0
  6
Continuous
100
AcDbHatch
 10
0.0
 20
0.0
 30
0.0
210
0.0
220
0.0
230
1.0
  2
DASH
 70
     0
 71
     0
 91
        1
 92
        7
 72
     1
 73
     1
 93
       16
 10
7.055709323406787
 20
18.21384162624337
 42
0.4142135623730951
 10
7.071334323406787
 20
18.22946662624337
 42
0.0
 10
7.071334323406787
 20
18.28630345811154
 42
-0.3208708054700533
 10
7.104221535348457
 20
18.30702912624394
 42
0.0
 10
7.13970932340662
 20
18.28284162624379
 42
0.414213562373094
 10
7.15533432340662
 20
18.29846662624379
 42
0.0
 10
7.180709323407697
 20
18.29846662624379
 42
0.0
 10
7.180709323405878
 20
18.07684162624456
 42
0.0
 10
6.586959323406787
 20
18.07684162624456
 42
0.0
 10
6.586959323406787
 20
18.29846662624379
 42
0.0
 10
6.612334323406955
 20
18.29846662624379
 42
0.4142135623730951
 10
6.627959323406955
 20
18.28284162624379
 42
0.0
 10
6.663830413659795
 20
18.30702912624394
 42
-0.3359746306540741
 10
6.696334323406787
 20
18.28666636719219
 42
0.0
 10
6.696334323406787
 20
18.22946662624337
 42
0.4142135623730951
 10
6.711959323406787
 20
18.21384162624337
 42
0.0
 97
        0
 75
     0
 76
     1
 52
360.0
 41
0.1
 77
     0
 78
     1
 53
360.0
 43
0.4934795778702324
 44
22.40627866554842
 45
0.0125
 46
-0.0125
 79
     2
 49
0.0125
 49
-0.0125
 47
0.0009600803746669
 98
        1
 10
6.932855803491563
 20
18.16300235404934
  0
LINE
  5
34B
330
2
100
AcDbEntity
  8
0
100
AcDbLine
 10
6.468589323406888
 20
17.96784162624328
 30
0.0
 11
7.299079323406701
 21
18.07684162624365
 31
0.0
  0
LWPOLYLINE
  5
34C
330
2
100
AcDbEntity
  8
0
100
AcDbPolyline
 90
        8
 70
     0
 43
0.0
 10
6.468589323406888
 20
17.96784162624328
 10
7.299079323406701
 20
17.96784162624328
 10
7.299079323406701
 20
18.07684162624365
 10
6.468589323406888
 20
18.07684162624365
 10
6.468589323406888
 20
17.96784162624328
 10
7.299079323406701
 20
18.07684162624365
 10
6.468589323406888
 20
18.07684162624365
 10
7.299079323406701
 20
17.96784162624328
  0
LWPOLYLINE
  5
34D
330
2
100
AcDbEntity
  8
0
  6
ByBlock
100
AcDbPolyline
 90
       11
 70
     0
 43
0.0
 10
6.380355200137785
 20
16.21769920469733
 10
7.472329323406697
 20
16.21769920469733
 10
7.472329323406697
 20
16.41984162624327
 10
7.6590793234067
 20
16.41984162624327
 42
0.4142135623730951
 10
7.674079323406701
 20
16.43484162624327
 10
7.674079323406701
 20
18.27922885637387
 10
7.579040376288418
 20
18.27922885637387
 42
0.3899024490717824
 10
7.39404037628843
 20
18.48040170770105
 10
7.394040376288415
 20
18.53000893347191
 10
7.299079323406701
 20
18.53000893347191
 10
7.299079323406701
 20
18.40500893347191
  0
LWPOLYLINE
  5
34E
330
2
100
AcDbEntity
  8
0
  6
ByBlock
100
AcDbPolyline
 90
       11
 70
     0
 43
0.0
 10
7.299079323406701
 20
18.21750893347192
 10
7.299079323406701
 20
17.96784162624328
 10
7.112991653780682
 20
17.96784162624327
 42
-0.9946524064171082
 10
6.92599165378067
 20
17.96784162624328
 10
6.050355200137801
 20
17.96784162624328
 10
6.050355200137786
 20
16.34284162624329
 42
0.4142135623730951
 10
6.175355200137801
 20
16.21784162624328
 10
6.300355200137786
 20
16.21784162624329
 10
6.300355200137786
 20
16.53434162624328
 10
6.380355200137799
 20
16.53434162624328
 10
6.380355200137785
 20
16.22184162624328
  0
ARC
  5
34F
330
2
100
AcDbEntity
  8
0
100
AcDbCircle
 10
7.260016823406701
 20
18.31125893347191
 30
0.0
 40
0.1015624999999893
100
AcDbArc
 50
292.6198649480459
 51
67.38013505196384
  0
LWPOLYLINE
  5
350
330
2
100
AcDbEntity
  8
0
100
AcDbPolyline
 90
        4
 70
     0
 43
0.0
 10
6.586959323406787
 20
18.69323298729903
 10
6.586959323406787
 20
18.07684162624365
 10
6.468589323406888
 20
18.07684162624365
 10
6.468589323406888
 20
18.69323298729903
  0
LINE
  5
351
330
2
100
AcDbEntity
  8
0
  6
HIDDEN
100
AcDbLine
 10
7.299079323406701
 20
18.69323298729903
 30
0.0
 11
6.468589323406888
 21
18.69323298729903
 31
0.0
  0
HATCH
  5
352
330
2
100
AcDbEntity
  8
0
100
AcDbHatch
 10
0.0
 20
0.0
 30
0.0
210
0.0
220
0.0
230
1.0
  2
SOLID
 70
     1
 71
     0
 91
        1
 92
        7
 72
     1
 73
     1
 93
        2
 10
7.299079323406672
 20
20.10611391715011
 42
0.0
 10
7.299079323406701
 20
20.29361391715008
 42
-0.6666666666666311
 97
        0
 75
     1
 76
     1
 47
0.0010014887122476
 98
        1
 10
7.345139399753591
 20
20.22101911319422
1001
GradientColor1ACI
1070
     5
1001
GradientColor2ACI
1070
     2
1001
ACAD
1010
0.0
1020
0.0
1030
0.0
  0
HATCH
  5
353
330
2
100
AcDbEntity
  8
0
100
AcDbHatch
 10
0.0
 20
0.0
 30
0.0
210
0.0
220
0.0
230
1.0
  2
SOLID
 70
     1
 71
     0
 91
        1
 92
        7
 72
     1
 73
     1
 93
        2
 10
6.468589323406916
 20
20.10611391715011
 42
0.0
 10
6.468589323406888
 20
20.29361391715008
 42
0.6666666666666311
 97
        0
 75
     1
 76
     1
 47
0.0010014887122476
 98
        1
 10
6.422529247059998
 20
20.22101911319422
1001
GradientColor1ACI
1070
     5
1001
GradientColor2ACI
1070
     2
1001
ACAD
1010
0.0
1020
0.0
1030
0.0
  0
LWPOLYLINE
  5
354
330
2
100
AcDbEntity
  8
0
100
AcDbPolyline
 90
       11
 70
     1
 43
0.0
 10
6.468589323406888
 20
20.29361391715008
 10
6.468589323406888
 20
20.5436139171501
 10
6.094589323406893
 20
20.54361391715008
 10
6.094589323406864
 20
20.26211391715008
 42
0.4142135623731695
 10
6.12558932340687
 20
20.23111391715009
 10
6.172114091693345
 20
20.2311139171501
 42
-0.235730494161761
 10
6.196890286269365
 20
20.21874561547127
 10
6.366288360544388
 20
19.99348221882892
 42
0.235730494161718
 10
6.391064555120408
 20
19.98111391715009
 10
6.468589323406916
 20
19.98111391715009
 10
6.468589323406916
 20
20.10611391715011
 42
-0.6666666666666588
  0
LWPOLYLINE
  5
355
330
2
100
AcDbEntity
  8
0
100
AcDbPolyline
 90
        4
 70
     0
 43
0.0
 10
7.180709323406787
 20
19.81822255609435
 10
7.180709323406787
 20
20.43461391714973
 10
7.299079323406701
 20
20.43461391714973
 10
7.299079323406701
 20
19.81822255609435
  0
LWPOLYLINE
  5
356
330
2
100
AcDbEntity
  8
0
100
AcDbPolyline
 90
       14
 70
     1
 43
0.0
 10
6.696334323406787
 20
20.22478917620119
 42
-0.3359746306540741
 10
6.663830413659795
 20
20.20442641714944
 10
6.627959323406955
 20
20.22861391714959
 42
0.4142135623730951
 10
6.612334323406955
 20
20.21298891714959
 10
6.612334323406955
 20
20.03136391714943
 10
7.15533432340662
 20
20.03136391714943
 10
7.15533432340662
 20
20.21298891714959
 42
0.414213562373094
 10
7.13970932340662
 20
20.22861391714959
 10
7.104221535348457
 20
20.20442641714944
 42
-0.3208708054700532
 10
7.071334323406787
 20
20.22515208528184
 10
7.071334323406787
 20
20.28198891715001
 42
0.4142135623730951
 10
7.055709323406787
 20
20.29761391715001
 10
6.711959323406787
 20
20.29761391715001
 42
0.4142135623730951
 10
6.696334323406787
 20
20.28198891715001
  0
LWPOLYLINE
  5
357
330
2
100
AcDbEntity
  8
0
100
AcDbPolyline
 90
       14
 70
     1
 43
0.0
 10
6.703334323407304
 20
20.22357077605684
 42
-0.3593608004949541
 10
6.661334436083322
 20
20.19766676017607
 10
6.626115488971024
 20
20.22141452689484
 42
0.3524310491054993
 10
6.619334323406562
 20
20.21298891714959
 10
6.619334323406562
 20
20.03136391714943
 10
7.148334323407013
 20
20.03136391714943
 10
7.148334323407013
 20
20.21298891714959
 42
0.3518693664465323
 10
7.14156999570541
 20
20.22141082451108
 10
7.106645604539423
 20
20.19760732033173
 42
-0.3446308864324803
 10
7.064334323406271
 20
20.22384623433336
 10
7.064334323406271
 20
20.28198891715001
 42
0.4142135623730946
 10
7.055709323406787
 20
20.29061391714949
 10
6.711959323406787
 20
20.29061391714949
 42
0.4142135623730946
 10
6.703334323407304
 20
20.28198891715001
  0
LWPOLYLINE
  5
358
330
2
100
AcDbEntity
  8
0
100
AcDbPolyline
 90
       10
 70
     1
 43
0.0
 10
6.727584323406787
 20
20.22005141714944
 42
-0.3584554666094669
 10
6.662680477253431
 20
20.17317641714944
 10
6.643584323406955
 20
20.17317641714944
 10
6.643584323406955
 20
20.06261391714943
 10
7.12408432340662
 20
20.06261391714943
 10
7.12408432340662
 20
20.17317641714944
 10
7.104988169560144
 20
20.17317641714944
 42
-0.3467993108968364
 10
7.040084323406787
 20
20.22005141714944
 10
7.040084323406787
 20
20.26636391715001
 10
6.727584323406787
 20
20.26636391715001
  0
LWPOLYLINE
  5
359
330
2
100
AcDbEntity
  8
0
100
AcDbPolyline
 90
        6
 70
     0
 43
0.0
 10
6.612334323406955
 20
20.05961391714973
 10
6.602584323406787
 20
20.05961391714973
 10
6.602584323406787
 20
20.02161391714926
 10
7.165084323406787
 20
20.02161391714926
 10
7.165084323406787
 20
20.05961391714973
 10
7.15533432340662
 20
20.05961391714973
  0
LINE
  5
35A
330
2
100
AcDbEntity
  8
0
100
AcDbLine
 10
7.15533432340662
 20
20.21298891714959
 30
0.0
 11
7.180709323406787
 21
20.21298891714959
 31
0.0
  0
LINE
  5
35B
330
2
100
AcDbEntity
  8
0
100
AcDbLine
 10
7.15533432340662
 20
20.05961391714973
 30
0.0
 11
7.180709323406787
 21
20.05961391714973
 31
0.0
  0
LINE
  5
35C
330
2
100
AcDbEntity
  8
0
100
AcDbLine
 10
6.612334323406955
 20
20.21298891714959
 30
0.0
 11
6.586959323406787
 21
20.21298891714959
 31
0.0
  0
LINE
  5
35D
330
2
100
AcDbEntity
  8
0
100
AcDbLine
 10
6.612334323406955
 20
20.05961391714973
 30
0.0
 11
6.586959323406787
 21
20.05961391714973
 31
0.0
  0
HATCH
  5
35E
330
2
100
AcDbEntity
  8
0
  6
Continuous
100
AcDbHatch
 10
0.0
 20
0.0
 30
0.0
210
0.0
220
0.0
230
1.0
  2
DOTS
 70
     0
 71
     0
 91
        2
 92
        7
 72
     0
 73
     1
 93
        4
 10
6.612334323406955
 20
20.21298891714959
 10
6.586959323406787
 20
20.21298891714959
 10
6.586959323406787
 20
20.05961391714973
 10
6.612334323406955
 20
20.05961391714973
 97
        0
 92
        7
 72
     0
 73
     1
 93
        4
 10
7.180709323406787
 20
20.21298891714959
 10
7.15533432340662
 20
20.21298891714959
 10
7.15533432340662
 20
20.05961391714973
 10
7.180709323406787
 20
20.05961391714973
 97
        0
 75
     0
 76
     1
 52
360.0
 41
0.1
 77
     0
 78
     1
 53
360.0
 43
0.4934795778702324
 44
23.40627866554842
 45
0.003125
 46
-0.00625
 79
     2
 49
0.0
 49
-0.00625
 47
0.0006001443632006
 98
        2
 10
6.600614033259532
 20
20.1554039771012
 10
7.170498962655344
 20
20.15180310330233
  0
HATCH
  5
35F
330
2
100
AcDbEntity
  8
0
  6
Continuous
100
AcDbHatch
 10
0.0
 20
0.0
 30
0.0
210
0.0
220
0.0
230
1.0
  2
DASH
 70
     0
 71
     0
 91
        1
 92
        7
 72
     1
 73
     1
 93
       16
 10
7.055709323406787
 20
20.29761391715001
 42
-0.4142135623730951
 10
7.071334323406787
 20
20.28198891715001
 42
0.0
 10
7.071334323406787
 20
20.22515208528184
 42
0.3208708054700533
 10
7.104221535348457
 20
20.20442641714944
 42
0.0
 10
7.13970932340662
 20
20.22861391714959
 42
-0.414213562373094
 10
7.15533432340662
 20
20.21298891714959
 42
0.0
 10
7.180709323407697
 20
20.21298891714959
 42
0.0
 10
7.180709323405878
 20
20.43461391714882
 42
0.0
 10
6.586959323406787
 20
20.43461391714882
 42
0.0
 10
6.586959323406787
 20
20.21298891714959
 42
0.0
 10
6.612334323406955
 20
20.21298891714959
 42
-0.4142135623730951
 10
6.627959323406955
 20
20.22861391714959
 42
0.0
 10
6.663830413659795
 20
20.20442641714944
 42
0.3359746306540741
 10
6.696334323406787
 20
20.22478917620119
 42
0.0
 10
6.696334323406787
 20
20.28198891715001
 42
-0.4142135623730951
 10
6.711959323406787
 20
20.29761391715001
 42
0.0
 97
        0
 75
     0
 76
     1
 52
360.0
 41
0.1
 77
     0
 78
     1
 53
360.0
 43
0.4934795778702324
 44
23.40627866554842
 45
0.0125
 46
-0.0125
 79
     2
 49
0.0125
 49
-0.0125
 47
0.0009600803746669
 98
        1
 10
6.932855803491563
 20
20.34845318934404
  0
LINE
  5
360
330
2
100
AcDbEntity
  8
0
100
AcDbLine
 10
6.468589323406888
 20
20.5436139171501
 30
0.0
 11
7.299079323406701
 21
20.43461391714973
 31
0.0
  0
LWPOLYLINE
  5
361
330
2
100
AcDbEntity
  8
0
100
AcDbPolyline
 90
        8
 70
     0
 43
0.0
 10
6.468589323406888
 20
20.5436139171501
 10
7.299079323406701
 20
20.5436139171501
 10
7.299079323406701
 20
20.43461391714973
 10
6.468589323406888
 20
20.43461391714973
 10
6.468589323406888
 20
20.5436139171501
 10
7.299079323406701
 20
20.43461391714973
 10
6.468589323406888
 20
20.43461391714973
 10
7.299079323406701
 20
20.5436139171501
  0
LWPOLYLINE
  5
362
102
{ACAD_REACTORS
330
371
102
}
330
2
100
AcDbEntity
  8
0
  6
ByBlock
100
AcDbPolyline
 90
       11
 70
     0
 43
0.0
 10
6.380355200137785
 20
22.29375633869604
 10
7.472329323406697
 20
22.29375633869604
 10
7.472329323406697
 20
22.0916139171501
 10
7.6590793234067
 20
22.0916139171501
 42
-0.4142135623730951
 10
7.674079323406701
 20
22.0766139171501
 10
7.674079323406701
 20
20.23222668701951
 10
7.579040376288418
 20
20.23222668701951
 42
-0.3899024490717824
 10
7.39404037628843
 20
20.03105383569232
 10
7.394040376288415
 20
19.98144660992147
 10
7.299079323406701
 20
19.98144660992147
 10
7.299079323406701
 20
20.10644660992147
  0
LWPOLYLINE
  5
363
102
{ACAD_REACTORS
330
371
102
}
330
2
100
AcDbEntity
  8
0
  6
ByBlock
100
AcDbPolyline
 90
       11
 70
     0
 43
0.0
 10
7.299079323406701
 20
20.29394660992146
 10
7.299079323406701
 20
20.5436139171501
 10
7.112991653780682
 20
20.5436139171501
 42
0.9946524064171082
 10
6.92599165378067
 20
20.5436139171501
 10
6.050355200137801
 20
20.5436139171501
 10
6.050355200137786
 20
22.16861391715009
 42
-0.4142135623730951
 10
6.175355200137801
 20
22.2936139171501
 10
6.300355200137786
 20
22.29361391715009
 10
6.300355200137786
 20
21.97711391715009
 10
6.380355200137799
 20
21.97711391715009
 10
6.380355200137785
 20
22.28961391715009
  0
ARC
  5
364
330
2
100
AcDbEntity
  8
0
100
AcDbCircle
 10
7.260016823406701
 20
20.20019660992146
 30
0.0
 40
0.1015624999999893
100
AcDbArc
 50
292.6198649480361
 51
67.38013505195415
  0
LWPOLYLINE
  5
365
330
2
100
AcDbEntity
  8
0
100
AcDbPolyline
 90
        4
 70
     0
 43
0.0
 10
6.586959323406787
 20
19.81822255609435
 10
6.586959323406787
 20
20.43461391714973
 10
6.468589323406888
 20
20.43461391714973
 10
6.468589323406888
 20
19.81822255609435
  0
LINE
  5
366
330
2
100
AcDbEntity
  8
0
  6
HIDDEN
100
AcDbLine
 10
7.299079323406701
 20
19.81822255609435
 30
0.0
 11
6.468589323406888
 21
19.81822255609435
 31
0.0
  0
INSERT
  5
367
330
2
100
AcDbEntity
  8
0
100
AcDbBlockReference
  2
8 x 2 FH
 10
13.01446108358067
 20
6.476569569454056
 30
0.0
 41
-1.0
 50
270.0
  0
LWPOLYLINE
  5
368
330
2
100
AcDbEntity
  8
0
100
AcDbPolyline
 90
        4
 70
     1
 43
0.0
 10
12.34346108358068
 20
6.63127537987529
 10
12.10846108358068
 20
6.63127537987529
 10
12.10846108358068
 20
7.13127537987529
 10
12.34346108358068
 20
7.13127537987529
  0
LINE
  5
369
330
2
100
AcDbEntity
  8
0
100
AcDbLine
 10
12.10846108358068
 20
6.63127537987529
 30
0.0
 11
12.34346108358068
 21
7.13127537987529
 31
0.0
  0
LINE
  5
36A
330
2
100
AcDbEntity
  8
0
100
AcDbLine
 10
12.34346108358068
 20
6.63127537987529
 30
0.0
 11
12.10846108358068
 21
7.13127537987529
 31
0.0
  0
INSERT
  5
36B
330
2
100
AcDbEntity
  8
0
100
AcDbBlockReference
  2
8 x 2 FH
 10
4.15413668081765
 20
6.476569569454056
 30
0.0
 50
90.00000000000003
  0
LWPOLYLINE
  5
36C
330
2
100
AcDbEntity
  8
0
100
AcDbPolyline
 90
        4
 70
     1
 43
0.0
 10
4.825136680817649
 20
6.63127537987529
 10
5.060136680817649
 20
6.63127537987529
 10
5.060136680817649
 20
7.13127537987529
 10
4.825136680817649
 20
7.13127537987529
  0
LINE
  5
36D
330
2
100
AcDbEntity
  8
0
100
AcDbLine
 10
5.060136680817649
 20
6.63127537987529
 30
0.0
 11
4.825136680817649
 21
7.13127537987529
 31
0.0
  0
LINE
  5
36E
330
2
100
AcDbEntity
  8
0
100
AcDbLine
 10
4.825136680817649
 20
6.63127537987529
 30
0.0
 11
5.060136680817649
 21
7.13127537987529
 31
0.0
  0
DIMENSION
  5
36F
102
{ACAD_XDICTIONARY
360
370
102
}
102
{ACAD_REACTORS
330
371
102
}
330
2
100
AcDbEntity
  8
0
100
AcDbDimension
  2
*D23
 10
7.674079323406701
 20
20.75959102368067
 30
0.0
 11
8.360604776554998
 21
20.75959102368067
 31
0.0
 70
   128
 71
     5
 42
1.6237241232689
  3
Knife
100
AcDbAlignedDimension
 13
6.050355200137801
 23
20.5436139171501
 33
0.0
 14
7.674079323406701
 24
20.5436139171501
 34
0.0
100
AcDbRotatedDimension
1001
ACAD
1000
DSTYLE
1002
{
1070
    40
1040
1.0
1002
}
  0
DIMENSION
  5
37F
102
{ACAD_XDICTIONARY
360
380
102
}
102
{ACAD_REACTORS
330
381
102
}
330
2
100
AcDbEntity
  8
0
100
AcDbDimension
  2
*D24
 10
4.154136680817373
 20
10.09309888595135
 30
0.0
 11
8.584298882199163
 21
10.09309888595135
 31
0.0
  1
BOX
 71
     5
 42
8.860324402763581
  3
Knife
100
AcDbAlignedDimension
 13
13.01446108358095
 23
9.048275379875661
 33
0.0
 14
4.154136680817373
 24
9.048275379875661
 34
0.0
100
AcDbRotatedDimension
1001
ACAD
1000
DSTYLE
1002
{
1070
    40
1040
1.0
1002
}
  0
DIMENSION
  5
38F
330
2
100
AcDbEntity
  8
0
100
AcDbDimension
  2
*D25
 10
3.654136680817373
 20
10.09309888595135
 30
0.0
 11
3.057904397701579
 21
10.09309888595135
 31
0.0
 71
     5
 42
0.5
  3
Knife
100
AcDbAlignedDimension
 13
4.154136680817373
 23
9.605687132913505
 33
0.0
 14
3.654136680817373
 24
9.605687132913505
 34
0.0
100
AcDbRotatedDimension
1001
ACAD
1000
DSTYLE
1002
{
1070
    40
1040
1.0
1002
}
  0
DIMENSION
  5
39E
330
2
100
AcDbEntity
  8
0
100
AcDbDimension
  2
*D26
 10
13.51446108358095
 20
10.09309888595135
 30
0.0
 11
14.11069336669674
 21
10.09309888595135
 31
0.0
 71
     5
 42
0.5
  3
Knife
100
AcDbAlignedDimension
 13
13.01446108358095
 23
9.605687132913505
 33
0.0
 14
13.51446108358095
 24
9.605687132913505
 34
0.0
100
AcDbRotatedDimension
1001
ACAD
1000
DSTYLE
1002
{
1070
    40
1040
1.0
1002
}
  0
DIMENSION
  5
3AD
330
2
100
AcDbEntity
  8
0
100
AcDbDimension
  2
*D27
 10
3.654136680817373
 20
10.90217310919412
 30
0.0
 11
8.584298882199163
 21
10.90217310919412
 31
0.0
  1
ROUGH OPENING
 71
     5
 42
9.860324402763581
  3
Knife
100
AcDbAlignedDimension
 13
13.51446108358095
 23
9.605687132913505
 33
0.0
 14
3.654136680817373
 24
9.605687132913505
 34
0.0
100
AcDbRotatedDimension
1001
ACAD
1000
DSTYLE
1002
{
1070
    40
1040
1.0
1002
}
  0
ENDSEC
  0
SECTION
  2
OBJECTS
  0
DICTIONARY
  5
B
330
0
100
AcDbDictionary
281
     1
  3
ACAD_COLOR
350
50
  3
ACAD_GROUP
350
3D
  3
ACAD_LAYOUT
350
18
  3
ACAD_MATERIAL
350
D
  3
ACAD_MLEADERSTYLE
350
53
  3
ACAD_MLINESTYLE
350
3E
  3
ACAD_PLOTSETTINGS
350
3F
  3
ACAD_PLOTSTYLENAME
350
A
  3
ACAD_SCALELIST
350
51
  3
ACAD_TABLESTYLE
350
52
  3
ACAD_VISUALSTYLE
350
31
  3
ACDB_RECOMPOSE_DATA
350
3C8
  3
AcDbVariableDictionary
350
3BE
  0
DICTIONARY
  5
33
330
2E
100
AcDbDictionary
280
     1
281
     1
  0
DICTIONARY
  5
23
330
22
100
AcDbDictionary
280
     1
281
     1
  3
ACAD_LAYERSTATES
360
24
  0
DICTIONARY
  5
7
330
6
100
AcDbDictionary
280
     1
281
     1
  3
ADSK_XREC_LAYER_RECONCILED
360
8
  0
DICTIONARY
  5
1B4
330
1B3
100
AcDbDictionary
280
     1
281
     1
  3
ADSK_XREC_LAYER_RECONCILED
360
1B5
  0
DICTIONARY
  5
10C
330
10B
100
AcDbDictionary
280
     1
281
     1
  0
DICTIONARY
  5
3
330
2
100
AcDbDictionary
280
     1
281
     1
  3
ACAD_SORTENTS
360
3BB
  0
DICTIONARY
  5
1E5
330
1E4
100
AcDbDictionary
280
     1
281
     1
  3
ACAD_DIMASSOC
360
1E6
  0
DICTIONARY
  5
1F6
330
1F5
100
AcDbDictionary
280
     1
281
     1
  3
ACAD_DIMASSOC
360
1F7
  0
DICTIONARY
  5
216
330
215
100
AcDbDictionary
280
     1
281
     1
  3
ACAD_DIMASSOC
360
217
  0
DICTIONARY
  5
24E
330
24D
100
AcDbDictionary
280
     1
281
     1
  3
ACAD_DIMASSOC
360
24F
  0
DICTIONARY
  5
26E
330
26D
100
AcDbDictionary
280
     1
281
     1
  3
ACAD_DIMASSOC
360
26F
  0
DICTIONARY
  5
27E
330
27D
100
AcDbDictionary
280
     1
281
     1
  3
ACAD_DIMASSOC
360
27F
  0
DICTIONARY
  5
370
330
36F
100
AcDbDictionary
280
     1
281
     1
  3
ACAD_DIMASSOC
360
371
  0
DICTIONARY
  5
380
330
37F
100
AcDbDictionary
280
     1
281
     1
  3
ACAD_DIMASSOC
360
381
  0
DICTIONARY
  5
50
102
{ACAD_REACTORS
330
B
102
}
330
B
100
AcDbDictionary
281
     1
  0
DICTIONARY
  5
3D
102
{ACAD_REACTORS
330
B
102
}
330
B
100
AcDbDictionary
281
     1
  0
DICTIONARY
  5
18
102
{ACAD_REACTORS
330
B
102
}
330
B
100
AcDbDictionary
281
     1
  3
Layout1
350
1F
  3
Model
350
17
  0
DICTIONARY
  5
D
102
{ACAD_REACTORS
330
B
102
}
330
B
100
AcDbDictionary
281
     1
  3
ByBlock
350
48
  3
ByLayer
350
40
  3
Global
350
C
  0
DICTIONARY
  5
53
102
{ACAD_REACTORS
330
B
102
}
330
B
100
AcDbDictionary
281
     1
  0
DICTIONARY
  5
3E
102
{ACAD_REACTORS
330
B
102
}
330
B
100
AcDbDictionary
281
     1
  3
Standard
350
54
  0
DICTIONARY
  5
3F
102
{ACAD_REACTORS
330
B
102
}
330
B
100
AcDbDictionary
281
     1
  0
ACDBDICTIONARYWDFLT
  5
A
102
{ACAD_REACTORS
330
B
102
}
330
B
100
AcDbDictionary
281
     1
  3
Normal
350
9
100
AcDbDictionaryWithDefault
340
9
  0
DICTIONARY
  5
51
102
{ACAD_REACTORS
330
B
102
}
330
B
100
AcDbDictionary
281
     1
  3
A0
350
59
  3
A1
350
5A
  3
A2
350
5B
  3
A3
350
5C
  3
A4
350
5D
  3
A5
350
5E
  3
A6
350
5F
  3
A7
350
60
  3
A8
350
61
  3
A9
350
62
  3
B0
350
63
  3
B1
350
64
  3
B2
350
65
  3
B3
350
66
  3
B4
350
67
  3
B5
350
68
  3
B6
350
69
  0
DICTIONARY
  5
52
102
{ACAD_REACTORS
330
B
102
}
330
B
100
AcDbDictionary
281
     1
  3
Standard
350
55
  0
DICTIONARY
  5
31
102
{ACAD_REACTORS
330
B
102
}
330
B
100
AcDbDictionary
281
     1
  3
2dWireframe
350
30
  3
Realistic
350
57
  3
Wireframe
350
58
  0
XRECORD
  5
3C8
102
{ACAD_REACTORS
330
B
102
}
330
B
100
AcDbXrecord
280
     1
 90
        1
330
55
  0
DICTIONARY
  5
3BE
102
{ACAD_REACTORS
330
B
102
}
330
B
100
AcDbDictionary
281
     1
  3
CANNOSCALE
350
3C1
  3
CMLEADERSTYLE
350
3C0
  3
CTABLESTYLE
350
3BF
  3
DIMASSOC
350
3C6
  3
HIDETEXT
350
3C4
  3
INDEXCTL
350
3C3
  3
SORTENTS
350
3C2
  3
XCLIPFRAME
350
3C5
  0
DICTIONARY
  5
24
102
{ACAD_REACTORS
330
23
102
}
330
23
100
AcDbDictionary
281
     1
  0
XRECORD
  5
8
102
{ACAD_REACTORS
330
7
102
}
330
7
100
AcDbXrecord
280
     1
290
     1
  0
XRECORD
  5
1B5
102
{ACAD_REACTORS
330
1B4
102
}
330
1B4
100
AcDbXrecord
280
     1
290
     1
  0
SORTENTSTABLE
  5
3BB
102
{ACAD_REACTORS
330
3
102
}
330
3
100
AcDbSortentsTable
330
2
  0
DIMASSOC
  5
1E6
102
{ACAD_REACTORS
330
1E5
102
}
330
1E5
100
AcDbDimAssoc
330
1E4
 90
        3
 70
     0
 71
     0
  1
AcDbOsnapPointRef
 72
     1
331
1AD
 73
     2
 91
       15
 40
1.0
 10
0.0
 20
0.0
 30
2.000000000000000E+50
 75
     0
  1
AcDbOsnapPointRef
 72
     1
331
100
 73
     2
 91
        4
 40
1.0
 10
0.0
 20
0.0
 30
2.000000000000000E+50
 75
     0
  0
DIMASSOC
  5
1F7
102
{ACAD_REACTORS
330
1F6
102
}
330
1F6
100
AcDbDimAssoc
330
1F5
 90
        2
 70
     0
 71
     0
  1
AcDbOsnapPointRef
 72
     1
331
1DF
 73
     2
 91
        6
 40
1.570796326794896
 10
0.0
 20
0.0
 30
2.000000000000000E+50
 75
     0
  0
DIMASSOC
  5
217
102
{ACAD_REACTORS
330
216
102
}
330
216
100
AcDbDimAssoc
330
215
 90
        3
 70
     0
 71
     0
  1
AcDbOsnapPointRef
 72
    13
331
1DF
 73
     2
 91
        5
 40
0.0
 10
0.0
 20
0.0
 30
2.000000000000000E+50
 75
     0
  1
AcDbOsnapPointRef
 72
     8
331
1DE
 73
     2
 91
        5
 40
0.8311703610587098
 10
0.0
 20
0.0
 30
0.0
 75
     1
  1
AcDbOsnapPointRef
 72
    13
331
1DF
 73
     2
 91
        5
 40
0.0
 10
0.0
 20
0.0
 30
2.000000000000000E+50
 75
     0
  0
DIMASSOC
  5
24F
102
{ACAD_REACTORS
330
24E
102
}
330
24E
100
AcDbDimAssoc
330
24D
 90
        2
 70
     0
 71
     0
  1
AcDbOsnapPointRef
 72
     1
331
249
 73
     2
 91
        6
 40
1.570796326794896
 10
0.0
 20
0.0
 30
2.000000000000000E+50
 75
     0
  0
DIMASSOC
  5
26F
102
{ACAD_REACTORS
330
26E
102
}
330
26E
100
AcDbDimAssoc
330
26D
 90
        2
 70
     0
 71
     0
  1
AcDbOsnapPointRef
 72
     1
331
23A
 73
     2
 91
        8
 40
3.141592653589793
 10
0.0
 20
0.0
 30
2.000000000000000E+50
 75
     0
  0
DIMASSOC
  5
27F
102
{ACAD_REACTORS
330
27E
102
}
330
27E
100
AcDbDimAssoc
330
27D
 90
        3
 70
     0
 71
     0
  1
AcDbOsnapPointRef
 72
     1
331
234
 73
     2
 91
       15
 40
1.0
 10
0.0
 20
0.0
 30
2.000000000000000E+50
 75
     0
  1
AcDbOsnapPointRef
 72
     8
331
233
 73
     2
 91
        3
 40
0.302909090909487
 10
0.0
 20
0.0
 30
0.0
 75
     1
  1
AcDbOsnapPointRef
 72
     1
331
234
 73
     2
 91
       15
 40
1.0
 10
0.0
 20
0.0
 30
2.000000000000000E+50
 75
     0
  0
DIMASSOC
  5
371
102
{ACAD_REACTORS
330
370
102
}
330
370
100
AcDbDimAssoc
330
36F
 90
        3
 70
     0
 71
     0
  1
AcDbOsnapPointRef
 72
     1
331
363
 73
     2
 91
        4
 40
1.0
 10
0.0
 20
0.0
 30
2.000000000000000E+50
 75
     0
  1
AcDbOsnapPointRef
 72
     8
331
362
 73
     2
 91
        5
 40
0.831170361058859
 10
0.0
 20
0.0
 30
0.0
 75
     1
  1
AcDbOsnapPointRef
 72
     1
331
363
 73
     2
 91
        4
 40
1.0
 10
0.0
 20
0.0
 30
2.000000000000000E+50
 75
     0
  0
DIMASSOC
  5
381
102
{ACAD_REACTORS
330
380
102
}
330
380
100
AcDbDimAssoc
330
37F
 90
        1
 70
     0
 71
     0
  1
AcDbOsnapPointRef
 72
     1
331
233
 73
     2
 91
       15
 40
1.0
 10
0.0
 20
0.0
 30
2.000000000000000E+50
 75
     0
  0
LAYOUT
  5
1F
102
{ACAD_XDICTIONARY
360
20
102
}
102
{ACAD_REACTORS
330
18
102
}
330
18
100
AcDbPlotSettings
  1

  2
Default Windows System Printer.pc3
  4
Letter
  6

 40
4.857749938964843
 41
4.857737064361572
 42
4.85772705078125
 43
4.011077880859375
 44
279.3999938964844
 45
215.8999938964844
 46
-0.730858697408237
 47
-3.856245104248928
 48
0.0
 49
0.0
140
0.0
141
0.0
142
1.0
143
1.0
 70
   692
 72
     0
 73
     1
 74
     1
  7
monochrome.ctb
 75
    16
147
1.0
148
0.0083604749971762
149
0.0163435974585369
100
AcDbLayout
  1
Layout1
 70
     1
 71
     1
 10
-0.0064249311656545
 20
-0.1631194818509899
 11
8.493574828538456
 21
10.83688027785312
 12
0.0
 22
0.0
 32
0.0
 14
0.0000000075458644
 24
0.0000000082145277
 34
0.0
 15
8.454000007545857
 25
10.67400000821453
 35
0.0
146
0.0
 13
0.0
 23
0.0
 33
0.0
 16
1.0
 26
0.0
 36
0.0
 17
0.0
 27
1.0
 37
0.0
 76
     0
330
1C
1001
ACAD_PSEXT
1000
Default Windows System Printer.pc3
1000
HP LaserJet Professional M1212nf MFP
1000
USB001
1000

1070
     0
  0
LAYOUT
  5
17
102
{ACAD_XDICTIONARY
360
19
102
}
102
{ACAD_REACTORS
330
18
102
}
330
18
100
AcDbPlotSettings
  1

  2
hp LaserJet 1000
  4
Letter
  6

 40
5.111750125885009
 41
5.11176061630249
 42
5.111740112304687
 43
5.11175537109375
 44
215.8999938964844
 45
279.3999938964844
 46
-1737.727141600119
 47
-1443.590822120185
 48
0.0
 49
0.0
140
0.0
141
0.0
142
1.0
143
1.0
 70
 11956
 72
     0
 73
     1
 74
     1
  7
monochrome.ctb
 75
    16
147
1.0
148
-1178909.293504616
149
-716480.0773740626
100
AcDbLayout
  1
Model
 70
     1
 71
     0
 10
0.0
 20
0.0
 11
12.0
 21
9.0
 12
0.0
 22
0.0
 32
0.0
 14
0.0
 24
0.0
 34
0.0
 15
0.0
 25
0.0
 35
0.0
146
0.0
 13
0.0
 23
0.0
 33
0.0
 16
1.0
 26
0.0
 36
0.0
 17
0.0
 27
1.0
 37
0.0
 76
     0
330
2
331
2F
1001
ACAD_PSEXT
1000
hp LaserJet 1000
1000
hp LaserJet 1000
1000
USB001
1000

1070
     0
  0
MATERIAL
  5
48
102
{ACAD_XDICTIONARY
360
49
102
}
102
{ACAD_REACTORS
330
D
102
}
330
D
100
AcDbMaterial
  1
ByBlock
 72
     0
 43
0.0208333333333333
 43
0.0
 43
0.0
 43
0.0
 43
0.0
 43
0.0208333333333333
 43
0.0
 43
0.0
 43
0.0
 43
0.0
 43
1.0
 43
0.0
 43
0.0
 43
0.0
 43
0.0
 43
1.0
 77
     0
 47
0.0208333333333333
 47
0.0
 47
0.0
 47
0.0
 47
0.0
 47
0.0208333333333333
 47
0.0
 47
0.0
 47
0.0
 47
0.0
 47
1.0
 47
0.0
 47
0.0
 47
0.0
 47
0.0
 47
1.0
171
     0
 49
0.0208333333333333
 49
0.0
 49
0.0
 49
0.0
 49
0.0
 49
0.0208333333333333
 49
0.0
 49
0.0
 49
0.0
 49
0.0
 49
1.0
 49
0.0
 49
0.0
 49
0.0
 49
0.0
 49
1.0
175
     0
142
0.0208333333333333
142
0.0
142
0.0
142
0.0
142
0.0
142
0.0208333333333333
142
0.0
142
0.0
142
0.0
142
0.0
142
1.0
142
0.0
142
0.0
142
0.0
142
0.0
142
1.0
179
     0
144
0.0208333333333333
144
0.0
144
0.0
144
0.0
144
0.0
144
0.0208333333333333
144
0.0
144
0.0
144
0.0
144
0.0
144
1.0
144
0.0
144
0.0
144
0.0
144
0.0
144
1.0
147
0.0208333333333333
147
0.0
147
0.0
147
0.0
147
0.0
147
0.0208333333333333
147
0.0
147
0.0
147
0.0
147
0.0
147
1.0
147
0.0
147
0.0
147
0.0
147
0.0
147
1.0
  0
MATERIAL
  5
40
102
{ACAD_XDICTIONARY
360
41
102
}
102
{ACAD_REACTORS
330
D
102
}
330
D
100
AcDbMaterial
  1
ByLayer
 72
     0
 43
0.0208333333333333
 43
0.0
 43
0.0
 43
0.0
 43
0.0
 43
0.0208333333333333
 43
0.0
 43
0.0
 43
0.0
 43
0.0
 43
1.0
 43
0.0
 43
0.0
 43
0.0
 43
0.0
 43
1.0
 77
     0
 47
0.0208333333333333
 47
0.0
 47
0.0
 47
0.0
 47
0.0
 47
0.0208333333333333
 47
0.0
 47
0.0
 47
0.0
 47
0.0
 47
1.0
 47
0.0
 47
0.0
 47
0.0
 47
0.0
 47
1.0
171
     0
 49
0.0208333333333333
 49
0.0
 49
0.0
 49
0.0
 49
0.0
 49
0.0208333333333333
 49
0.0
 49
0.0
 49
0.0
 49
0.0
 49
1.0
 49
0.0
 49
0.0
 49
0.0
 49
0.0
 49
1.0
175
     0
142
0.0208333333333333
142
0.0
142
0.0
142
0.0
142
0.0
142
0.0208333333333333
142
0.0
142
0.0
142
0.0
142
0.0
142
1.0
142
0.0
142
0.0
142
0.0
142
0.0
142
1.0
179
     0
144
0.0208333333333333
144
0.0
144
0.0
144
0.0
144
0.0
144
0.0208333333333333
144
0.0
144
0.0
144
0.0
144
0.0
144
1.0
144
0.0
144
0.0
144
0.0
144
0.0
144
1.0
147
0.0208333333333333
147
0.0
147
0.0
147
0.0
147
0.0
147
0.0208333333333333
147
0.0
147
0.0
147
0.0
147
0.0
147
1.0
147
0.0
147
0.0
147
0.0
147
0.0
147
1.0
  0
MATERIAL
  5
C
102
{ACAD_XDICTIONARY
360
E
102
}
102
{ACAD_REACTORS
330
D
102
}
330
D
100
AcDbMaterial
  1
Global
 72
     0
 43
0.0208333333333333
 43
0.0
 43
0.0
 43
0.0
 43
0.0
 43
0.0208333333333333
 43
0.0
 43
0.0
 43
0.0
 43
0.0
 43
1.0
 43
0.0
 43
0.0
 43
0.0
 43
0.0
 43
1.0
 77
     0
 47
0.0208333333333333
 47
0.0
 47
0.0
 47
0.0
 47
0.0
 47
0.0208333333333333
 47
0.0
 47
0.0
 47
0.0
 47
0.0
 47
1.0
 47
0.0
 47
0.0
 47
0.0
 47
0.0
 47
1.0
171
     0
 49
0.0208333333333333
 49
0.0
 49
0.0
 49
0.0
 49
0.0
 49
0.0208333333333333
 49
0.0
 49
0.0
 49
0.0
 49
0.0
 49
1.0
 49
0.0
 49
0.0
 49
0.0
 49
0.0
 49
1.0
175
     0
142
0.0208333333333333
142
0.0
142
0.0
142
0.0
142
0.0
142
0.0208333333333333
142
0.0
142
0.0
142
0.0
142
0.0
142
1.0
142
0.0
142
0.0
142
0.0
142
0.0
142
1.0
179
     0
144
0.0208333333333333
144
0.0
144
0.0
144
0.0
144
0.0
144
0.0208333333333333
144
0.0
144
0.0
144
0.0
144
0.0
144
1.0
144
0.0
144
0.0
144
0.0
144
0.0
144
1.0
147
0.0208333333333333
147
0.0
147
0.0
147
0.0
147
0.0
147
0.0208333333333333
147
0.0
147
0.0
147
0.0
147
0.0
147
1.0
147
0.0
147
0.0
147
0.0
147
0.0
147
1.0
  0
MLINESTYLE
  5
54
102
{ACAD_REACTORS
330
3E
102
}
330
3E
100
AcDbMlineStyle
  2
STANDARD
 70
     0
  3

 62
   256
 51
90.0
 52
90.0
 71
     2
 49
0.5
 62
   256
  6
BYLAYER
 49
-0.5
 62
   256
  6
BYLAYER
  0
ACDBPLACEHOLDER
  5
9
102
{ACAD_REACTORS
330
A
102
}
330
A
  0
SCALE
  5
59
102
{ACAD_REACTORS
330
51
102
}
330
51
100
AcDbScale
 70
     0
300
1:1
140
1.0
141
1.0
290
     1
  0
SCALE
  5
5A
102
{ACAD_REACTORS
330
51
102
}
330
51
100
AcDbScale
 70
     0
300
1/128" = 1'-0"
140
0.0078125
141
12.0
290
     0
  0
SCALE
  5
5B
102
{ACAD_REACTORS
330
51
102
}
330
51
100
AcDbScale
 70
     0
300
1/64" = 1'-0"
140
0.015625
141
12.0
290
     0
  0
SCALE
  5
5C
102
{ACAD_REACTORS
330
51
102
}
330
51
100
AcDbScale
 70
     0
300
1/32" = 1'-0"
140
0.03125
141
12.0
290
     0
  0
SCALE
  5
5D
102
{ACAD_REACTORS
330
51
102
}
330
51
100
AcDbScale
 70
     0
300
1/16" = 1'-0"
140
0.0625
141
12.0
290
     0
  0
SCALE
  5
5E
102
{ACAD_REACTORS
330
51
102
}
330
51
100
AcDbScale
 70
     0
300
3/32" = 1'-0"
140
0.09375
141
12.0
290
     0
  0
SCALE
  5
5F
102
{ACAD_REACTORS
330
51
102
}
330
51
100
AcDbScale
 70
     0
300
1/8" = 1'-0"
140
0.125
141
12.0
290
     0
  0
SCALE
  5
60
102
{ACAD_REACTORS
330
51
102
}
330
51
100
AcDbScale
 70
     0
300
3/16" = 1'-0"
140
0.1875
141
12.0
290
     0
  0
SCALE
  5
61
102
{ACAD_REACTORS
330
51
102
}
330
51
100
AcDbScale
 70
     0
300
1/4" = 1'-0"
140
0.25
141
12.0
290
     0
  0
SCALE
  5
62
102
{ACAD_REACTORS
330
51
102
}
330
51
100
AcDbScale
 70
     0
300
3/8" = 1'-0"
140
0.375
141
12.0
290
     0
  0
SCALE
  5
63
102
{ACAD_REACTORS
330
51
102
}
330
51
100
AcDbScale
 70
     0
300
1/2" = 1'-0"
140
0.5
141
12.0
290
     0
  0
SCALE
  5
64
102
{ACAD_REACTORS
330
51
102
}
330
51
100
AcDbScale
 70
     0
300
3/4" = 1'-0"
140
0.75
141
12.0
290
     0
  0
SCALE
  5
65
102
{ACAD_REACTORS
330
51
102
}
330
51
100
AcDbScale
 70
     0
300
1" = 1'-0"
140
1.0
141
12.0
290
     0
  0
SCALE
  5
66
102
{ACAD_REACTORS
330
51
102
}
330
51
100
AcDbScale
 70
     0
300
1-1/2" = 1'-0"
140
1.5
141
12.0
290
     0
  0
SCALE
  5
67
102
{ACAD_REACTORS
330
51
102
}
330
51
100
AcDbScale
 70
     0
300
3" = 1'-0"
140
3.0
141
12.0
290
     0
  0
SCALE
  5
68
102
{ACAD_REACTORS
330
51
102
}
330
51
100
AcDbScale
 70
     0
300
6" = 1'-0"
140
6.0
141
12.0
290
     0
  0
SCALE
  5
69
102
{ACAD_REACTORS
330
51
102
}
330
51
100
AcDbScale
 70
     0
300
1'-0" = 1'-0"
140
12.0
141
12.0
290
     0
  0
TABLESTYLE
  5
55
102
{ACAD_XDICTIONARY
360
56
102
}
102
{ACAD_REACTORS
330
52
102
}
330
52
100
AcDbTableStyle
  3
Standard
 70
     0
 71
     0
 40
0.06
 41
0.06
280
     0
281
     0
  7
Standard
140
0.18
170
     2
 62
     0
 63
     7
283
     0
274
    -2
284
     1
 64
     0
275
    -2
285
     1
 65
     0
276
    -2
286
     1
 66
     0
277
    -2
287
     1
 67
     0
278
    -2
288
     1
 68
     0
279
    -2
289
     1
 69
     0
  7
Standard
140
0.25
170
     5
 62
     0
 63
     7
283
     0
274
    -2
284
     1
 64
     0
275
    -2
285
     1
 65
     0
276
    -2
286
     1
 66
     0
277
    -2
287
     1
 67
     0
278
    -2
288
     1
 68
     0
279
    -2
289
     1
 69
     0
  7
Standard
140
0.18
170
     5
 62
     0
 63
     7
283
     0
274
    -2
284
     1
 64
     0
275
    -2
285
     1
 65
     0
276
    -2
286
     1
 66
     0
277
    -2
287
     1
 67
     0
278
    -2
288
     1
 68
     0
279
    -2
289
     1
 69
     0
  0
VISUALSTYLE
  5
30
102
{ACAD_XDICTIONARY
360
3CC
102
}
102
{ACAD_REACTORS
330
31
102
}
330
31
100
AcDbVisualStyle
  2
2dWireframe
 70
     4
 71
     0
 72
     2
 73
     0
 90
        0
 40
-0.6
 41
-30.0
 62
     5
 63
     7
 74
     1
 91
        4
 64
     7
 65
   257
 75
     1
175
     1
 42
1.0
 92
        0
 66
   257
 43
1.0
 76
     1
 77
     6
 78
     2
 67
     7
 79
     5
170
     0
171
     0
290
     0
174
     0
 93
        1
 44
0.0
173
     0
291
     0
 45
0.0
1001
ACAD
1000
AcDbSavedByObjectVersion
1070
     0
  0
VISUALSTYLE
  5
57
102
{ACAD_XDICTIONARY
360
3D1
102
}
102
{ACAD_REACTORS
330
31
102
}
330
31
100
AcDbVisualStyle
  2
Realistic
 70
     8
 71
     2
 72
     2
 73
     0
 90
        2
 40
-0.6
 41
30.0
 62
     5
 63
     7
 74
     0
 91
        0
 64
     7
 65
   257
 75
     1
175
     1
 42
1.0
 92
        8
 66
   257
 43
1.0
 76
     1
 77
     6
 78
     2
 67
     7
 79
     3
170
     0
171
     0
290
     0
174
     0
 93
       13
 44
0.0
173
     0
291
     0
 45
0.0
1001
ACAD
1000
AcDbSavedByObjectVersion
1070
     0
  0
VISUALSTYLE
  5
58
102
{ACAD_XDICTIONARY
360
3D3
102
}
102
{ACAD_REACTORS
330
31
102
}
330
31
100
AcDbVisualStyle
  2
Wireframe
 70
     5
 71
     0
 72
     2
 73
     0
 90
        0
 40
-0.6
 41
-30.0
 62
     5
 63
     7
 74
     1
 91
        4
 64
     7
 65
   257
 75
     1
175
     1
 42
1.0
 92
        0
 66
   257
 43
1.0
 76
     1
 77
     6
 78
     2
 67
     7
 79
     3
170
     0
171
     0
290
     0
174
     0
 93
        1
 44
0.0
173
     0
291
     0
 45
0.0
1001
ACAD
1000
AcDbSavedByObjectVersion
1070
     0
  0
DICTIONARYVAR
  5
3C1
102
{ACAD_REACTORS
330
3BE
102
}
330
3BE
100
DictionaryVariables
280
     0
  1
1:1
  0
DICTIONARYVAR
  5
3C0
102
{ACAD_REACTORS
330
3BE
102
}
330
3BE
100
DictionaryVariables
280
     0
  1
STANDARD
  0
DICTIONARYVAR
  5
3BF
102
{ACAD_REACTORS
330
3BE
102
}
330
3BE
100
DictionaryVariables
280
     0
  1
STANDARD
  0
DICTIONARYVAR
  5
3C6
102
{ACAD_REACTORS
330
3BE
102
}
330
3BE
100
DictionaryVariables
280
     0
  1
2
  0
DICTIONARYVAR
  5
3C4
102
{ACAD_REACTORS
330
3BE
102
}
330
3BE
100
DictionaryVariables
280
     0
  1
1
  0
DICTIONARYVAR
  5
3C3
102
{ACAD_REACTORS
330
3BE
102
}
330
3BE
100
DictionaryVariables
280
     0
  1
0
  0
DICTIONARYVAR
  5
3C2
102
{ACAD_REACTORS
330
3BE
102
}
330
3BE
100
DictionaryVariables
280
     0
  1
127
  0
DICTIONARYVAR
  5
3C5
102
{ACAD_REACTORS
330
3BE
102
}
330
3BE
100
DictionaryVariables
280
     0
  1
0
  0
DICTIONARY
  5
20
330
1F
100
AcDbDictionary
280
     1
281
     1
  3
ACAD_XREC_ROUNDTRIP
360
3CB
  3
ADSK_XREC_LAYOUTTHUMBNAIL
360
21
  0
DICTIONARY
  5
19
330
17
100
AcDbDictionary
280
     1
281
     1
  3
ACAD_XREC_ROUNDTRIP
360
3CA
  3
ADSK_XREC_LAYOUTTHUMBNAIL
360
1A
  0
DICTIONARY
  5
49
330
48
100
AcDbDictionary
280
     1
281
     1
  3
ACAD_XREC_ROUNDTRIP
360
3CF
  3
BUMPTILE
360
4A
  3
DIFFUSETILE
360
4B
  3
OPACITYTILE
360
4C
  3
REFLECTIONTILE
360
4D
  3
REFRACTIONTILE
360
4E
  3
SPECULARTILE
360
4F
  0
DICTIONARY
  5
41
330
40
100
AcDbDictionary
280
     1
281
     1
  3
ACAD_XREC_ROUNDTRIP
360
3CE
  3
BUMPTILE
360
42
  3
DIFFUSETILE
360
43
  3
OPACITYTILE
360
44
  3
REFLECTIONTILE
360
45
  3
REFRACTIONTILE
360
46
  3
SPECULARTILE
360
47
  0
DICTIONARY
  5
E
330
C
100
AcDbDictionary
280
     1
281
     1
  3
ACAD_XREC_ROUNDTRIP
360
3C9
  3
BUMPTILE
360
F
  3
DIFFUSETILE
360
10
  3
OPACITYTILE
360
11
  3
REFLECTIONTILE
360
12
  3
REFRACTIONTILE
360
13
  3
SPECULARTILE
360
14
  0
DICTIONARY
  5
56
330
55
100
AcDbDictionary
280
     1
281
     1
  3
ACAD_ROUNDTRIP_2008_TABLESTYLE_CELLSTYLEMAP
360
3C7
  3
ACAD_XREC_ROUNDTRIP
360
3D0
  0
DICTIONARY
  5
3CC
330
30
100
AcDbDictionary
280
     1
281
     1
  3
ACAD_XREC_ROUNDTRIP
360
3CD
  0
DICTIONARY
  5
3D1
330
57
100
AcDbDictionary
280
     1
281
     1
  3
ACAD_XREC_ROUNDTRIP
360
3D2
  0
DICTIONARY
  5
3D3
330
58
100
AcDbDictionary
280
     1
281
     1
  3
ACAD_XREC_ROUNDTRIP
360
3D4
  0
XRECORD
  5
3CB
102
{ACAD_REACTORS
330
20
102
}
330
20
100
AcDbXrecord
280
     1
102
SHADEPLOT
 70
     1
102
SHADEPLOTRESLEVEL
 70
     2
102
SHADEPLOTCUSTOMDPI
 70
   300
  0
XRECORD
  5
21
102
{ACAD_REACTORS
330
20
102
}
330
20
100
AcDbXrecord
280
     1
310
280000006B0000008C0000000100080000000000103B000000000000000000000001000000000000FFFFFF0000000000C8C8C8000000000000000000000000000000000000000000000000000000000000000000330000006600000099000000CC000000FF00000000330000333300006633000099330000CC330000FF3300
310
0000660000336600006666000099660000CC660000FF66000000990000339900006699000099990000CC990000FF99000000CC000033CC000066CC000099CC0000CCCC0000FFCC000000FF000033FF000066FF000099FF0000CCFF0000FFFF000000003300330033006600330099003300CC003300FF003300003333003333
310
33006633330099333300CC333300FF33330000663300336633006666330099663300CC663300FF66330000993300339933006699330099993300CC993300FF99330000CC330033CC330066CC330099CC3300CCCC3300FFCC330000FF330033FF330066FF330099FF3300CCFF3300FFFF330000006600330066006600660099
310
006600CC006600FF00660000336600333366006633660099336600CC336600FF33660000666600336666006666660099666600CC666600FF66660000996600339966006699660099996600CC996600FF99660000CC660033CC660066CC660099CC6600CCCC6600FFCC660000FF660033FF660066FF660099FF6600CCFF6600
310
FFFF660000009900330099006600990099009900CC009900FF00990000339900333399006633990099339900CC339900FF33990000669900336699006666990099669900CC669900FF66990000999900339999006699990099999900CC999900FF99990000CC990033CC990066CC990099CC9900CCCC9900FFCC990000FF99
310
0033FF990066FF990099FF9900CCFF9900FFFF99000000CC003300CC006600CC009900CC00CC00CC00FF00CC000033CC003333CC006633CC009933CC00CC33CC00FF33CC000066CC003366CC006666CC009966CC00CC66CC00FF66CC000099CC003399CC006699CC009999CC00CC99CC00FF99CC0000CCCC0033CCCC0066CC
310
CC0099CCCC00CCCCCC00FFCCCC0000FFCC0033FFCC0066FFCC0099FFCC00CCFFCC00FFFFCC000000FF003300FF006600FF009900FF00CC00FF00FF00FF000033FF003333FF006633FF009933FF00CC33FF00FF33FF000066FF003366FF006666FF009966FF00CC66FF00FF66FF000099FF003399FF006699FF009999FF00CC
310
99FF00FF99FF0000CCFF0033CCFF0066CCFF0099CCFF00CCCCFF00FFCCFF0000FFFF0033FFFF0066FFFF0099FFFF00CCFFFF00FFFFFF00000000000D0D0D001A1A1A00282828003535350043434300505050005D5D5D006B6B6B00787878008686860093939300A1A1A100AEAEAE00BBBBBB00C9C9C900D6D6D600E4E4E400
310
F1F1F100FFFFFF0000000000000000000000000000000000000000000000000000000000000000000000000000000000E2E2E2E2E2E2E2E2E2E2E2E2E2E2E2E2E2E2E2E2E2E2E2E2E2E2E2E2E2E2E2E2E2E2E2E2E2E2E2E2E2E2E2E2E2E2E2E2E2E2E2E2E2E2E2E2E2E2E2E2E2E2E2E2E2E2E2E2E2E2E2E2E2E2E2E2E2E2E2
310
E2E2E2E2E2E2E2E2E2E2E2E2E2E2E2E2E2E2E2E2E2E2E2E2E2E2E2E238E200000000000000000000000000000000000000000000000000000000000000000000000000000000000000000000000000000000000000000000000000000000000000000000000000000000000000000000000000000000000000000000000000
310
0000000000000000002DE20000000000000000000000000000000000000000000000000000000000000000000000000000000000000000000000000000000000000000000000000000000000000000000000000000000000000000000000000000000000000000000000000000000000000000000020E2E2E2E2E2E2E2E2E2
310
E2E2000000000000000000E2E2E2E2E2E2E2E2E2E2E2E2E2E2E2E200000000000000000000E2E2E2E2E2E2E2E2E2E2E2E2E2E2E2E200000000000000000000E2E2E2E2E2E2E2E2E2E2E2E2E2E2E2E2000000000000000000E2E2E2E2E2E2E2E2E20064E200E200000000000000000000000000000000000000000000000000
310
0000000000000000000000000000000000000000000000000000000000000000000000000000000000000000000000000000000000000000000000000000000000000000000000000000000000E20020E200E20000000000000000000000000000000000000000000000000000000000000000000000000000000000000000
310
0000000000E2E2E20000000000000000000000000000000000000000000000000000000000000000000000000000000000000000000000000000E20030E200E200000000000000000000000000000000000000000000000000000000000000000000000000000000000000000000000000E2E2E20000000000000000000000
310
000000000000000000000000000000000000000000000000000000000000000000000000000000E20030E200E200000000000000000000000000000000000000000000000000000000000000000000000000000000000000000000000000000000000000000000000000000000000000000000000000000000000000000000
310
0000000000000000000000000000000000000000E20069E200E2000000000000000000000000000000000000000000000000000000000000000000000000000000000000000000000000E2E2E2E2E2000000000000000000000000000000000000000000000000000000000000000000000000000000000000000000000000
310
00E20020E200E2000000000000000000000000000000000000000000000000000000000000000000000000000000000000000000000000E2E2E2E2E200000000000000000000000000000000000000000000000000000000000000000000000000000000000000000000000000E2002CE200E2000000000000000000000000
310
000000000000000000000000000000000000000000000000000000000000000000000000000000000000000000000000000000000000000000000000000000000000000000000000000000000000000000000000000000000000E20020E200E200000000000000000000000000000000000000000000000000000000000000
310
0000000000000000000000000000000000000000000000000000000000000000000000000000000000000000000000000000000000000000000000000000000000000000000000E20020E200000000000000000000000000000000000000000000000000000000000000000000000000000000000000000000000000000000
310
00000000000000000000000000000000000000000000000000000000000000000000000000000000000000000000000000000000000064E20000000000000000000000000000000000000000000000000000000000000000000000000000000000000000000000000000000000000000000000000000000000000000000000
310
000000000000000000000000000000000000000000000000000000000000000000000020E2000000000000000000000000000000000000000000000000000000000000000000000000000000000000000000000000000000000000000000000000000000000000000000000000000000000000000000000000000000000000
310
0000000000000000000000000000000020E2000000000000000000000000000000000000000000000000000000000000000000000000000000000000E2E2E2E2E2E2E2E2E2E2E2E2E2E2E2E2E2E2E2E2E2000000000000000000000000000000000000000000000000000000000000000000000000000000000000002CE200
310
0000000000000000000000000000000000000000000000000000000000000000000000000000000000E2E2E2E2E2E2E2E2E2E2E2E2E2E2E2E2E2E2E2E200000000000000000000000000000000000000000000000000000000000000000000000000000000000000000DE20000000000000000000000000000000000000000
310
00000000000000000000000000000000000000000000E2E2E2E2E2E2E2E2E2E2E2E2E2E2E2E2E2E2E2E2000000000000000000000000000000000000000000000000000000000000000000000000000000000000000037E2000000000000000000000000000000000000000000000000000000000000000000000000000000
310
0000000000000000000000000000000000000000000000000000000000000000000000000000000000000000000000000000000000000000000000000000000000000020E200000000000000000000000000000000000000000000000000000000000000000000000000000000000000000000000000000000000000000000
310
00000000000000000000000000000000000000000000000000000000000000000000000000000000000000000000000037E20000000000000000000000000000000000000000000000000000000000000000000000000000E2E2E2E20000000000000000000000000000000000000000E2E2E2000000000000000000000000
310
000000000000000000000000000000000000000000000000000000000020E2000000000000000000000000000000000000000000000000000000000000000000E200000000E2E2E2E20000000000E2000000000000000000E200000000E2E2E2E200000000E200000000000000000000000000000000000000000000000000
310
0000000000000000000020E200E200000000000000000000000000000000000000000000000000000000000000E2E2E2E2E2E2E2E2E2E2E2E2E2E2E2000000000000000000E2E2E2E2E2E2E2E2E2E2E2E2E2E2E20000000000000000000000000000000000000000000000000000000000000000E20041E200E20000000000
310
0000000000000000000000000000000000000000000000000000E200000000E2E2E2E20000000000E2000000000000000000E200000000E2E2E2E200000000E2000000000000000000000000000000000000000000000000000000000000000000E20031E200E2000000000000000000000000000000000000000000000000
310
00000000000000E200000000000000000000000000E2000000000000000000E2000000000000000000000000E2000000000000000000000000000000000000000000000000000000000000000000E20031E200E200000000000000000000000000000000000000000000000000000000000000E2000000000000E2E2E2E200
310
0000E20000E2E2E2E2000000E20000E2E2E2E2000000000000E2000000000000000000000000000000000000000000000000000000000000000000E20020E200E200000000000000000000000000000000000000000000000000000000000000E2000000E20000E2E2E2E2000000E20000E2E2E2E2000000E20000E2E2E2E2
310
0000E2000000E2000000000000000000000000000000000000000000000000000000000000000000E20020E200E200000000000000000000000000000000000000000000000000000000000000E2000000E2E2E2E2E2E2E2E2E2E2E2E2E2E2E2E2E2E2E2E2E2E2E2E2E2E2E2E2E2E2E20000E2000000000000000000000000
310
000000000000000000000000000000000000000000E20020E200E20000000000000000000000000000000000000000000000000000E2E2E2E200E2000000E20000E2E2E2E2000000E20000E2E2E2E2000000E20000E2E2E2E2000000E20000E20000E2E2E2E200000000000000000000000000000000000000000000000000
310
0000E20020E200E20000000000000000000000000000000000000000000000000000E20000E2E2E2E2E200E2000000000000000000E2000000000000000000E2000000000000000000E2E2E2E2E2E2E20000E2000000000000000000000000000000000000000000000000000000E20032E200E20000000000000000000000
310
000000000000000000000000000000E2000000E20000E200E2000000000000000000E2000000000000000000E2000000000000000000E2E2000000E2000000E2000000000000000000000000000000000000000000000000000000E20020E200E20000000000000000000000000000000000000000000000000000E2000000
310
E20000E200E2000000000000000000E2000000000000000000E2000000000000000000E2E2000000E2000000E2000000000000000000000000000000000000000000000000000000E20030E200E20000000000000000000000000000000000000000000000000000E2E20000E200E2E200E20000000000E2000000E2000000
310
000000000000E2000000000000000000E2E2E2E200E2000000E2000000000000000000000000000000000000000000000000000000E2000AE200E20000000000000000000000000000000000000000000000000000E2E2E2E2E2E2E2E2E2E2E2E2E2E2E2E2E2E2E2E2000000000000000000E2E2E2E2E2E2E2E2E2E2E2E2E2
310
E2E2E2E2E2E2E2000000000000000000000000000000000000000000000000000000E20072E200E20000000000000000000000000000000000000000000000000000E200000000E2E2E2E2E2E2E2000000E200E2E2E2E200000000000000E2E2E2E20000000000E2E2E2E2E2E2E20000000000000000000000000000000000
310
000000000000000000000000000000E20020E200E20000000000000000000000000000000000000000000000000000E200000000E2E200E2E20000000000E200E2E2E2E200000000000000E2E2E2E200000000000000E2E200E2E20000000000000000000000000000000000000000000000000000000000000000E20035E2
310
00E20000000000000000000000000000000000000000000000000000E200000000E2E2E2E2E2E2E2E2E200E2E2E2E2E2000000000000000000E2E2E2E20000E2E2E2E2E2E2E2E2000000000000000000000000000000000000000000000000000000000000000000E20020E200E20000000000000000000000000000000000
310
000000000000000000E200000000E2E2E2E2E2E2E2E2E2E2E2E2E2E2E2E200000000000000E2E2E2E2E200E2E2E2E2E2E2E2E2E2E2E2E2E20000000000000000000000000000000000000000000000000000000000E20033E200E200000000000000000000000000000000000000000000000000E2E2E2000000E20000E2E2
310
0000000000E200E2E2E2E200000000000000E2E2E2E200000000000000E2E200E2E2E2E2E20000000000000000000000000000000000000000000000000000000000E20020E2000000000000000000000000000000000000000000000000000000E2E2E2000000E20000E2E2E2E2E2E2E2E2E2E2E2E2000000000000000000
310
E2E2E2E2E2E2E2E2E2E2E2E2E2E2E2E2E2E20000000000000000000000000000000000000000000000000000000000000037E2000000000000000000000000000000000000000000000000000000E2E2E2000000E20000E200E2E2E2E200E2E2E2E2E2000000000000000000000000000000E2E2E2E200E200E2E2E2E2E200
310
00000000000000000000000000000000000000000000000000000000000033E2000000000000000000000000000000000000000000000000000000E2E2E2000000E2E200E200E20000E200E2E2E2E2E2000000000000000000000000000000E20000E200E200E2000000000000000000000000000000000000000000000000
310
00000000000000000000002EE200000000000000000000000000000000000000000000000000000000E200000000E2E200E200000000E200E2E2E2E2E2000000000000000000000000000000E200000000E200E2000000000000000000000000000000000000000000000000000000000000000000000030E2000000000000
310
00000000000000000000000000000000000000000000E200000000E20000E200000000E20000E2E2E2E2000000000000000000000000000000E200000000E200E2000000000000000000000000000000000000000000000000000000000000000000000042E200000000000000000000000000000000000000000000000000
310
000000E200000000E20000E2000000E2E2000000000000000000000000000000000000000000E2E2000000E200E2000000000000000000000000000000000000000000000000000000000000000000000020E200000000000000000000000000000000000000000000000000000000E200000000E20000E2000000E2000000
310
0000000000000000000000000000000000000000E2000000E200E200000000000000000000000000000000000000000000000000000000000000000000002CE200000000000000000000000000000000000000000000000000000000E200000000E2E200E2000000E200000000000000000000000000000000000000000000
310
00E2000000E200E2000000000000000000000000000000000000000000000000000000000000000000000033E200000000000000000000000000000000000000000000000000000000E2E2000000E2E200E2000000E20000000000000000000000000000000000000000000000E2000000E200E20000000000000000000000
310
00000000000000000000000000000000000000000000000041E200E20000000000000000000000000000000000000000000000000000E2E2E2E2E2E2E2E2E2E2E2E2E20000000000000000000000000000000000000000000000E2E2E2E2E2E2E2000000000000000000000000000000000000000000000000000000000000
310
000000E20032E200E200000000000000000000000000000000000000000000000000000000000000E2000000000000000000000000000000000000000000000000000000000000000000000000E2000000000000000000000000000000000000000000000000000000000000000000E20035E200E200000000000000000000
310
000000000000000000000000000000E2E2E2E2E200E2000000000000000000000000000000000000000000000000000000000000000000000000E20000E2E2E2E2000000000000000000000000000000000000000000000000000000E2002CE200E200000000000000000000000000000000000000000000000000E2E2E2E2
310
E200E20000000000000000000000000000000000E2E20000000000000000000000000000000000E20000E2E2E2E2000000000000000000000000000000000000000000000000000000E20065E200E20000000000000000000000000000000000000000000000000000E2E200E2E2E2E2E2E2E2E2E2E2E2E2E2E2E2E2E2E2E2
310
E2E2E2E2E2E2E2E2E2E2E2E2E2E2E2E2E2E2E2E2E2E2E2E2E2E200000000000000000000000000000000000000000000000000000000E20035E200E20000000000000000000000000000000000000000000000000000E2E200E200000000000000000000000000000000000000000000000000000000000000000000000000
310
00000000E2E2E200000000000000000000000000000000000000000000000000000000E2002EE200E20000000000000000000000000000000000000000000000000000000000E200000000000000000000000000000000E2E2E2E2E2E2E2E20000000000000000000000000000000000E20000000000000000000000000000
310
00000000000000000000000000000000E20020E200E20000000000000000000000000000000000000000000000000000000000E2E2E2E2E2E2E2E2E2E2E2E2E2E2E2E2E2E2E2E2E2E2E2E2E2E2E2E2E2E2E2E2E2E2E2E2E2E2E2E2E2E2E2000000000000000000000000000000000000000000000000000000000000E20032
310
E200E2000000000000000000000000000000000000000000000000000000000000E200000000000000000000000000000000000000000000000000000000000000000000000000000000E2000000000000000000000000000000000000000000000000000000000000E2002EE200E200000000000000000000000000000000
310
0000000000000000000000000000000000000000000000000000000000000000000000000000000000000000000000000000000000000000000000000000000000000000000000000000000000000000000000000000E20039E200E20000000000000000000000000000000000000000000000000000000000000000000000
310
00000000000000000000000000000000000000000000000000000000000000000000000000000000000000000000000000000000000000000000000000000000000000E2002CE200E2000000000000000000000000000000000000000000000000000000000000000000000000000000000000000000000000000000000000
310
000000000000000000000000000000000000000000000000000000000000000000000000000000000000000000000000E20032E200E200000000000000000000000000000000000000000000000000000000000000000000000000000000000000000000000000000000000000000000000000000000000000000000000000
310
0000000000000000000000000000000000000000000000000000000000E20031E200E20000000000000000000000000000000000000000000000000000000000000000000000000000000000000000000000000000000000000000000000000000000000000000000000000000000000000000000000000000000000000000
310
00000000000000000000E20034E200E2000000000000000000000000000000000000000000000000000000000000000000000000000000000000000000000000000000000000000000000000000000000000000000000000000000000000000000000000000000000000000000000000000000000000E20035E200E2000000
310
0000000000000000000000000000000000000000000000000000000000000000000000E2E2E2E2E2E2E2E2E2E2E2E2E2E2E2E2E2E2E2E2E2E2E2E2E2E20000000000000000000000000000000000000000000000000000000000000000000000000000E20039E200E200000000000000000000000000000000000000000000
310
00000000000000000000000000000000E2E2E2E2E2E2E2E2E2E2E2E2E2E2E2E2E2E2E2E2E2E2E2E2E2000000000000000000000000000000000000000000000000000000000000000000000000000000E2002DE200000000000000000000000000000000000000000000000000000000000000000000000000000000000000
310
00000000000000000000000000000000000000000000000000000000000000000000000000000000000000000000000000000000000000000000000000000065E20000000000000000000000000000000000000000000000000000000000000000000000000000000000000000000000000000000000000000000000E2E2E2
310
E2000000000000000000000000000000000000000000000000000000000000000000000000000000000000006FE20000000000000000000000000000000000000000000000000000000000000000000000000000000000000000000000000000000000000000000000E2E2E2E2000000000000000000000000000000000000
310
000000000000000000000000000000000000000000000000004FE20000000000000000000000000000000000000000000000000000000000000000000000000000000000000000000000000000000000000000000000E2E2E2E2E2E20000000000000000000000000000000000000000000000000000000000000000000000
310
00000000000030E2000000000000000000000000000000000000000000000000000000000000000000000000E2E2E2E200000000000000000000000000000000000000E2E2E2E200E2000000000000000000000000000000000000000000000000000000000000000000000000000000000045E20000000000000000000000
310
00000000000000000000000000000000000000000000000000E20000E2E2E2E200000000000000000000000000000000E2E2E2E200E2000000000000000000000000000000000000000000000000000000000000000000000000000000000039E2000000000000000000000000000000000000000000000000000000000000
310
000000000000E20000000000E2E2E2E2E2E2E2E2E2E2E2E2E2E2E2E2E2E2E2E2E2E2E2E2E2E2E2E200000000000000000000000000000000000000000000000000000000000000000000000036E2000000000000000000000000000000000000000000000000000000000000000000000000E200000000000000000000E200
310
000000000000000000000000000000E200000000E200000000000000000000000000000000000000000000000000000000000000000000000036E200000000000000000000000000000000000000000000000000000000000000E200000000E2E2E20000000000000000E200000000000000000000000000000000E2000000
310
00E200000000000000000000000000000000000000000000000000000000000000000000000031E2000000000000000000000000000000000000000000000000000000000000E2E2E2E2E2E2E2E2E2E2E2E2E2E2E2E2E2E2E2E2E2E2E2E2E2E2E2E2E2E2E2E2E2E2E200000000E20000000000000000000000000000000000
310
0000000000000000000000000000000000000038E200E200000000000000000000000000000000000000000000000000000000E200000000000000000000E2000000E2E2000000000000000000E200000000000000E200000000E200000000000000000000000000000000000000000000000000000000000000000000E200
310
32E200E200000000000000000000000000000000000000000000000000000000E200000000000000000000E2000000E2E2000000000000E2E200E200000000000000E200000000E200000000000000000000000000000000000000000000000000000000000000000000E20031E200E2000000000000000000000000000000
310
00000000000000000000000000E20000000000E200000000E2E2E2E2E2E2E2E2E2E2E2E2E2E2E2E2E2000000000000E200000000E200000000000000000000000000000000000000000000000000000000000000000000E20031E200E200000000000000000000000000000000000000000000000000000000E200000000E2
310
E2E2E2E2E2E2E2E2E2E2E2E2E2E2E2000000000000E2000000000000E200000000E200000000000000000000000000000000000000000000000000000000000000000000E20034E200E2000000000000000000000000000000000000000000000000000000E2E2E200000000E200000000E2E2E200E2E200E2E20000000000
310
0000E2000000000000E200000000E200000000000000000000000000000000000000000000000000000000000000000000E20038E200E20000000000000000000000000000000000000000000000000000E2E2E2E2E2000000E200000000E2000000E2E200E2E200000000000000E2000000000000E200000000E200000000
310
000000000000000000000000000000000000000000000000000000000000E20032E200E20000000000000000000000000000000000000000000000000000E2E2E2E2E200E2E2E200000000E2000000E2E200E2E2000000E2E2E2E2E2000000000000E200000000E20000000000000000000000000000000000000000000000
310
0000000000000000000000E2002CE200E2000000000000000000000000000000000000000000000000000000E2E2E2E200E2E2E2E2000000E2000000E2E200E2E2E2E2E2E200000000000000000000E200000000E200000000000000000000000000000000000000000000000000000000000000000000E20039E200E20000
310
0000000000000000000000000000000000000000000000000000E2000000E2E2E2E2000000E2000000000000E2000000000000000000000000000000E200000000E200000000000000000000000000000000000000000000000000000000000000000000E20036E200E2000000000000000000000000000000000000000000
310
00000000000000E2000000E2E2E2E2000000E2000000000000E2000000000000000000000000000000E200000000E200000000000000000000000000000000000000000000000000000000000000000000E20038E200E200000000000000000000000000000000000000000000000000000000E20000000000E200000000E2
310
E2E2E2E2E2E2E2000000000000000000000000000000E200000000E200000000000000000000000000000000000000000000000000000000000000000000E20034E200E200000000000000000000000000000000000000000000000000000000E20000000000E20000000000E2E2E2E2E2E2E2000000000000000000000000
310
000000E200000000E200000000000000000000000000000000000000000000000000000000000000000000E20034E200E200000000000000000000000000000000000000000000000000000000E2E2E2E2E2E2E2E2E2E2E2E2E2E2E2E2E2E2E2000000000000000000000000000000E200000000E200000000000000000000
310
000000000000000000000000000000000000000000000000E2002DE200E200000000000000000000000000000000000000000000000000000000E200000000E2E2000000000000E2E2E2E2E200000000000000000000000000000000E200E2E2E2E2E200000000000000000000000000000000000000000000000000000000
310
0000000000E20035E200E20000000000000000000000000000000000000000000000000000000000E2E2E2E2E2E2E2E2E20000000000000000000000000000000000000000000000E2E20000E2E2E2E2000000000000000000000000000000000000000000000000000000000000000000E2000DE200E20000000000000000
310
000000000000000000000000000000000000000000E2E2E2E2E2E2E2E2E20000000000000000000000000000000000000000000000E2E20000E2E2E200000000000000000000000000000000000000000000000000000000000000000000E20038E200E2000000000000000000000000000000000000000000000000000000
310
0000E2E2E2E2E2E2E2E2E2E200000000000000000000000000000000000000000000E2E20000E2E2E200000000000000000000000000000000000000000000000000000000000000000000E20032E2000000000000000000000000000000000000000000000000000000000000000000000000E20000000000000000000000
310
00000000000000000000000000000000E200000000E200000000000000000000000000000000000000000000000000000000000000000000000030E2000000000000000000000000000000000000000000000000000000000000E2E2E2E2E2E2E2E2E2E2E2E2E2E2E2E2E2E200000000000000000000000000000000E20000
310
0000E200000000000000000000000000000000000000000000000000000000000000000000000036E2000000000000000000000000000000000000000000000000000000000000E200000000E2E20000000000E2E2E2E2E2E2E2000000000000000000000000000000E200000000E200000000000000000000000000000000
310
000000000000000000000000000000000000000039E2000000000000000000000000000000000000000000000000000000000000E20000000000E20000000000E2E2E2E2E2E2E2E2E2E2E20000000000000000000000E200000000E20000000000000000000000000000000000000000000000000000000000000000000000
310
0031E2000000000000000000000000000000000000000000000000000000000000E2000000E2E2E200000000E2E2E2E2E2E2E2E2E2E2E2E20000000000000000000000E200000000E200000000000000000000000000000000000000000000000000000000000000000000000037E200000000000000000000000000000000
310
0000000000000000000000000000E2000000E2E2E200000000E2E2E2E2E2E2E2E2E2E2E2E20000000000000000000000E200000000E200000000000000000000000000000000000000000000000000000000000000000000000034E20000000000000000000000000000000000000000000000000000000000E2E2E20000E2
310
E2E2E2000000E200000000E200E2E2E2E2E20000000000000000000000E200000000E200000000000000000000000000000000000000000000000000000000000000000000000034E20000000000000000000000000000000000000000000000000000000000E2E2E20000E2E2E2E2000000E2000000E2E200E2E2E2E2E2E2
310
00000000000000000000E200000000E20000000000000000000000000000000000000000000000000000000000000000000000002CE200000000000000000000000000000000000000000000000000000000E2E2E2E2E2000000E200000000E2000000E2E200E2E2000000E2E2E2E2E2000000000000E200000000E2000000
310
00000000000000000000000000000000000000000000000000000000000000000030E200E2000000000000000000000000000000000000000000000000000000E2E2E2E2000000E200000000E2000000E2E200E2E200000000000000E2000000000000E200000000E200000000000000000000000000000000000000000000
310
000000000000000000000000E2002EE200E200000000000000000000000000000000000000000000000000000000E20000000000E200000000E2E2E200E2E2E2E2E200000000000000E2000000000000E200000000E200000000000000000000000000000000000000000000000000000000000000000000E2002CE200E200
310
000000000000000000000000000000000000000000000000000000E200000000E2E2E2E2E2E2E2E2E2E2E2E2E2E2E2E2000000000000E2000000000000E200000000E200000000000000000000000000000000000000000000000000000000000000000000E2000DE200E20000000000000000000000000000000000000000
310
0000000000000000E200000000E20000000000E2E2E2E2E2E2E2E2E2E2E2E2E2E2E2E2E2000000000000E200000000E200000000000000000000000000000000000000000000000000000000000000000000E20061E200E200000000000000000000000000000000000000000000000000000000E2000000000000E2E2E2E2
310
E200E200E2E2000000000000E2E200E200000000000000E200000000E200000000000000000000000000000000000000000000000000000000000000000000E20069E200E200000000000000000000000000000000000000000000000000000000E2000000000000E2000000E2E2E2E2E2E2000000000000000000E2000000
310
00000000E200000000E200000000000000000000000000000000000000000000000000000000000000000000E20020E200E200000000000000000000000000000000000000000000000000000000E2E2E2E2E2E2E2E2000000E2E2E2E2E2E2E2E2E2E2E2E2E2E2E2E2E2E2E2E2E2E2E2E200000000E2000000000000000000
310
00000000000000000000000000000000000000000000000000E20020E200E20000000000000000000000000000000000000000000000000000000000000000000000E200E2E2E2E2E2000000000000000000000000E200000000000000E200000000E200000000000000000000000000000000000000000000000000000000
310
000000000000E20065E200E20000000000000000000000000000000000000000000000000000000000000000000000E2E2E2E2E2E200000000000000000000000000E2E2E2E2E2E2E2E2E2E2E2E2E2E200000000000000000000000000000000000000000000000000000000000000000000E2000DE200E200000000000000
310
00000000000000000000000000000000000000000000000000000000E2000000E2E200000000E2E2E2E20000000000E2000000000000E2E2E2E2E2E20000000000000000000000000000000000000000000000000000000000000000000000E2002DE200E20000000000000000000000000000000000000000000000000000
310
000000000000000000E200000000E200000000E2E2E2E20000000000E200000000000000E2E2E2E2E20000000000000000000000000000000000000000000000000000000000000000000000E20020E200E20000000000000000000000000000000000000000000000000000000000000000000000E2000000E2E2E2E2E2E2
310
E2E2E2E2E2E2E2E2E2E2E2000000000000E2E2E2E2000000000000000000000000000000000000000000000000000000000000000000000000E2002CE200E20000000000000000000000000000000000000000000000000000000000000000000000E2E2E2E2E2E200000000E2E2E2E20000000000000000000000000000E2
310
E2E2000000000000000000000000000000000000000000000000000000000000000000000000E20030E200E2000000000000000000000000000000000000000000000000000000000000000000000000000000000000000000000000000000000000000000000000000000E2E2E20000000000000000000000000000000000
310
00000000000000000000000000000000000000E20073E200E2000000000000000000000000000000000000000000000000000000000000000000000000000000000000000000000000000000000000000000000000000000000000000000000000000000000000000000000000000000000000000000000000000000000000
310
E20044E200E2000000000000000000000000000000000000000000000000000000000000000000000000000000000000000000000000000000000000000000000000000000000000000000000000000000000000000000000000000000000000000000000000000000000000E20064E200E200000000E2E2E2E2E2E2E2E2E2
310
E2E2E2E2E2E2E2E2E2E2E2E2E2E2E2E2E2E2E2E2E2E2E2000000000000000000000000000000000000000000000000000000000000000000000000000000000000000000000000000000000000000000000000000000000000E20033E2000000000000E2E2E2E2E2E2E2E2E2E2E2E2E2E2E2E2E2E2E2E2E2E2E2E2E2E2E2E2
310
E2E2E2E2000000000000000000000000000000000000000000000000000000000000000000000000000000000000000000000000000000000000000000000000000000000000000033E2000000000000E2E2E2E2E2E2E2E2E2E2E2E2E2E2E2E2E2E2E2E2E2E2E2E2E2E2E2E2E2E2E2E2000000000000000000000000000000
310
000000000000000000000000000000000000000000000000000000000000000000000000000000000000000000000000000000000020E2000000000000E2E2E2E2E2E2E2E2E2E2E2E2E2E2E2E2E2E2E2E2E2E2E2E2E2E2E2E2E2E2E2E200000000000000000000000000000000000000000000000000000000000000000000
310
0000000000000000000000000000000000000000000000000000000000000000000049E20000000000E2E2E2E2E2E2E2E2E2E2E2E2E2E2E2E2E2E2E2E2E2E2E2E2E2E2E2E2E2E2E2E2E2E2E2E2E2E2E2E2E2E2E2E2E2E2E2E2E2E2E2E2E2E2E2E2E2E2E2E2E2E2E2E2E2E2E2E2E2E2E2E2E2E2E2E2E2E2E2E2E2E2E2E2E2E2
310
E2E2E2E2E2E2E2E2E2E2E2E2E200000DE2000000000000E2E2E2E2E2E2E2E2E2E2E2E2000000000000000000000000000000000000000000000000000000000000000000000000000000000000000000000000000000000000000000000000000000000000000000000000000000000000000000000000000000002CE20000
310
00000000E2E2E2E2E2E2E2E2E2E2E2E20000000000000000000000000000000000000000000000000000000000000000000000000000000000000000000000000000000000000000000000000000000000000000000000000000000000000000000000000000000020E2000000000000E2E2E2E2E2E2E2E2E2E2E2E2000000
310
0000000000000000000000000000000000000000000000000000000000000000000000000000000000000000000000000000000000E2E2E2E2E2E2E2E2E2E2E2E2E2E2E2E2E2E2E2E2E2E2E2E2E2E2E2E2E200000035E2000000000000E2E2E2E2E2E2E2E2E2E2E2E200000000000000000000000000000000000000000000
310
00000000000000000000000000000000000000000000000000000000000000000000E2000000000000000000000000000000000000000000000000000000E200000020E20000000000000000000000000000000000000000000000000000000000000000000000000000000000000000000000000000000000000000000000
310
000000000000000000000000000000E20000E5E5E5E5E500E5E5E5E5E5E5E5E5E5E000E50025E525E5E500E200000035E20000000000000000000000000000000000000000000000000000000000000000000000000000000000000000000000000000000000000000000000000000000000000000000000000000E200E500
310
0000000000000000000000000000000000000000000000E5E200000053E200E2000000000000000000000000000000000000000000000000000000000000000000000000000000000000000000000000000000000000000000000000000000000000000000000000E2E5E50000000000E50000000000000000000000000000
310
0000E50000E200E2000DE200E2000000000000000000000000000000000000000000000000000000000000000000000000000000000000000000000000000000000000000000000000000000000000000000000000E2E5E50000000000E500000000000000000000000000000000E50000E200E20035E200E2000000000000
310
000000000000000000000000000000000000000000000000000000000000000000000000000000000000000000000000000000000000000000000000000000000000E2E5E50000E500000000000000000000E50000000000000000E00000E200E20030E200E200000000000000000000000000000000000000000000000000
310
0000000000000000000000000000000000000000000000000000000000000000000000000000000000000000000000E2000000000000E0000000040000E500000004002000E500000000E4E200E20072E200E20000000000000000000000000000000000000000000000000000000000000000000000000000000000000000
310
00000000000000000000000000000000000000000000000000000000E20000000000000000C0C00000000000000000C0C000000000000000E200E20033E200E2000000000000000000000000000000000000000000000000000000000000000000000000000000000000000000000000000000000000000000000000000000
310
000000000000000000E2000000000000000000000000000000000000000000000000000000E200E2002CE200E2000000000000000000000000000000000000000000000000000000000000000000000000000000000000000000000000000000000000000000000000000000000000000000000000E2000000000000000000
310
000000000000000000000000000000000000E200E20020E200E2000000000000000000000000000000000000000000000000000000000000000000000000000000000000000000000000000000000000000000000000000000000000000000000000E2E2E2E2E2E2E2E2E2E2E2E2E2E2E2E2E2E2E2E2E2E2E2E2E2E2E2E2E2
310
00E20041E200E2E2E2E2E2E2E2E2E2000000000000000000E2E2E2E2E2E2E2E2E2E2E2E2E2E2E2E200000000000000000000E2E2E2E2E2E2E2E2E2E2E2E2E2E2E2E200000000000000000000E2E2E2E2E2E2E2E2E2E2E2E2E2E2E2E2000000000000000000E2E2E2E2E2E2E2E2E2E261E20000000000000000000000000000
310
00000000000000000000000000000000000000000000000000000000000000000000000000000000000000000000000000000000000000000000000000000000000000000000000000000000000000000000000000000000000000E200E2000000000000000000000000000000000000000000000000000000000000000000
310
0000000000000000000000000000000000000000000000000000000000000000000000000000000000000000000000000000000000000000000000000000000000000000000000000000E2E2E2E2E2E2E2E2E2E2E2E2E2E2E2E2E2E2E2E2E2E2E2E2E2E2E2E2E2E2E2E2E2E2E2E2E2E2E2E2E2E2E2E2E2E2E2E2E2E2E2E2E2
310
E2E2E2E2E2E2E2E2E2E2E2E2E2E2E2E2E2E2E2E2E2E2E2E2E2E2E2E2E2E2E2E2E2E2E2E2E2E2E2E2E2E2E2E2E2E2E2E2E2E2E2E2E2E200
  0
XRECORD
  5
3CA
102
{ACAD_REACTORS
330
19
102
}
330
19
100
AcDbXrecord
280
     1
102
SHADEPLOT
 70
     0
102
SHADEPLOTRESLEVEL
 70
     2
102
SHADEPLOTCUSTOMDPI
 70
   300
  0
XRECORD
  5
1A
102
{ACAD_REACTORS
330
19
102
}
330
19
100
AcDbXrecord
280
     1
310
280000000001000075000000010008000000000000750000000000000000000000010000000000000000000000000000C8C8C8000000000000000000000000000000000000000000000000000000000000000000330000006600000099000000CC000000FF00000000330000333300006633000099330000CC330000FF3300
310
0000660000336600006666000099660000CC660000FF66000000990000339900006699000099990000CC990000FF99000000CC000033CC000066CC000099CC0000CCCC0000FFCC000000FF000033FF000066FF000099FF0000CCFF0000FFFF000000003300330033006600330099003300CC003300FF003300003333003333
310
33006633330099333300CC333300FF33330000663300336633006666330099663300CC663300FF66330000993300339933006699330099993300CC993300FF99330000CC330033CC330066CC330099CC3300CCCC3300FFCC330000FF330033FF330066FF330099FF3300CCFF3300FFFF330000006600330066006600660099
310
006600CC006600FF00660000336600333366006633660099336600CC336600FF33660000666600336666006666660099666600CC666600FF66660000996600339966006699660099996600CC996600FF99660000CC660033CC660066CC660099CC6600CCCC6600FFCC660000FF660033FF660066FF660099FF6600CCFF6600
310
FFFF660000009900330099006600990099009900CC009900FF00990000339900333399006633990099339900CC339900FF33990000669900336699006666990099669900CC669900FF66990000999900339999006699990099999900CC999900FF99990000CC990033CC990066CC990099CC9900CCCC9900FFCC990000FF99
310
0033FF990066FF990099FF9900CCFF9900FFFF99000000CC003300CC006600CC009900CC00CC00CC00FF00CC000033CC003333CC006633CC009933CC00CC33CC00FF33CC000066CC003366CC006666CC009966CC00CC66CC00FF66CC000099CC003399CC006699CC009999CC00CC99CC00FF99CC0000CCCC0033CCCC0066CC
310
CC0099CCCC00CCCCCC00FFCCCC0000FFCC0033FFCC0066FFCC0099FFCC00CCFFCC00FFFFCC000000FF003300FF006600FF009900FF00CC00FF00FF00FF000033FF003333FF006633FF009933FF00CC33FF00FF33FF000066FF003366FF006666FF009966FF00CC66FF00FF66FF000099FF003399FF006699FF009999FF00CC
310
99FF00FF99FF0000CCFF0033CCFF0066CCFF0099CCFF00CCCCFF00FFCCFF0000FFFF0033FFFF0066FFFF0099FFFF00CCFFFF00FFFFFF00000000000D0D0D001A1A1A00282828003535350043434300505050005D5D5D006B6B6B00787878008686860093939300A1A1A100AEAEAE00BBBBBB00C9C9C900D6D6D600E4E4E400
310
F1F1F100FFFFFF000000000000000000000000000000000000000000000000000000000000000000000000000000000000000000000000000000000000000000000000000000000000000000000000000000000000000000000000000000000000000000000000000000000000000000000000000000000000000000000000
310
00000000000000000000000000000000000000000000000000000000000000000000000000000000000000000000000000000000000000000000000000000000000000000000000000000000000000000000000000000000000000000000000000000000000000000000000000000000000000000000000000000000000000
310
00000000000000000000000000000000000000000000000000000000000000000000000000000000000000000000000000000000000000000000000000000000000000000000000000000000000000000000000000000000000000000000000000000000000000000000000000000000000000000000000000000000000000
310
00000000000000000000000000000000000000000000000000000000000000000000000000000000000000000000000000000000000000000000000000000000000000000000000000000000000000000000000000000000000000000000000000000000000000000000000000000000000000000000000000000000000000
310
00000000000000000000000000000000000000000000000000000000000000000000000000000000000000000000000000000000000000000000000000000000000000000000000000000000000000000000000000000000000000000000000000000000000000000000000000000000000000000000000000000000000000
310
00000000000000000000000000000000000000000000000000000000000000000000000000000000000000000000000000000000000000000000000000000000000000000000000000000000000000000000000000000000000000000000000000000000000000000000000000000000000000000000000000000000000000
310
00000000000000000000000000000000000000000000000000000000000000000000000000000000000000000000000000000000000000000000000000000000000000000000000000000000000000000000000000000000000000000000000000000000000000000000000000000000000000000000000000000000000000
310
00000000000000000000000000000000000000000000000000000000000000000000000000000000000000000000000000000000000000000000000000000000000000000000000000000000000000000000000000000000000000000000000000000000000000000000000000000000000000000000000000000000000000
310
00000000000000000000000000000000000000000000000000000000000000000000000000000000000000000000000000000000000000000000000000000000000000000000000000000000000000000000000000000000000000000000000000000000000000000000000000000000000000000000000000000000000000
310
00000000000000000000000000000000000000000000000000000000000000000000000000000000000000000000000000000000000000000000000000000000000000000000000000000000000000000000000000000000000000000000000000000000000000000000000000000000000000000000000000000000000000
310
00000000000000000000000000000000000000000000000000000000000000000000000000000000000000000000000000000000000000000000000000000000000000000000000000000000000000000000000000000000000000000000000000000000000000000000000000000000000000000000000000000000000000
310
00000000000000000000000000000000000000000000000000000000000000000000000000000000000000000000000000000000000000000000000000000000000000000000000000000000000000000000000000000000000000000000000000000000000000000000000000000000000000000000000000000000000000
310
00000000000000000000000000000000000000000000000000000000000000000000000000000000000000000000000000000000000000000000000000000000000000000000000000000000000000000000000000000000000000000000000000000000000000000000000000000000000000000000000000000000000000
310
00000000000000000000000000000000000000000000000000000000000000000000000000000000000000000000000000000000000000000000000000000000000000000000000000000000000000000000000000000000000000000000000000000000000000000000000000000000000000000000000000000000000000
310
00000000000000000000000000000000000000000000000000000000000000000000000000000000000000000000000000000000000000000000000000000000000000000000000000000000000000000000000000000000000000000000000000000000000000000000000000000000000000000000000000000000000000
310
00000000000000000000000000000000000000000000000000000000000000000000000000000000000000000000000000000000000000000000000000000000000000000000000000000000000000000000000000000000000000000000000000000000000000000000000000000000000000000000000000000000000000
310
00000000000000000000000000000000000000000000000000000000000000000000000000000000000000000000000000000000000000000000000000000000000000000000000000000000000000000000000000000000000000000000000000000000000000000000000000000000000000000000000000000000000000
310
00000000000000000000000000000000000000000000000000000000000000000000000000000000000000000000000000000000000000000000000000000000000000000000000000000000000000000000000000000000000000000000000000000000000000000000000000000000000000000000000000000000000000
310
00000000000000000000000000000000000000000000000000000000000000000000000000000000000000000000000000000000000000000000000000000000000000000000000000000000000000000000000000000000000000000000000000000000000000000000000000000000000000000000000000000000000000
310
00000000000000000000000000000000000000000000000000000000000000000000000000000000000000000000000000000000000000000000000000000000000000000000000000000000000000000000000000000000000000000000000000000000000000000000000000000000000000000000000000000000000000
310
00000000000000000000000000000000000000000000000000000000000000000000000000000000000000000000000000000000000000000000000000000000000000000000000000000000000000000000000000000000000000000000000000000000000000000000000000000000000000000000000000000000000000
310
00000000000000000000000000000000000000000000000000000000000000000000000000000000000000000000000000000000000000000000000000000000000000000000000000000000000000000000000000000000000000000000000000000000000000000000000000000000000000000000000000000000000000
310
00000000000000000000000000000000000000000000000000000000000000000000000000000000000000000000000000000000000000000000000000000000000000000000000000000000000000000000000000000000000000000000000000000000000000000000000000000000000000000000000000000000000000
310
00000000000000000000000000000000000000000000000000000000000000000000000000000000000000000000000000000000000000000000000000000000000000000000000000000000000000000000000000000000000000000000000000000000000000000000000000000000000000000000000000000000000000
310
00000000000000000000000000000000000000000000000000000000000000000000000000000000000000000000000000000000000000000000000000000000000000000000000000000000000000000000000000000000000000000000000000000000000000000000000000000000000000000000000000000000000000
310
00000000000000000000000000000000000000000000000000000000000000000000000000000000000000000000000000000000000000000000000000000000000000000000000000000000000000000000000000000000000000000000000000000000000000000000000000000000000000000000000000000000000000
310
00000000000000000000000000000000000000000000000000000000000000000000000000000000000000000000000000000000000000000000000000000000000000000000000000000000000000000000000000000000000000000000000000000000000000000000000000000000000000000000000000000000000000
310
00000000000000000000000000000000000000000000000000000000000000000000000000000000000000000000000000000000000000000000000000000000000000000000000000000000000000000000000000000000000000000000000000000000000000000000000000000000000000000000000000000000000000
310
00000000000000000000000000000000000000000000000000000000000000000000000000000000000000000000000000000000000000000000000000000000000000000000000000000000000000000000000000000000000000000000000000000000000000000000000000000000000000000000000000000000000000
310
00000000000000000000000000000000000000000000000000000000000000000000000000000000000000000000000000000000000000000000000000000000000000000000000000000000000000000000000000000000000000000000000000000000000000000000000000000000000000000000000000000000000000
310
00000000000000000000000000000000000000000000000000000000000000000000000000000000000000000000000000000000000000000000000000000000000000000000000000000000000000000000000000000000000000000000000000000000000000000000000000000000000000000000000000000000000000
310
00000000000000000000000000000000000000000000000000000000000000000000000000000000000000000000000000000000000000000000000000000000000000000000000000000000000000000000000000000000000000000000000000000000000000000000000000000000000000000000000000000000000000
310
00000000000000000000000000000000000000000000000000000000000000000000000000000000000000000000000000000000000000000000000000000000000000000000000000000000000000000000000000000000000000000000000000000000000000000000000000000000000000000000000000000000000000
310
00000000000000000000000000000000000000000000000000000000000000000000000000000000000000000000000000000000000000000000000000000000000000000000000000000000000000000000000000000000000000000000000000000000000000000000000000000000000000000000000000000000000000
310
00000000000000000000000000000000000000000000000000000000000000000000000000000000000000000000000000000000000000000000000000000000000000000000000000000000000000000000000000000000000000000000000000000000000000000000000000000000000000000000000000000000000000
310
00000000000000000000000000000000000000000000000000000000000000000000000000000000000000000000000000000000000000000000000000000000000000000000000000000000000000000000000000000000000000000000000000000000000000000000000000000000000000000000000000000000000000
310
00000000000000000000000000000000000000000000000000000000000000000000000000000000000000000000000000000000000000000000000000000000000000000000000000000000000000000000000000000000000000000000000000000000000000000000000000000000000000000000000000000000000000
310
00000000000000000000000000000000000000000000000000000000000000000000000000000000000000000000000000000000000000000000000000000000000000000000000000000000000000000000000000000000000000000000000000000000000000000000000000000000000000000000000000000000000000
310
00000000000000000000000000000000000000000000000000000000000000000000000000000000000000000000000000000000000000000000000000000000000000000000000000000000000000000000000000000000000000000000000000000000000000000000000000000000000000000000000000000000000000
310
00000000000000000000000000000000000000000000000000000000000000000000000000000000000000000000000000000000000000000000000000000000000000000000000000000000000000000000000000000000000000000000000000000000000000000000000000000000000000000000000000000000000000
310
00000000000000000000000000000000000000000000000000000000000000000000000000000000000000000000000000000000000000000000000000000000000000000000000000000000000000000000000000000000000000000000000000000000000000000000000000000000000000000000000000000000000000
310
00000000000000000000000000000000000000000000000000000000000000000000000000000000000000000000000000000000000000000000000000000000000000000000000000000000000000000000000000000000000000000000000000000000000000000000000000000000000000000000000000000000000000
310
00000000000000000000000000000000000000000000000000000000000000000000000000000000000000000000000000000000000000000000000000000000000000000000000000000000000000000000000000000000000000000000000000000000000000000000000000000000000000000000000000000000000000
310
00000000000000000000000000000000000000000000000000000000000000000000000000000000000000000000000000000000000000000000000000000000000000000000000000000000000000000000000000000000000000000000000000000000000000000000000000000000000000000000000000000000000000
310
00000000000000000000000000000000000000000000000000000000000000000000000000000000000000000000000000000000000000000000000000000000000000000000000000000000000000000000000000000000000000000000000000000000000000000000000000000000000000000000000000000000000000
310
00000000000000000000000000000000000000000000000000000000000000000000000000000000000000000000000000000000000000000000000000000000000000000000000000000000000000000000000000000000000000000000000000000000000000000000000000000000000000000000000000000000000000
310
00000000000000000000000000000000000000000000000000000000000000000000000000000000000000000000000000000000000000000000000000000000000000000000000000000000000000000000000000000000000000000000000000000000000000000000000000000000000000000000000000000000000000
310
00000000000000000000000000000000000000000000000000000000000000000000000000000000000000000000000000000000000000000000000000000000000000000000000000000000000000000000000000000000000000000000000000000000000000000000000000000000000000000000000000000000000000
310
00000000000000000000000000000000000000000000000000000000000000000000000000000000000000000000000000000000000000000000000000000000000000000000000000000000000000000000000000000000000000000000000000000000000000000000000000000000000000000000000000000000000000
310
00000000000000000000000000000000000000000000000000000000000000000000000000000000000000000000000000000000000000000000000000000000000000000000000000000000000000000000000000000000000000000000000000000000000000000000000000000000000000000000000000000000000000
310
00000000000000000000000000000000000000000000000000000000000000000000000000000000000000000000000000000000000000000000000000000000000000000000000000000000000000000000000000000000000000000000000000000000000000000000000000000000000000000000000000000000000000
310
00000000000000000000000000000000000000000000000000000000000000000000000000000000000000000000000000000000000000000000000000000000000000000000000000000000000000000000000000000000000000000000000000000000000000000000000000000000000000000000000000000000000000
310
00000000000000000000000000000000000000000000000000000000000000000000000000000000000000000000000000000000000000000000000000000000000000000000000000000000000000000000000000000000000000000000000000000000000000000000000000000000000000000000000000000000000000
310
00000000000000000000000000000000000000000000000000000000000000000000000000000000000000000000000000000000000000000000000000000000000000000000000000000000000000000000000000000000000000000000000000000000000000000000000000000000000000000000000000000000000000
310
00000000000000000000000000000000000000000000000000000000000000000000000000000000000000000000000000000000000000000000000000000000000000000000000000000000000000000000000000000000000000000000000000000000000000000000000000000000000000000000000000000000000000
310
00000000000000000000000000000000000000000000000000000000000000000000000000000000000000000000000000000000000000000000000000000000000000000000000000000000000000000000000000000000000000000000000000000000000000000000000000000000000000000000000000000000000000
310
00000000000000000000000000000000000000000000000000000000000000000000000000000000000000000000000000000000000000000000000000000000000000000000000000000000000000000000000000000000000000000000000000000000000000000000000000000000000000000000000000000000000000
310
00000000000000000000000000000000000000000000000000000000000000000000000000000000000000000000000000000000000000000000000000000000000000000000000000000000000000000000000000000000000000000000000000000000000000000000000000000000000000000000000000000000000000
310
00000000000000000000000000000000000000000000000000000000000000000000000000000000000000000000000000000000000000000000000000000000000000000000000000000000000000000000000000000000000000000000000000000000000000000000000000000000000000000000000000000000000000
310
00000000000000000000000000000000000000000000000000000000000000000000000000000000000000000000000000000000000000000000000000000000000000000000000000000000000000000000000000000000000000000000000000000000000000000000000000000000000000000000000000000000000000
310
00000000000000000000000000000000000000000000000000000000000000000000000000000000000000000000000000000000000000000000000000000000000000000000000000000000000000000000000000000000000000000000000000000000000000000000000000000000000000000000000000000000000000
310
00000000000000000000000000000000000000000000000000000000000000000000000000000000000000000000000000000000000000000000000000000000000000000000000000000000000000000000000000000000000000000000000000000000000000000000000000000000000000000000000000000000000000
310
00000000000000000000000000000000000000000000000000000000000000000000000000000000000000000000000000000000000000000000000000000000000000000000000000000000000000000000000000000000000000000000000000000000000000000000000000000000000000000000000000000000000000
310
00000000000000000000000000000000000000000000000000000000000000000000000000000000000000000000000000000000000000000000000000000000000000000000000000000000000000000000000000000000000000000000000000000000000000000000000000000000000000000000000000000000000000
310
00000000000000000000000000000000000000000000000000000000000000000000000000000000000000000000000000000000000000000000000000000000000000000000000000000000000000000000000000000000000000000000000000000000000000000000000000000000000000000000000000000000000000
310
00000000000000000000000000000000000000000000000000000000000000000000000000000000000000000000000000000000000000000000000000000000000000000000000000000000000000000000000000000000000000000000000000000000000000000000000000000000000000000000000000000000000000
310
00000000000000000000000000000000000000000000000000000000000000000000000000000000000000000000000000000000000000000000000000000000000000000000000000000000000000000000000000000000000000000000000000000000000000000000000000000000000000000000000000000000000000
310
00000000000000000000000000000000000000000000000000000000000000000000000000000000000000000000000000000000000000000000000000000000000000000000000000000000000000000000000000000000000000000000000000000000000000000000000000000000000000000000000000000000000000
310
00000000000000000000000000000000000000000000000000000000000000000000000000000000000000000000000000000000000000000000000000000000000000000000000000000000000000000000000000000000000000000000000000000000000000000000000000000000000000000000000000000000000000
310
00000000000000000000000000000000000000000000000000000000000000000000000000000000000000000000000000000000000000000000000000000000000000000000000000000000000000000000000000000000000000000000000000000000000000000000000000000000000000000000000000000000000000
310
00000000000000000000000000000000000000000000000000000000000000000000000000000000000000000000000000000000000000000000000000000000000000000000000000000000000000000000000000000000000000000000000000000000000000000000000000000000000000000000000000000000000000
310
00000000000000000000000000000000000000000000000000000000000000000000000000000000000000000000000000000000000000000000000000000000000000000000000000000000000000000000000000000000000000000000000000000000000000000000000000000000000000000000000000000000000000
310
00000000000000000000000000000000000000000000000000000000000000000000000000000000000000000000000000000000000000000000000000000000000000000000000000000000000000000000000000000000000000000000000000000000000000000000000000000000000000000000000000000000000000
310
00000000000000000000000000000000000000000000000000000000000000000000000000000000000000000000000000000000000000000000000000000000000000000000000000000000000000000000000000000000000000000000000000000000000000000000000000000000000000000000000000000000000000
310
00000000000000000000000000000000000000000000000000000000000000000000000000000000000000000000000000000000000000000000000000000000000000000000000000000000000000000000000000000000000000000000000000000000000000000000000000000000000000000000000000000000000000
310
00000000000000000000000000000000000000000000000000000000000000000000000000000000000000000000000000000000000000000000000000000000000000000000000000000000000000000000000000000000000000000000000000000000000000000000000000000000000000000000000000000000000000
310
00000000000000000000000000000000000000000000000000000000000000000000000000000000000000000000000000000000000000000000000000000000000000000000000000000000000000000000000000000000000000000000000000000000000000000000000000000000000000000000000000000000000000
310
00000000000000000000000000000000000000000000000000000000000000000000000000000000000000000000000000000000000000000000000000000000000000000000000000000000000000000000000000000000000000000000000000000000000000000000000000000000000000000000000000000000000000
310
00000000000000000000000000000000000000000000000000000000000000000000000000000000000000000000000000000000000000000000000000000000000000000000000000000000000000000000000000000000000000000000000000000000000000000000000000000000000000000000000000000000000000
310
00000000000000000000000000000000000000000000000000000000000000000000000000000000000000000000000000000000000000000000000000000000000000000000000000000000000000000000000000000000000000000000000000000000000000000000000000000000000000000000000000000000000000
310
00000000000000000000000000000000000000000000000000000000000000000000000000000000000000000000000000000000000000000000000000000000000000000000000000000000000000000000000000000000000000000000000000000000000000000000000000000000000000000000000000000000000000
310
00000000000000000000000000000000000000000000000000000000000000000000000000000000000000000000000000000000000000000000000000000000000000000000000000000000000000000000000000000000000000000000000000000000000000000000000000000000000000000000000000000000000000
310
00000000000000000000000000000000000000000000000000000000000000000000000000000000000000000000000000000000000000000000000000000000000000000000000000000000000000000000000000000000000000000000000000000000000000000000000000000000000000000000000000000000000000
310
00000000000000000000000000000000000000000000000000000000000000000000000000000000000000000000000000000000000000000000000000000000000000000000000000000000000000000000000000000000000000000000000000000000000000000000000000000000000000000000000000000000000000
310
00000000000000000000000000000000000000000000000000000000000000000000000000000000000000000000000000000000000000000000000000000000000000000000000000000000000000000000000000000000000000000000000000000000000000000000000000000000000000000000000000000000000000
310
00000000000000000000000000000000000000000000000000000000000000000000000000000000000000000000000000000000000000000000000000000000000000000000000000000000000000000000000000000000000000000000000000000000000000000000000000000000000000000000000000000000000000
310
00000000000000000000000000000000000000000000000000000000000000000000000000000000000000000000000000000000000000000000000000000000000000000000000000000000000000000000000000000000000000000000000000000000000000000000000000000000000000000000000000000000000000
310
000000000000000000000000000000000000000000000000000000000000000000000000000000000000000000000000000000000000000000000000000000000000000000000000000000000000000000000000000000000000000000F5F5F5F5F5F5F5F5F5F5F5F5F5F5F5F5F5F5F5F5F5F5F5F5F5F5F5F5F5F5F5F5F5F5
310
F5F5F500000000000000000000000000000000000000000000000000000000000000000000000000000000000000000000000000000000000000000000000000000000000000000000000000000000000000000000000000000000000000000000000000000000000000000000000000000000000000000000000000000000
310
0000000000000000000000000000000000000000000000000000000000000000000000000000000000000000000000000000000000000000000000000000000000000000000000000000000000000000000000000000000000000000000000F5F5F5F5F5F5F5F5F5F5F5F5F5F5F5F5F5F5F5F5F5F5F5F5F5F5F5F5F5F5F5F5
310
F5F5F5F5000000000000000000000000000000000000000000000000000000000000000000000000000000000000000000000000000000000000000000000000000000000000000000000000000000000000000000000000000000000000000000000000000000000000000000000000000000000000000000000000000000
310
00000000000000000000000000000000000000000000000000000000000000000000000000000000000000000000000000000000000000000000000000000000000000000000000000000000000000000000000000000000000000000000000000F5F5F5F5F5F5F5F5F5F5F5F5F5F5F5F5F5F5F5F5F5F5F5F5F5F5F5F5F5F5
310
F5F5F5F5F5F500000000000000000000000000000000000000000000000000000000000000000000000000000000000000000000000000000000000000000000000000000000000000000000000000000000000000000000000000000000000000000000000000000000000000000000000000000000000000000000000000
310
00000000000000000000000000000000000000000000000000000000000000000000000000000000000000000000000000000000000000000000000000000000000000000000000000000000000000000000000000000000000000000000000000000000F5F5F5F5F5F5F5F5F5F5F5F5F5F5F5F5F5F5F5F5F5F5F5F5F5F5F5
310
F5F5F5F5F5F5F5F5F500000000000000000000000000000000000000000000000000000000000000000000000000000000000000000000000000000000000000000000000000000000000000000000000000000000000000000000000000000000000000000000000000000000000000000000000000000000000000000000
310
000000000000000000000000000000000000000000000000000000000000000000000000000000000000000000000000000000000000000000000000000000000000000000000000000000000000000000000000000000000000000000000000000000000000F5F5F5F5F5F5F5F5F5F5F5F5F5F5F5F5F5F5F5F5F5F5F5F5F5
310
F5F5F5F5F5F5F5F5F5F5F50000000000000000000000000000000000000000000000000000000000000000000000000000000000000000000000000000000000000000000000000000000000000000000000000000000000000000000000000000000000000000000000000000000000000000000000000000000000000000
310
00000000000000000000000000000000000000000000000000000000000000000000000000000000000000000000000000000000000000000000000000000000000000000000000000000000000000000000000000000000000000000000000000000000000000000000000000000000000000000000000000000000000000
310
00000000000000000000000000000000000000000000000000000000000000000000000000000000000000000000000000000000000000000000000000000000000000000000000000000000000000000000000000000000000000000000000000000000000000000000000000000000000000000000000000000000000000
310
00000000000000000000000000000000000000000000000000000000000000000000000000000000000000000000000000000000000000000000000000000000000000000000000000000000000000000000000000000000000000000000000000000000000000000000000000000000000000000000000000000000000000
310
00000000000000000000000000000000000000000000000000000000000000000000000000000000000000000000000000000000000000000000000000000000000000000000000000000000000000000000000000000000000000000000000000000000000000000000000000000000000000000000000000000000000000
310
00000000000000000000000000000000000000000000000000000000000000000000000000000000000000000000000000000000000000000000000000000000000000000000000000000000000000000000000000000000000000000000000000000000000000000000000000000000000000000000000000000000000000
310
00000000000000000000000000000000000000000000000000000000000000000000000000000000000000000000000000000000000000000000000000000000000000000000000000000000000000000000000000000000000000000000000000000000000000000000000000000000000000000000000000000000000000
310
00000000000000000000000000000000000000000000000000000000000000000000000000000000000000000000000000000000000000000000000000000000000000000000000000000000000000000000000000000000000000000000000000000000000000F5F5F5F5F5F5000000000000000000000000000000000000
310
000000000000000000000000000000000000F5F5F5F5F5F5F5000000000000000000000000000000000000000000000000000000000000000000000000000000000000000000000000000000000000000000000000000000000000000000000000000000000000000000000000000000000000000000000000000000000000
310
000000000000000000000000000000000000000000000000000000000000000000000000000000000000000000000000000000000000000000000000000000000000000000000000000000000000000000000000000000000000000000000000000000000000000000F5F5F5F5F5F500000000000000000000000000000000
310
0000000000000000000000000000000000000000F5F5F5F5F5F5F500000000000000000000000000000000000000000000000000000000000000000000000000000000000000000000000000000000000000000000000000000000000000000000000000000000000000000000000000000000000000000000000000000000
310
0000000000000000000000000000000000000000000000000000000000000000000000000000000000000000000000000000000000000000000000000000000000000000000000000000000000000000000000000000000000000000000000000000000000000000000000F5F5F5F5F5F5F500000000000000000000000000
310
0000000000000000000000000000000000000000000000F5F5F5F5F5F50000000000000000000000000000000000000000000000000000000000000000000000000000000000000000000000000000000000000000000000000000000000000000000000000000000000000000000000000000000000000000000000000000
310
000000000000000000000000000000000000000000000000000000000000000000000000000000000000000000000000000000000000000000000000000000000000000000000000000000000000000000000000000000000000000000000000000000F5F500000000000000F5F5F5F5F5F5F5F50000000000000000F50000
310
000000000000000000000000000000F50000000000000000F5F5F5F5F5F5F50000000000000000F5F50000000000000000000000000000000000000000000000000000000000000000000000000000000000000000000000000000000000000000000000000000000000000000000000000000000000000000000000000000
310
000000000000000000000000000000000000000000000000000000000000000000000000000000000000000000000000000000000000000000000000000000000000000000000000000000000000000000000000000000000000000000000000000000000000F5F5F5F5F5F5F5F5F5F5F5F5F5F5F5F5F5F5F5F5F5F5F5F5F5
310
F500000000000000000000000000000000F5F5F5F5F5F5F5F5F5F5F5F5F5F5F5F5F5F5F5F5F5F5F5F5F5F5000000000000000000000000000000000000000000000000000000000000000000000000000000000000000000000000000000000000000000000000000000000000000000000000000000000000000000000000
310
0000000000000000000000000000000000000000000000000000000000000000000000000000000000000000000000000000000000000000000000000000000000000000000000000000000000000000000000000000000000000000000000000000000000000000F50000000000000000F5F5F5F5F5F5F500000000000000
310
00F50000000000000000000000000000000000F50000000000000000F5F5F5F5F5F5F5F50000000000000000F500000000000000000000000000000000000000000000000000000000000000000000000000000000000000000000000000000000000000000000000000000000000000000000000000000000000000000000
310
00000000000000000000000000000000000000000000000000000000000000000000000000000000000000000000000000000000000000000000000000000000000000000000000000000000000000000000000000000000000000000000000000000000000000000000F50000000000000000F5F5F5F5F5F5F50000000000
310
000000F50000000000000000000000000000000000F50000000000000000F5F5F5F5F5F5F5F50000000000000000F50000000000000000000000000000000000000000000000000000000000000000000000000000000000000000000000000000000000000000000000000000000000000000000000000000000000000000
310
000000000000000000000000000000000000000000000000000000000000000000000000000000000000000000000000000000000000000000000000000000000000000000000000000000000000000000000000000000000000000000000000000000000000000000000000F5000000000000000000000000000000000000
310
0000000000F50000000000000000000000000000000000F5000000000000000000000000000000000000000000000000F5000000000000000000000000000000000000000000000000000000000000000000000000000000000000000000000000000000000000000000000000000000000000000000000000000000000000
310
0000000000000000000000000000000000000000000000000000000000000000000000000000000000000000000000000000000000000000000000000000000000000000000000000000000000000000000000000000000000000000000000000000000000000000000000000000F500000000000000000000000000000000
310
00000000000000F50000000000000000000000000000000000F5000000000000000000000000000000000000000000000000F500000000000000000000000000000000000000000000000000000000000000000000000000000000000000000000000000000000000000000000000000000000000000000000000000000000
310
00000000000000000000000000000000000000000000000000000000000000000000000000000000000000000000000000000000000000000000000000000000000000000000000000000000000000000000000000000000000000000000000000000000000000000000000000000000F50000000000000000000000000000
310
000000000000000000F500000000F5F5F5F5F5F5F5F50000000000F5000000000000000000000000000000000000000000000000F50000000000000000000000000000000000000000000000000000000000000000000000000000000000000000000000000000000000000000000000000000000000000000000000000000
310
000000000000000000000000000000000000000000000000000000000000000000000000000000000000000000000000000000000000000000000000000000000000000000000000000000000000000000000000000000000000000000000000000000000000000000000000000000000000F50000000000000000000000F5
310
F5F5F5F5F5F50000000000F500000000F5F5F5F5F5F5F5F50000000000F50000000000F5F5F5F5F5F500000000000000000000000000F5000000000000000000000000000000000000000000000000000000000000000000000000000000000000000000000000000000000000000000000000000000000000000000000000
310
0000000000000000000000000000000000000000000000000000000000000000000000000000000000000000000000000000000000000000000000000000000000000000000000000000000000000000000000000000000000000000000000000000000000000000000000000000000000000000F500000000000000000000
310
00F5F5F5F5F5F5F50000000000F50000000000F5F5F5F5F5F5F50000000000F50000000000F5F5F5F5F5F500000000000000000000000000F500000000000000000000000000000000000000000000000000000000000000000000000000000000000000000000000000000000000000000000000000000000000000000000
310
00000000000000000000000000000000000000000000000000000000000000000000000000000000000000000000000000000000000000000000000000000000000000000000000000000000000000000000000000000000000000000000000000000000000000000000000000000000000000000000F50000000000F50000
310
00000000F5F5F5F5F5F50000000000F50000000000F5F5F5F5F5F5F50000000000F50000000000F5F5F5F5F5F5F500000000F500000000000000F50000000000000000000000000000000000000000000000000000000000000000000000000000000000000000000000000000000000000000000000000000000000000000
310
000000000000000000000000000000000000000000000000000000000000000000000000000000000000000000000000000000000000000000000000000000000000000000000000000000000000000000000000000000000000000000000000000000000000000000000000000000000000000000000000F5000000000000
310
F5F5F5F5F5F5F5F5F5F5F5F5F5F5F5F5F5F5F5F5F5F5F5F5F5F5F5F5F5F500F5F5F5F5F5F5F5F5F5F5F5F5F5F5F5F5F5F5F5F5F5F5F5000000000000F5000000000000000000000000000000000000000000000000000000000000000000000000000000000000000000000000000000000000000000000000000000000000
310
0000000000000000000000000000000000000000000000000000000000000000000000000000000000000000000000000000000000000000000000000000000000000000000000000000000000000000000000000000000000000000000000000000000000000000000000000000000000000000000000000000F500000000
310
0000F500000000F5F5F5F5F5F5F50000000000F5F5000000F5F5F5F5F5F5F5F50000000000F5F5000000F5F5F5F5F5F5F5F50000000000F5000000000000F500000000000000000000000000000000000000000000000000000000000000000000000000000000000000000000000000000000000000000000000000000000
310
000000000000000000000000000000000000000000000000000000000000000000000000000000000000000000000000000000000000000000000000000000000000000000000000000000000000000000000000000000000000000000000000000000000000000000000000000000000000F5F5F5F5F50000000000F50000
310
00000000F500000000F5F5F5F5F5F5F5F500000000F500000000F5F5F5F5F5F5F5F5F500000000F50000000000F5F5F5F5F5F5F50000000000F5000000000000F500000000F5F5F5F5F5F500000000000000000000000000000000000000000000000000000000000000000000000000000000000000000000000000000000
310
0000000000000000000000000000000000000000000000000000000000000000000000000000000000000000000000000000000000000000000000000000000000000000000000000000000000000000000000000000000000000000000000000000000000000000000000000000000000000000F5000000F5F5F5F5F5F5F5
310
F5F5F5F50000F500000000000000000000000000000000F500000000F5F5F5F5F5F5F5F5F500000000F50000000000000000000000000000000000F50000F5F5F5F5F5F5F5F5F5F500000000F50000000000000000000000000000000000000000000000000000000000000000000000000000000000000000000000000000
310
00000000000000000000000000000000000000000000000000000000000000000000000000000000000000000000000000000000000000000000000000000000000000000000000000000000000000000000000000000000000000000000000000000000000000000000000000000000000000000000F5000000000000F500
310
0000000000F50000F500000000000000000000000000000000F50000000000000000000000000000000000F50000000000000000000000000000000000F50000F50000000000F500000000000000F5000000000000000000000000000000000000000000000000000000000000000000000000000000000000000000000000
310
000000000000000000000000000000000000000000000000000000000000000000000000000000000000000000000000000000000000000000000000000000000000000000000000000000000000000000000000000000000000000000000000000000000000000000000000000000000000000000000000F5000000000000
310
F5F50000000000F50000F500000000000000000000000000000000F50000000000000000000000000000000000F50000000000000000000000000000000000F50000F50000000000F5F5000000000000F500000000000000000000000000000000000000000000000000000000000000000000000000000000000000000000
310
0000000000000000000000000000000000000000000000000000000000000000000000000000000000000000000000000000000000000000000000000000000000000000000000000000000000000000000000000000000000000000000000000000000000000000000000000000000000000000000000000000F500000000
310
0000F5F50000000000F50000F500000000000000000000000000000000F50000000000000000000000000000000000F50000000000000000000000000000000000F50000F50000000000F5F5000000000000F50000000000000000000000000000000000000000000000000000000000000000000000000000000000000000
310
00000000000000000000000000000000000000000000000000000000000000000000000000000000000000000000000000000000000000000000000000000000000000000000000000000000000000000000000000000000000000000000000000000000000000000000000000000000000000000000000000000000F50000
310
00000000F5F50000000000F50000F500000000000000000000000000000000F50000000000000000000000000000000000F50000000000000000000000000000000000F50000F50000000000F5F5000000000000F5000000000000000000000000000000000000000000000000000000000000000000000000000000000000
310
000000000000000000000000000000000000000000000000000000000000000000000000000000000000000000000000000000000000000000000000000000000000000000000000000000000000000000000000000000000000000000000000000000000000000000000000000000000000000000000000000000000000F5
310
000000000000F5F50000000000F50000F500000000000000000000000000000000F50000000000000000000000000000000000F50000000000000000000000000000000000F50000F50000000000F5F5000000000000F500000000000000000000000000000000000000000000000000000000000000000000000000000000
310
00000000000000000000000000000000000000000000000000000000000000000000000000000000000000000000000000000000000000000000000000000000000000000000000000000000000000000000000000000000000000000000000000000000000000000000000000000000000000000000000000000000000000
310
00F5000000000000F5F50000000000F50000F500000000000000000000F50000000000F50000000000000000000000000000000000F50000000000000000000000000000000000F50000F50000000000F5F5000000000000F50000000000000000000000000000000000000000000000000000000000000000000000000000
310
00000000000000000000000000000000000000000000000000000000000000000000000000000000000000000000000000000000000000000000000000000000000000000000000000000000000000000000000000000000000000000000000000000000000000000000000000000000000000000000000000000000000000
310
000000F5F5F5F5F5F5F5F5F5F5F5F5F5F5F5F500F5F5F5F5F5F5F5F5F5F5F5F5F5F5F5F500F50000000000000000000000000000000000F500F5F5F5F5F5F5F5F5F5F5F5F5F5F5F5F5F500F5F5F5F5F5F5F5F5F5F5F5F5F5F5F5F5000000000000000000000000000000000000000000000000000000000000000000000000
310
00000000000000000000000000000000000000000000000000000000000000000000000000000000000000000000000000000000000000000000000000000000000000000000000000000000000000000000000000000000000000000000000000000000000000000000000000000000000000000000000000000000000000
310
0000000000F5F50000000000F50000F500000000F500F5000000000000000000F50000F500F500F50000000000000000000000000000000000F500F50000F5000000000000000000000000F500F5000000F5F500F5000000000000000000000000000000000000000000000000000000000000000000000000000000000000
310
00000000000000000000000000000000000000000000000000000000000000000000000000000000000000000000000000000000000000000000000000000000000000000000000000000000000000000000000000000000000000000000000000000000000000000000000000000000000000000000000000000000000000
310
0000000000000000F500000000000000F5F5F5F5F5F5F500F5F5F500000000000000F50000F50000F5F50000000000000000000000000000000000F5F5000000F5000000000000000000F5F5F5F5F5F5F5F5F5F5F5000000000000000000000000000000000000000000000000000000000000000000000000000000000000
310
00000000000000000000000000000000000000000000000000000000000000000000000000000000000000000000000000000000000000000000000000000000000000000000000000000000000000000000000000000000000000000000000000000000000000000000000000000000000000000000000000000000000000
310
00000000000000000000F500000000000000F5F5F5F5F5F5F5F5F5000000000000000000F50000F5F5F5F5F5F5000000000000000000000000000000F5F5F5F5F5F5F5000000000000000000000000F5F5F5F5F5F5F5F5F5000000000000000000000000000000000000000000000000000000000000000000000000000000
310
00000000000000000000000000000000000000000000000000000000000000000000000000000000000000000000000000000000000000000000000000000000000000000000000000000000000000000000000000000000000000000000000000000000000000000000000000000000000000000000000000000000000000
310
000000000000000000000000F500000000000000F5F5F5000000F5F5F5000000000000000000F50000F5F5F5F5F5F5000000000000000000000000000000F5F5F5F5F5F5F5000000000000000000000000F5F5F5000000F5F50000000000000000000000000000000000000000000000000000000000000000000000000000
310
00000000000000000000000000000000000000000000000000000000000000000000000000000000000000000000000000000000000000000000000000000000000000000000000000000000000000000000000000000000000000000000000000000000000000000000000000000000000000000000000000000000000000
310
0000000000000000000000000000F50000000000000000F5F5000000F500F5000000000000000000F50000F5F5F5F5F5000000000000000000000000000000000000F5F5F5F5F5000000000000000000000000F500F5000000F5F5000000000000000000000000000000000000000000000000000000000000000000000000
310
00000000000000000000000000000000000000000000000000000000000000000000000000000000000000000000000000000000000000000000000000000000000000000000000000000000000000000000000000000000000000000000000000000000000000000000000000000000000000000000000000000000000000
310
00000000000000000000000000000000F50000000000000000F500000000F500F5000000000000000000F50000F5F5F500F5000000000000000000000000000000000000F500F5F5F5000000000000000000000000F500F500000000F500000000000000000000000000000000000000000000000000000000000000000000
310
00000000000000000000000000000000000000000000000000000000000000000000000000000000000000000000000000000000000000000000000000000000000000000000000000000000000000000000000000000000000000000000000000000000000000000000000000000000000000000000000000000000000000
310
000000000000000000000000000000000000F50000000000000000F5F5F5F5F5F5F5F5F5F5F5F5F5F5F5F500F500F5F5F5F5F5F5000000000000000000000000000000000000F5F5F5F5F5000000F5F5F5F5F5F5F5F5F5F5F5F5F5F5F5F5F50000000000000000000000000000000000000000000000000000000000000000
310
00000000000000000000000000000000000000000000000000000000000000000000000000000000000000000000000000000000000000000000000000000000000000000000000000000000000000000000000000000000000000000000000000000000000000000000000000000000000000000000000000000000000000
310
0000000000000000000000000000000000000000F50000000000000000F5F5F5F5F5F5F5F5F5F5F5F5F5F5F5F500F500F5F5F5F5F5F5F5000000000000000000000000000000F5F5F5F5F5F5F500000000F5F5F5F5F5F5F5F5F5F5F5F5F5F5F5F5F5F5F5F5F5F5000000000000000000000000000000000000000000000000
310
00000000000000000000000000000000000000000000000000000000000000000000000000000000000000000000000000000000000000000000000000000000000000000000000000000000000000000000000000000000000000000000000000000000000000000000000000000000000000000000000000000000000000
310
00000000000000000000000000000000000000000000F50000000000000000F500000000F5F5F5000000000000000000F50000F5F5F5F5F5F5000000000000000000000000000000F5F5F5F5F5F5F5000000000000000000000000F5F5F500000000F5F5F5F5F5F5F500000000000000000000000000000000000000000000
310
00000000000000000000000000000000000000000000000000000000000000000000000000000000000000000000000000000000000000000000000000000000000000000000000000000000000000000000000000000000000000000000000000000000000000000000000000000000000000000000000000000000000000
310
000000000000000000000000000000000000000000F5F5F5F5F5F5000000000000F500000000F5F5F5000000000000000000F500000000F5F5F50000000000000000000000000000000000F5F5F5F50000000000000000000000000000F5F5F500000000F5F5F5F5F5F5F5F500000000000000000000000000000000000000
310
00000000000000000000000000000000000000000000000000000000000000000000000000000000000000000000000000000000000000000000000000000000000000000000000000000000000000000000000000000000000000000000000000000000000000000000000000000000000000000000000000000000000000
310
0000000000000000000000000000000000000000000000F5F5F5F5F5F5000000000000F500000000F5F5F5F50000000000000000F5F5000000F5F5F5000000000000000000000000000000000000F5F500000000000000000000000000F5F5F5F5F5F5F5F5F5F5F5F5F5F5F5F5F50000000000000000000000000000000000
310
00000000000000000000000000000000000000000000000000000000000000000000000000000000000000000000000000000000000000000000000000000000000000000000000000000000000000000000000000000000000000000000000000000000000000000000000000000000000000000000000000000000000000
310
00000000000000000000000000000000000000000000000000F5F5F5F5F5F5000000000000F500000000F5F5F5F5F5F5F5F5F5F5F5F5F5F5F5F5F5F5000000000000000000000000000000000000000000F5F5F5F5F5F5F5F5F5F5F5F5F5F5F5F5F5F5F500000000F5F5F5F5F5F5F500000000000000000000000000000000
310
00000000000000000000000000000000000000000000000000000000000000000000000000000000000000000000000000000000000000000000000000000000000000000000000000000000000000000000000000000000000000000000000000000000000000000000000000000000000000000000000000000000000000
310
000000000000000000000000000000000000000000000000000000F5F5F5F5F5F5000000000000F500000000F500F5F5F5F5F5F500F50000F500F5F5F5F5F5F5F5000000000000000000000000000000000000000000000000000000F500F5F5F5F5F50000F500000000F5F5F5F5F5F5F5F500000000000000000000000000
310
00000000000000000000000000000000000000000000000000000000000000000000000000000000000000000000000000000000000000000000000000000000000000000000000000000000000000000000000000000000000000000000000000000000000000000000000000000000000000000000000000000000000000
310
0000000000000000000000000000000000000000000000000000000000F5F5F5F5F5F5000000000000F500000000F500F5F50000000000F50000F500F5F5F5F5F5F5F5000000000000000000000000000000000000000000000000000000F50000000000F500F5F500000000F5F5F5F5F5F5F5F50000000000000000000000
310
00000000000000000000000000000000000000000000000000000000000000000000000000000000000000000000000000000000000000000000000000000000000000000000000000000000000000000000000000000000000000000000000000000000000000000000000000000000000000000000000000000000000000
310
00000000000000000000000000000000000000000000000000000000000000F5F5F5F5F5F5F50000000000F500000000F500F5F50000000000F50000F500F5F5F5F5F5F5F5F50000000000000000000000000000000000000000000000000000F50000000000F500F5F5000000F5F500000000000000000000000000000000
310
00000000000000000000000000000000000000000000000000000000000000000000000000000000000000000000000000000000000000000000000000000000000000000000000000000000000000000000000000000000000000000000000000000000000000000000000000000000000000000000000000000000000000
310
000000000000000000000000000000000000000000000000000000000000000000F5F5F5F5F5F5F50000000000F5F5000000F50000000000000000F50000F5F5F5F5F5F5F5F5F5F50000000000000000000000000000000000000000000000000000F50000000000000000F5000000F5F50000000000000000000000000000
310
00000000000000000000000000000000000000000000000000000000000000000000000000000000000000000000000000000000000000000000000000000000000000000000000000000000000000000000000000000000000000000000000000000000000000000000000000000000000000000000000000000000000000
310
0000000000000000000000000000000000000000000000000000000000000000000000000000F50000000000000000F500000000F50000000000000000F500000000F5F5F5F5F5F5F5000000000000000000000000000000000000000000000000000000F50000000000000000F500000000F5000000000000000000000000
310
00000000000000000000000000000000000000000000000000000000000000000000000000000000000000000000000000000000000000000000000000000000000000000000000000000000000000000000000000000000000000000000000000000000000000000000000000000000000000000000000000000000000000
310
00000000000000000000000000000000000000000000000000000000000000000000000000000000F50000000000000000F500000000F50000000000000000F500000000F5F5F5F5F5F5F5000000000000000000000000000000000000000000000000000000F50000000000000000F500000000F500000000000000000000
310
00000000000000000000000000000000000000000000000000000000000000000000000000000000000000000000000000000000000000000000000000000000000000000000000000000000000000000000000000000000000000000000000000000000000000000000000000000000000000000000000000000000000000
310
000000000000000000000000000000000000000000000000000000000000000000000000000000000000F50000000000000000F500000000F50000000000000000F50000000000F5F5F5F5F5F5000000000000000000000000000000000000000000000000000000F50000000000000000F500000000F50000000000000000
310
00000000000000000000000000000000000000000000000000000000000000000000000000000000000000000000000000000000000000000000000000000000000000000000000000000000000000000000000000000000000000000000000000000000000000000000000000000000000000000000000000000000000000
310
0000000000000000000000000000000000000000000000000000000000000000000000000000000000000000F50000000000000000F500000000F50000000000000000F50000000000000000000000000000000000000000000000000000000000000000000000000000F50000000000000000F500000000F5000000000000
310
00000000000000000000000000000000000000000000000000000000000000000000000000000000000000000000000000000000000000000000000000000000000000000000000000000000000000000000000000000000000000000000000000000000000000000000000000000000000000000000000000000000000000
310
00000000000000000000000000000000000000000000000000000000000000000000000000000000000000000000F50000000000000000F5000000F5F5000000000000F5F5F50000000000000000000000000000000000000000000000000000000000000000000000000000F5F5F5000000000000F500000000F500000000
310
00000000000000000000000000000000000000000000000000000000000000000000000000000000000000000000000000000000000000000000000000000000000000000000000000000000000000000000000000000000000000000000000000000000000000000000000000000000000000000000000000000000000000
310
000000000000000000000000000000000000000000000000000000000000000000000000000000000000000000000000F50000000000000000F5000000F5F5000000000000F5000000000000000000000000000000000000000000000000000000000000000000000000000000000000F5000000000000F500000000F50000
310
00000000000000000000000000000000000000000000000000000000000000000000000000000000000000000000000000000000000000000000000000000000000000000000000000000000000000000000000000000000000000000000000000000000000000000000000000000000000000000000000000000000000000
310
0000000000000000000000000000000000000000000000000000000000000000000000000000000000000000000000000000F50000000000000000F5000000F5F5000000000000F5000000000000000000000000000000000000000000000000000000000000000000000000000000000000F5000000000000F500000000F5
310
00000000000000000000000000000000000000000000000000000000000000000000000000000000000000000000000000000000000000000000000000000000000000000000000000000000000000000000000000000000000000000000000000000000000000000000000000000000000000000000000000000000000000
310
00000000000000000000000000000000000000000000000000000000000000000000000000000000000000000000000000000000F50000000000000000F500000000F5000000000000F5000000000000000000000000000000000000000000000000000000000000000000000000000000000000F5000000000000F5000000
310
F5F50000000000000000000000000000000000000000000000000000000000000000000000000000000000000000000000000000000000000000000000000000000000000000000000000000000000000000000000000000000000000000000000000000000000000000000000000000000000000000000000000000000000
310
000000000000000000000000000000000000000000000000000000000000000000000000000000000000000000000000000000000000F50000000000000000F5F5000000F5000000000000F5000000000000000000000000000000000000000000000000000000000000000000000000000000000000F5000000000000F500
310
0000F5F5000000000000000000000000000000000000000000000000000000000000000000000000000000000000000000000000000000000000000000000000000000000000000000000000000000000000000000000000000000000000000000000000000000000000000000000000000000000000000000000000000000
310
0000000000000000000000000000000000000000000000000000000000000000000000000000000000000000000000000000000000000000F5F5F5F5F5F5F5F5F5F5F5F5F5F5F5000000000000F5000000000000000000000000000000000000000000000000000000000000000000000000000000000000F5000000000000
310
F5F5F5F5F5F500000000000000000000000000000000000000000000000000000000000000000000000000000000000000000000000000000000000000000000000000000000000000000000000000000000000000000000000000000000000000000000000000000000000000000000000000000000000000000000000000
310
000000000000000000000000000000000000000000000000000000000000000000000000000000000000000000000000000000000000000000F5F50000000000000000F500000000F5000000000000F5000000000000000000000000000000000000000000000000000000000000000000000000000000000000F500000000
310
0000F500000000F50000000000000000000000000000000000000000000000000000000000000000000000000000000000000000000000000000000000000000000000000000000000000000000000000000000000000000000000000000000000000000000000000000000000000000000000000000000000000000000000
310
000000000000000000000000000000000000000000000000000000000000000000000000000000000000000000000000000000000000000000000000000000000000000000F500000000F5F5F5F5F5F5F5F5000000000000000000000000000000000000000000000000000000000000000000000000000000000000F5F5F5
310
F5F5F5F5F500000000F5000000000000000000000000000000000000000000000000000000000000000000000000000000000000000000000000000000000000000000000000000000000000000000000000000000000000000000000000000000000000000000000000000000000000000000000000000000000000000000
310
0000000000000000000000000000000000000000000000000000000000000000000000000000000000000000000000000000000000000000000000000000000000000000000000F500000000000000000000000000000000000000000000000000000000000000000000000000000000000000000000000000000000000000
310
0000000000000000000000F500000000000000000000000000000000000000000000000000000000000000000000000000000000000000000000000000000000000000000000000000000000000000000000000000000000000000000000000000000000000000000000000000000000000000000000000000000000000000
310
00000000000000000000000000000000000000000000000000000000000000000000000000000000000000000000000000000000000000000000000000000000000000000000000000F50000000000000000000000000000000000000000000000000000000000000000000000000000000000000000000000000000000000
310
00000000000000000000000000F50000000000000000000000000000000000000000000000000000000000000000000000000000000000000000000000000000000000000000000000000000000000000000000000000000000000000000000000000000000000000000000000000000000000000000000000000000000000
310
000000000000000000000000000000000000000000000000000000000000000000000000000000000000000000000000000000000000000000000000000000F5F5F5F5F5F5F500F5000000F5000000000000000000000000000000000000000000000000000000000000000000000000000000000000000000000000000000
310
000000000000000000000000000000F50000F500F5F5F5F5F5F50000000000000000000000000000000000000000000000000000000000000000000000000000000000000000000000000000000000000000000000000000000000000000000000000000000000000000000000000000000000000000000000000000000000
310
0000000000000000000000000000000000000000000000000000000000000000000000000000000000000000000000000000000000000000000000000000000000F5F5F5F5F5F5F500F5000000F500000000000000000000000000000000000000000000000000000000000000F5F5F5000000000000000000000000000000
310
0000000000000000000000000000000000F50000F500F5F5F5F5F5F5000000000000000000000000000000000000000000000000000000000000000000000000000000000000000000000000000000000000000000000000000000000000000000000000000000000000000000000000000000000000000000000000000000
310
0000000000000000000000000000000000000000000000000000000000000000000000000000000000000000000000000000000000000000000000000000000000000000F5F5F5F5F5F500F5000000F500000000000000000000000000000000000000000000000000000000000000F5F5F500000000000000000000000000
310
00000000000000000000000000000000000000F50000F500F5F5F5F5F5F500000000000000000000000000000000000000000000000000000000000000000000000000000000000000000000000000000000000000000000000000000000000000000000000000000000000000000000000000000000000000000000000000
310
00000000000000000000000000000000000000000000000000000000000000000000000000000000000000000000000000000000000000000000000000000000000000000000F5F5F5F5F5F5F5F5F5F5F5F5F5F5F5F5F5F5F5F5F5F5F5F5F5F5F5F5F5F5F5F5F5F5F5F5F5F5F5F5F5F5F5F5F5F5F5F5F5F5F5F5F5F5F5F5F5
310
F5F5F5F5F5F5F5F5F5F5F5F5F5F5F5F5F5F5F5F5F5F5F5F5F5F5F5F5F5F5F5F50000000000000000000000000000000000000000000000000000000000000000000000000000000000000000000000000000000000000000000000000000000000000000000000000000000000000000000000000000000000000000000000
310
00000000000000000000000000000000000000000000000000000000000000000000000000000000000000000000000000000000000000000000000000000000000000000000000000F5F5F5F50000F5F50000F5F5000000000000000000000000000000000000000000000000000000000000F5F5F5000000000000000000
310
0000000000000000000000000000000000000000000000F50000F5F500F5F5F5F500000000000000000000000000000000000000000000000000000000000000000000000000000000000000000000000000000000000000000000000000000000000000000000000000000000000000000000000000000000000000000000
310
000000000000000000000000000000000000000000000000000000000000000000000000000000000000000000000000000000000000000000000000000000000000000000000000000000F5F5F5F50000F5000000000000000000000000000000000000000000000000000000000000000000000000000000000000000000
310
00000000000000000000000000000000000000000000000000000000F50000F5F5F5F50000000000000000000000000000000000000000000000000000000000000000000000000000000000000000000000000000000000000000000000000000000000000000000000000000000000000000000000000000000000000000
310
0000000000000000000000000000000000000000000000000000000000000000000000000000000000000000000000000000000000000000000000000000000000000000000000000000000000F5F5F5F50000F500000000000000000000000000000000000000000000000000000000000000000000000000000000000000
310
000000000000000000000000000000000000000000000000000000000000F50000F5F5F5F5000000000000000000000000000000000000000000000000000000000000000000000000000000000000000000000000000000000000000000000000000000000000000000000000000000000000000000000000000000000000
310
00000000000000000000000000000000000000000000000000000000000000000000000000000000000000000000000000000000000000000000000000000000000000000000000000000000000000000000000000F50000000000000000000000000000000000000000000000000000000000F5F5F5F5F5F5F5F5F5F5F5F5
310
F5F5000000000000000000000000000000000000000000000000000000000000F500000000000000000000000000000000000000000000000000000000000000000000000000000000000000000000000000000000000000000000000000000000000000000000000000000000000000000000000000000000000000000000
310
000000000000000000000000000000000000000000000000000000000000000000000000000000000000000000000000000000000000000000000000000000000000000000000000000000000000000000000000000000F50000000000000000000000000000000000000000000000000000000000F5F5F5F5F5F5F5F5F5F5
310
F5F5F5F5000000000000000000000000000000000000000000000000000000000000F50000000000000000000000000000000000000000000000000000000000000000000000000000000000000000000000000000000000000000000000000000000000000000000000000000000000000000000000000000000000000000
310
0000000000000000000000000000000000000000000000000000000000000000000000000000000000000000000000000000000000000000000000000000000000000000000000000000000000000000000000000000000000F5F5F5F5F5F5F5F5F5F5F5F5F5F5F5F5F5F5F5F5F5F5F5F5F5F5F5F5F5F5F5F5F5F5F5F5F5F5
310
F5F5F5F5F5F500F5F5F5F5F5F5F5F5F5F5F5F5F5F5F5F5F5F5F5F5F5F5F5F5F5F5F5F5F5F5000000000000000000000000000000000000000000000000000000000000000000000000000000000000000000000000000000000000000000000000000000000000000000000000000000000000000000000000000000000000
310
00000000000000000000000000000000000000000000000000000000000000000000000000000000000000000000000000000000000000000000000000000000000000000000000000000000000000000000000000000000000000F5F50000000000000000000000000000000000000000000000000000000000F5F5F5F5F5
310
F5F5F5F5F5F5F5F5000000000000000000000000000000000000000000000000000000000000F5F5000000000000000000000000000000000000000000000000000000000000000000000000000000000000000000000000000000000000000000000000000000000000000000000000000000000000000000000000000000
310
00000000000000000000000000000000000000000000000000000000000000000000000000000000000000000000000000000000000000000000000000000000000000000000000000000000000000000000000000000000000000000000000000000000000000000000000000000000000000000000000000000000000000
310
00000000000000000000000000000000000000000000000000000000000000000000000000000000000000000000000000000000000000000000000000000000000000000000000000000000000000000000000000000000000000000000000000000000000000000000000000000000000000000000000000000000000000
310
00000000000000000000000000000000000000000000000000000000
  0
XRECORD
  5
3CF
102
{ACAD_REACTORS
330
49
102
}
330
49
100
AcDbXrecord
280
     1
102
MATERIAL
148
0.0
149
0.0
149
0.0
 93
        0
 94
      127
282
     0
 72
     0
 77
     0
171
     0
175
     0
179
     0
273
     0
  0
XRECORD
  5
4A
102
{ACAD_REACTORS
330
49
102
}
330
49
100
AcDbXrecord
280
     1
270
     1
271
     1
  0
XRECORD
  5
4B
102
{ACAD_REACTORS
330
49
102
}
330
49
100
AcDbXrecord
280
     1
270
     1
271
     1
  0
XRECORD
  5
4C
102
{ACAD_REACTORS
330
49
102
}
330
49
100
AcDbXrecord
280
     1
270
     1
271
     1
  0
XRECORD
  5
4D
102
{ACAD_REACTORS
330
49
102
}
330
49
100
AcDbXrecord
280
     1
270
     1
271
     1
  0
XRECORD
  5
4E
102
{ACAD_REACTORS
330
49
102
}
330
49
100
AcDbXrecord
280
     1
270
     1
271
     1
  0
XRECORD
  5
4F
102
{ACAD_REACTORS
330
49
102
}
330
49
100
AcDbXrecord
280
     1
270
     1
271
     1
  0
XRECORD
  5
3CE
102
{ACAD_REACTORS
330
41
102
}
330
41
100
AcDbXrecord
280
     1
102
MATERIAL
148
0.0
149
0.0
149
0.0
 93
        0
 94
      127
282
     0
 72
     0
 77
     0
171
     0
175
     0
179
     0
273
     0
  0
XRECORD
  5
42
102
{ACAD_REACTORS
330
41
102
}
330
41
100
AcDbXrecord
280
     1
270
     1
271
     1
  0
XRECORD
  5
43
102
{ACAD_REACTORS
330
41
102
}
330
41
100
AcDbXrecord
280
     1
270
     1
271
     1
  0
XRECORD
  5
44
102
{ACAD_REACTORS
330
41
102
}
330
41
100
AcDbXrecord
280
     1
270
     1
271
     1
  0
XRECORD
  5
45
102
{ACAD_REACTORS
330
41
102
}
330
41
100
AcDbXrecord
280
     1
270
     1
271
     1
  0
XRECORD
  5
46
102
{ACAD_REACTORS
330
41
102
}
330
41
100
AcDbXrecord
280
     1
270
     1
271
     1
  0
XRECORD
  5
47
102
{ACAD_REACTORS
330
41
102
}
330
41
100
AcDbXrecord
280
     1
270
     1
271
     1
  0
XRECORD
  5
3C9
102
{ACAD_REACTORS
330
E
102
}
330
E
100
AcDbXrecord
280
     1
102
MATERIAL
148
0.0
149
0.0
149
0.0
 93
        0
 94
      127
282
     0
 72
     0
 77
     0
171
     0
175
     0
179
     0
273
     0
  0
XRECORD
  5
F
102
{ACAD_REACTORS
330
E
102
}
330
E
100
AcDbXrecord
280
     1
270
     1
271
     1
  0
XRECORD
  5
10
102
{ACAD_REACTORS
330
E
102
}
330
E
100
AcDbXrecord
280
     1
270
     1
271
     1
  0
XRECORD
  5
11
102
{ACAD_REACTORS
330
E
102
}
330
E
100
AcDbXrecord
280
     1
270
     1
271
     1
  0
XRECORD
  5
12
102
{ACAD_REACTORS
330
E
102
}
330
E
100
AcDbXrecord
280
     1
270
     1
271
     1
  0
XRECORD
  5
13
102
{ACAD_REACTORS
330
E
102
}
330
E
100
AcDbXrecord
280
     1
270
     1
271
     1
  0
XRECORD
  5
14
102
{ACAD_REACTORS
330
E
102
}
330
E
100
AcDbXrecord
280
     1
270
     1
271
     1
  0
CELLSTYLEMAP
  5
3C7
102
{ACAD_REACTORS
330
56
102
}
330
56
100
AcDbCellStyleMap
 90
        3
300
CELLSTYLE
  1
TABLEFORMAT_BEGIN
 90
        5
170
     1
 91
        0
 92
    32768
 62
   257
 93
        1
300
CONTENTFORMAT
  1
CONTENTFORMAT_BEGIN
 90
        0
 91
        0
 92
        4
 93
        0
300

 40
0.0
140
1.0
 94
        5
 62
     0
340
26
144
0.25
309
CONTENTFORMAT_END
171
     0
 94
        6
 95
        1
302
GRIDFORMAT
  1
GRIDFORMAT_BEGIN
 90
        0
 91
        1
 62
     0
 92
       -2
340
0
 93
        0
 40
0.045
309
GRIDFORMAT_END
 95
        2
302
GRIDFORMAT
  1
GRIDFORMAT_BEGIN
 90
        0
 91
        1
 62
     0
 92
       -2
340
0
 93
        0
 40
0.045
309
GRIDFORMAT_END
 95
        4
302
GRIDFORMAT
  1
GRIDFORMAT_BEGIN
 90
        0
 91
        1
 62
     0
 92
       -2
340
0
 93
        0
 40
0.045
309
GRIDFORMAT_END
 95
        8
302
GRIDFORMAT
  1
GRIDFORMAT_BEGIN
 90
        0
 91
        1
 62
     0
 92
       -2
340
0
 93
        0
 40
0.045
309
GRIDFORMAT_END
 95
       16
302
GRIDFORMAT
  1
GRIDFORMAT_BEGIN
 90
        0
 91
        1
 62
     0
 92
       -2
340
0
 93
        0
 40
0.045
309
GRIDFORMAT_END
 95
       32
302
GRIDFORMAT
  1
GRIDFORMAT_BEGIN
 90
        0
 91
        1
 62
     0
 92
       -2
340
0
 93
        0
 40
0.045
309
GRIDFORMAT_END
309
TABLEFORMAT_END
  1
CELLSTYLE_BEGIN
 90
        1
 91
        1
300
_TITLE
309
CELLSTYLE_END
300
CELLSTYLE
  1
TABLEFORMAT_BEGIN
 90
        5
170
     1
 91
        0
 92
        0
 62
   257
 93
        1
300
CONTENTFORMAT
  1
CONTENTFORMAT_BEGIN
 90
        0
 91
        0
 92
        4
 93
        0
300

 40
0.0
140
1.0
 94
        5
 62
     0
340
26
144
0.18
309
CONTENTFORMAT_END
171
     0
 94
        6
 95
        1
302
GRIDFORMAT
  1
GRIDFORMAT_BEGIN
 90
        0
 91
        1
 62
     0
 92
       -2
340
0
 93
        0
 40
0.045
309
GRIDFORMAT_END
 95
        2
302
GRIDFORMAT
  1
GRIDFORMAT_BEGIN
 90
        0
 91
        1
 62
     0
 92
       -2
340
0
 93
        0
 40
0.045
309
GRIDFORMAT_END
 95
        4
302
GRIDFORMAT
  1
GRIDFORMAT_BEGIN
 90
        0
 91
        1
 62
     0
 92
       -2
340
0
 93
        0
 40
0.045
309
GRIDFORMAT_END
 95
        8
302
GRIDFORMAT
  1
GRIDFORMAT_BEGIN
 90
        0
 91
        1
 62
     0
 92
       -2
340
0
 93
        0
 40
0.045
309
GRIDFORMAT_END
 95
       16
302
GRIDFORMAT
  1
GRIDFORMAT_BEGIN
 90
        0
 91
        1
 62
     0
 92
       -2
340
0
 93
        0
 40
0.045
309
GRIDFORMAT_END
 95
       32
302
GRIDFORMAT
  1
GRIDFORMAT_BEGIN
 90
        0
 91
        1
 62
     0
 92
       -2
340
0
 93
        0
 40
0.045
309
GRIDFORMAT_END
309
TABLEFORMAT_END
  1
CELLSTYLE_BEGIN
 90
        2
 91
        1
300
_HEADER
309
CELLSTYLE_END
300
CELLSTYLE
  1
TABLEFORMAT_BEGIN
 90
        5
170
     1
 91
        0
 92
        0
 62
   257
 93
        1
300
CONTENTFORMAT
  1
CONTENTFORMAT_BEGIN
 90
        0
 91
        0
 92
        4
 93
        0
300

 40
0.0
140
1.0
 94
        2
 62
     0
340
26
144
0.18
309
CONTENTFORMAT_END
171
     0
 94
        6
 95
        1
302
GRIDFORMAT
  1
GRIDFORMAT_BEGIN
 90
        0
 91
        1
 62
     0
 92
       -2
340
0
 93
        0
 40
0.045
309
GRIDFORMAT_END
 95
        2
302
GRIDFORMAT
  1
GRIDFORMAT_BEGIN
 90
        0
 91
        1
 62
     0
 92
       -2
340
0
 93
        0
 40
0.045
309
GRIDFORMAT_END
 95
        4
302
GRIDFORMAT
  1
GRIDFORMAT_BEGIN
 90
        0
 91
        1
 62
     0
 92
       -2
340
0
 93
        0
 40
0.045
309
GRIDFORMAT_END
 95
        8
302
GRIDFORMAT
  1
GRIDFORMAT_BEGIN
 90
        0
 91
        1
 62
     0
 92
       -2
340
0
 93
        0
 40
0.045
309
GRIDFORMAT_END
 95
       16
302
GRIDFORMAT
  1
GRIDFORMAT_BEGIN
 90
        0
 91
        1
 62
     0
 92
       -2
340
0
 93
        0
 40
0.045
309
GRIDFORMAT_END
 95
       32
302
GRIDFORMAT
  1
GRIDFORMAT_BEGIN
 90
        0
 91
        1
 62
     0
 92
       -2
340
0
 93
        0
 40
0.045
309
GRIDFORMAT_END
309
TABLEFORMAT_END
  1
CELLSTYLE_BEGIN
 90
        3
 91
        2
300
_DATA
309
CELLSTYLE_END
  0
XRECORD
  5
3D0
102
{ACAD_REACTORS
330
56
102
}
330
56
100
AcDbXrecord
280
     1
102
ACAD_ROUNDTRIP_PRE2007_TABLESTYLE
 90
        4
 91
        0
  1

 92
        4
 93
        0
  2

 94
        4
 95
        0
  3

  0
XRECORD
  5
3CD
102
{ACAD_REACTORS
330
3CC
102
}
330
3CC
100
AcDbXrecord
280
     1
102
RTVSPropertyOp0
 70
     1
102
RTVSPropertyOp1
 70
     1
102
RTVSPropertyOp2
 70
     1
102
RTVSPropertyOp3
 70
     1
102
RTVSPropertyOp4
 70
     1
102
RTVSPropertyOp5
 70
     1
102
RTVSPropertyOp6
 70
     1
102
RTVSPropertyOp7
 70
     1
102
RTVSPropertyOp8
 70
     1
102
RTVSPropertyOp9
 70
     1
102
RTVSPropertyOp10
 70
     1
102
RTVSPropertyOp11
 70
     1
102
RTVSPropertyOp12
 70
     1
102
RTVSPropertyOp13
 70
     1
102
RTVSPropertyOp14
 70
     1
102
RTVSPropertyOp15
 70
     1
102
RTVSPropertyOp16
 70
     1
102
RTVSPropertyOp17
 70
     1
102
RTVSPropertyOp18
 70
     1
102
RTVSPropertyOp19
 70
     1
102
RTVSPropertyOp20
 70
     1
102
RTVSPropertyOp21
 70
     1
102
RTVSPropertyOp22
 70
     1
102
RTVSPropertyOp23
 70
     1
102
RTVSPropertyOp24
 70
     1
102
RTVSPropertyOp25
 70
     1
102
RTVSPropertyOp26
 70
     1
102
RTVSPropertyOp27
 70
     1
102
RTVSPropertyOp28
 70
     1
102
RTVSPropertyOp29
 70
     1
102
RTVSPropertyOp30
 70
     1
102
RTVSPropertyOp31
 70
     1
102
RTVSPropertyOp32
 70
     1
  0
XRECORD
  5
3D2
102
{ACAD_REACTORS
330
3D1
102
}
330
3D1
100
AcDbXrecord
280
     1
102
RTVSPropertyOp0
 70
     1
102
RTVSPropertyOp1
 70
     1
102
RTVSPropertyOp2
 70
     1
102
RTVSPropertyOp3
 70
     1
102
RTVSPropertyOp4
 70
     1
102
RTVSPropertyOp5
 70
     1
102
RTVSPropertyOp6
 70
     1
102
RTVSPropertyOp7
 70
     1
102
RTVSPropertyOp8
 70
     1
102
RTVSPropertyOp9
 70
     1
102
RTVSPropertyOp10
 70
     1
102
RTVSPropertyOp11
 70
     1
102
RTVSPropertyOp12
 70
     1
102
RTVSPropertyOp13
 70
     1
102
RTVSPropertyOp14
 70
     1
102
RTVSPropertyOp15
 70
     1
102
RTVSPropertyOp16
 70
     1
102
RTVSPropertyOp17
 70
     1
102
RTVSPropertyOp18
 70
     1
102
RTVSPropertyOp19
 70
     1
102
RTVSPropertyOp20
 70
     1
102
RTVSPropertyOp21
 70
     1
102
RTVSPropertyOp22
 70
     1
102
RTVSPropertyOp23
 70
     1
102
RTVSPropertyOp24
 70
     1
102
RTVSPropertyOp25
 70
     1
102
RTVSPropertyOp26
 70
     1
102
RTVSPropertyOp27
 70
     1
102
RTVSPropertyOp28
 70
     1
102
RTVSPropertyOp29
 70
     1
102
RTVSPropertyOp30
 70
     1
102
RTVSPropertyOp31
 70
     1
102
RTVSPropertyOp32
 70
     1
  0
XRECORD
  5
3D4
102
{ACAD_REACTORS
330
3D3
102
}
330
3D3
100
AcDbXrecord
280
     1
102
RTVSPropertyOp0
 70
     1
102
RTVSPropertyOp1
 70
     1
102
RTVSPropertyOp2
 70
     1
102
RTVSPropertyOp3
 70
     1
102
RTVSPropertyOp4
 70
     1
102
RTVSPropertyOp5
 70
     1
102
RTVSPropertyOp6
 70
     1
102
RTVSPropertyOp7
 70
     1
102
RTVSPropertyOp8
 70
     1
102
RTVSPropertyOp9
 70
     1
102
RTVSPropertyOp10
 70
     1
102
RTVSPropertyOp11
 70
     1
102
RTVSPropertyOp12
 70
     1
102
RTVSPropertyOp13
 70
     1
102
RTVSPropertyOp14
 70
     1
102
RTVSPropertyOp15
 70
     1
102
RTVSPropertyOp16
 70
     1
102
RTVSPropertyOp17
 70
     1
102
RTVSPropertyOp18
 70
     1
102
RTVSPropertyOp19
 70
     1
102
RTVSPropertyOp20
 70
     1
102
RTVSPropertyOp21
 70
     1
102
RTVSPropertyOp22
 70
     1
102
RTVSPropertyOp23
 70
     1
102
RTVSPropertyOp24
 70
     1
102
RTVSPropertyOp25
 70
     1
102
RTVSPropertyOp26
 70
     1
102
RTVSPropertyOp27
 70
     1
102
RTVSPropertyOp28
 70
     1
102
RTVSPropertyOp29
 70
     1
102
RTVSPropertyOp30
 70
     1
102
RTVSPropertyOp31
 70
     1
102
RTVSPropertyOp32
 70
     1
  0
ENDSEC
  0
EOF
