  0
SECTION
  2
HEADER
  9
$ACADVER
  1
AC1015
  9
$ACADMAINTVER
 70
    20
  9
$DWGCODEPAGE
  3
ANSI_1252
  9
$INSBASE
 10
0.0
 20
0.0
 30
0.0
  9
$EXTMIN
 10
4033.737785360312
 20
4284.028597915642
 30
0.0
  9
$EXTMAX
 10
4048.337436298751
 20
4302.732458973525
 30
0.0
  9
$LIMMIN
 10
0.0
 20
0.0
  9
$LIMMAX
 10
10000.0
 20
10000.0
  9
$ORTHOMODE
 70
     1
  9
$REGENMODE
 70
     1
  9
$FILLMODE
 70
     1
  9
$QTEXTMODE
 70
     0
  9
$MIRRTEXT
 70
     0
  9
$LTSCALE
 40
0.5
  9
$ATTMODE
 70
     1
  9
$TEXTSIZE
 40
3.0
  9
$TRACEWID
 40
0.05
  9
$TEXTSTYLE
  7
Standard
  9
$CLAYER
  8
0
  9
$CELTYPE
  6
ByLayer
  9
$CECOLOR
 62
   256
  9
$CELTSCALE
 40
1.0
  9
$DISPSILH
 70
     0
  9
$DIMSCALE
 40
0.0
  9
$DIMASZ
 40
0.156
  9
$DIMEXO
 40
0.04
  9
$DIMDLI
 40
0.38
  9
$DIMRND
 40
0.0
  9
$DIMDLE
 40
0.0
  9
$DIMEXE
 40
0.03
  9
$DIMTP
 40
0.0
  9
$DIMTM
 40
0.0
  9
$DIMTXT
 40
0.3125
  9
$DIMCEN
 40
0.0
  9
$DIMTSZ
 40
0.0
  9
$DIMTOL
 70
     0
  9
$DIMLIM
 70
     0
  9
$DIMTIH
 70
     1
  9
$DIMTOH
 70
     1
  9
$DIMSE1
 70
     0
  9
$DIMSE2
 70
     0
  9
$DIMTAD
 70
     0
  9
$DIMZIN
 70
     0
  9
$DIMBLK
  1
ArchTick
  9
$DIMASO
 70
     1
  9
$DIMSHO
 70
     1
  9
$DIMPOST
  1
\X
  9
$DIMAPOST
  1
mm
  9
$DIMALT
 70
     1
  9
$DIMALTD
 70
     0
  9
$DIMALTF
 40
25.4
  9
$DIMLFAC
 40
1.0
  9
$DIMTOFL
 70
     0
  9
$DIMTVP
 40
0.0
  9
$DIMTIX
 70
     0
  9
$DIMSOXD
 70
     0
  9
$DIMSAH
 70
     0
  9
$DIMBLK1
  1

  9
$DIMBLK2
  1

  9
$DIMSTYLE
  2
Knife
  9
$DIMCLRD
 70
     0
  9
$DIMCLRE
 70
     0
  9
$DIMCLRT
 70
     0
  9
$DIMTFAC
 40
1.0
  9
$DIMGAP
 40
0.04
  9
$DIMJUST
 70
     0
  9
$DIMSD1
 70
     0
  9
$DIMSD2
 70
     0
  9
$DIMTOLJ
 70
     1
  9
$DIMTZIN
 70
     0
  9
$DIMALTZ
 70
     0
  9
$DIMALTTZ
 70
     0
  9
$DIMUPT
 70
     0
  9
$DIMDEC
 70
     5
  9
$DIMTDEC
 70
     5
  9
$DIMALTU
 70
     2
  9
$DIMALTTD
 70
     0
  9
$DIMTXSTY
  7
Standard
  9
$DIMAUNIT
 70
     0
  9
$DIMADEC
 70
     1
  9
$DIMALTRND
 40
0.0
  9
$DIMAZIN
 70
     0
  9
$DIMDSEP
 70
    46
  9
$DIMATFIT
 70
     3
  9
$DIMFRAC
 70
     2
  9
$DIMLDRBLK
  1

  9
$DIMLUNIT
 70
     4
  9
$DIMLWD
 70
    -2
  9
$DIMLWE
 70
    -2
  9
$DIMTMOVE
 70
     0
  9
$LUNITS
 70
     2
  9
$LUPREC
 70
     4
  9
$SKETCHINC
 40
0.1
  9
$FILLETRAD
 40
0.0
  9
$AUNITS
 70
     0
  9
$AUPREC
 70
     0
  9
$MENU
  1
.
  9
$ELEVATION
 40
0.0
  9
$PELEVATION
 40
0.0
  9
$THICKNESS
 40
0.0
  9
$LIMCHECK
 70
     0
  9
$CHAMFERA
 40
0.0
  9
$CHAMFERB
 40
0.0
  9
$CHAMFERC
 40
0.0
  9
$CHAMFERD
 40
0.0
  9
$SKPOLY
 70
     0
  9
$TDCREATE
 40
2454538.498977512
  9
$TDUCREATE
 40
2454538.665644178
  9
$TDUPDATE
 40
2456686.672985139
  9
$TDUUPDATE
 40
2456686.839651805
  9
$TDINDWG
 40
0.1080510069
  9
$TDUSRTIMER
 40
0.1080510069
  9
$USRTIMER
 70
     1
  9
$ANGBASE
 50
0.0
  9
$ANGDIR
 70
     0
  9
$PDMODE
 70
     3
  9
$PDSIZE
 40
0.0
  9
$PLINEWID
 40
0.0
  9
$SPLFRAME
 70
     0
  9
$SPLINETYPE
 70
     6
  9
$SPLINESEGS
 70
    12
  9
$HANDSEED
  5
A804
  9
$SURFTAB1
 70
     6
  9
$SURFTAB2
 70
     6
  9
$SURFTYPE
 70
     6
  9
$SURFU
 70
     6
  9
$SURFV
 70
     6
  9
$UCSBASE
  2

  9
$UCSNAME
  2

  9
$UCSORG
 10
0.0
 20
0.0
 30
0.0
  9
$UCSXDIR
 10
1.0
 20
0.0
 30
0.0
  9
$UCSYDIR
 10
0.0
 20
1.0
 30
0.0
  9
$UCSORTHOREF
  2

  9
$UCSORTHOVIEW
 70
     0
  9
$UCSORGTOP
 10
0.0
 20
0.0
 30
0.0
  9
$UCSORGBOTTOM
 10
0.0
 20
0.0
 30
0.0
  9
$UCSORGLEFT
 10
0.0
 20
0.0
 30
0.0
  9
$UCSORGRIGHT
 10
0.0
 20
0.0
 30
0.0
  9
$UCSORGFRONT
 10
0.0
 20
0.0
 30
0.0
  9
$UCSORGBACK
 10
0.0
 20
0.0
 30
0.0
  9
$PUCSBASE
  2

  9
$PUCSNAME
  2

  9
$PUCSORG
 10
0.0
 20
0.0
 30
0.0
  9
$PUCSXDIR
 10
1.0
 20
0.0
 30
0.0
  9
$PUCSYDIR
 10
0.0
 20
1.0
 30
0.0
  9
$PUCSORTHOREF
  2

  9
$PUCSORTHOVIEW
 70
     0
  9
$PUCSORGTOP
 10
0.0
 20
0.0
 30
0.0
  9
$PUCSORGBOTTOM
 10
0.0
 20
0.0
 30
0.0
  9
$PUCSORGLEFT
 10
0.0
 20
0.0
 30
0.0
  9
$PUCSORGRIGHT
 10
0.0
 20
0.0
 30
0.0
  9
$PUCSORGFRONT
 10
0.0
 20
0.0
 30
0.0
  9
$PUCSORGBACK
 10
0.0
 20
0.0
 30
0.0
  9
$USERI1
 70
     0
  9
$USERI2
 70
     0
  9
$USERI3
 70
     0
  9
$USERI4
 70
     0
  9
$USERI5
 70
     0
  9
$USERR1
 40
0.0
  9
$USERR2
 40
0.0
  9
$USERR3
 40
0.0
  9
$USERR4
 40
0.0
  9
$USERR5
 40
0.0
  9
$WORLDVIEW
 70
     1
  9
$SHADEDGE
 70
     3
  9
$SHADEDIF
 70
    70
  9
$TILEMODE
 70
     1
  9
$MAXACTVP
 70
    64
  9
$PINSBASE
 10
0.0
 20
0.0
 30
0.0
  9
$PLIMCHECK
 70
     0
  9
$PEXTMIN
 10
0.0000000075458644
 20
0.0000000082145277
 30
0.0
  9
$PEXTMAX
 10
8.454000007545857
 20
10.67400000821453
 30
0.0
  9
$PLIMMIN
 10
-0.0396281825147785
 20
-0.1631190569075597
  9
$PLIMMAX
 10
8.460371577189331
 20
10.83688070279655
  9
$UNITMODE
 70
     0
  9
$VISRETAIN
 70
     1
  9
$PLINEGEN
 70
     0
  9
$PSLTSCALE
 70
     1
  9
$TREEDEPTH
 70
  3020
  9
$CMLSTYLE
  2
Standard
  9
$CMLJUST
 70
     0
  9
$CMLSCALE
 40
1.0
  9
$PROXYGRAPHICS
 70
     1
  9
$MEASUREMENT
 70
     0
  9
$CELWEIGHT
370
    -1
  9
$ENDCAPS
280
     0
  9
$JOINSTYLE
280
     0
  9
$LWDISPLAY
290
     0
  9
$INSUNITS
 70
     1
  9
$HYPERLINKBASE
  1

  9
$STYLESHEET
  1
monochrome.ctb
  9
$XEDIT
290
     1
  9
$CEPSNTYPE
380
     0
  9
$PSTYLEMODE
290
     1
  9
$FINGERPRINTGUID
  2
{11DF9E16-EBA7-429F-A783-CB4204A3073F}
  9
$VERSIONGUID
  2
{9BE2C74C-20C4-46C8-9022-1D3BB7FE9B66}
  9
$EXTNAMES
290
     1
  9
$PSVPSCALE
 40
0.0
  9
$OLESTARTUP
290
     0
  0
ENDSEC
  0
SECTION
  2
CLASSES
  0
CLASS
  1
ACDBDICTIONARYWDFLT
  2
AcDbDictionaryWithDefault
  3
ObjectDBX Classes
 90
        0
280
     0
281
     0
  0
CLASS
  1
ACDBPLACEHOLDER
  2
AcDbPlaceHolder
  3
ObjectDBX Classes
 90
        0
280
     0
281
     0
  0
CLASS
  1
LAYOUT
  2
AcDbLayout
  3
ObjectDBX Classes
 90
        0
280
     0
281
     0
  0
CLASS
  1
DICTIONARYVAR
  2
AcDbDictionaryVar
  3
ObjectDBX Classes
 90
        0
280
     0
281
     0
  0
CLASS
  1
TABLESTYLE
  2
AcDbTableStyle
  3
ObjectDBX Classes
 90
     4095
280
     0
281
     0
  0
CLASS
  1
SORTENTSTABLE
  2
AcDbSortentsTable
  3
ObjectDBX Classes
 90
        0
280
     0
281
     0
  0
CLASS
  1
DIMASSOC
  2
AcDbDimAssoc
  3
"AcDbDimAssoc|Product Desc:     AcDim ARX App For Dimension|Company:          Autodesk, Inc.|WEB Address:      www.autodesk.com"
 90
        0
280
     0
281
     0
  0
CLASS
  1
MATERIAL
  2
AcDbMaterial
  3
ObjectDBX Classes
 90
     1153
280
     0
281
     0
  0
CLASS
  1
VISUALSTYLE
  2
AcDbVisualStyle
  3
ObjectDBX Classes
 90
     4095
280
     0
281
     0
  0
CLASS
  1
SCALE
  2
AcDbScale
  3
ObjectDBX Classes
 90
     1153
280
     0
281
     0
  0
CLASS
  1
MLEADERSTYLE
  2
AcDbMLeaderStyle
  3
ACDB_MLEADERSTYLE_CLASS
 90
     4095
280
     0
281
     0
  0
CLASS
  1
CELLSTYLEMAP
  2
AcDbCellStyleMap
  3
ObjectDBX Classes
 90
     1152
280
     0
281
     0
  0
ENDSEC
  0
SECTION
  2
TABLES
  0
TABLE
  2
VPORT
  5
8
102
{ACAD_XDICTIONARY
360
6036
102
}
330
0
100
AcDbSymbolTable
 70
     1
  0
VPORT
  5
590A
330
8
100
AcDbSymbolTableRecord
100
AcDbViewportTableRecord
  2
*Active
 70
     0
 10
0.0
 20
0.0
 11
1.0
 21
1.0
 12
4040.985129588498
 22
4293.51808886686
 13
0.0
 23
0.0
 14
0.5
 24
0.5
 15
0.5
 25
0.5
 16
0.0
 26
0.0
 36
1.0
 17
0.0
 27
0.0
 37
0.0
 40
20.01169911859142
 41
2.196165191740413
 42
50.0
 43
0.0
 44
0.0
 50
0.0
 51
0.0
 71
     0
 72
  5000
 73
     1
 74
     3
 75
     0
 76
     0
 77
     0
 78
     0
281
     0
 65
     1
110
0.0
120
0.0
130
0.0
111
1.0
121
0.0
131
0.0
112
0.0
122
1.0
132
0.0
 79
     0
146
0.0
1001
ACAD_NAV_VCDISPLAY
1070
     3
  0
ENDTAB
  0
TABLE
  2
LTYPE
  5
5
330
0
100
AcDbSymbolTable
 70
     3
  0
LTYPE
  5
14
330
5
100
AcDbSymbolTableRecord
100
AcDbLinetypeTableRecord
  2
ByBlock
 70
     0
  3

 72
    65
 73
     0
 40
0.0
  0
LTYPE
  5
15
330
5
100
AcDbSymbolTableRecord
100
AcDbLinetypeTableRecord
  2
ByLayer
 70
     0
  3

 72
    65
 73
     0
 40
0.0
  0
LTYPE
  5
16
330
5
100
AcDbSymbolTableRecord
100
AcDbLinetypeTableRecord
  2
Continuous
 70
     0
  3
Solid line
 72
    65
 73
     0
 40
0.0
  0
LTYPE
  5
A11
330
5
100
AcDbSymbolTableRecord
100
AcDbLinetypeTableRecord
  2
HIDDEN
 70
     0
  3
Hidden __ __ __ __ __ __ __ __ __ __ __ __ __ _
 72
    65
 73
     2
 40
0.375
 49
0.25
 74
     0
 49
-0.125
 74
     0
  0
LTYPE
  5
A42F
330
5
100
AcDbSymbolTableRecord
100
AcDbLinetypeTableRecord
  2
CENTER
 70
     0
  3
____ _ ____ _ ____ _ ____ _ ____ _ ____ 
 72
    65
 73
     4
 40
2.0
 49
1.25
 74
     0
 49
-0.25
 74
     0
 49
0.25
 74
     0
 49
-0.25
 74
     0
  0
ENDTAB
  0
TABLE
  2
LAYER
  5
2
102
{ACAD_XDICTIONARY
360
559
102
}
330
0
100
AcDbSymbolTable
 70
     5
  0
LAYER
  5
10
102
{ACAD_XDICTIONARY
360
598A
102
}
330
2
100
AcDbSymbolTableRecord
100
AcDbLayerTableRecord
  2
0
 70
     0
 62
     7
  6
Continuous
370
    18
390
F
  0
LAYER
  5
1C3
330
2
100
AcDbSymbolTableRecord
100
AcDbLayerTableRecord
  2
Defpoints
 70
     0
 62
     7
  6
Continuous
290
     0
370
    18
390
F
  0
LAYER
  5
13C2
102
{ACAD_XDICTIONARY
360
598C
102
}
330
2
100
AcDbSymbolTableRecord
100
AcDbLayerTableRecord
  2
LAYER_1
 70
     1
 62
     7
  6
Continuous
370
    18
390
F
  0
LAYER
  5
1AEF
102
{ACAD_XDICTIONARY
360
598E
102
}
330
2
100
AcDbSymbolTableRecord
100
AcDbLayerTableRecord
  2
0010010007
 70
     0
 62
     7
  6
Continuous
370
    18
390
F
  0
LAYER
  5
A430
102
{ACAD_XDICTIONARY
360
A431
102
}
330
2
100
AcDbSymbolTableRecord
100
AcDbLayerTableRecord
  2
Screw
 70
     0
 62
     7
  6
Continuous
370
    -3
390
F
  0
ENDTAB
  0
TABLE
  2
STYLE
  5
3
330
0
100
AcDbSymbolTable
 70
     5
  0
STYLE
  5
11
330
3
100
AcDbSymbolTableRecord
100
AcDbTextStyleTableRecord
  2
Standard
 70
     0
 40
0.0
 41
0.55
 50
5.0
 71
     0
 42
3.0
  3
lc______.ttf
  4

1001
ACAD
1000
Letter Gothic
1071
       50
  0
STYLE
  5
E29
330
3
100
AcDbSymbolTableRecord
100
AcDbTextStyleTableRecord
  2
DIMTXT
 70
     0
 40
0.0
 41
0.6
 50
5.0
 71
     0
 42
0.2
  3
lc______.ttf
  4

1001
ACAD
1000
Letter Gothic
1071
       50
  0
STYLE
  5
13C3
330
3
100
AcDbSymbolTableRecord
100
AcDbTextStyleTableRecord
  2
ARIAL
 70
     0
 40
0.0
 41
1.0
 50
0.0
 71
     0
 42
2.5
  3
an______.ttf
  4

1001
ACAD
1000
Arial Narrow
1071
       34
  0
STYLE
  5
9315
330
3
100
AcDbSymbolTableRecord
100
AcDbTextStyleTableRecord
  2
STYLE1
 70
     0
 40
0.0
 41
1.0
 50
0.0
 71
     0
 42
0.2
  3
arial.ttf
  4

1001
ACAD
1000
Arial
1071
       34
  0
STYLE
  5
9893
330
3
100
AcDbSymbolTableRecord
100
AcDbTextStyleTableRecord
  2
DIMTX
 70
     0
 40
0.0
 41
0.6
 50
5.0
 71
     0
 42
0.5
  3
lc______.ttf
  4

1001
ACAD
1000
Letter Gothic
1071
       50
  0
ENDTAB
  0
TABLE
  2
VIEW
  5
6
330
0
100
AcDbSymbolTable
 70
     0
  0
ENDTAB
  0
TABLE
  2
UCS
  5
7
330
0
100
AcDbSymbolTable
 70
     0
  0
ENDTAB
  0
TABLE
  2
APPID
  5
9
330
0
100
AcDbSymbolTable
 70
    11
  0
APPID
  5
12
330
9
100
AcDbSymbolTableRecord
100
AcDbRegAppTableRecord
  2
ACAD
 70
     0
  0
APPID
  5
AA
330
9
100
AcDbSymbolTableRecord
100
AcDbRegAppTableRecord
  2
ACAD_DSTYLE_DIMTEXT_FILL
 70
     0
  0
APPID
  5
553
330
9
100
AcDbSymbolTableRecord
100
AcDbRegAppTableRecord
  2
ACAD_PSEXT
 70
     0
  0
APPID
  5
5965
330
9
100
AcDbSymbolTableRecord
100
AcDbRegAppTableRecord
  2
ACAD_NAV_VCDISPLAY
 70
     0
  0
APPID
  5
596D
330
9
100
AcDbSymbolTableRecord
100
AcDbRegAppTableRecord
  2
ACAD_DSTYLE_DIMJAG
 70
     0
  0
APPID
  5
596E
330
9
100
AcDbSymbolTableRecord
100
AcDbRegAppTableRecord
  2
ACAD_DSTYLE_DIMBREAK
 70
     0
  0
APPID
  5
596F
330
9
100
AcDbSymbolTableRecord
100
AcDbRegAppTableRecord
  2
ACAD_DSTYLE_DIMTALN
 70
     0
  0
APPID
  5
5FDF
330
9
100
AcDbSymbolTableRecord
100
AcDbRegAppTableRecord
  2
ACAD_EXEMPT_FROM_CAD_STANDARDS
 70
     0
  0
APPID
  5
606E
330
9
100
AcDbSymbolTableRecord
100
AcDbRegAppTableRecord
  2
ACAD_MLEADERVER
 70
     0
  0
APPID
  5
8D7A
330
9
100
AcDbSymbolTableRecord
100
AcDbRegAppTableRecord
  2
GradientColor1ACI
 70
     0
  0
APPID
  5
8D7B
330
9
100
AcDbSymbolTableRecord
100
AcDbRegAppTableRecord
  2
GradientColor2ACI
 70
     0
  0
ENDTAB
  0
TABLE
  2
DIMSTYLE
  5
A
330
0
100
AcDbSymbolTable
 70
     2
100
AcDbDimStyleTable
 71
     2
340
357
340
27
  0
DIMSTYLE
105
27
330
A
100
AcDbSymbolTableRecord
100
AcDbDimStyleTableRecord
  2
Standard
 70
     0
  3
"
 40
0.0
 41
0.095
 42
0.04
 44
0.04
140
0.125
141
0.0
147
0.04
179
     1
271
     6
272
     6
276
     2
277
     5
340
11
  0
DIMSTYLE
105
357
102
{ACAD_REACTORS
330
95C7
330
A2BE
102
}
330
A
100
AcDbSymbolTableRecord
100
AcDbDimStyleTableRecord
  2
Knife
 70
     0
  3
\X
  4
mm
 40
0.0
 41
0.156
 42
0.04
 44
0.03
140
0.3125
141
0.0
147
0.04
170
     1
171
     0
179
     1
271
     5
272
     5
274
     0
276
     2
277
     4
340
11
342
1A2E
  0
ENDTAB
  0
TABLE
  2
BLOCK_RECORD
  5
1
330
0
100
AcDbSymbolTable
 70
    17
  0
BLOCK_RECORD
  5
1F
102
{ACAD_XDICTIONARY
360
7FA
102
}
330
1
100
AcDbSymbolTableRecord
100
AcDbBlockTableRecord
  2
*Model_Space
340
22
  0
BLOCK_RECORD
  5
58
330
1
100
AcDbSymbolTableRecord
100
AcDbBlockTableRecord
  2
*Paper_Space
340
59
  0
BLOCK_RECORD
  5
1A2E
330
1
100
AcDbSymbolTableRecord
100
AcDbBlockTableRecord
  2
_ArchTick
340
0
102
{BLKREFS
331
8A91
331
8A92
331
9633
331
9634
331
963E
331
963F
331
9649
331
964A
331
A0AE
331
A0AF
331
A539
331
A53A
331
A544
331
A545
331
A54F
331
A550
331
A559
331
A55A
102
}
  0
BLOCK_RECORD
  5
1A32
330
1
100
AcDbSymbolTableRecord
100
AcDbBlockTableRecord
  2
11HINGE
340
0
  0
BLOCK_RECORD
  5
1A65
330
1
100
AcDbSymbolTableRecord
100
AcDbBlockTableRecord
  2
93OBW
340
0
  0
BLOCK_RECORD
  5
1A8D
330
1
100
AcDbSymbolTableRecord
100
AcDbBlockTableRecord
  2
86NPF141
340
0
  0
BLOCK_RECORD
  5
3141
330
1
100
AcDbSymbolTableRecord
100
AcDbBlockTableRecord
  2
11SCREEN
340
0
  0
BLOCK_RECORD
  5
8921
330
1
100
AcDbSymbolTableRecord
100
AcDbBlockTableRecord
  2
*D5
340
0
  0
BLOCK_RECORD
  5
892F
330
1
100
AcDbSymbolTableRecord
100
AcDbBlockTableRecord
  2
*D6
340
0
  0
BLOCK_RECORD
  5
893E
330
1
100
AcDbSymbolTableRecord
100
AcDbBlockTableRecord
  2
*D7
340
0
  0
BLOCK_RECORD
  5
894D
330
1
100
AcDbSymbolTableRecord
100
AcDbBlockTableRecord
  2
*D8
340
0
  0
BLOCK_RECORD
  5
8967
330
1
100
AcDbSymbolTableRecord
100
AcDbBlockTableRecord
  2
*D9
340
0
  0
BLOCK_RECORD
  5
8974
330
1
100
AcDbSymbolTableRecord
100
AcDbBlockTableRecord
  2
*D10
340
0
  0
BLOCK_RECORD
  5
8982
330
1
100
AcDbSymbolTableRecord
100
AcDbBlockTableRecord
  2
*D11
340
0
  0
BLOCK_RECORD
  5
9311
330
1
100
AcDbSymbolTableRecord
100
AcDbBlockTableRecord
  2
_OBLIQUE
340
0
  0
BLOCK_RECORD
  5
95C8
330
1
100
AcDbSymbolTableRecord
100
AcDbBlockTableRecord
  2
*D13
340
0
  0
BLOCK_RECORD
  5
A2BF
330
1
100
AcDbSymbolTableRecord
100
AcDbBlockTableRecord
  2
*D14
340
0
  0
BLOCK_RECORD
  5
A391
330
1
100
AcDbSymbolTableRecord
100
AcDbBlockTableRecord
  2
8 x .75 FH
340
0
310
2800000020000000200000000100080000000000000400000000000000000000000000000000000000000000000080000080000000808000800000008000800080800000C0C0C000C0DCC000F0CAA6000020400000206000002080000020A0000020C0000020E00000400000004020000040400000406000004080000040A0
310
000040C0000040E00000600000006020000060400000606000006080000060A0000060C0000060E00000800000008020000080400000806000008080000080A0000080C0000080E00000A0000000A0200000A0400000A0600000A0800000A0A00000A0C00000A0E00000C0000000C0200000C0400000C0600000C0800000C0
310
A00000C0C00000C0E00000E0000000E0200000E0400000E0600000E0800000E0A00000E0C00000E0E00040000000400020004000400040006000400080004000A0004000C0004000E00040200000402020004020400040206000402080004020A0004020C0004020E000404000004040200040404000404060004040800040
310
40A0004040C0004040E00040600000406020004060400040606000406080004060A0004060C0004060E00040800000408020004080400040806000408080004080A0004080C0004080E00040A0000040A0200040A0400040A0600040A0800040A0A00040A0C00040A0E00040C0000040C0200040C0400040C0600040C08000
310
40C0A00040C0C00040C0E00040E0000040E0200040E0400040E0600040E0800040E0A00040E0C00040E0E00080000000800020008000400080006000800080008000A0008000C0008000E00080200000802020008020400080206000802080008020A0008020C0008020E00080400000804020008040400080406000804080
310
008040A0008040C0008040E00080600000806020008060400080606000806080008060A0008060C0008060E00080800000808020008080400080806000808080008080A0008080C0008080E00080A0000080A0200080A0400080A0600080A0800080A0A00080A0C00080A0E00080C0000080C0200080C0400080C0600080C0
310
800080C0A00080C0C00080C0E00080E0000080E0200080E0400080E0600080E0800080E0A00080E0C00080E0E000C0000000C0002000C0004000C0006000C0008000C000A000C000C000C000E000C0200000C0202000C0204000C0206000C0208000C020A000C020C000C020E000C0400000C0402000C0404000C0406000C0
310
408000C040A000C040C000C040E000C0600000C0602000C0604000C0606000C0608000C060A000C060C000C060E000C0800000C0802000C0804000C0806000C0808000C080A000C080C000C080E000C0A00000C0A02000C0A04000C0A06000C0A08000C0A0A000C0A0C000C0A0E000C0C00000C0C02000C0C04000C0C06000
310
C0C08000C0C0A000F0FBFF00A4A0A000808080000000FF0000FF000000FFFF00FF000000FF00FF00FFFF0000FFFFFF0007070707070707070707070707070707070707070707070707070707070707070707070707070707070707070707070700070707070707070707070707070707070707070707070707070707070707
310
07000707070707070707070707070707070707070707070707070707070707070700070707070707070707070707070707070707070707070707070707070707070007070707070707070707070707070707070707070707070707070707070000000707070707070707070707070707070707070707070707070707070707
310
07000000070707070707070707070707070707070707070707070707070707000007000007070707070707070707070707070707070707070707070707070707000000000007070707070707070707070707070707070707070707070707070700070000000707070707070707070707070707070707070707070707070707
310
00000000000707070707070707070707070707070707070707070707070707070700070000000707070707070707070707070707070707070707070707070707000000000007070707070707070707070707070707070707070707070707070707000700000007070707070707070707070707070707070707070707070707
310
07000000000007070707070707070707070707070707070707070707070707070707000700000007070707070707070707070707070707070707070707070707070000000000070707070707070707070707070707070707070707070707070707070007000000070707070707070707070707070707070707070707070707
310
07070000000000070707070707070707070707070707070707070707070707070707070007000000070707070707070707070707070707070707070707070707070707000700000707070707070707070707070707070707070707070707070707070000000000070707070707070707070707070707070707070707070707
310
07070707000700000007070707070707070707070707070707070707070707070707070700000000070707070707070707070707070707070707070707070707070707000707000700070707070707070707070707070707070707070707070707070007070700070700070707070707070707070707070707070707070707
310
07070007070707000707070007070707070707070707070707070707070707070700000000000000000000000007070707070707070707070707070707070707070000000000000000000000000707070707070707070707070707070707070707070707070707000707070707070707070707070707070707070707070707
310
0707070707070707000707070707070707070707070707070707070707070707070707070707070707070707070707070707070707070707
102
{BLKREFS
331
A44A
102
}
  0
BLOCK_RECORD
  5
A3DB
330
1
100
AcDbSymbolTableRecord
100
AcDbBlockTableRecord
  2
8 X .625 PH
340
0
310
2800000020000000200000000100080000000000000400000000000000000000000000000000000000000000000080000080000000808000800000008000800080800000C0C0C000C0DCC000F0CAA6000020400000206000002080000020A0000020C0000020E00000400000004020000040400000406000004080000040A0
310
000040C0000040E00000600000006020000060400000606000006080000060A0000060C0000060E00000800000008020000080400000806000008080000080A0000080C0000080E00000A0000000A0200000A0400000A0600000A0800000A0A00000A0C00000A0E00000C0000000C0200000C0400000C0600000C0800000C0
310
A00000C0C00000C0E00000E0000000E0200000E0400000E0600000E0800000E0A00000E0C00000E0E00040000000400020004000400040006000400080004000A0004000C0004000E00040200000402020004020400040206000402080004020A0004020C0004020E000404000004040200040404000404060004040800040
310
40A0004040C0004040E00040600000406020004060400040606000406080004060A0004060C0004060E00040800000408020004080400040806000408080004080A0004080C0004080E00040A0000040A0200040A0400040A0600040A0800040A0A00040A0C00040A0E00040C0000040C0200040C0400040C0600040C08000
310
40C0A00040C0C00040C0E00040E0000040E0200040E0400040E0600040E0800040E0A00040E0C00040E0E00080000000800020008000400080006000800080008000A0008000C0008000E00080200000802020008020400080206000802080008020A0008020C0008020E00080400000804020008040400080406000804080
310
008040A0008040C0008040E00080600000806020008060400080606000806080008060A0008060C0008060E00080800000808020008080400080806000808080008080A0008080C0008080E00080A0000080A0200080A0400080A0600080A0800080A0A00080A0C00080A0E00080C0000080C0200080C0400080C0600080C0
310
800080C0A00080C0C00080C0E00080E0000080E0200080E0400080E0600080E0800080E0A00080E0C00080E0E000C0000000C0002000C0004000C0006000C0008000C000A000C000C000C000E000C0200000C0202000C0204000C0206000C0208000C020A000C020C000C020E000C0400000C0402000C0404000C0406000C0
310
408000C040A000C040C000C040E000C0600000C0602000C0604000C0606000C0608000C060A000C060C000C060E000C0800000C0802000C0804000C0806000C0808000C080A000C080C000C080E000C0A00000C0A02000C0A04000C0A06000C0A08000C0A0A000C0A0C000C0A0E000C0C00000C0C02000C0C04000C0C06000
310
C0C08000C0C0A000F0FBFF00A4A0A000808080000000FF0000FF000000FFFF00FF000000FF00FF00FFFF0000FFFFFF0007070707070707070707070707070707070707070707070707070707070707070707070707070707070707070707070700070707070707070707070707070707070707070707070707070707070707
310
07000707070707070707070707070707070707070707070707070707070707070700070707070707070707070707070707070707070707070707070707070707070007070707070707070707070707070707070707070707070707070707070000000707070707070707070707070707070707070707070707070707070707
310
00000000070707070707070707070707070707070707070707070707070707070007000007070707070707070707070707070707070707070707070707070700000000000007070707070707070707070707070707070707070707070707070007070000000707070707070707070707070707070707070707070707070707
310
00000000070007070707070707070707070707070707070707070707070707070007070000000707070707070707070707070707070707070707070707070707000000000700070707070707070707070707070707070707070707070707070700070700000007070707070707070707070707070707070707070707070707
310
07000000000700070707070707070707070707070707070707070707070707070700070700000007070707070707070707070707070707070707070707070707070007070007000707070707070707070707070707070707070707070707070707000000000700070707070707070707070707070707070707070707070707
310
07070007070000000707070707070707070707070707070707070707070707070707000000000700070707070707070707070707070707070707070707070707070700070700000007070707070707070707070707070707070707070707070707070000000007000707070707070707070707070707070707070707070707
310
07070700070700000007070707070707070707070707070707070707070707070707070000000007000707070707070707070707070707070707070707070707070000000000000000000007070707070707070707070707070707070707070700070707070700070707070007070707070707070707070707070707070707
310
07000000000000000000000000070707070707070707070707070707070707070707000007070700070700000707070707070707070707070707070707070707070707070000000000000707070707070707070707070707070707070707070707070707070707000707070707070707070707070707070707070707070707
310
0707070707070707000707070707070707070707070707070707070707070707070707070707070707070707070707070707070707070707
102
{BLKREFS
331
A44D
102
}
  0
ENDTAB
  0
ENDSEC
  0
SECTION
  2
BLOCKS
  0
BLOCK
  5
20
330
1F
100
AcDbEntity
  8
0
100
AcDbBlockBegin
  2
*Model_Space
 70
     0
 10
0.0
 20
0.0
 30
0.0
  3
*Model_Space
  1

  0
ENDBLK
  5
21
330
1F
100
AcDbEntity
  8
0
100
AcDbBlockEnd
  0
BLOCK
  5
5A
330
58
100
AcDbEntity
 67
     1
  8
0
100
AcDbBlockBegin
  2
*Paper_Space
 70
     0
 10
0.0
 20
0.0
 30
0.0
  3
*Paper_Space
  1

  0
ENDBLK
  5
5B
330
58
100
AcDbEntity
 67
     1
  8
0
100
AcDbBlockEnd
  0
BLOCK
  5
1A2F
330
1A2E
100
AcDbEntity
  8
0
100
AcDbBlockBegin
  2
_ArchTick
 70
     0
 10
0.0
 20
0.0
 30
0.0
  3
_ArchTick
  1

  0
LWPOLYLINE
  5
1A30
330
1A2E
100
AcDbEntity
  8
0
  6
ByBlock
 62
     0
100
AcDbPolyline
 90
        2
 70
     0
 43
0.15
 10
-0.5
 20
-0.5
 10
0.5
 20
0.5
  0
ENDBLK
  5
1A31
330
1A2E
100
AcDbEntity
  8
0
100
AcDbBlockEnd
  0
BLOCK
  5
1A33
330
1A32
100
AcDbEntity
  8
0
100
AcDbBlockBegin
  2
11HINGE
 70
     0
 10
0.0
 20
0.0
 30
0.0
  3
11HINGE
  1

  0
LINE
  5
1A34
330
1A32
100
AcDbEntity
  8
0010010007
100
AcDbLine
 10
0.219000000000001
 20
0.187
 30
0.0
 11
0.219000000000001
 21
0.156000000000001
 31
0.0
  0
LINE
  5
1A35
330
1A32
100
AcDbEntity
  8
0010010007
100
AcDbLine
 10
0.0320000000000036
 20
0.7180000000000011
 30
0.0
 11
0.0010000000000048
 21
0.7180000000000011
 31
0.0
  0
LINE
  5
1A36
330
1A32
100
AcDbEntity
  8
0010010007
100
AcDbLine
 10
0.0010000000000048
 20
0.7180000000000011
 30
0.0
 11
0.251000000000005
 21
0.7180000000000011
 31
0.0
  0
LINE
  5
1A37
330
1A32
100
AcDbEntity
  8
0010010007
100
AcDbLine
 10
0.251000000000005
 20
0.218000000000001
 30
0.0
 11
0.189000000000007
 21
0.218000000000001
 31
0.0
  0
LINE
  5
1A38
330
1A32
100
AcDbEntity
  8
0010010007
100
AcDbLine
 10
0.189000000000007
 20
0.218000000000001
 30
0.0
 11
0.189000000000007
 21
0.156000000000001
 31
0.0
  0
LINE
  5
1A39
330
1A32
100
AcDbEntity
  8
0010010007
100
AcDbLine
 10
0.189000000000007
 20
0.156000000000001
 30
0.0
 11
0.345000000000006
 21
0.156000000000001
 31
0.0
  0
LINE
  5
1A3A
330
1A32
100
AcDbEntity
  8
0010010007
100
AcDbLine
 10
0.0640000000000072
 20
0.0310000000000006
 30
0.0
 11
0.189000000000007
 21
0.0310000000000006
 31
0.0
  0
LINE
  5
1A3B
330
1A32
100
AcDbEntity
  8
0010010007
100
AcDbLine
 10
0.0320000000000036
 20
0.7180000000000011
 30
0.0
 11
0.0320000000000036
 21
0.656000000000001
 31
0.0
  0
LINE
  5
1A3C
330
1A32
100
AcDbEntity
  8
0010010007
100
AcDbLine
 10
0.0320000000000036
 20
0.656000000000001
 30
0.0
 11
0.0630000000000024
 21
0.656000000000001
 31
0.0
  0
LINE
  5
1A3D
330
1A32
100
AcDbEntity
  8
0010010007
100
AcDbLine
 10
0.0630000000000024
 20
0.656000000000001
 30
0.0
 11
0.0630000000000024
 21
0.281000000000001
 31
0.0
  0
LINE
  5
1A3E
330
1A32
100
AcDbEntity
  8
0010010007
100
AcDbLine
 10
0.0630000000000024
 20
0.281000000000001
 30
0.0
 11
0.0630000000000024
 21
0.4060000000000012
 31
0.0
  0
LINE
  5
1A3F
330
1A32
100
AcDbEntity
  8
0010010007
100
AcDbLine
 10
0.0630000000000024
 20
0.281000000000001
 30
0.0
 11
0.0630000000000024
 21
0.156000000000001
 31
0.0
  0
LINE
  5
1A40
330
1A32
100
AcDbEntity
  8
0010010007
100
AcDbLine
 10
0.0630000000000024
 20
0.156000000000001
 30
0.0
 11
0.0320000000000036
 21
0.156000000000001
 31
0.0
  0
LINE
  5
1A41
330
1A32
100
AcDbEntity
  8
0010010007
100
AcDbLine
 10
0.0320000000000036
 20
0.156000000000001
 30
0.0
 11
0.0320000000000036
 21
0.0940000000000003
 31
0.0
  0
LINE
  5
1A42
330
1A32
100
AcDbEntity
  8
0010010007
100
AcDbLine
 10
0.0320000000000036
 20
0.0940000000000003
 30
0.0
 11
0.0630000000000024
 21
0.0940000000000003
 31
0.0
  0
LINE
  5
1A43
330
1A32
100
AcDbEntity
  8
0010010007
100
AcDbLine
 10
0.0630000000000024
 20
0.0940000000000003
 30
0.0
 11
0.0630000000000024
 21
0.032
 31
0.0
  0
LINE
  5
1A44
330
1A32
100
AcDbEntity
  8
0010010007
100
AcDbLine
 10
0.4380000000000022
 20
0.7180000000000011
 30
0.0
 11
0.4380000000000022
 21
0.218000000000001
 31
0.0
  0
LINE
  5
1A45
330
1A32
100
AcDbEntity
  8
0010010007
100
AcDbLine
 10
0.360000000000007
 20
0.218000000000001
 30
0.0
 11
0.360000000000007
 21
0.7180000000000011
 31
0.0
  0
LINE
  5
1A46
330
1A32
100
AcDbEntity
  8
0010010007
100
AcDbLine
 10
0.0
 20
0.718
 30
0.0
 11
0.0
 21
0.0309999999999997
 31
0.0
  0
ARC
  5
1A47
330
1A32
100
AcDbEntity
  8
0010010007
100
AcDbCircle
 10
0.0309999999999988
 20
0.0309999999999997
 30
0.0
 40
0.031
100
AcDbArc
 50
180.0
 51
270.0
  0
LINE
  5
1A48
330
1A32
100
AcDbEntity
  8
0010010007
100
AcDbLine
 10
0.344000000000001
 20
0.156000000000001
 30
0.0
 11
0.344000000000001
 21
0.0620000000000003
 31
0.0
  0
ARC
  5
1A49
330
1A32
100
AcDbEntity
  8
0010010007
100
AcDbCircle
 10
0.313000000000002
 20
0.0620000000000003
 30
0.0
 40
0.031
100
AcDbArc
 50
270.0
 51
0.0
  0
ARC
  5
1A4A
330
1A32
100
AcDbEntity
  8
0010010007
100
AcDbCircle
 10
0.344000000000001
 20
0.0309999999999997
 30
0.0
 40
0.031
100
AcDbArc
 50
270.0
 51
0.0
  0
LINE
  5
1A4B
330
1A32
100
AcDbEntity
  8
0010010007
100
AcDbLine
 10
0.0309999999999988
 20
0.0
 30
0.0
 11
0.344000000000001
 21
0.0
 31
0.0
  0
LINE
  5
1A4C
330
1A32
100
AcDbEntity
  8
0010010007
100
AcDbLine
 10
0.219000000000001
 20
0.187
 30
0.0
 11
0.344000000000001
 21
0.187
 31
0.0
  0
ARC
  5
1A4D
330
1A32
100
AcDbEntity
  8
0010010007
100
AcDbCircle
 10
0.344000000000001
 20
0.156000000000001
 30
0.0
 40
0.031
100
AcDbArc
 50
0.0
 51
90.0
  0
LINE
  5
1A4E
330
1A32
100
AcDbEntity
  8
0010010007
100
AcDbLine
 10
0.375
 20
0.0309999999999997
 30
0.0
 11
0.375
 21
0.156000000000001
 31
0.0
  0
LINE
  5
1A4F
330
1A32
100
AcDbEntity
  8
0010010007
100
AcDbLine
 10
0.219000000000001
 20
0.156000000000001
 30
0.0
 11
0.314000000000007
 21
0.156000000000001
 31
0.0
  0
ARC
  5
1A50
330
1A32
100
AcDbEntity
  8
0010010007
100
AcDbCircle
 10
0.314000000000007
 20
0.125000000000001
 30
0.0
 40
0.031
100
AcDbArc
 50
0.0
 51
90.0
  0
LINE
  5
1A51
330
1A32
100
AcDbEntity
  8
0010010007
100
AcDbLine
 10
0.345000000000006
 20
0.0310000000000006
 30
0.0
 11
0.345000000000006
 21
0.125000000000001
 31
0.0
  0
ARC
  5
1A52
330
1A32
100
AcDbEntity
  8
0010010007
100
AcDbCircle
 10
0.282000000000004
 20
0.6870000000000011
 30
0.0
 40
0.031
100
AcDbArc
 50
90.0
 51
180.0
  0
LINE
  5
1A53
330
1A32
100
AcDbEntity
  8
0010010007
100
AcDbLine
 10
0.251000000000005
 20
0.7180000000000011
 30
0.0
 11
0.298000000000009
 21
0.7180000000000011
 31
0.0
  0
ARC
  5
1A54
330
1A32
100
AcDbEntity
  8
0010010007
100
AcDbCircle
 10
0.298000000000009
 20
0.6870000000000011
 30
0.0
 40
0.031
100
AcDbArc
 50
0.0
 51
90.0
  0
LINE
  5
1A55
330
1A32
100
AcDbEntity
  8
0010010007
100
AcDbLine
 10
0.251000000000005
 20
0.6870000000000011
 30
0.0
 11
0.251000000000005
 21
0.249000000000001
 31
0.0
  0
ARC
  5
1A56
330
1A32
100
AcDbEntity
  8
0010010007
100
AcDbCircle
 10
0.282000000000004
 20
0.249000000000001
 30
0.0
 40
0.031
100
AcDbArc
 50
180.0
 51
270.0
  0
LINE
  5
1A57
330
1A32
100
AcDbEntity
  8
0010010007
100
AcDbLine
 10
0.329000000000008
 20
0.6870000000000011
 30
0.0
 11
0.329000000000008
 21
0.249000000000001
 31
0.0
  0
ARC
  5
1A58
330
1A32
100
AcDbEntity
  8
0010010007
100
AcDbCircle
 10
0.298000000000009
 20
0.249000000000001
 30
0.0
 40
0.031
100
AcDbArc
 50
270.0
 51
0.0
  0
LINE
  5
1A59
330
1A32
100
AcDbEntity
  8
0010010007
100
AcDbLine
 10
0.282000000000004
 20
0.218000000000001
 30
0.0
 11
0.298000000000009
 21
0.218000000000001
 31
0.0
  0
LINE
  5
1A5A
330
1A32
100
AcDbEntity
  8
0010010007
100
AcDbLine
 10
0.360000000000007
 20
0.7180000000000011
 30
0.0
 11
0.4380000000000022
 21
0.7180000000000011
 31
0.0
  0
LINE
  5
1A5B
330
1A32
100
AcDbEntity
  8
0010010007
100
AcDbLine
 10
0.4380000000000022
 20
0.218000000000001
 30
0.0
 11
0.360000000000007
 21
0.218000000000001
 31
0.0
  0
LINE
  5
1A5C
330
1A32
100
AcDbEntity
  8
0010010007
100
AcDbLine
 10
0.329000000000008
 20
0.586952854598391
 30
0.0
 11
0.360000000000007
 21
0.586952854598391
 31
0.0
  0
LINE
  5
1A5D
330
1A32
100
AcDbEntity
  8
0010010007
100
AcDbLine
 10
0.328125
 20
0.358625
 30
0.0
 11
0.360000000000007
 21
0.358625
 31
0.0
  0
ARC
  5
1A5E
330
1A32
100
AcDbEntity
  8
0010010007
100
AcDbCircle
 10
0.0630000000000024
 20
0.0620000000000003
 30
0.0
 40
0.031
100
AcDbArc
 50
180.0
 51
269.9999919723101
  0
LINE
  5
1A5F
330
1A32
100
AcDbEntity
  8
0010010007
100
AcDbLine
 10
0.0320000000000036
 20
0.7180000000000011
 30
0.0
 11
0.0320000000000036
 21
0.0620000000000003
 31
0.0
  0
ARC
  5
1A60
330
1A32
100
AcDbEntity
  8
0010010007
100
AcDbCircle
 10
0.0630000000000024
 20
0.0620000000000003
 30
0.0
 40
0.031
100
AcDbArc
 50
180.0
 51
270.0
  0
LINE
  5
1A61
330
1A32
100
AcDbEntity
  8
0010010007
100
AcDbLine
 10
0.345000000000006
 20
0.0310000000000006
 30
0.0
 11
0.0630000000000024
 21
0.0310000000000006
 31
0.0
  0
LINE
  5
1A62
330
1A32
100
AcDbEntity
  8
0010010007
100
AcDbLine
 10
0.0621464456240588
 20
0.0310000000000006
 30
0.0
 11
0.313000000000002
 21
0.0310000000000006
 31
0.0
  0
LINE
  5
1A63
330
1A32
100
AcDbEntity
  8
0010010007
100
AcDbLine
 10
0.251000000000005
 20
0.218000000000001
 30
0.0
 11
0.28125
 21
0.218000000000001
 31
0.0
  0
ENDBLK
  5
1A64
330
1A32
100
AcDbEntity
  8
0
100
AcDbBlockEnd
  0
BLOCK
  5
1A66
330
1A65
100
AcDbEntity
  8
0
100
AcDbBlockBegin
  2
93OBW
 70
     0
 10
0.0
 20
0.0
 30
0.0
  3
93OBW
  1

  0
ARC
  5
1A67
330
1A65
100
AcDbEntity
  8
0010010007
100
AcDbCircle
 10
0.398000000000001
 20
0.318999999999997
 30
0.0
 40
0.015
100
AcDbArc
 50
0.0
 51
90.0
  0
LINE
  5
1A68
330
1A65
100
AcDbEntity
  8
0010010007
100
AcDbLine
 10
0.4130000000000022
 20
0.318999999999996
 30
0.0
 11
0.4130000000000022
 21
0.316
 31
0.0
  0
ARC
  5
1A69
330
1A65
100
AcDbEntity
  8
0010010007
100
AcDbCircle
 10
0.40200000000001
 20
0.323000000000002
 30
0.0
 40
0.031
100
AcDbArc
 50
359.9999999999988
 51
90.0
  0
LINE
  5
1A6A
330
1A65
100
AcDbEntity
  8
0010010007
100
AcDbLine
 10
0.0300000000000011
 20
0.250000000000004
 30
0.0
 11
0.138017246507628
 21
0.250000000000004
 31
0.0
  0
LINE
  5
1A6B
330
1A65
100
AcDbEntity
  8
0010010007
100
AcDbLine
 10
0.0800000000000072
 20
0.0573205080756924
 30
0.0
 11
0.050000000000006
 21
0.0400000000000027
 31
0.0
  0
LINE
  5
1A6C
330
1A65
100
AcDbEntity
  8
0010010007
100
AcDbLine
 10
0.080000000000009
 20
0.127320508075694
 30
0.0
 11
0.0500000000000078
 21
0.110000000000004
 31
0.0
  0
LINE
  5
1A6D
330
1A65
100
AcDbEntity
  8
0010010007
100
AcDbLine
 10
0.0
 20
0.126695508075692
 30
0.0
 11
0.0300000000000011
 21
0.109375000000002
 31
0.0
  0
LINE
  5
1A6E
330
1A65
100
AcDbEntity
  8
0010010007
100
AcDbLine
 10
0.0
 20
0.0573205080756907
 30
0.0
 11
0.0300000000000011
 21
0.0400000000000009
 31
0.0
  0
LINE
  5
1A6F
330
1A65
100
AcDbEntity
  8
0010010007
100
AcDbLine
 10
0.0
 20
0.0742242240651549
 30
0.0
 11
0.0300000000000029
 21
0.0569037159894652
 31
0.0
  0
LINE
  5
1A70
330
1A65
100
AcDbEntity
  8
0010010007
100
AcDbLine
 10
0.0
 20
0.143261682032593
 30
0.0
 11
0.0300000000000011
 21
0.125941173956903
 31
0.0
  0
LINE
  5
1A71
330
1A65
100
AcDbEntity
  8
0010010007
100
AcDbLine
 10
0.0800000000000072
 20
0.0747715805396574
 30
0.0
 11
0.050000000000006
 21
0.0574510724639676
 31
0.0
  0
LINE
  5
1A72
330
1A65
100
AcDbEntity
  8
0010010007
100
AcDbLine
 10
0.0800000000000072
 20
0.143990944821956
 30
0.0
 11
0.050000000000006
 21
0.126670436746268
 31
0.0
  0
LINE
  5
1A73
330
1A65
100
AcDbEntity
  8
0010010007
100
AcDbLine
 10
0.0
 20
0.143261682032593
 30
0.0
 11
0.0
 21
0.12669550807569
 31
0.0
  0
LINE
  5
1A74
330
1A65
100
AcDbEntity
  8
0010010007
100
AcDbLine
 10
0.0
 20
0.0573205080756907
 30
0.0
 11
0.0
 21
0.0742242240651532
 31
0.0
  0
LINE
  5
1A75
330
1A65
100
AcDbEntity
  8
0010010007
100
AcDbLine
 10
0.0800000000000072
 20
0.0573205080756924
 30
0.0
 11
0.0800000000000072
 21
0.0747715805396556
 31
0.0
  0
LINE
  5
1A76
330
1A65
100
AcDbEntity
  8
0010010007
100
AcDbLine
 10
0.0800000000000072
 20
0.143990944821956
 30
0.0
 11
0.0800000000000072
 21
0.127320508075691
 31
0.0
  0
LINE
  5
1A77
330
1A65
100
AcDbEntity
  8
0010010007
100
AcDbLine
 10
0.0300000000000011
 20
0.250000000000004
 30
0.0
 11
0.0300000000000011
 21
0.125941173956907
 31
0.0
  0
LINE
  5
1A78
330
1A65
100
AcDbEntity
  8
0010010007
100
AcDbLine
 10
0.0500000000000043
 20
0.126670436746266
 30
0.0
 11
0.0500000000000043
 21
0.23
 31
0.0
  0
LINE
  5
1A79
330
1A65
100
AcDbEntity
  8
0010010007
100
AcDbLine
 10
0.0300000000000011
 20
0.109375
 30
0.0
 11
0.0300000000000011
 21
0.0569037159894617
 31
0.0
  0
LINE
  5
1A7A
330
1A65
100
AcDbEntity
  8
0010010007
100
AcDbLine
 10
0.0500000000000043
 20
0.110000000000001
 30
0.0
 11
0.0500000000000043
 21
0.0574510724639659
 31
0.0
  0
LINE
  5
1A7B
330
1A65
100
AcDbEntity
  8
0010010007
100
AcDbLine
 10
0.0500000000000078
 20
0.0400000000000027
 30
0.0
 11
0.0500000000000078
 21
0.0
 31
0.0
  0
LINE
  5
1A7C
330
1A65
100
AcDbEntity
  8
0010010007
100
AcDbLine
 10
0.0500000000000078
 20
0.0
 30
0.0
 11
0.0300000000000047
 21
0.0
 31
0.0
  0
LINE
  5
1A7D
330
1A65
100
AcDbEntity
  8
0010010007
100
AcDbLine
 10
0.0300000000000011
 20
0.0399999999999992
 30
0.0
 11
0.0300000000000011
 21
0.0
 31
0.0
  0
ARC
  5
1A7E
330
1A65
100
AcDbEntity
  8
0010010007
100
AcDbCircle
 10
0.171000000000011
 20
0.264999999999998
 30
0.0
 40
0.015
100
AcDbArc
 50
180.0
 51
270.0
  0
LINE
  5
1A7F
330
1A65
100
AcDbEntity
  8
0010010007
100
AcDbLine
 10
0.4130000000000022
 20
0.319000004130271
 30
0.0
 11
0.4130000000000022
 21
0.264999999999999
 31
0.0
  0
ARC
  5
1A80
330
1A65
100
AcDbEntity
  8
0010010007
100
AcDbCircle
 10
0.398000000000003
 20
0.2650000000000019
 30
0.0
 40
0.015
100
AcDbArc
 50
270.0
 51
0.0
  0
LINE
  5
1A81
330
1A65
100
AcDbEntity
  8
0010010007
100
AcDbLine
 10
0.397999999999999
 20
0.25
 30
0.0
 11
0.17100000000001
 21
0.25
 31
0.0
  0
LINE
  5
1A82
330
1A65
100
AcDbEntity
  8
0010010007
100
AcDbLine
 10
0.4330000000000072
 20
0.323000000000003
 30
0.0
 11
0.4330000000000072
 21
0.261000000000005
 31
0.0
  0
ARC
  5
1A83
330
1A65
100
AcDbEntity
  8
0010010007
100
AcDbCircle
 10
0.402000000000006
 20
0.261000000000001
 30
0.0
 40
0.031
100
AcDbArc
 50
270.0
 51
359.9999999999988
  0
ARC
  5
1A84
330
1A65
100
AcDbEntity
  8
0010010007
100
AcDbCircle
 10
0.167000000000008
 20
0.260999999999999
 30
0.0
 40
0.031
100
AcDbArc
 50
180.0
 51
200.783559595846
  0
LINE
  5
1A85
330
1A65
100
AcDbEntity
  8
0010010007
100
AcDbLine
 10
0.402000000000008
 20
0.230000000000003
 30
0.0
 11
0.050000000000006
 21
0.230000000000005
 31
0.0
  0
LINE
  5
1A86
330
1A65
100
AcDbEntity
  8
0010010007
100
AcDbLine
 10
0.40200000000001
 20
0.354000000000002
 30
0.0
 11
0.167000000000009
 21
0.354000000000002
 31
0.0
  0
ARC
  5
1A87
330
1A65
100
AcDbEntity
  8
0010010007
100
AcDbCircle
 10
0.167000000000008
 20
0.323000000000002
 30
0.0
 40
0.031
100
AcDbArc
 50
90.0
 51
180.0
  0
LINE
  5
1A88
330
1A65
100
AcDbEntity
  8
0010010007
100
AcDbLine
 10
0.136000000000009
 20
0.323000000000002
 30
0.0
 11
0.136000000000009
 21
0.261
 31
0.0
  0
LINE
  5
1A89
330
1A65
100
AcDbEntity
  8
0010010007
100
AcDbLine
 10
0.398000000000001
 20
0.333999999999997
 30
0.0
 11
0.171000000000011
 21
0.333999999999997
 31
0.0
  0
ARC
  5
1A8A
330
1A65
100
AcDbEntity
  8
0010010007
100
AcDbCircle
 10
0.171000000000011
 20
0.318999999999997
 30
0.0
 40
0.015
100
AcDbArc
 50
90.0
 51
180.0
  0
LINE
  5
1A8B
330
1A65
100
AcDbEntity
  8
0010010007
100
AcDbLine
 10
0.156000000000013
 20
0.318999999999997
 30
0.0
 11
0.156000000000013
 21
0.265000000000003
 31
0.0
  0
ENDBLK
  5
1A8C
330
1A65
100
AcDbEntity
  8
0
100
AcDbBlockEnd
  0
BLOCK
  5
1A8E
330
1A8D
100
AcDbEntity
  8
0
100
AcDbBlockBegin
  2
86NPF141
 70
     0
 10
0.0
 20
0.0
 30
0.0
  3
86NPF141
  1

  0
LINE
  5
1A8F
330
1A8D
100
AcDbEntity
  8
0010010007
100
AcDbLine
 10
0.292234549170809
 20
0.292592286238269
 30
0.0
 11
0.0905816224003475
 21
0.292592286238268
 31
0.0
  0
LINE
  5
1A90
330
1A8D
100
AcDbEntity
  8
0010010007
100
AcDbLine
 10
0.292234549170809
 20
0.292592286238269
 30
0.0
 11
0.292234549170809
 21
0.0429999999999993
 31
0.0
  0
LINE
  5
1A91
330
1A8D
100
AcDbEntity
  8
0010010007
100
AcDbLine
 10
0.38175
 20
0.0916250000000005
 30
0.0
 11
0.38175
 21
0.0429999999999993
 31
0.0
  0
LINE
  5
1A92
330
1A8D
100
AcDbEntity
  8
0010010007
100
AcDbLine
 10
0.0629975848402324
 20
0.292592286238268
 30
0.0
 11
0.11998804152432
 21
0.232592286238267
 31
0.0
  0
LINE
  5
1A93
330
1A8D
100
AcDbEntity
  8
0010010007
100
AcDbLine
 10
0.0
 20
0.3125922862382669
 30
0.0
 11
0.292234549170809
 21
0.312592286238268
 31
0.0
  0
LINE
  5
1A94
330
1A8D
100
AcDbEntity
  8
0010010007
100
AcDbLine
 10
0.312234549170809
 20
0.374592286238269
 30
0.0
 11
0.312234549170809
 21
0.0429999999999993
 31
0.0
  0
LINE
  5
1A95
330
1A8D
100
AcDbEntity
  8
0010010007
100
AcDbLine
 10
0.3617500000000011
 20
0.100259966132592
 30
0.0
 11
0.3617500000000011
 21
0.046649781204545
 31
0.0
  0
LINE
  5
1A96
330
1A8D
100
AcDbEntity
  8
0010010007
100
AcDbLine
 10
0.312234549170809
 20
0.374592286238269
 30
0.0
 11
0.292234549170809
 21
0.374592286238269
 31
0.0
  0
LINE
  5
1A97
330
1A8D
100
AcDbEntity
  8
0010010007
100
AcDbLine
 10
0.0905816224003475
 20
0.292592286238268
 30
0.0
 11
0.147572079084434
 21
0.232592286238267
 31
0.0
  0
LINE
  5
1A98
330
1A8D
100
AcDbEntity
  8
0010010007
100
AcDbLine
 10
0.0
 20
0.3125922862382669
 30
0.0
 11
0.0
 21
0.292592286238268
 31
0.0
  0
ARC
  5
1A99
330
1A8D
100
AcDbEntity
  8
0010010007
100
AcDbCircle
 10
0.483527566184302
 20
0.246
 30
0.0
 40
0.046
100
AcDbArc
 50
312.198599646998
 51
81.43726286549343
  0
LINE
  5
1A9A
330
1A8D
100
AcDbEntity
  8
0010010007
100
AcDbLine
 10
0.5144258804155121
 20
0.211922233382023
 30
0.0
 11
0.38175
 21
0.0916250000000005
 31
0.0
  0
LINE
  5
1A9B
330
1A8D
100
AcDbEntity
  8
0010010007
100
AcDbLine
 10
0.3617500000000011
 20
0.100259966132592
 30
0.0
 11
0.5018334986466062
 21
0.227536716524801
 31
0.0
  0
ARC
  5
1A9C
330
1A8D
100
AcDbEntity
  8
0010010007
100
AcDbCircle
 10
0.483527566184302
 20
0.246
 30
0.0
 40
0.0259999999999999
100
AcDbArc
 50
323.4673418504359
 51
85.7257390740707
  0
LINE
  5
1A9D
330
1A8D
100
AcDbEntity
  8
0010010007
100
AcDbLine
 10
0.0
 20
0.292592286238268
 30
0.0
 11
0.0629975848402324
 21
0.292592286238268
 31
0.0
  0
LINE
  5
1A9E
330
1A8D
100
AcDbEntity
  8
0010010007
100
AcDbLine
 10
0.292234549170809
 20
0.374592286238269
 30
0.0
 11
0.292234549170809
 21
0.312592286238268
 31
0.0
  0
LINE
  5
1A9F
330
1A8D
100
AcDbEntity
  8
0010010007
100
AcDbLine
 10
0.4903766103545081
 20
0.2914872574899241
 30
0.0
 11
0.4854653657418579
 21
0.271927686608619
 31
0.0
  0
ARC
  5
1AA0
330
1A8D
100
AcDbEntity
  8
0010010007
100
AcDbCircle
 10
0.336992274585405
 20
0.0448248906022721
 30
0.0
 40
0.0248248906022726
100
AcDbArc
 50
184.215645088867
 51
355.784354911133
  0
ARC
  5
1AA1
330
1A8D
100
AcDbEntity
  8
0010010007
100
AcDbCircle
 10
0.336992274585405
 20
0.0447936509800968
 30
0.0
 40
0.044793650980097
100
AcDbArc
 50
182.294881348948
 51
357.705118651052
  0
LINE
  5
1AA2
330
1A8D
100
AcDbEntity
  8
0010010007
100
AcDbLine
 10
0.11998804152432
 20
0.232592286238267
 30
0.0
 11
0.147572079084434
 21
0.232592286238267
 31
0.0
  0
ENDBLK
  5
1AA3
330
1A8D
100
AcDbEntity
  8
0
100
AcDbBlockEnd
  0
BLOCK
  5
3142
330
3141
100
AcDbEntity
  8
0
100
AcDbBlockBegin
  2
11SCREEN
 70
     0
 10
0.0
 20
0.0
 30
0.0
  3
11SCREEN
  1

  0
LINE
  5
3143
330
3141
100
AcDbEntity
  8
0010010007
100
AcDbLine
 10
0.59375
 20
0.109375
 30
0.0
 11
0.625
 21
0.109375
 31
0.0
  0
LINE
  5
3144
330
3141
100
AcDbEntity
  8
0010010007
100
AcDbLine
 10
0.625
 20
0.109375
 30
0.0
 11
0.625
 21
0.265625000000001
 31
0.0
  0
LINE
  5
3145
330
3141
100
AcDbEntity
  8
0010010007
100
AcDbLine
 10
0.625
 20
0.109375
 30
0.0
 11
0.59375
 21
0.109375
 31
0.0
  0
LINE
  5
3146
330
3141
100
AcDbEntity
  8
0010010007
100
AcDbLine
 10
0.59375
 20
0.109375
 30
0.0
 11
0.59375
 21
0.203125
 31
0.0
  0
LINE
  5
3147
330
3141
100
AcDbEntity
  8
0010010007
100
AcDbLine
 10
0.59375
 20
0.203125
 30
0.0
 11
0.5625
 21
0.203125
 31
0.0
  0
ARC
  5
3148
330
3141
100
AcDbEntity
  8
0010010007
100
AcDbCircle
 10
0.0313999999999979
 20
0.4061
 30
0.0
 40
0.0314
100
AcDbArc
 50
90.0
 51
180.0
  0
ARC
  5
3149
330
3141
100
AcDbEntity
  8
0010010007
100
AcDbCircle
 10
0.0626499999999979
 20
0.37485
 30
0.0
 40
0.0314
100
AcDbArc
 50
90.0
 51
180.0
  0
LINE
  5
314A
330
3141
100
AcDbEntity
  8
0010010007
100
AcDbLine
 10
0.0313999999999979
 20
0.4375
 30
0.0
 11
0.6248500000000023
 21
0.4375
 31
0.0
  0
ARC
  5
314B
330
3141
100
AcDbEntity
  8
0010010007
100
AcDbCircle
 10
0.6248500000000023
 20
0.4061
 30
0.0
 40
0.0314
100
AcDbArc
 50
359.9999999999989
 51
90.0
  0
LINE
  5
314C
330
3141
100
AcDbEntity
  8
0010010007
100
AcDbLine
 10
0.0626499999999979
 20
0.40625
 30
0.0
 11
0.5936000000000023
 21
0.40625
 31
0.0
  0
ARC
  5
314D
330
3141
100
AcDbEntity
  8
0010010007
100
AcDbCircle
 10
0.5936000000000023
 20
0.37485
 30
0.0
 40
0.0314
100
AcDbArc
 50
359.9999999999989
 51
90.0
  0
LINE
  5
314E
330
3141
100
AcDbEntity
  8
0010010007
100
AcDbLine
 10
0.5625
 20
0.203125
 30
0.0
 11
0.5625
 21
0.109525
 31
0.0
  0
ARC
  5
314F
330
3141
100
AcDbEntity
  8
0010010007
100
AcDbCircle
 10
0.5938999999999979
 20
0.109525
 30
0.0
 40
0.0314
100
AcDbArc
 50
180.0
 51
270.0
  0
LINE
  5
3150
330
3141
100
AcDbEntity
  8
0010010007
100
AcDbLine
 10
0.5938999999999979
 20
0.078125
 30
0.0
 11
0.6248500000000023
 21
0.078125
 31
0.0
  0
ARC
  5
3151
330
3141
100
AcDbEntity
  8
0010010007
100
AcDbCircle
 10
0.6248500000000023
 20
0.109525
 30
0.0
 40
0.0314
100
AcDbArc
 50
270.0
 51
359.9999999999989
  0
LINE
  5
3152
330
3141
100
AcDbEntity
  8
0010010007
100
AcDbLine
 10
0.65625
 20
0.4061
 30
0.0
 11
0.65625
 21
0.109525
 31
0.0
  0
ARC
  5
3153
330
3141
100
AcDbEntity
  8
0010010007
100
AcDbCircle
 10
0.5936000000000023
 20
0.234225
 30
0.0
 40
0.0314
100
AcDbArc
 50
359.9999999999989
 51
90.0
  0
LINE
  5
3154
330
3141
100
AcDbEntity
  8
0010010007
100
AcDbLine
 10
0.625
 20
0.109375000000002
 30
0.0
 11
0.625
 21
0.234225
 31
0.0
  0
LINE
  5
3155
330
3141
100
AcDbEntity
  8
0010010007
100
AcDbLine
 10
0.5936000000000023
 20
0.265625
 30
0.0
 11
0.500149999999998
 21
0.265625
 31
0.0
  0
ARC
  5
3156
330
3141
100
AcDbEntity
  8
0010010007
100
AcDbCircle
 10
0.500149999999998
 20
0.234225
 30
0.0
 40
0.0314
100
AcDbArc
 50
90.0
 51
180.0
  0
ARC
  5
3157
330
3141
100
AcDbEntity
  8
0010010007
100
AcDbCircle
 10
0.531399999999998
 20
0.202975
 30
0.0
 40
0.0314
100
AcDbArc
 50
90.0
 51
180.0
  0
LINE
  5
3158
330
3141
100
AcDbEntity
  8
0010010007
100
AcDbLine
 10
0.531399999999998
 20
0.234375
 30
0.0
 11
0.5623500000000023
 21
0.234375
 31
0.0
  0
ARC
  5
3159
330
3141
100
AcDbEntity
  8
0010010007
100
AcDbCircle
 10
0.5623500000000023
 20
0.202975
 30
0.0
 40
0.0314
100
AcDbArc
 50
359.9999999999989
 51
90.0
  0
LINE
  5
315A
330
3141
100
AcDbEntity
  8
0010010007
100
AcDbLine
 10
0.59375
 20
0.109375000000001
 30
0.0
 11
0.59375
 21
0.202975
 31
0.0
  0
ARC
  5
315B
330
3141
100
AcDbEntity
  8
0010010007
100
AcDbCircle
 10
0.4373500000000022
 20
0.0626500000000001
 30
0.0
 40
0.0314
100
AcDbArc
 50
270.0
 51
359.9999999999989
  0
LINE
  5
315C
330
3141
100
AcDbEntity
  8
0010010007
100
AcDbLine
 10
0.46875
 20
0.234225
 30
0.0
 11
0.46875
 21
0.0626499999999997
 31
0.0
  0
ARC
  5
315D
330
3141
100
AcDbEntity
  8
0010010007
100
AcDbCircle
 10
0.4686000000000022
 20
0.0314000000000001
 30
0.0
 40
0.0314
100
AcDbArc
 50
270.0
 51
359.9999999999989
  0
LINE
  5
315E
330
3141
100
AcDbEntity
  8
0010010007
100
AcDbLine
 10
0.5
 20
0.202975
 30
0.0
 11
0.5
 21
0.0313999999999997
 31
0.0
  0
LINE
  5
315F
330
3141
100
AcDbEntity
  8
0010010007
100
AcDbLine
 10
0.03125
 20
0.37485
 30
0.0
 11
0.03125
 21
0.0626500000000001
 31
0.0
  0
ARC
  5
3160
330
3141
100
AcDbEntity
  8
0010010007
100
AcDbCircle
 10
0.0626499999999979
 20
0.0626500000000001
 30
0.0
 40
0.0314
100
AcDbArc
 50
180.0
 51
270.0
  0
LINE
  5
3161
330
3141
100
AcDbEntity
  8
0010010007
100
AcDbLine
 10
0.4373500000000022
 20
0.03125
 30
0.0
 11
0.0626499999999979
 21
0.03125
 31
0.0
  0
LINE
  5
3162
330
3141
100
AcDbEntity
  8
0010010007
100
AcDbLine
 10
0.0
 20
0.4061
 30
0.0
 11
0.0
 21
0.0314000000000001
 31
0.0
  0
ARC
  5
3163
330
3141
100
AcDbEntity
  8
0010010007
100
AcDbCircle
 10
0.0313999999999979
 20
0.0314000000000001
 30
0.0
 40
0.0314
100
AcDbArc
 50
180.0
 51
270.0
  0
LINE
  5
3164
330
3141
100
AcDbEntity
  8
0010010007
100
AcDbLine
 10
0.4686000000000022
 20
0.0
 30
0.0
 11
0.0313999999999979
 21
0.0
 31
0.0
  0
LINE
  5
3165
330
3141
100
AcDbEntity
  8
0010010007
100
AcDbLine
 10
0.625
 20
0.203125
 30
0.0
 11
0.625
 21
0.375
 31
0.0
  0
LINE
  5
3166
330
3141
100
AcDbEntity
  8
0010010007
100
AcDbLine
 10
0.5
 20
0.15625
 30
0.0
 11
0.578125
 21
0.21875
 31
0.0
  0
LINE
  5
3167
330
3141
100
AcDbEntity
  8
0010010007
100
AcDbLine
 10
0.515625
 20
0.234375
 30
0.0
 11
0.546875
 21
0.1875
 31
0.0
  0
ENDBLK
  5
3168
330
3141
100
AcDbEntity
  8
0
100
AcDbBlockEnd
  0
BLOCK
  5
8922
330
8921
100
AcDbEntity
  8
0
100
AcDbBlockBegin
  2
*D5
 70
     1
 10
0.0
 20
0.0
 30
0.0
  3
*D5
  1

  0
LINE
  5
8A8D
330
8921
100
AcDbEntity
  8
0
 62
     0
370
    -2
100
AcDbLine
 10
4044.567642280366
 20
4301.969152130339
 30
0.0
 11
4044.567642280366
 21
4302.28081892645
 31
0.0
  0
LINE
  5
8A8E
330
8921
100
AcDbEntity
  8
0
 62
     0
370
    -2
100
AcDbLine
 10
4038.005142280367
 20
4301.969152130339
 30
0.0
 11
4038.005142280367
 21
4302.28081892645
 31
0.0
  0
LINE
  5
8A8F
330
8921
100
AcDbEntity
  8
0
 62
     0
370
    -2
100
AcDbLine
 10
4044.567642280366
 20
4302.250818926451
 30
0.0
 11
4041.805076822773
 21
4302.250818926451
 31
0.0
  0
LINE
  5
8A90
330
8921
100
AcDbEntity
  8
0
 62
     0
370
    -2
100
AcDbLine
 10
4038.005142280367
 20
4302.250818926451
 30
0.0
 11
4040.767707737962
 21
4302.250818926451
 31
0.0
  0
INSERT
  5
8A91
330
8921
100
AcDbEntity
  8
0
 62
     0
370
    -2
100
AcDbBlockReference
  2
_ArchTick
 10
4044.567642280366
 20
4302.250818926451
 30
0.0
 41
0.156
 42
0.156
 43
0.156
  0
INSERT
  5
8A92
330
8921
100
AcDbEntity
  8
0
 62
     0
370
    -2
100
AcDbBlockReference
  2
_ArchTick
 10
4038.005142280367
 20
4302.250818926451
 30
0.0
 41
0.156
 42
0.156
 43
0.156
 50
180.0
  0
MTEXT
  5
8A93
330
8921
100
AcDbEntity
  8
0
 62
     0
100
AcDbMText
 10
4041.286392280367
 20
4302.453163411992
 30
0.0
 40
0.3125
 41
0.0
 71
     5
 72
     1
  1
\A1;6 9/16"
 73
     1
 44
1.0
1001
ACAD
1000
MTEXTBEGIN
1070
    73
1070
     1
1070
    44
1040
1.0
1070
    74
1070
     0
1000
MTEXTEND
  0
MTEXT
  5
8A94
330
8921
100
AcDbEntity
  8
0
 62
     0
100
AcDbMText
 10
4041.286392280367
 20
4302.030926525644
 30
0.0
 40
0.3125
 41
0.0
 71
     5
 72
     1
  1
\A1;[167mm]
 73
     1
 44
1.0
1001
ACAD
1000
MTEXTBEGIN
1070
    73
1070
     1
1070
    44
1040
1.0
1070
    74
1070
     0
1000
MTEXTEND
  0
POINT
  5
8A95
330
8921
100
AcDbEntity
  8
Defpoints
 62
     0
100
AcDbPoint
 10
4044.567642280366
 20
4301.929152130338
 30
0.0
  0
POINT
  5
8A96
330
8921
100
AcDbEntity
  8
Defpoints
 62
     0
100
AcDbPoint
 10
4038.005142280367
 20
4301.929152130339
 30
0.0
  0
POINT
  5
8A97
330
8921
100
AcDbEntity
  8
Defpoints
 62
     0
100
AcDbPoint
 10
4038.005142280367
 20
4302.250818926451
 30
0.0
  0
ENDBLK
  5
892E
330
8921
100
AcDbEntity
  8
0
100
AcDbBlockEnd
  0
BLOCK
  5
8930
330
892F
100
AcDbEntity
  8
0
100
AcDbBlockBegin
  2
*D6
 70
     1
 10
0.0
 20
0.0
 30
0.0
  3
*D6
  1

  0
LINE
  5
A53F
330
892F
100
AcDbEntity
  8
0
 62
     0
370
    -2
100
AcDbLine
 10
4045.362434424188
 20
4294.928130658077
 30
0.0
 11
4046.683382489416
 21
4294.928130658077
 31
0.0
  0
LINE
  5
A540
330
892F
100
AcDbEntity
  8
0
 62
     0
370
    -2
100
AcDbLine
 10
4045.361329890024
 20
4295.490630658078
 30
0.0
 11
4046.683382489416
 21
4295.490630658078
 31
0.0
  0
LINE
  5
A541
330
892F
100
AcDbEntity
  8
0
 62
     0
370
    -2
100
AcDbLine
 10
4046.653382489416
 20
4294.928130658077
 30
0.0
 11
4046.653382489416
 21
4295.490630658078
 31
0.0
  0
LINE
  5
A542
330
892F
100
AcDbEntity
  8
0
 62
     0
370
    -2
100
AcDbLine
 10
4046.653382489416
 20
4295.490630658078
 30
0.0
 11
4046.653382489416
 21
4296.07679421433
 31
0.0
  0
LINE
  5
A543
330
892F
100
AcDbEntity
  8
0
 62
     0
370
    -2
100
AcDbLine
 10
4046.653382489416
 20
4296.07679421433
 30
0.0
 11
4046.809382489416
 21
4296.07679421433
 31
0.0
  0
INSERT
  5
A544
330
892F
100
AcDbEntity
  8
0
 62
     0
370
    -2
100
AcDbBlockReference
  2
_ArchTick
 10
4046.653382489416
 20
4294.928130658077
 30
0.0
 41
0.156
 42
0.156
 43
0.156
 50
270.0
  0
INSERT
  5
A545
330
892F
100
AcDbEntity
  8
0
 62
     0
370
    -2
100
AcDbBlockReference
  2
_ArchTick
 10
4046.653382489416
 20
4295.490630658078
 30
0.0
 41
0.156
 42
0.156
 43
0.156
 50
90.0
  0
MTEXT
  5
A546
330
892F
100
AcDbEntity
  8
0
 62
     0
100
AcDbMText
 10
4047.339907942563
 20
4296.076794214331
 30
0.0
 40
0.3125
 41
0.0
 71
     5
 72
     1
  1
\A1;9/16"\P [14mm]
 73
     1
 44
1.0
1001
ACAD
1000
MTEXTBEGIN
1070
    73
1070
     1
1070
    44
1040
1.0
1070
    74
1070
     0
1000
MTEXTEND
  0
POINT
  5
A547
330
892F
100
AcDbEntity
  8
Defpoints
 62
     0
100
AcDbPoint
 10
4045.322434424188
 20
4294.928130658077
 30
0.0
  0
POINT
  5
A548
330
892F
100
AcDbEntity
  8
Defpoints
 62
     0
100
AcDbPoint
 10
4045.321329890025
 20
4295.490630658078
 30
0.0
  0
POINT
  5
A549
330
892F
100
AcDbEntity
  8
Defpoints
 62
     0
100
AcDbPoint
 10
4046.653382489416
 20
4295.490630658078
 30
0.0
  0
ENDBLK
  5
893D
330
892F
100
AcDbEntity
  8
0
100
AcDbBlockEnd
  0
BLOCK
  5
893F
330
893E
100
AcDbEntity
  8
0
100
AcDbBlockBegin
  2
*D7
 70
     1
 10
0.0
 20
0.0
 30
0.0
  3
*D7
  1

  0
LINE
  5
A54A
330
893E
100
AcDbEntity
  8
0
 62
     0
370
    -2
100
AcDbLine
 10
4045.362434424188
 20
4288.092022018935
 30
0.0
 11
4046.683382489416
 21
4288.092022018935
 31
0.0
  0
LINE
  5
A54B
330
893E
100
AcDbEntity
  8
0
 62
     0
370
    -2
100
AcDbLine
 10
4045.360833447294
 20
4287.404522018936
 30
0.0
 11
4046.683382489416
 21
4287.404522018936
 31
0.0
  0
LINE
  5
A54C
330
893E
100
AcDbEntity
  8
0
 62
     0
370
    -2
100
AcDbLine
 10
4046.653382489416
 20
4288.092022018935
 30
0.0
 11
4046.653382489416
 21
4287.404522018936
 31
0.0
  0
LINE
  5
A54D
330
893E
100
AcDbEntity
  8
0
 62
     0
370
    -2
100
AcDbLine
 10
4046.653382489416
 20
4287.404522018936
 30
0.0
 11
4046.653382489416
 21
4286.834882306629
 31
0.0
  0
LINE
  5
A54E
330
893E
100
AcDbEntity
  8
0
 62
     0
370
    -2
100
AcDbLine
 10
4046.653382489416
 20
4286.834882306629
 30
0.0
 11
4046.497382489416
 21
4286.834882306629
 31
0.0
  0
INSERT
  5
A54F
330
893E
100
AcDbEntity
  8
0
 62
     0
370
    -2
100
AcDbBlockReference
  2
_ArchTick
 10
4046.653382489416
 20
4288.092022018935
 30
0.0
 41
0.156
 42
0.156
 43
0.156
 50
90.0
  0
INSERT
  5
A550
330
893E
100
AcDbEntity
  8
0
 62
     0
370
    -2
100
AcDbBlockReference
  2
_ArchTick
 10
4046.653382489416
 20
4287.404522018936
 30
0.0
 41
0.156
 42
0.156
 43
0.156
 50
270.0
  0
MTEXT
  5
A551
330
893E
100
AcDbEntity
  8
0
 62
     0
100
AcDbMText
 10
4045.966857036268
 20
4286.83488230663
 30
0.0
 40
0.3125
 41
0.0
 71
     5
 72
     1
  1
\A1;11/16"\P [17mm]
 73
     1
 44
1.0
1001
ACAD
1000
MTEXTBEGIN
1070
    73
1070
     1
1070
    44
1040
1.0
1070
    74
1070
     0
1000
MTEXTEND
  0
POINT
  5
A552
330
893E
100
AcDbEntity
  8
Defpoints
 62
     0
100
AcDbPoint
 10
4045.322434424188
 20
4288.092022018935
 30
0.0
  0
POINT
  5
A553
330
893E
100
AcDbEntity
  8
Defpoints
 62
     0
100
AcDbPoint
 10
4045.320833447294
 20
4287.404522018936
 30
0.0
  0
POINT
  5
A554
330
893E
100
AcDbEntity
  8
Defpoints
 62
     0
100
AcDbPoint
 10
4046.653382489416
 20
4287.404522018936
 30
0.0
  0
ENDBLK
  5
894C
330
893E
100
AcDbEntity
  8
0
100
AcDbBlockEnd
  0
BLOCK
  5
894E
330
894D
100
AcDbEntity
  8
0
100
AcDbBlockBegin
  2
*D8
 70
     1
 10
0.0
 20
0.0
 30
0.0
  3
*D8
  1

  0
LINE
  5
A555
330
894D
100
AcDbEntity
  8
0
 62
     0
370
    -2
100
AcDbLine
 10
4045.361329890024
 20
4295.490630658078
 30
0.0
 11
4047.847234372011
 21
4295.490630658078
 31
0.0
  0
LINE
  5
A556
330
894D
100
AcDbEntity
  8
0
 62
     0
370
    -2
100
AcDbLine
 10
4045.360833447294
 20
4287.404522018936
 30
0.0
 11
4047.847234372011
 21
4287.404522018936
 31
0.0
  0
LINE
  5
A557
330
894D
100
AcDbEntity
  8
0
 62
     0
370
    -2
100
AcDbLine
 10
4047.81723437201
 20
4295.490630658078
 30
0.0
 11
4047.81723437201
 21
4291.913384733486
 31
0.0
  0
LINE
  5
A558
330
894D
100
AcDbEntity
  8
0
 62
     0
370
    -2
100
AcDbLine
 10
4047.81723437201
 20
4287.404522018936
 30
0.0
 11
4047.81723437201
 21
4290.981767943528
 31
0.0
  0
INSERT
  5
A559
330
894D
100
AcDbEntity
  8
0
 62
     0
370
    -2
100
AcDbBlockReference
  2
_ArchTick
 10
4047.81723437201
 20
4295.490630658078
 30
0.0
 41
0.156
 42
0.156
 43
0.156
 50
90.0
  0
INSERT
  5
A55A
330
894D
100
AcDbEntity
  8
0
 62
     0
370
    -2
100
AcDbBlockReference
  2
_ArchTick
 10
4047.81723437201
 20
4287.404522018936
 30
0.0
 41
0.156
 42
0.156
 43
0.156
 50
270.0
  0
MTEXT
  5
A55B
330
894D
100
AcDbEntity
  8
0
 62
     0
100
AcDbMText
 10
4047.81723437201
 20
4291.447576338508
 30
0.0
 40
0.3125
 41
0.0
 71
     5
 72
     1
  1
\A1;ROUGH\POPENING
 73
     1
 44
1.0
1001
ACAD
1000
MTEXTBEGIN
1070
    73
1070
     1
1070
    44
1040
1.0
1070
    74
1070
     0
1000
MTEXTEND
  0
POINT
  5
A55C
330
894D
100
AcDbEntity
  8
Defpoints
 62
     0
100
AcDbPoint
 10
4045.321329890025
 20
4295.490630658078
 30
0.0
  0
POINT
  5
A55D
330
894D
100
AcDbEntity
  8
Defpoints
 62
     0
100
AcDbPoint
 10
4045.320833447294
 20
4287.404522018936
 30
0.0
  0
POINT
  5
A55E
330
894D
100
AcDbEntity
  8
Defpoints
 62
     0
100
AcDbPoint
 10
4047.81723437201
 20
4287.404522018936
 30
0.0
  0
ENDBLK
  5
8959
330
894D
100
AcDbEntity
  8
0
100
AcDbBlockEnd
  0
BLOCK
  5
8968
330
8967
100
AcDbEntity
  8
0
100
AcDbBlockBegin
  2
*D9
 70
     1
 10
0.0
 20
0.0
 30
0.0
  3
*D9
  1

  0
LINE
  5
962F
330
8967
100
AcDbEntity
  8
0
 62
     0
370
    -2
100
AcDbLine
 10
4036.902142280367
 20
4296.56916270633
 30
0.0
 11
4034.228460373311
 21
4296.56916270633
 31
0.0
  0
LINE
  5
9630
330
8967
100
AcDbEntity
  8
0
 62
     0
370
    -2
100
AcDbLine
 10
4036.838796184032
 20
4286.612475628543
 30
0.0
 11
4034.228460373311
 21
4286.612475628543
 31
0.0
  0
LINE
  5
9631
330
8967
100
AcDbEntity
  8
0
 62
     0
370
    -2
100
AcDbLine
 10
4034.258460373311
 20
4296.56916270633
 30
0.0
 11
4034.258460373311
 21
4292.056627562415
 31
0.0
  0
LINE
  5
9632
330
8967
100
AcDbEntity
  8
0
 62
     0
370
    -2
100
AcDbLine
 10
4034.258460373311
 20
4286.612475628543
 30
0.0
 11
4034.258460373311
 21
4291.125010772458
 31
0.0
  0
INSERT
  5
9633
330
8967
100
AcDbEntity
  8
0
 62
     0
370
    -2
100
AcDbBlockReference
  2
_ArchTick
 10
4034.258460373311
 20
4296.56916270633
 30
0.0
 41
0.156
 42
0.156
 43
0.156
 50
90.0
  0
INSERT
  5
9634
330
8967
100
AcDbEntity
  8
0
 62
     0
370
    -2
100
AcDbBlockReference
  2
_ArchTick
 10
4034.258460373311
 20
4286.612475628543
 30
0.0
 41
0.156
 42
0.156
 43
0.156
 50
270.0
  0
MTEXT
  5
9635
330
8967
100
AcDbEntity
  8
0
 62
     0
100
AcDbMText
 10
4034.258460373311
 20
4291.590819167438
 30
0.0
 40
0.3125
 41
0.0
 71
     5
 72
     1
  1
\A1;MASONRY\POPENING
 73
     1
 44
1.0
1001
ACAD
1000
MTEXTBEGIN
1070
    73
1070
     1
1070
    44
1040
1.0
1070
    74
1070
     0
1000
MTEXTEND
  0
POINT
  5
9636
330
8967
100
AcDbEntity
  8
Defpoints
 62
     0
100
AcDbPoint
 10
4036.942142280366
 20
4296.56916270633
 30
0.0
  0
POINT
  5
9637
330
8967
100
AcDbEntity
  8
Defpoints
 62
     0
100
AcDbPoint
 10
4036.878796184033
 20
4286.612475628543
 30
0.0
  0
POINT
  5
9638
330
8967
100
AcDbEntity
  8
Defpoints
 62
     0
100
AcDbPoint
 10
4034.258460373311
 20
4286.612475628543
 30
0.0
  0
ENDBLK
  5
8973
330
8967
100
AcDbEntity
  8
0
100
AcDbBlockEnd
  0
BLOCK
  5
8975
330
8974
100
AcDbEntity
  8
0
100
AcDbBlockBegin
  2
*D10
 70
     1
 10
0.0
 20
0.0
 30
0.0
  3
*D10
  1

  0
LINE
  5
9639
330
8974
100
AcDbEntity
  8
0
 62
     0
370
    -2
100
AcDbLine
 10
4036.902142280367
 20
4296.56916270633
 30
0.0
 11
4036.019302256871
 21
4296.56916270633
 31
0.0
  0
LINE
  5
963A
330
8974
100
AcDbEntity
  8
0
 62
     0
370
    -2
100
AcDbLine
 10
4036.902142280367
 20
4296.319162706331
 30
0.0
 11
4036.019302256871
 21
4296.319162706331
 31
0.0
  0
LINE
  5
963B
330
8974
100
AcDbEntity
  8
0
 62
     0
370
    -2
100
AcDbLine
 10
4036.049302256872
 20
4296.319162706331
 30
0.0
 11
4036.049302256872
 21
4296.56916270633
 31
0.0
  0
LINE
  5
963C
330
8974
100
AcDbEntity
  8
0
 62
     0
370
    -2
100
AcDbLine
 10
4036.049302256872
 20
4296.56916270633
 30
0.0
 11
4036.049302256872
 21
4297.15992409489
 31
0.0
  0
LINE
  5
963D
330
8974
100
AcDbEntity
  8
0
 62
     0
370
    -2
100
AcDbLine
 10
4036.049302256872
 20
4297.15992409489
 30
0.0
 11
4036.205302256871
 21
4297.15992409489
 31
0.0
  0
INSERT
  5
963E
330
8974
100
AcDbEntity
  8
0
 62
     0
370
    -2
100
AcDbBlockReference
  2
_ArchTick
 10
4036.049302256872
 20
4296.319162706331
 30
0.0
 41
0.156
 42
0.156
 43
0.156
 50
270.0
  0
INSERT
  5
963F
330
8974
100
AcDbEntity
  8
0
 62
     0
370
    -2
100
AcDbBlockReference
  2
_ArchTick
 10
4036.049302256872
 20
4296.56916270633
 30
0.0
 41
0.156
 42
0.156
 43
0.156
 50
90.0
  0
MTEXT
  5
9640
330
8974
100
AcDbEntity
  8
0
 62
     0
100
AcDbMText
 10
4036.664800684127
 20
4297.159924094891
 30
0.0
 40
0.3125
 41
0.0
 71
     5
 72
     1
  1
\A1;1/4"\P [6mm]
 73
     1
 44
1.0
1001
ACAD
1000
MTEXTBEGIN
1070
    73
1070
     1
1070
    44
1040
1.0
1070
    74
1070
     0
1000
MTEXTEND
  0
POINT
  5
9641
330
8974
100
AcDbEntity
  8
Defpoints
 62
     0
100
AcDbPoint
 10
4036.942142280366
 20
4296.56916270633
 30
0.0
  0
POINT
  5
9642
330
8974
100
AcDbEntity
  8
Defpoints
 62
     0
100
AcDbPoint
 10
4036.942142280366
 20
4296.319162706331
 30
0.0
  0
POINT
  5
9643
330
8974
100
AcDbEntity
  8
Defpoints
 62
     0
100
AcDbPoint
 10
4036.049302256872
 20
4296.319162706331
 30
0.0
  0
ENDBLK
  5
8981
330
8974
100
AcDbEntity
  8
0
100
AcDbBlockEnd
  0
BLOCK
  5
8983
330
8982
100
AcDbEntity
  8
0
100
AcDbBlockBegin
  2
*D11
 70
     1
 10
0.0
 20
0.0
 30
0.0
  3
*D11
  1

  0
LINE
  5
9644
330
8982
100
AcDbEntity
  8
0
 62
     0
370
    -2
100
AcDbLine
 10
4036.838796184032
 20
4286.612475628543
 30
0.0
 11
4036.019302256871
 21
4286.612475628543
 31
0.0
  0
LINE
  5
9645
330
8982
100
AcDbEntity
  8
0
 62
     0
370
    -2
100
AcDbLine
 10
4036.857030203202
 20
4286.863689313592
 30
0.0
 11
4036.019302256871
 21
4286.863689313592
 31
0.0
  0
LINE
  5
9646
330
8982
100
AcDbEntity
  8
0
 62
     0
370
    -2
100
AcDbLine
 10
4036.049302256872
 20
4286.863689313592
 30
0.0
 11
4036.049302256872
 21
4286.612475628543
 31
0.0
  0
LINE
  5
9647
330
8982
100
AcDbEntity
  8
0
 62
     0
370
    -2
100
AcDbLine
 10
4036.049302256872
 20
4286.612475628543
 30
0.0
 11
4036.049302256872
 21
4286.043105851248
 31
0.0
  0
LINE
  5
9648
330
8982
100
AcDbEntity
  8
0
 62
     0
370
    -2
100
AcDbLine
 10
4036.049302256872
 20
4286.043105851248
 30
0.0
 11
4035.893302256872
 21
4286.043105851248
 31
0.0
  0
INSERT
  5
9649
330
8982
100
AcDbEntity
  8
0
 62
     0
370
    -2
100
AcDbBlockReference
  2
_ArchTick
 10
4036.049302256872
 20
4286.863689313592
 30
0.0
 41
0.156
 42
0.156
 43
0.156
 50
90.0
  0
INSERT
  5
964A
330
8982
100
AcDbEntity
  8
0
 62
     0
370
    -2
100
AcDbBlockReference
  2
_ArchTick
 10
4036.049302256872
 20
4286.612475628543
 30
0.0
 41
0.156
 42
0.156
 43
0.156
 50
270.0
  0
MTEXT
  5
964B
330
8982
100
AcDbEntity
  8
0
 62
     0
100
AcDbMText
 10
4035.433803829614
 20
4286.043105851249
 30
0.0
 40
0.3125
 41
0.0
 71
     5
 72
     1
  1
\A1;1/4"\P [6mm]
 73
     1
 44
1.0
1001
ACAD
1000
MTEXTBEGIN
1070
    73
1070
     1
1070
    44
1040
1.0
1070
    74
1070
     0
1000
MTEXTEND
  0
POINT
  5
964C
330
8982
100
AcDbEntity
  8
Defpoints
 62
     0
100
AcDbPoint
 10
4036.878796184033
 20
4286.612475628543
 30
0.0
  0
POINT
  5
964D
330
8982
100
AcDbEntity
  8
Defpoints
 62
     0
100
AcDbPoint
 10
4036.897030203202
 20
4286.863689313592
 30
0.0
  0
POINT
  5
964E
330
8982
100
AcDbEntity
  8
Defpoints
 62
     0
100
AcDbPoint
 10
4036.049302256872
 20
4286.863689313592
 30
0.0
  0
ENDBLK
  5
898F
330
8982
100
AcDbEntity
  8
0
100
AcDbBlockEnd
  0
BLOCK
  5
9312
330
9311
100
AcDbEntity
  8
0
100
AcDbBlockBegin
  2
_OBLIQUE
 70
     0
 10
0.0
 20
0.0
 30
0.0
  3
_OBLIQUE
  1

  0
LINE
  5
9313
330
9311
100
AcDbEntity
  8
0
  6
ByBlock
 62
     0
100
AcDbLine
 10
-0.5
 20
-0.5
 30
0.0
 11
0.5
 21
0.5
 31
0.0
  0
ENDBLK
  5
9314
330
9311
100
AcDbEntity
  8
0
100
AcDbBlockEnd
  0
BLOCK
  5
95C9
330
95C8
100
AcDbEntity
  8
0
100
AcDbBlockBegin
  2
*D13
 70
     1
 10
0.0
 20
0.0
 30
0.0
  3
*D13
  1

  0
LINE
  5
A0AA
330
95C8
100
AcDbEntity
  8
0
 62
     0
370
    -2
100
AcDbLine
 10
4036.902246814531
 20
4296.318630658078
 30
0.0
 11
4036.019302256871
 21
4296.318630658078
 31
0.0
  0
LINE
  5
A0AB
330
95C8
100
AcDbEntity
  8
0
 62
     0
370
    -2
100
AcDbLine
 10
4036.837789461656
 20
4286.862824421248
 30
0.0
 11
4036.019302256871
 21
4286.862824421248
 31
0.0
  0
LINE
  5
A0AC
330
95C8
100
AcDbEntity
  8
0
 62
     0
370
    -2
100
AcDbLine
 10
4036.049302256872
 20
4296.318630658078
 30
0.0
 11
4036.049302256872
 21
4291.793072025204
 31
0.0
  0
LINE
  5
A0AD
330
95C8
100
AcDbEntity
  8
0
 62
     0
370
    -2
100
AcDbLine
 10
4036.049302256872
 20
4286.862824421248
 30
0.0
 11
4036.049302256872
 21
4291.388383054122
 31
0.0
  0
INSERT
  5
A0AE
330
95C8
100
AcDbEntity
  8
0
 62
     0
370
    -2
100
AcDbBlockReference
  2
_ArchTick
 10
4036.049302256872
 20
4296.318630658078
 30
0.0
 41
0.156
 42
0.156
 43
0.156
 50
90.0
  0
INSERT
  5
A0AF
330
95C8
100
AcDbEntity
  8
0
 62
     0
370
    -2
100
AcDbBlockReference
  2
_ArchTick
 10
4036.049302256872
 20
4286.862824421248
 30
0.0
 41
0.156
 42
0.156
 43
0.156
 50
270.0
  0
MTEXT
  5
A0B0
330
95C8
100
AcDbEntity
  8
0
 62
     0
100
AcDbMText
 10
4036.049302256871
 20
4291.590727539664
 30
0.0
 40
0.3125
 41
0.0
 71
     5
 72
     1
  1
\A1;BRICKMOULD
 73
     1
 44
1.0
1001
ACAD
1000
MTEXTBEGIN
1070
    73
1070
     1
1070
    44
1040
1.0
1070
    74
1070
     0
1000
MTEXTEND
  0
POINT
  5
A0B1
330
95C8
100
AcDbEntity
  8
Defpoints
 62
     0
100
AcDbPoint
 10
4036.942246814532
 20
4296.318630658078
 30
0.0
  0
POINT
  5
A0B2
330
95C8
100
AcDbEntity
  8
Defpoints
 62
     0
100
AcDbPoint
 10
4036.877789461656
 20
4286.862824421248
 30
0.0
  0
POINT
  5
A0B3
330
95C8
100
AcDbEntity
  8
Defpoints
 62
     0
100
AcDbPoint
 10
4036.049302256872
 20
4286.862824421248
 30
0.0
  0
ENDBLK
  5
95CA
330
95C8
100
AcDbEntity
  8
0
100
AcDbBlockEnd
  0
BLOCK
  5
A2C0
330
A2BF
100
AcDbEntity
  8
0
100
AcDbBlockBegin
  2
*D14
 70
     1
 10
0.0
 20
0.0
 30
0.0
  3
*D14
  1

  0
LINE
  5
A535
330
A2BF
100
AcDbEntity
  8
0
 62
     0
370
    -2
100
AcDbLine
 10
4045.362434424188
 20
4294.928130658077
 30
0.0
 11
4046.683382489416
 21
4294.928130658077
 31
0.0
  0
LINE
  5
A536
330
A2BF
100
AcDbEntity
  8
0
 62
     0
370
    -2
100
AcDbLine
 10
4045.362434424188
 20
4288.092022018935
 30
0.0
 11
4046.683382489416
 21
4288.092022018935
 31
0.0
  0
LINE
  5
A537
330
A2BF
100
AcDbEntity
  8
0
 62
     0
370
    -2
100
AcDbLine
 10
4046.653382489416
 20
4294.928130658077
 30
0.0
 11
4046.653382489416
 21
4291.712420824047
 31
0.0
  0
LINE
  5
A538
330
A2BF
100
AcDbEntity
  8
0
 62
     0
370
    -2
100
AcDbLine
 10
4046.653382489416
 20
4288.092022018935
 30
0.0
 11
4046.653382489416
 21
4291.307731852965
 31
0.0
  0
INSERT
  5
A539
330
A2BF
100
AcDbEntity
  8
0
 62
     0
370
    -2
100
AcDbBlockReference
  2
_ArchTick
 10
4046.653382489416
 20
4294.928130658077
 30
0.0
 41
0.156
 42
0.156
 43
0.156
 50
90.0
  0
INSERT
  5
A53A
330
A2BF
100
AcDbEntity
  8
0
 62
     0
370
    -2
100
AcDbBlockReference
  2
_ArchTick
 10
4046.653382489416
 20
4288.092022018935
 30
0.0
 41
0.156
 42
0.156
 43
0.156
 50
270.0
  0
MTEXT
  5
A53B
330
A2BF
100
AcDbEntity
  8
0
 62
     0
100
AcDbMText
 10
4046.653382489416
 20
4291.510076338506
 30
0.0
 40
0.3125
 41
0.0
 71
     5
 72
     1
  1
\A1;BOX
 73
     1
 44
1.0
1001
ACAD
1000
MTEXTBEGIN
1070
    73
1070
     1
1070
    44
1040
1.0
1070
    74
1070
     0
1000
MTEXTEND
  0
POINT
  5
A53C
330
A2BF
100
AcDbEntity
  8
Defpoints
 62
     0
100
AcDbPoint
 10
4045.322434424188
 20
4294.928130658077
 30
0.0
  0
POINT
  5
A53D
330
A2BF
100
AcDbEntity
  8
Defpoints
 62
     0
100
AcDbPoint
 10
4045.322434424188
 20
4288.092022018935
 30
0.0
  0
POINT
  5
A53E
330
A2BF
100
AcDbEntity
  8
Defpoints
 62
     0
100
AcDbPoint
 10
4046.653382489416
 20
4288.092022018935
 30
0.0
  0
ENDBLK
  5
A2C1
330
A2BF
100
AcDbEntity
  8
0
100
AcDbBlockEnd
  0
BLOCK
  5
A392
330
A391
100
AcDbEntity
  8
0
 62
     7
370
     9
100
AcDbBlockBegin
  2
8 x .75 FH
 70
     0
 10
0.0
 20
0.0
 30
0.0
  3
8 x .75 FH
  1

  0
LINE
  5
A393
330
A391
100
AcDbEntity
  8
Screw
 62
     7
370
     9
100
AcDbLine
 10
0.0550146141445112
 20
-0.6503624430697528
 30
0.0
 11
-0.040994238129656
 21
-0.6842106249981726
 31
0.0
  0
LINE
  5
A394
330
A391
100
AcDbEntity
  8
Screw
 62
     7
370
     9
100
AcDbLine
 10
0.082499999998845
 20
-0.5862344890166469
 30
0.0
 11
-0.0718750000007731
 21
-0.6184212499980504
 31
0.0
  0
LINE
  5
A395
330
A391
100
AcDbEntity
  8
Screw
 62
     7
370
     9
100
AcDbLine
 10
0.0439236020391718
 20
-0.6439590442452073
 30
0.0
 11
0.0490410471671794
 21
-0.6316044388123601
 31
0.0
  0
LINE
  5
A396
330
A391
100
AcDbEntity
  8
Screw
 62
     7
370
     9
100
AcDbLine
 10
0.029903226022725
 20
-0.6778072261735133
 30
0.0
 11
0.0229311243443817
 21
-0.6946393686034753
 31
0.0
  0
LINE
  5
A397
330
A391
100
AcDbEntity
  8
Screw
 62
     7
370
     9
100
AcDbLine
 10
0.0578546239828484
 20
-0.6103265821309379
 30
0.0
 11
0.0490410471671794
 21
-0.6316044388123601
 31
0.0
  0
LINE
  5
A398
330
A391
100
AcDbEntity
  8
Screw
 62
     7
370
     9
100
AcDbLine
 10
-0.0000000000006821
 20
-0.749999999998181
 30
0.0
 11
-0.0229311243459733
 21
-0.6946393686034753
 31
0.0
  0
LINE
  5
A399
330
A391
100
AcDbEntity
  8
Screw
 62
     7
370
     9
100
AcDbLine
 10
-0.0718750000007731
 20
-0.6184212499980504
 30
0.0
 11
-0.0600000000014234
 21
-0.6115652155518774
 31
0.0
  0
LINE
  5
A39A
330
A391
100
AcDbEntity
  8
Screw
 62
     7
370
     9
100
AcDbLine
 10
-0.0718750000007731
 20
-0.6184212499981641
 30
0.0
 11
-0.0490410471686573
 21
-0.6316044388123601
 31
0.0
  0
LINE
  5
A39B
330
A391
100
AcDbEntity
  8
Screw
 62
     7
370
     9
100
AcDbLine
 10
-0.040994238129656
 20
-0.6842106249981726
 30
0.0
 11
-0.0299032260242029
 21
-0.6778072261735133
 31
0.0
  0
LINE
  5
A39C
330
A391
100
AcDbEntity
  8
Screw
 62
     7
370
     9
100
AcDbLine
 10
-0.040994238129656
 20
-0.6842106249981726
 30
0.0
 11
-0.0229311243459733
 21
-0.6946393686034753
 31
0.0
  0
LINE
  5
A39D
330
A391
100
AcDbEntity
  8
Screw
 62
     7
370
     9
100
AcDbLine
 10
-0.0299032260242029
 20
-0.6778072261735133
 30
0.0
 11
-0.0490410471686573
 21
-0.6316044388123601
 31
0.0
  0
LINE
  5
A39E
330
A391
100
AcDbEntity
  8
Screw
 62
     7
370
     9
100
AcDbLine
 10
0.029903226022725
 20
-0.6778072261735133
 30
0.0
 11
0.0369515003608285
 21
-0.6607911866751693
 31
0.0
  0
LINE
  5
A39F
330
A391
100
AcDbEntity
  8
Screw
 62
     7
370
     9
100
AcDbLine
 10
0.0578546239828484
 20
-0.6103265821309379
 30
0.0
 11
0.0632241464040817
 21
-0.5973634082783974
 31
0.0
  0
LINE
  5
A3A0
330
A391
100
AcDbEntity
  8
Screw
 62
     7
370
     9
100
AcDbLine
 10
0.0550146141445112
 20
-0.6503624430697528
 30
0.0
 11
0.0369515003608285
 21
-0.6607911866751693
 31
0.0
  0
LINE
  5
A3A1
330
A391
100
AcDbEntity
  8
Screw
 62
     7
370
     9
100
AcDbLine
 10
0.0550146141445112
 20
-0.6503624430697528
 30
0.0
 11
0.0439236020391718
 21
-0.6439590442452073
 31
0.0
  0
LINE
  5
A3A2
330
A391
100
AcDbEntity
  8
Screw
 62
     7
370
     9
100
AcDbLine
 10
0.0824999999986176
 20
-0.5862344890166469
 30
0.0
 11
0.063224146403968
 21
-0.5973634082782838
 31
0.0
  0
LINE
  5
A3A3
330
A391
100
AcDbEntity
  8
Screw
 62
     7
370
     9
100
AcDbLine
 10
0.0824999999986176
 20
-0.5862344890166469
 30
0.0
 11
0.0684796239821708
 21
-0.5781398211494207
 31
0.0
  0
LINE
  5
A3A4
330
A391
100
AcDbEntity
  8
Screw
 62
     7
370
     9
100
AcDbLine
 10
-0.0000000000006821
 20
-0.749999999998181
 30
0.0
 11
0.0229311243443817
 21
-0.6946393686034753
 31
0.0
  0
LINE
  5
A3A5
330
A391
100
AcDbEntity
  8
Screw
 62
     7
370
     9
100
AcDbLine
 10
0.0599999999988086
 20
-0.4018567450733599
 30
0.0
 11
0.0599999999988086
 21
-0.4416653579600052
 31
0.0
  0
LINE
  5
A3A6
330
A391
100
AcDbEntity
  8
Screw
 62
     7
370
     9
100
AcDbLine
 10
0.0824999999987313
 20
-0.3888663640167351
 30
0.0
 11
0.0599999999988086
 21
-0.4018567450733599
 31
0.0
  0
LINE
  5
A3A7
330
A391
100
AcDbEntity
  8
Screw
 62
     7
370
     9
100
AcDbLine
 10
0.0599999999988086
 20
-0.4676461200734821
 30
0.0
 11
0.0599999999988086
 21
-0.5074547329599
 31
0.0
  0
LINE
  5
A3A8
330
A391
100
AcDbEntity
  8
Screw
 62
     7
370
     9
100
AcDbLine
 10
0.0824999999987313
 20
-0.5204451140167521
 30
0.0
 11
0.0599999999988086
 21
-0.5334354950734906
 31
0.0
  0
LINE
  5
A3A9
330
A391
100
AcDbEntity
  8
Screw
 62
     7
370
     9
100
AcDbLine
 10
0.0824999999987313
 20
-0.5204451140167521
 30
0.0
 11
0.0599999999986949
 21
-0.5074547329599
 31
0.0
  0
LINE
  5
A3AA
330
A391
100
AcDbEntity
  8
Screw
 62
     7
370
     9
100
AcDbLine
 10
0.0824999999987313
 20
-0.45465573901663
 30
0.0
 11
0.0599999999988086
 21
-0.4676461200734821
 31
0.0
  0
LINE
  5
A3AB
330
A391
100
AcDbEntity
  8
Screw
 62
     7
370
     9
100
AcDbLine
 10
0.0824999999987313
 20
-0.45465573901663
 30
0.0
 11
0.0599999999988086
 21
-0.4416653579600052
 31
0.0
  0
LINE
  5
A3AC
330
A391
100
AcDbEntity
  8
Screw
 62
     7
370
     9
100
AcDbLine
 10
0.0824999999987313
 20
-0.3888663640167351
 30
0.0
 11
-0.0825000000013461
 21
-0.4176219848775418
 31
0.0
  0
LINE
  5
A3AD
330
A391
100
AcDbEntity
  8
Screw
 62
     7
370
     9
100
AcDbLine
 10
0.0824999999987313
 20
-0.5204451140167521
 30
0.0
 11
-0.0825000000013461
 21
-0.5492007348775588
 31
0.0
  0
LINE
  5
A3AE
330
A391
100
AcDbEntity
  8
Screw
 62
     7
370
     9
100
AcDbLine
 10
0.0824999999987313
 20
-0.45465573901663
 30
0.0
 11
-0.0825000000013461
 21
-0.4834113598775503
 31
0.0
  0
LINE
  5
A3AF
330
A391
100
AcDbEntity
  8
Screw
 62
     7
370
     9
100
AcDbLine
 10
0.0824999999987313
 20
-0.3888663640167351
 30
0.0
 11
0.0599999999988086
 21
-0.3758759829599967
 31
0.0
  0
LINE
  5
A3B0
330
A391
100
AcDbEntity
  8
Screw
 62
     7
370
     9
100
AcDbLine
 10
0.0824999999987313
 20
-0.5862344890167606
 30
0.0
 11
0.0599999999986949
 21
-0.5732441079599085
 31
0.0
  0
LINE
  5
A3B1
330
A391
100
AcDbEntity
  8
Screw
 62
     7
370
     9
100
AcDbLine
 10
0.0599999999988086
 20
-0.5334354950734906
 30
0.0
 11
0.0599999999988086
 21
-0.5732441079599085
 31
0.0
  0
LINE
  5
A3B2
330
A391
100
AcDbEntity
  8
Screw
 62
     7
370
     9
100
AcDbLine
 10
-0.0825000000012324
 20
-0.4834113598774366
 30
0.0
 11
-0.0600000000013097
 21
-0.4704209788208118
 31
0.0
  0
LINE
  5
A3B3
330
A391
100
AcDbEntity
  8
Screw
 62
     7
370
     9
100
AcDbLine
 10
-0.0825000000012324
 20
-0.483411359877664
 30
0.0
 11
-0.0600000000013097
 21
-0.4964017409342887
 31
0.0
  0
LINE
  5
A3B4
330
A391
100
AcDbEntity
  8
Screw
 62
     7
370
     9
100
AcDbLine
 10
-0.0825000000012324
 20
-0.5492007348775588
 30
0.0
 11
-0.0600000000013097
 21
-0.5362103538207066
 31
0.0
  0
LINE
  5
A3B5
330
A391
100
AcDbEntity
  8
Screw
 62
     7
370
     9
100
AcDbLine
 10
-0.0825000000012324
 20
-0.5492007348775588
 30
0.0
 11
-0.0600000000013097
 21
-0.5621911159342972
 31
0.0
  0
LINE
  5
A3B6
330
A391
100
AcDbEntity
  8
Screw
 62
     7
370
     9
100
AcDbLine
 10
-0.0825000000012324
 20
-0.4176219848775418
 30
0.0
 11
-0.0600000000013097
 21
-0.4306123659343939
 31
0.0
  0
LINE
  5
A3B7
330
A391
100
AcDbEntity
  8
Screw
 62
     7
370
     9
100
AcDbLine
 10
-0.0825000000012324
 20
-0.4176219848775418
 30
0.0
 11
-0.0600000000013097
 21
-0.4046316038208034
 31
0.0
  0
LINE
  5
A3B8
330
A391
100
AcDbEntity
  8
Screw
 62
     7
370
     9
100
AcDbLine
 10
-0.0600000000013097
 20
-0.5621911159342972
 30
0.0
 11
-0.0600000000013097
 21
-0.6115652155519911
 31
0.0
  0
LINE
  5
A3B9
330
A391
100
AcDbEntity
  8
Screw
 62
     7
370
     9
100
AcDbLine
 10
-0.0600000000013097
 20
-0.496401740934175
 30
0.0
 11
-0.0600000000013097
 21
-0.5362103538205929
 31
0.0
  0
LINE
  5
A3BA
330
A391
100
AcDbEntity
  8
Screw
 62
     7
370
     9
100
AcDbLine
 10
-0.0600000000013097
 20
-0.4306123659340529
 30
0.0
 11
-0.0600000000013097
 21
-0.4704209788206981
 31
0.0
  0
LINE
  5
A3BB
330
A391
100
AcDbEntity
  8
Screw
 62
     7
370
     9
100
AcDbLine
 10
0.0824999999987313
 20
-0.2572876140167182
 30
0.0
 11
0.0599999999988086
 21
-0.2442972329599797
 31
0.0
  0
LINE
  5
A3BC
330
A391
100
AcDbEntity
  8
Screw
 62
     7
370
     9
100
AcDbLine
 10
0.0824999999987313
 20
-0.323076989016613
 30
0.0
 11
-0.0825000000013461
 21
-0.3518326098775333
 31
0.0
  0
LINE
  5
A3BD
330
A391
100
AcDbEntity
  8
Screw
 62
     7
370
     9
100
AcDbLine
 10
0.0824999999987313
 20
-0.2572876140167182
 30
0.0
 11
-0.0825000000013461
 21
-0.2860432348775248
 31
0.0
  0
LINE
  5
A3BE
330
A391
100
AcDbEntity
  8
Screw
 62
     7
370
     9
100
AcDbLine
 10
0.0824999999987313
 20
-0.323076989016613
 30
0.0
 11
0.0599999999988086
 21
-0.3100866079599882
 31
0.0
  0
LINE
  5
A3BF
330
A391
100
AcDbEntity
  8
Screw
 62
     7
370
     9
100
AcDbLine
 10
0.0824999999987313
 20
-0.323076989016613
 30
0.0
 11
0.0599999999988086
 21
-0.3360673700734651
 31
0.0
  0
LINE
  5
A3C0
330
A391
100
AcDbEntity
  8
Screw
 62
     7
370
     9
100
AcDbLine
 10
0.0599999999988086
 20
-0.3360673700734651
 30
0.0
 11
0.0599999999988086
 21
-0.375875982959883
 31
0.0
  0
LINE
  5
A3C1
330
A391
100
AcDbEntity
  8
Screw
 62
     7
370
     9
100
AcDbLine
 10
0.0824999999987313
 20
-0.2572876140167182
 30
0.0
 11
0.0599999999988086
 21
-0.2702779950733429
 31
0.0
  0
LINE
  5
A3C2
330
A391
100
AcDbEntity
  8
Screw
 62
     7
370
     9
100
AcDbLine
 10
0.0599999999988086
 20
-0.2702779950733429
 30
0.0
 11
0.0599999999988086
 21
-0.3100866079599882
 31
0.0
  0
LINE
  5
A3C3
330
A391
100
AcDbEntity
  8
Screw
 62
     7
370
     9
100
AcDbLine
 10
-0.0600000000013097
 20
-0.2990336159340359
 30
0.0
 11
-0.0600000000013097
 21
-0.3388422288206812
 31
0.0
  0
LINE
  5
A3C4
330
A391
100
AcDbEntity
  8
Screw
 62
     7
370
     9
100
AcDbLine
 10
-0.0600000000013097
 20
-0.364822990934158
 30
0.0
 11
-0.0600000000013097
 21
-0.404631603820576
 31
0.0
  0
LINE
  5
A3C5
330
A391
100
AcDbEntity
  8
Screw
 62
     7
370
     9
100
AcDbLine
 10
-0.0825000000012324
 20
-0.2860432348775248
 30
0.0
 11
-0.0600000000013097
 21
-0.2730528538207864
 31
0.0
  0
LINE
  5
A3C6
330
A391
100
AcDbEntity
  8
Screw
 62
     7
370
     9
100
AcDbLine
 10
-0.0825000000012324
 20
-0.2860432348775248
 30
0.0
 11
-0.0600000000013097
 21
-0.2990336159343769
 31
0.0
  0
LINE
  5
A3C7
330
A391
100
AcDbEntity
  8
Screw
 62
     7
370
     9
100
AcDbLine
 10
-0.0825000000012324
 20
-0.351832609877647
 30
0.0
 11
-0.0600000000013097
 21
-0.3648229909342717
 31
0.0
  0
LINE
  5
A3C8
330
A391
100
AcDbEntity
  8
Screw
 62
     7
370
     9
100
AcDbLine
 10
-0.0825000000012324
 20
-0.3518326098774196
 30
0.0
 11
-0.0600000000013097
 21
-0.3388422288207948
 31
0.0
  0
LINE
  5
A3C9
330
A391
100
AcDbEntity
  8
Screw
 62
     7
370
     9
100
AcDbLine
 10
0.0599999999988086
 20
-0.2044886200734481
 30
0.0
 11
0.0599999999988086
 21
-0.244297232959866
 31
0.0
  0
LINE
  5
A3CA
330
A391
100
AcDbEntity
  8
Screw
 62
     7
370
     9
100
AcDbLine
 10
-0.0600000000013097
 20
-0.2332442409341411
 30
0.0
 11
-0.0600000000013097
 21
-0.273052853820559
 31
0.0
  0
LINE
  5
A3CB
330
A391
100
AcDbEntity
  8
Screw
 62
     7
370
     9
100
AcDbLine
 10
-0.0600000000013097
 20
-0.1430000000002565
 30
0.0
 11
-0.0600000000013097
 21
-0.2072634788206642
 31
0.0
  0
LINE
  5
A3CC
330
A391
100
AcDbEntity
  8
Screw
 62
     7
370
     9
100
AcDbLine
 10
-0.0825000000012324
 20
-0.22025385987763
 30
0.0
 11
-0.0600000000013097
 21
-0.2332442409342548
 31
0.0
  0
LINE
  5
A3CD
330
A391
100
AcDbEntity
  8
Screw
 62
     7
370
     9
100
AcDbLine
 10
-0.0825000000012324
 20
-0.2202538598774026
 30
0.0
 11
-0.0600000000013097
 21
-0.2072634788207779
 31
0.0
  0
LINE
  5
A3CE
330
A391
100
AcDbEntity
  8
Screw
 62
     7
370
     9
100
AcDbLine
 10
0.0824999999987313
 20
-0.191498239016596
 30
0.0
 11
-0.0825000000013461
 21
-0.2202538598775163
 31
0.0
  0
LINE
  5
A3CF
330
A391
100
AcDbEntity
  8
Screw
 62
     7
370
     9
100
AcDbLine
 10
0.0824999999987313
 20
-0.191498239016596
 30
0.0
 11
0.0599999999988086
 21
-0.1785078579599713
 31
0.0
  0
LINE
  5
A3D0
330
A391
100
AcDbEntity
  8
Screw
 62
     7
370
     9
100
AcDbLine
 10
0.0824999999987313
 20
-0.191498239016596
 30
0.0
 11
0.0599999999988086
 21
-0.2044886200734481
 31
0.0
  0
LINE
  5
A3D1
330
A391
100
AcDbEntity
  8
Screw
 62
     7
370
     9
100
AcDbLine
 10
0.0599999999989223
 20
-0.1430000000002565
 30
0.0
 11
0.0599999999988086
 21
-0.1785078579599713
 31
0.0
  0
LINE
  5
A3D2
330
A391
100
AcDbEntity
  8
Screw
 62
     7
370
     9
100
AcDbLine
 10
-0.1550000000002001
 20
0.0000000000001137
 30
0.0
 11
-0.1550000000020191
 21
-0.015999999999849
 31
0.0
  0
LINE
  5
A3D3
330
A391
100
AcDbEntity
  8
Screw
 62
     7
370
     9
100
AcDbLine
 10
0.1549999999986085
 20
0.0
 30
0.0
 11
0.1549999999986085
 21
-0.0159999999999627
 31
0.0
  0
LINE
  5
A3D4
330
A391
100
AcDbEntity
  8
Screw
 62
     7
370
     9
100
AcDbLine
 10
0.1549999999987222
 20
-0.0160000000006448
 30
0.0
 11
-0.155000000001337
 21
-0.0159999999999627
 31
0.0
  0
LINE
  5
A3D5
330
A391
100
AcDbEntity
  8
Screw
 62
     7
370
     9
100
AcDbLine
 10
0.1549999999987222
 20
0.0
 30
0.0
 11
-0.155000000001337
 21
0.0
 31
0.0
  0
LINE
  5
A3D6
330
A391
100
AcDbEntity
  8
Screw
 62
     7
370
     9
100
AcDbLine
 10
0.0599999999989223
 20
-0.1430000000000291
 30
0.0
 11
-0.0600000000013097
 21
-0.1430000000000291
 31
0.0
  0
LINE
  5
A3D7
330
A391
100
AcDbEntity
  8
Screw
 62
     7
370
     9
100
AcDbLine
 10
0.1549999999986085
 20
-0.0160000000006448
 30
0.0
 11
0.0599999999988086
 21
-0.1430000000001428
 31
0.0
  0
LINE
  5
A3D8
330
A391
100
AcDbEntity
  8
Screw
 62
     7
370
     9
100
AcDbLine
 10
-0.1550000000020191
 20
-0.0159999999999627
 30
0.0
 11
-0.0600000000013097
 21
-0.1430000000001428
 31
0.0
  0
LINE
  5
A3D9
330
A391
100
AcDbEntity
  8
Screw
  6
CENTER
 62
     7
370
     9
100
AcDbLine
 10
0.0
 20
0.0516137131638743
 30
0.0
 11
0.0
 21
-0.8012116686045374
 31
0.0
  0
ENDBLK
  5
A3DA
330
A391
100
AcDbEntity
  8
0
 62
     7
370
     9
100
AcDbBlockEnd
  0
BLOCK
  5
A3DC
330
A3DB
100
AcDbEntity
  8
0
 62
     5
100
AcDbBlockBegin
  2
8 X .625 PH
 70
     0
 10
0.0
 20
0.0
 30
0.0
  3
8 X .625 PH
  1

  0
LINE
  5
A3DD
330
A3DB
100
AcDbEntity
  8
Screw
  6
CENTER
 62
     7
370
     9
100
AcDbLine
 10
0.0
 20
0.1516137131640107
 30
0.0
 11
-0.0000000000001137
 21
-0.6762116686043101
 31
0.0
  0
LINE
  5
A3DE
330
A3DB
100
AcDbEntity
  8
Screw
 62
     7
370
     9
100
AcDbLine
 10
0.1549999999987222
 20
0.0400000000003047
 30
0.0
 11
0.1549999999986085
 21
0.0100000000001046
 31
0.0
  0
LINE
  5
A3DF
330
A3DB
100
AcDbEntity
  8
Screw
 62
     7
370
     9
100
AcDbLine
 10
-0.1550000000386262
 20
0.0400000000013279
 30
0.0
 11
-0.1550000000420368
 21
0.0100000000010141
 31
0.0
  0
LINE
  5
A3E0
330
A3DB
100
AcDbEntity
  8
Screw
 62
     7
370
     9
100
AcDbLine
 10
0.0599999999986949
 20
-0.0136992450730986
 30
0.0
 11
0.0599999999986949
 21
-0.0535078579597439
 31
0.0
  0
LINE
  5
A3E1
330
A3DB
100
AcDbEntity
  8
Screw
 62
     7
370
     9
100
AcDbLine
 10
0.0824999999986176
 20
-0.0007088640164739
 30
0.0
 11
0.0599999999986949
 21
-0.0136992450730986
 31
0.0
  0
LINE
  5
A3E2
330
A3DB
100
AcDbEntity
  8
Screw
 62
     7
370
     9
100
AcDbLine
 10
0.0824999999986176
 20
-0.0664982390163687
 30
0.0
 11
0.0599999999986949
 21
-0.0794886200732208
 31
0.0
  0
LINE
  5
A3E3
330
A3DB
100
AcDbEntity
  8
Screw
 62
     7
370
     9
100
AcDbLine
 10
0.0824999999986176
 20
-0.0664982390163687
 30
0.0
 11
0.0599999999986949
 21
-0.0535078579597439
 31
0.0
  0
LINE
  5
A3E4
330
A3DB
100
AcDbEntity
  8
Screw
 62
     7
370
     9
100
AcDbLine
 10
0.0824999999986176
 20
-0.0007088640164739
 30
0.0
 11
-0.0825000000014598
 21
-0.0294644848772805
 31
0.0
  0
LINE
  5
A3E5
330
A3DB
100
AcDbEntity
  8
Screw
 62
     7
370
     9
100
AcDbLine
 10
0.0824999999986176
 20
-0.0664982390163687
 30
0.0
 11
-0.0825000000014598
 21
-0.095253859877289
 31
0.0
  0
LINE
  5
A3E6
330
A3DB
100
AcDbEntity
  8
Screw
 62
     7
370
     9
100
AcDbLine
 10
0.0824999999986176
 20
-0.0007088640164739
 30
0.0
 11
0.0812722115064162
 21
0.0000000000001137
 31
0.0
  0
LINE
  5
A3E7
330
A3DB
100
AcDbEntity
  8
Screw
 62
     7
370
     9
100
AcDbLine
 10
-0.0825000000013461
 20
-0.0952538598771753
 30
0.0
 11
-0.0600000000014234
 21
-0.0822634788205505
 31
0.0
  0
LINE
  5
A3E8
330
A3DB
100
AcDbEntity
  8
Screw
 62
     7
370
     9
100
AcDbLine
 10
-0.0825000000013461
 20
-0.0952538598774027
 30
0.0
 11
-0.0600000000014234
 21
-0.1082442409340274
 31
0.0
  0
LINE
  5
A3E9
330
A3DB
100
AcDbEntity
  8
Screw
 62
     7
370
     9
100
AcDbLine
 10
-0.0825000000013461
 20
-0.0294644848772805
 30
0.0
 11
-0.0600000000014234
 21
-0.0424548659341326
 31
0.0
  0
LINE
  5
A3EA
330
A3DB
100
AcDbEntity
  8
Screw
 62
     7
370
     9
100
AcDbLine
 10
-0.0825000000013461
 20
-0.0294644848772805
 30
0.0
 11
-0.0600000000014234
 21
-0.0164741038205421
 31
0.0
  0
LINE
  5
A3EB
330
A3DB
100
AcDbEntity
  8
Screw
 62
     7
370
     9
100
AcDbLine
 10
-0.0600000000014234
 20
-0.0424548659337916
 30
0.0
 11
-0.0600000000014234
 21
-0.0822634788204369
 31
0.0
  0
LINE
  5
A3EC
330
A3DB
100
AcDbEntity
  8
Screw
 62
     7
370
     9
100
AcDbLine
 10
-0.0600000000015371
 20
0.0
 30
0.0
 11
-0.0600000000014234
 21
-0.0164741038203147
 31
0.0
  0
LINE
  5
A3ED
330
A3DB
100
AcDbEntity
  8
Screw
 62
     7
370
     9
100
AcDbLine
 10
-0.0600000000014234
 20
-0.1082442409339137
 30
0.0
 11
-0.0600000000014234
 21
-0.1480528538203316
 31
0.0
  0
LINE
  5
A3EE
330
A3DB
100
AcDbEntity
  8
Screw
 62
     7
370
     9
100
AcDbLine
 10
0.0599999999986949
 20
-0.0794886200732208
 30
0.0
 11
0.0599999999986949
 21
-0.1192972329596387
 31
0.0
  0
LINE
  5
A3EF
330
A3DB
100
AcDbEntity
  8
Screw
 62
     7
370
     9
100
AcDbLine
 10
-0.0825000000013461
 20
-0.2268326098771922
 30
0.0
 11
-0.0600000000014234
 21
-0.2138422288205675
 31
0.0
  0
LINE
  5
A3F0
330
A3DB
100
AcDbEntity
  8
Screw
 62
     7
370
     9
100
AcDbLine
 10
-0.0825000000013461
 20
-0.2268326098774196
 30
0.0
 11
-0.0600000000014234
 21
-0.2398229909340443
 31
0.0
  0
LINE
  5
A3F1
330
A3DB
100
AcDbEntity
  8
Screw
 62
     7
370
     9
100
AcDbLine
 10
-0.0825000000013461
 20
-0.1610432348772974
 30
0.0
 11
-0.0600000000014234
 21
-0.1740336159341496
 31
0.0
  0
LINE
  5
A3F2
330
A3DB
100
AcDbEntity
  8
Screw
 62
     7
370
     9
100
AcDbLine
 10
-0.0825000000013461
 20
-0.1610432348772974
 30
0.0
 11
-0.0600000000014234
 21
-0.148052853820559
 31
0.0
  0
LINE
  5
A3F3
330
A3DB
100
AcDbEntity
  8
Screw
 62
     7
370
     9
100
AcDbLine
 10
-0.0600000000014234
 20
-0.2398229909339307
 30
0.0
 11
-0.0600000000014234
 21
-0.2796316038203486
 31
0.0
  0
LINE
  5
A3F4
330
A3DB
100
AcDbEntity
  8
Screw
 62
     7
370
     9
100
AcDbLine
 10
-0.0600000000014234
 20
-0.1740336159338085
 30
0.0
 11
-0.0600000000014234
 21
-0.2138422288204538
 31
0.0
  0
LINE
  5
A3F5
330
A3DB
100
AcDbEntity
  8
Screw
 62
     7
370
     9
100
AcDbLine
 10
0.0599999999986949
 20
-0.1452779950731156
 30
0.0
 11
0.0599999999986949
 21
-0.1850866079597608
 31
0.0
  0
LINE
  5
A3F6
330
A3DB
100
AcDbEntity
  8
Screw
 62
     7
370
     9
100
AcDbLine
 10
0.0824999999986176
 20
-0.1322876140164908
 30
0.0
 11
0.0599999999986949
 21
-0.1452779950731156
 31
0.0
  0
LINE
  5
A3F7
330
A3DB
100
AcDbEntity
  8
Screw
 62
     7
370
     9
100
AcDbLine
 10
0.0599999999986949
 20
-0.2110673700732377
 30
0.0
 11
0.0599999999986949
 21
-0.2508759829596556
 31
0.0
  0
LINE
  5
A3F8
330
A3DB
100
AcDbEntity
  8
Screw
 62
     7
370
     9
100
AcDbLine
 10
0.0824999999986176
 20
-0.1980769890163856
 30
0.0
 11
0.0599999999986949
 21
-0.2110673700732377
 31
0.0
  0
LINE
  5
A3F9
330
A3DB
100
AcDbEntity
  8
Screw
 62
     7
370
     9
100
AcDbLine
 10
0.0824999999986176
 20
-0.1980769890163856
 30
0.0
 11
0.0599999999986949
 21
-0.1850866079597608
 31
0.0
  0
LINE
  5
A3FA
330
A3DB
100
AcDbEntity
  8
Screw
 62
     7
370
     9
100
AcDbLine
 10
0.0824999999986176
 20
-0.1322876140164908
 30
0.0
 11
-0.0825000000014598
 21
-0.1610432348772974
 31
0.0
  0
LINE
  5
A3FB
330
A3DB
100
AcDbEntity
  8
Screw
 62
     7
370
     9
100
AcDbLine
 10
0.0824999999986176
 20
-0.1980769890163856
 30
0.0
 11
-0.0825000000014598
 21
-0.2268326098773059
 31
0.0
  0
LINE
  5
A3FC
330
A3DB
100
AcDbEntity
  8
Screw
 62
     7
370
     9
100
AcDbLine
 10
0.0824999999986176
 20
-0.1322876140164908
 30
0.0
 11
0.0599999999986949
 21
-0.1192972329597524
 31
0.0
  0
LINE
  5
A3FD
330
A3DB
100
AcDbEntity
  8
Screw
 62
     7
370
     9
100
AcDbLine
 10
-0.0600000000014234
 20
-0.3056123659338255
 30
0.0
 11
-0.0600000000014234
 21
-0.3454209788204707
 31
0.0
  0
LINE
  5
A3FE
330
A3DB
100
AcDbEntity
  8
Screw
 62
     7
370
     9
100
AcDbLine
 10
-0.0600000000014234
 20
-0.3714017409339476
 30
0.0
 11
-0.0600000000014234
 21
-0.4112103538203656
 31
0.0
  0
LINE
  5
A3FF
330
A3DB
100
AcDbEntity
  8
Screw
 62
     7
370
     9
100
AcDbLine
 10
-0.0600000000014234
 20
-0.4371911159340698
 30
0.0
 11
-0.0600000000014234
 21
-0.4865652155517637
 31
0.0
  0
LINE
  5
A400
330
A3DB
100
AcDbEntity
  8
Screw
 62
     7
370
     9
100
AcDbLine
 10
-0.0825000000013461
 20
-0.2926219848773144
 30
0.0
 11
-0.0600000000014234
 21
-0.2796316038205759
 31
0.0
  0
LINE
  5
A401
330
A3DB
100
AcDbEntity
  8
Screw
 62
     7
370
     9
100
AcDbLine
 10
-0.0825000000013461
 20
-0.2926219848773144
 30
0.0
 11
-0.0600000000014234
 21
-0.3056123659341665
 31
0.0
  0
LINE
  5
A402
330
A3DB
100
AcDbEntity
  8
Screw
 62
     7
370
     9
100
AcDbLine
 10
-0.0825000000013461
 20
-0.4242007348773314
 30
0.0
 11
-0.0600000000014234
 21
-0.4371911159340698
 31
0.0
  0
LINE
  5
A403
330
A3DB
100
AcDbEntity
  8
Screw
 62
     7
370
     9
100
AcDbLine
 10
-0.0825000000013461
 20
-0.4242007348773314
 30
0.0
 11
-0.0600000000014234
 21
-0.4112103538204793
 31
0.0
  0
LINE
  5
A404
330
A3DB
100
AcDbEntity
  8
Screw
 62
     7
370
     9
100
AcDbLine
 10
-0.0825000000013461
 20
-0.3584113598774365
 30
0.0
 11
-0.0600000000014234
 21
-0.3714017409340613
 31
0.0
  0
LINE
  5
A405
330
A3DB
100
AcDbEntity
  8
Screw
 62
     7
370
     9
100
AcDbLine
 10
-0.0825000000013461
 20
-0.3584113598772092
 30
0.0
 11
-0.0600000000014234
 21
-0.3454209788205844
 31
0.0
  0
LINE
  5
A406
330
A3DB
100
AcDbEntity
  8
Screw
 62
     7
370
     9
100
AcDbLine
 10
0.0599999999986949
 20
-0.4084354950732632
 30
0.0
 11
0.0599999999986949
 21
-0.4482441079596811
 31
0.0
  0
LINE
  5
A407
330
A3DB
100
AcDbEntity
  8
Screw
 62
     7
370
     9
100
AcDbLine
 10
0.0824999999986176
 20
-0.4612344890165332
 30
0.0
 11
0.0599999999985812
 21
-0.4482441079596811
 31
0.0
  0
LINE
  5
A408
330
A3DB
100
AcDbEntity
  8
Screw
 62
     7
370
     9
100
AcDbLine
 10
0.0824999999986176
 20
-0.2638663640165078
 30
0.0
 11
0.0599999999986949
 21
-0.2508759829597693
 31
0.0
  0
LINE
  5
A409
330
A3DB
100
AcDbEntity
  8
Screw
 62
     7
370
     9
100
AcDbLine
 10
0.0824999999986176
 20
-0.3296557390164025
 30
0.0
 11
-0.0825000000014598
 21
-0.3584113598773229
 31
0.0
  0
LINE
  5
A40A
330
A3DB
100
AcDbEntity
  8
Screw
 62
     7
370
     9
100
AcDbLine
 10
0.0824999999986176
 20
-0.3954451140165247
 30
0.0
 11
-0.0825000000014598
 21
-0.4242007348773314
 31
0.0
  0
LINE
  5
A40B
330
A3DB
100
AcDbEntity
  8
Screw
 62
     7
370
     9
100
AcDbLine
 10
0.0824999999986176
 20
-0.2638663640165078
 30
0.0
 11
-0.0825000000014598
 21
-0.2926219848773144
 31
0.0
  0
LINE
  5
A40C
330
A3DB
100
AcDbEntity
  8
Screw
 62
     7
370
     9
100
AcDbLine
 10
0.0824999999986176
 20
-0.3296557390164025
 30
0.0
 11
0.0599999999986949
 21
-0.3166653579597778
 31
0.0
  0
LINE
  5
A40D
330
A3DB
100
AcDbEntity
  8
Screw
 62
     7
370
     9
100
AcDbLine
 10
0.0824999999986176
 20
-0.3296557390164025
 30
0.0
 11
0.0599999999986949
 21
-0.3426461200732547
 31
0.0
  0
LINE
  5
A40E
330
A3DB
100
AcDbEntity
  8
Screw
 62
     7
370
     9
100
AcDbLine
 10
0.0824999999986176
 20
-0.3954451140165247
 30
0.0
 11
0.0599999999985812
 21
-0.3824547329596726
 31
0.0
  0
LINE
  5
A40F
330
A3DB
100
AcDbEntity
  8
Screw
 62
     7
370
     9
100
AcDbLine
 10
0.0824999999986176
 20
-0.3954451140165247
 30
0.0
 11
0.0599999999986949
 21
-0.4084354950732632
 31
0.0
  0
LINE
  5
A410
330
A3DB
100
AcDbEntity
  8
Screw
 62
     7
370
     9
100
AcDbLine
 10
0.0599999999986949
 20
-0.3426461200732547
 30
0.0
 11
0.0599999999986949
 21
-0.3824547329596726
 31
0.0
  0
LINE
  5
A411
330
A3DB
100
AcDbEntity
  8
Screw
 62
     7
370
     9
100
AcDbLine
 10
0.0824999999986176
 20
-0.2638663640165078
 30
0.0
 11
0.0599999999986949
 21
-0.2768567450731325
 31
0.0
  0
LINE
  5
A412
330
A3DB
100
AcDbEntity
  8
Screw
 62
     7
370
     9
100
AcDbLine
 10
0.0599999999986949
 20
-0.2768567450731325
 30
0.0
 11
0.0599999999986949
 21
-0.3166653579597778
 31
0.0
  0
LINE
  5
A413
330
A3DB
100
AcDbEntity
  8
Screw
 62
     7
370
     9
100
AcDbLine
 10
-0.0000000000007958
 20
-0.6249999999979537
 30
0.0
 11
0.022931124344268
 21
-0.569639368603248
 31
0.0
  0
LINE
  5
A414
330
A3DB
100
AcDbEntity
  8
Screw
 62
     7
370
     9
100
AcDbLine
 10
0.0824999999985039
 20
-0.4612344890164195
 30
0.0
 11
0.0684796239820571
 21
-0.4531398211491933
 31
0.0
  0
LINE
  5
A415
330
A3DB
100
AcDbEntity
  8
Screw
 62
     7
370
     9
100
AcDbLine
 10
0.0824999999985039
 20
-0.4612344890164195
 30
0.0
 11
0.0632241464038543
 21
-0.4723634082780564
 31
0.0
  0
LINE
  5
A416
330
A3DB
100
AcDbEntity
  8
Screw
 62
     7
370
     9
100
AcDbLine
 10
0.0550146141443975
 20
-0.5253624430695254
 30
0.0
 11
0.0439236020390581
 21
-0.5189590442449799
 31
0.0
  0
LINE
  5
A417
330
A3DB
100
AcDbEntity
  8
Screw
 62
     7
370
     9
100
AcDbLine
 10
0.0550146141443975
 20
-0.5253624430695254
 30
0.0
 11
0.0369515003607148
 21
-0.5357911866749419
 31
0.0
  0
LINE
  5
A418
330
A3DB
100
AcDbEntity
  8
Screw
 62
     7
370
     9
100
AcDbLine
 10
0.0578546239827347
 20
-0.4853265821307105
 30
0.0
 11
0.063224146403968
 21
-0.4723634082781701
 31
0.0
  0
LINE
  5
A419
330
A3DB
100
AcDbEntity
  8
Screw
 62
     7
370
     9
100
AcDbLine
 10
0.0299032260226113
 20
-0.552807226173286
 30
0.0
 11
0.0369515003607148
 21
-0.5357911866749419
 31
0.0
  0
LINE
  5
A41A
330
A3DB
100
AcDbEntity
  8
Screw
 62
     7
370
     9
100
AcDbLine
 10
-0.0299032260243166
 20
-0.552807226173286
 30
0.0
 11
-0.049041047168771
 21
-0.5066044388121327
 31
0.0
  0
LINE
  5
A41B
330
A3DB
100
AcDbEntity
  8
Screw
 62
     7
370
     9
100
AcDbLine
 10
-0.0409942381297697
 20
-0.5592106249979452
 30
0.0
 11
-0.022931124346087
 21
-0.569639368603248
 31
0.0
  0
LINE
  5
A41C
330
A3DB
100
AcDbEntity
  8
Screw
 62
     7
370
     9
100
AcDbLine
 10
-0.0409942381297697
 20
-0.5592106249979452
 30
0.0
 11
-0.0299032260243166
 21
-0.552807226173286
 31
0.0
  0
LINE
  5
A41D
330
A3DB
100
AcDbEntity
  8
Screw
 62
     7
370
     9
100
AcDbLine
 10
-0.0718750000008868
 20
-0.4934212499979367
 30
0.0
 11
-0.049041047168771
 21
-0.5066044388121327
 31
0.0
  0
LINE
  5
A41E
330
A3DB
100
AcDbEntity
  8
Screw
 62
     7
370
     9
100
AcDbLine
 10
-0.0718750000008868
 20
-0.493421249997823
 30
0.0
 11
-0.0600000000015371
 21
-0.48656521555165
 31
0.0
  0
LINE
  5
A41F
330
A3DB
100
AcDbEntity
  8
Screw
 62
     7
370
     9
100
AcDbLine
 10
-0.0000000000007958
 20
-0.6249999999979537
 30
0.0
 11
-0.022931124346087
 21
-0.569639368603248
 31
0.0
  0
LINE
  5
A420
330
A3DB
100
AcDbEntity
  8
Screw
 62
     7
370
     9
100
AcDbLine
 10
0.0578546239827347
 20
-0.4853265821307105
 30
0.0
 11
0.0490410471670657
 21
-0.5066044388121327
 31
0.0
  0
LINE
  5
A421
330
A3DB
100
AcDbEntity
  8
Screw
 62
     7
370
     9
100
AcDbLine
 10
0.0299032260226113
 20
-0.552807226173286
 30
0.0
 11
0.022931124344268
 21
-0.569639368603248
 31
0.0
  0
LINE
  5
A422
330
A3DB
100
AcDbEntity
  8
Screw
 62
     7
370
     9
100
AcDbLine
 10
0.0439236020390581
 20
-0.5189590442449799
 30
0.0
 11
0.0490410471670657
 21
-0.5066044388121327
 31
0.0
  0
LINE
  5
A423
330
A3DB
100
AcDbEntity
  8
Screw
 62
     7
370
     9
100
AcDbLine
 10
0.0824999999987313
 20
-0.4612344890164195
 30
0.0
 11
-0.0718750000008868
 21
-0.493421249997823
 31
0.0
  0
LINE
  5
A424
330
A3DB
100
AcDbEntity
  8
Screw
 62
     7
370
     9
100
AcDbLine
 10
0.0550146141443975
 20
-0.5253624430695254
 30
0.0
 11
-0.0409942381297697
 21
-0.5592106249979452
 31
0.0
  0
LINE
  5
A425
330
A3DB
100
AcDbEntity
  8
Screw
 62
     7
370
     9
100
AcDbLine
 10
-0.1450000000420459
 20
-0.0000000000001137
 30
0.0
 11
0.1449999999986176
 21
0.0000000000001137
 31
0.0
  0
LINE
  5
A426
330
A3DB
100
AcDbEntity
  8
Screw
 62
     7
370
     9
100
AcDbLine
 10
-0.1450000000385216
 20
0.0500000000004093
 30
0.0
 11
0.1449999999986176
 21
0.050000000000523
 31
0.0
  0
ARC
  5
A427
330
A3DB
100
AcDbEntity
  8
Screw
 62
     7
370
     9
100
AcDbCircle
 10
0.1449999999986176
 20
0.0100000000001046
 30
0.0
 40
0.01
100
AcDbArc
 50
270.0
 51
0.0
  0
ARC
  5
A428
330
A3DB
100
AcDbEntity
  8
Screw
 62
     7
370
     9
100
AcDbCircle
 10
-0.1450000000420459
 20
0.0099999999998772
 30
0.0
 40
0.01
100
AcDbArc
 50
179.9999999934667
 51
270.0
  0
LINE
  5
A429
330
A3DB
100
AcDbEntity
  8
Screw
 62
     7
370
     9
100
AcDbLine
 10
-0.0570000000392383
 20
0.1000000000004775
 30
0.0
 11
0.0569999999995616
 21
0.1000000000003638
 31
0.0
  0
ARC
  5
A42A
330
A3DB
100
AcDbEntity
  8
Screw
 62
     7
370
     9
100
AcDbCircle
 10
0.1449999999986176
 20
0.0400000000003047
 30
0.0
 40
0.01
100
AcDbArc
 50
0.0
 51
90.0
  0
ARC
  5
A42B
330
A3DB
100
AcDbEntity
  8
Screw
 62
     7
370
     9
100
AcDbCircle
 10
-0.1450000000385216
 20
0.040000000000191
 30
0.0
 40
0.01
100
AcDbArc
 50
90.0
 51
179.9999999934862
  0
ARC
  5
A42C
330
A3DB
100
AcDbEntity
  8
Screw
 62
     7
370
     9
100
AcDbCircle
 10
-0.0000000000198952
 20
-0.1142505253642412
 30
0.0
 40
0.2217031520327291
100
AcDbArc
 50
46.77058113432305
 51
75.10191228261263
  0
ARC
  5
A42D
330
A3DB
100
AcDbEntity
  8
Screw
 62
     7
370
     9
100
AcDbCircle
 10
-0.0000000000198952
 20
-0.1142505253642412
 30
0.0
 40
0.2217031520327291
100
AcDbArc
 50
104.8980877173874
 51
133.2294188657414
  0
ENDBLK
  5
A42E
330
A3DB
100
AcDbEntity
  8
0
 62
     5
100
AcDbBlockEnd
  0
ENDSEC
  0
SECTION
  2
ENTITIES
  0
TEXT
  5
8A2E
330
1F
100
AcDbEntity
  8
0
  6
Continuous
100
AcDbText
 10
4037.839010601509
 20
4284.147377337296
 30
0.0
 40
0.375
  1
%%UPICTURE WINDOW - TYPICAL WALL SECTION DETAIL
 41
0.6
 51
5.0
  7
DIMTXT
100
AcDbText
  0
LINE
  5
8A3C
330
1F
100
AcDbEntity
  8
0
100
AcDbLine
 10
4037.972750371801
 20
4287.404522018936
 30
0.0
 11
4044.567145837637
 21
4287.404522018934
 31
0.0
  0
LINE
  5
8A3D
330
1F
100
AcDbEntity
  8
0
100
AcDbLine
 10
4037.972750371801
 20
4287.404522018936
 30
0.0
 11
4037.972750371801
 21
4285.133105112275
 31
0.0
  0
LINE
  5
8A3E
330
1F
100
AcDbEntity
  8
0
100
AcDbLine
 10
4038.597750371802
 20
4287.404522018936
 30
0.0
 11
4038.597750371802
 21
4285.133105112275
 31
0.0
  0
LINE
  5
8A3F
330
1F
100
AcDbEntity
  8
0
100
AcDbLine
 10
4044.567145837637
 20
4287.404522018936
 30
0.0
 11
4044.567145837637
 21
4285.133105112275
 31
0.0
  0
LINE
  5
8A40
330
1F
100
AcDbEntity
  8
0
100
AcDbLine
 10
4043.942145837637
 20
4287.404522018936
 30
0.0
 11
4043.942145837637
 21
4285.133105112275
 31
0.0
  0
LINE
  5
8A41
330
1F
100
AcDbEntity
  8
0
100
AcDbLine
 10
4038.597750371802
 20
4285.904522018936
 30
0.0
 11
4043.942145837637
 21
4285.904522018936
 31
0.0
  0
LINE
  5
8A42
330
1F
100
AcDbEntity
  8
0
100
AcDbLine
 10
4038.597750371802
 20
4287.404522018936
 30
0.0
 11
4043.942145837637
 21
4285.904522018936
 31
0.0
  0
LINE
  5
8A43
330
1F
100
AcDbEntity
  8
0
100
AcDbLine
 10
4043.942145837637
 20
4287.404522018934
 30
0.0
 11
4038.597750371802
 21
4285.904522018936
 31
0.0
  0
LINE
  5
8A44
330
1F
100
AcDbEntity
  8
0
100
AcDbLine
 10
4038.005142280367
 20
4295.490630658078
 30
0.0
 11
4044.567642280366
 21
4295.490630658078
 31
0.0
  0
LINE
  5
8A45
102
{ACAD_REACTORS
330
8A79
102
}
330
1F
100
AcDbEntity
  8
0
100
AcDbLine
 10
4038.005142280367
 20
4295.490630658078
 30
0.0
 11
4038.005142280367
 21
4301.929152130338
 31
0.0
  0
LINE
  5
8A46
102
{ACAD_REACTORS
330
8A79
102
}
330
1F
100
AcDbEntity
  8
0
100
AcDbLine
 10
4044.567642280366
 20
4295.490630658078
 30
0.0
 11
4044.567642280366
 21
4301.929152130338
 31
0.0
  0
LINE
  5
8A47
330
1F
100
AcDbEntity
  8
0
100
AcDbLine
 10
4043.942642280367
 20
4295.490630658078
 30
0.0
 11
4043.942642280367
 21
4301.929152130338
 31
0.0
  0
LINE
  5
8A48
330
1F
100
AcDbEntity
  8
0
100
AcDbLine
 10
4038.630142280367
 20
4295.490630658078
 30
0.0
 11
4038.630142280367
 21
4301.929152130338
 31
0.0
  0
LINE
  5
8A49
330
1F
100
AcDbEntity
  8
0
100
AcDbLine
 10
4040.130142280367
 20
4295.490630658078
 30
0.0
 11
4040.130142280367
 21
4300.990630658078
 31
0.0
  0
LINE
  5
8A4A
330
1F
100
AcDbEntity
  8
0
100
AcDbLine
 10
4042.442642280366
 20
4295.490630658078
 30
0.0
 11
4042.442642280366
 21
4300.990630658079
 31
0.0
  0
LINE
  5
8A4B
330
1F
100
AcDbEntity
  8
0
100
AcDbLine
 10
4041.630142280367
 20
4295.490630658078
 30
0.0
 11
4041.630142280366
 21
4300.990630658079
 31
0.0
  0
LINE
  5
8A4C
330
1F
100
AcDbEntity
  8
0
100
AcDbLine
 10
4038.630142280367
 20
4300.990630658078
 30
0.0
 11
4043.942642280367
 21
4300.990630658076
 31
0.0
  0
LINE
  5
8A4D
330
1F
100
AcDbEntity
  8
0
100
AcDbLine
 10
4038.630142280367
 20
4300.990630658078
 30
0.0
 11
4040.130142280367
 21
4295.490630658078
 31
0.0
  0
LINE
  5
8A4E
330
1F
100
AcDbEntity
  8
0
100
AcDbLine
 10
4040.130142280367
 20
4300.990630658078
 30
0.0
 11
4038.630142280367
 21
4295.490630658078
 31
0.0
  0
LINE
  5
8A4F
330
1F
100
AcDbEntity
  8
0
100
AcDbLine
 10
4040.130142280367
 20
4300.990630658078
 30
0.0
 11
4041.630142280367
 21
4295.490630658078
 31
0.0
  0
LINE
  5
8A50
330
1F
100
AcDbEntity
  8
0
100
AcDbLine
 10
4041.630142280366
 20
4300.990630658079
 30
0.0
 11
4040.130142280367
 21
4295.490630658078
 31
0.0
  0
LINE
  5
8A51
330
1F
100
AcDbEntity
  8
0
100
AcDbLine
 10
4042.442642280366
 20
4300.990630658079
 30
0.0
 11
4043.942642280367
 21
4295.490630658078
 31
0.0
  0
LINE
  5
8A52
330
1F
100
AcDbEntity
  8
0
100
AcDbLine
 10
4043.942642280367
 20
4300.990630658076
 30
0.0
 11
4042.442642280366
 21
4295.490630658078
 31
0.0
  0
DIMENSION
  5
8A77
102
{ACAD_XDICTIONARY
360
8A78
102
}
102
{ACAD_REACTORS
330
8A79
102
}
330
1F
100
AcDbEntity
  8
0
100
AcDbDimension
  2
*D5
 10
4038.005142280367
 20
4302.250818926451
 30
0.0
 11
4041.286392280367
 21
4302.250818926451
 31
0.0
 70
    32
 71
     5
 42
6.562499999999545
  3
Knife
100
AcDbAlignedDimension
 13
4044.567642280366
 23
4301.929152130338
 33
0.0
 14
4038.005142280367
 24
4301.929152130339
 34
0.0
100
AcDbRotatedDimension
1001
ACAD
1000
DSTYLE
1002
{
1070
    40
1040
1.0
1002
}
  0
DIMENSION
  5
8A7A
330
1F
100
AcDbEntity
  8
0
100
AcDbDimension
  2
*D6
 10
4046.653382489416
 20
4295.490630658078
 30
0.0
 11
4047.339907942563
 21
4296.076794214331
 31
0.0
 70
   160
 71
     5
 42
0.5625000000009095
  3
Knife
100
AcDbAlignedDimension
 13
4045.322434424188
 23
4294.928130658077
 33
0.0
 14
4045.321329890025
 24
4295.490630658078
 34
0.0
 50
90.0
100
AcDbRotatedDimension
1001
ACAD
1000
DSTYLE
1002
{
1070
    40
1040
1.0
1002
}
  0
DIMENSION
  5
8A7D
330
1F
100
AcDbEntity
  8
0
100
AcDbDimension
  2
*D7
 10
4046.653382489416
 20
4287.404522018936
 30
0.0
 11
4045.966857036268
 21
4286.83488230663
 31
0.0
 70
   160
 71
     5
 42
0.6875
  3
Knife
100
AcDbAlignedDimension
 13
4045.322434424188
 23
4288.092022018935
 33
0.0
 14
4045.320833447294
 24
4287.404522018936
 34
0.0
 50
90.0
100
AcDbRotatedDimension
1001
ACAD
1000
DSTYLE
1002
{
1070
    40
1040
1.0
1002
}
  0
DIMENSION
  5
8A80
330
1F
100
AcDbEntity
  8
0
100
AcDbDimension
  2
*D8
 10
4047.81723437201
 20
4287.404522018936
 30
0.0
 11
4047.81723437201
 21
4291.447576338508
 31
0.0
 70
    32
  1
ROUGH\POPENING
 71
     5
 42
8.086108639143276
  3
Knife
100
AcDbAlignedDimension
 13
4045.321329890025
 23
4295.490630658078
 33
0.0
 14
4045.320833447294
 24
4287.404522018936
 34
0.0
 50
90.0
100
AcDbRotatedDimension
1001
ACAD
1000
DSTYLE
1002
{
1070
    40
1040
1.0
1002
}
  0
DIMENSION
  5
8A86
330
1F
100
AcDbEntity
  8
0
100
AcDbDimension
  2
*D9
 10
4034.258460373311
 20
4286.612475628543
 30
0.0
 11
4034.258460373311
 21
4291.590819167438
 31
0.0
 70
    32
  1
MASONRY\POPENING
 71
     5
 42
9.956687077787137
  3
Knife
100
AcDbAlignedDimension
 13
4036.942142280366
 23
4296.56916270633
 33
0.0
 14
4036.878796184033
 24
4286.612475628543
 34
0.0
 50
90.0
100
AcDbRotatedDimension
1001
ACAD
1000
DSTYLE
1002
{
1070
    40
1040
1.0
1002
}
  0
DIMENSION
  5
8A87
330
1F
100
AcDbEntity
  8
0
100
AcDbDimension
  2
*D10
 10
4036.049302256872
 20
4296.319162706331
 30
0.0
 11
4036.664800684127
 21
4297.159924094891
 31
0.0
 70
   160
 71
     5
 42
0.25
  3
Knife
100
AcDbAlignedDimension
 13
4036.942142280366
 23
4296.56916270633
 33
0.0
 14
4036.942142280366
 24
4296.319162706331
 34
0.0
 50
90.0
100
AcDbRotatedDimension
1001
ACAD
1000
DSTYLE
1002
{
1070
    40
1040
1.0
1002
}
  0
DIMENSION
  5
8A8A
330
1F
100
AcDbEntity
  8
0
100
AcDbDimension
  2
*D11
 10
4036.049302256872
 20
4286.863689313592
 30
0.0
 11
4035.433803829614
 21
4286.043105851249
 31
0.0
 70
   160
 71
     5
 42
0.251213685048242
  3
Knife
100
AcDbAlignedDimension
 13
4036.878796184033
 23
4286.612475628543
 33
0.0
 14
4036.897030203202
 24
4286.863689313592
 34
0.0
 50
90.0
100
AcDbRotatedDimension
1001
ACAD
1000
DSTYLE
1002
{
1070
    40
1040
1.0
1002
}
  0
LWPOLYLINE
  5
926C
330
1F
100
AcDbEntity
  8
0
100
AcDbPolyline
 90
        8
 70
     1
 43
0.0
 10
4042.317642280368
 20
4288.105609798146
 10
4042.361307116143
 20
4288.353245387432
 10
4043.760411240185
 20
4288.106545581542
 10
4044.568642280368
 20
4288.106545581542
 10
4044.568642280368
 20
4288.747545581542
 42
0.4142135623730951
 10
4044.553642280368
 20
4288.762545581542
 10
4041.505642280368
 20
4288.762545581542
 10
4041.505642280368
 20
4288.105609798146
  0
LWPOLYLINE
  5
9273
330
1F
100
AcDbEntity
  8
0
100
AcDbPolyline
 90
        8
 70
     1
 43
0.0
 10
4042.317746814531
 20
4294.913566441472
 10
4042.361411650307
 20
4294.665930852187
 10
4043.760515774349
 20
4294.912630658077
 10
4044.568746814531
 20
4294.912630658077
 10
4044.568746814531
 20
4294.271630658077
 42
-0.4142135623730951
 10
4044.553746814531
 20
4294.256630658077
 10
4041.505746814531
 20
4294.256630658077
 10
4041.505746814531
 20
4294.913566441472
  0
LWPOLYLINE
  5
9328
330
1F
100
AcDbEntity
  8
0
100
AcDbPolyline
 90
       16
 70
     1
 43
0.0
 10
4044.877621814531
 20
4294.521630658077
 10
4044.568746814531
 20
4294.521630658077
 10
4044.568746814531
 20
4295.162255658077
 10
4044.599996814531
 20
4295.162255658077
 10
4044.599996814531
 20
4296.162255658077
 10
4044.568746814531
 20
4296.162255658077
 10
4044.568746814531
 20
4297.021880658076
 10
4045.134996814531
 20
4297.021880658076
 42
-0.4142135623730951
 10
4045.22874681453
 20
4296.928130658076
 10
4045.22874681453
 20
4296.326743870807
 10
4045.154237708478
 20
4296.237124363337
 42
-0.178511114434531
 10
4045.150636278107
 20
4295.892530544021
 10
4045.022466160403
 20
4295.520859898602
 42
0.1267001916795028
 10
4044.995244647856
 20
4295.133680040093
 10
4044.95574681453
 20
4295.055370241523
 10
4044.95574681453
 20
4294.599755658077
 42
-0.4142135623730951
  0
LWPOLYLINE
  5
9329
330
1F
100
AcDbEntity
  8
0
100
AcDbPolyline
 90
       16
 70
     1
 43
0.0
 10
4044.877621814531
 20
4288.373522018939
 10
4044.568746814531
 20
4288.373522018939
 10
4044.568746814531
 20
4287.73289701894
 10
4044.599996814531
 20
4287.73289701894
 10
4044.599996814531
 20
4286.732897018938
 10
4044.568746814531
 20
4286.732897018938
 10
4044.568746814531
 20
4285.87327201894
 10
4045.134996814531
 20
4285.87327201894
 42
0.4142135623730951
 10
4045.22874681453
 20
4285.967022018939
 10
4045.22874681453
 20
4286.568408806209
 10
4045.154237708478
 20
4286.658028313678
 42
0.178511114434531
 10
4045.150636278107
 20
4287.002622132995
 10
4045.022466160403
 20
4287.374292778413
 42
-0.1267001916795028
 10
4044.995244647856
 20
4287.761472636923
 10
4044.95574681453
 20
4287.839782435493
 10
4044.95574681453
 20
4288.295397018939
 42
0.4142135623730951
  0
DIMENSION
  5
95C7
330
1F
100
AcDbEntity
  8
0
100
AcDbDimension
  2
*D13
 10
4036.049302256872
 20
4286.862824421248
 30
0.0
 11
4036.049302256871
 21
4291.590727539664
 31
0.0
 70
    32
  1
BRICKMOULD
 71
     5
 42
9.45580623682963
  3
Knife
100
AcDbAlignedDimension
 13
4036.942246814532
 23
4296.318630658078
 33
0.0
 14
4036.877789461656
 24
4286.862824421248
 34
0.0
 50
90.0
100
AcDbRotatedDimension
1001
ACAD
1000
DSTYLE
1002
{
1070
    40
1040
1.0
1002
}
  0
LWPOLYLINE
  5
9B7C
330
1F
100
AcDbEntity
  8
0
100
AcDbPolyline
 90
       19
 70
     0
 43
0.0
 10
4036.753208427959
 20
4286.992183954228
 10
4036.753208427959
 20
4287.870038724882
 42
-0.3738846794848057
 10
4036.860811790339
 20
4287.993822233476
 10
4037.911750371801
 20
4288.141522018935
 10
4038.3787503718
 20
4288.141522018935
 10
4038.394546290934
 20
4288.168881353427
 10
4038.598750371801
 20
4288.168881353427
 10
4038.598750371801
 20
4288.091522018936
 10
4039.191750371801
 20
4288.091522018936
 10
4039.191750371801
 20
4287.404522018936
 10
4037.972750371801
 20
4287.404522018936
 10
4037.972750371801
 20
4287.154522018935
 10
4037.347750371801
 20
4287.154522018935
 10
4037.347750371801
 20
4286.927522018936
 10
4037.144512864283
 20
4286.898958849986
 10
4037.127116226663
 20
4287.022742358578
 42
0.4075784039076131
 10
4036.970656204935
 20
4286.874524889963
 10
4036.896038166431
 20
4286.864038008547
 42
-0.4663076581549987
 10
4036.753717675433
 20
4286.992183954228
  0
LWPOLYLINE
  5
9B7D
330
1F
100
AcDbEntity
  8
0
100
AcDbPolyline
 90
       15
 70
     0
 43
0.0
 10
4037.004142280366
 20
4294.486865541901
 42
0.4142135623730951
 10
4037.066142280366
 20
4294.424865541901
 10
4037.943142280366
 20
4294.424865541901
 10
4037.943142280366
 20
4295.674865541901
 10
4038.005142280366
 20
4295.674865541901
 10
4038.005142280366
 20
4296.299865541901
 10
4036.942142280366
 20
4296.299865541901
 42
0.4142135623731003
 10
4036.880142280366
 20
4296.237865541901
 10
4036.880142280366
 20
4295.705865541901
 42
0.4142135623730951
 10
4036.911142280366
 20
4295.674865541901
 10
4036.942142280366
 20
4295.674865541901
 10
4036.942142280366
 20
4295.455865541901
 42
0.4142135623730951
 10
4036.973142280366
 20
4295.424865541901
 10
4037.004142280366
 20
4295.424865541901
 10
4037.004142280366
 20
4294.486865551371
  0
LWPOLYLINE
  5
9B97
330
1F
100
AcDbEntity
  8
0
100
AcDbPolyline
 90
       10
 70
     1
 43
0.0
 10
4041.418007791786
 20
4289.144484599185
 10
4041.418007791786
 20
4289.300193819514
 10
4040.418671817593
 20
4289.449545581542
 10
4040.418671817593
 20
4289.324545581542
 10
4040.449671817594
 20
4289.324545581542
 42
-0.4142135623730951
 10
4040.511671817593
 20
4289.262545581542
 10
4040.511671817593
 20
4288.762545581542
 10
4041.668787868883
 20
4288.762545581543
 10
4041.668787868883
 20
4288.959484599184
 10
4041.619180643112
 20
4288.959484599184
 42
0.3899024490717824
  0
LWPOLYLINE
  5
9B98
330
1F
100
AcDbEntity
  8
0
100
AcDbPolyline
 90
       22
 70
     0
 43
0.0
 10
4039.026671817604
 20
4288.091522018936
 42
-0.9999999999999998
 10
4039.151671817605
 20
4288.091522018936
 10
4039.151671817605
 20
4288.091522018936
 10
4039.912642282588
 20
4288.091569144152
 42
-0.9999999999999998
 10
4040.162642278146
 20
4288.091522018936
 10
4040.905407053426
 20
4288.091522018936
 42
-1.000377072827568
 10
4041.030407044543
 20
4288.091522018936
 10
4041.505642280366
 20
4288.091522018936
 10
4041.505642280368
 20
4288.762545581542
 10
4039.214171817604
 20
4288.762545581543
 10
4039.212548496566
 20
4288.669545581544
 10
4038.965795138643
 20
4288.669545581544
 10
4038.964171817603
 20
4288.762545581543
 10
4037.974142280368
 20
4288.762545581543
 42
0.4142135623730951
 10
4037.943142280368
 20
4288.731545581543
 10
4037.943142280368
 20
4288.141545581543
 10
4038.380142280367
 20
4288.141545581543
 10
4038.381451410237
 20
4288.216545581543
 10
4038.628792379448
 20
4288.216545581543
 10
4038.628792379448
 20
4288.091522018936
 10
4039.026671817604
 20
4288.091522018936
 10
4038.628792379448
 20
4288.091522018936
  0
LWPOLYLINE
  5
9B99
330
1F
100
AcDbEntity
  8
0
100
AcDbPolyline
 90
       16
 70
     1
 43
0.0
 10
4038.401671817605
 20
4288.762545581544
 42
-0.6666666666638874
 10
4038.589171817605
 20
4288.762545581542
 10
4038.995073379161
 20
4288.762545581543
 10
4039.003206989235
 20
4288.684545581545
 10
4039.212548496565
 20
4288.684545581545
 10
4039.214171817604
 20
4288.762545581543
 10
4039.589171817603
 20
4288.762545581544
 10
4039.589171817603
 20
4289.137545581544
 42
-0.6666666666635842
 10
4039.589171817602
 20
4289.325045581544
 10
4039.589171817602
 20
4289.450045581544
 10
4038.870671817603
 20
4289.349066991809
 42
0.2357304941606106
 10
4038.845895623027
 20
4289.336698690131
 10
4038.66719658589
 20
4289.09906699181
 10
4038.303357451473
 20
4289.047932736162
 42
0.3738846794818547
 10
4038.276671817603
 20
4289.01723442603
 10
4038.276671817604
 20
4288.762545581541
  0
LINE
  5
9B9A
330
1F
100
AcDbEntity
  8
0
100
AcDbLine
 10
4040.418671817593
 20
4289.449545581542
 30
0.0
 11
4040.418671817593
 21
4289.324545581542
 31
0.0
  0
LINE
  5
9B9B
330
1F
100
AcDbEntity
  8
0
100
AcDbLine
 10
4040.418671817593
 20
4289.324545581542
 30
0.0
 11
4040.449671817594
 21
4289.324545581542
 31
0.0
  0
ARC
  5
9B9C
330
1F
100
AcDbEntity
  8
0
100
AcDbCircle
 10
4040.449671817594
 20
4289.262545581542
 30
0.0
 40
0.0619999999998981
100
AcDbArc
 50
0.0
 51
90.0
  0
LINE
  5
9B9D
330
1F
100
AcDbEntity
  8
0
100
AcDbLine
 10
4040.511671817593
 20
4289.262545581542
 30
0.0
 11
4040.511671817593
 21
4288.762545581542
 31
0.0
  0
LINE
  5
9B9E
330
1F
100
AcDbEntity
  8
0
100
AcDbLine
 10
4039.589171817594
 20
4289.450045581543
 30
0.0
 11
4039.589171817594
 21
4289.325045581543
 31
0.0
  0
LINE
  5
9B9F
330
1F
100
AcDbEntity
  8
0
100
AcDbLine
 10
4039.589171817594
 20
4289.137545581543
 30
0.0
 11
4039.589171817595
 21
4288.762545581543
 31
0.0
  0
LINE
  5
9BA0
330
1F
100
AcDbEntity
  8
0
100
AcDbLine
 10
4040.418718445931
 20
4289.015059891993
 30
0.0
 11
4040.418718445931
 21
4288.762545581543
 31
0.0
  0
POLYLINE
  5
9BA1
330
1F
100
AcDbEntity
  8
0
100
AcDb3dPolyline
 66
     1
 10
0.0
 20
0.0
 30
0.0
 70
     8
  0
VERTEX
  5
9BA2
330
9BA1
100
AcDbEntity
  8
0
100
AcDbVertex
100
AcDb3dPolylineVertex
 10
4040.449717482118
 20
4289.324546693029
 30
0.0
 70
    32
  0
VERTEX
  5
9BA3
330
9BA1
100
AcDbEntity
  8
0
100
AcDbVertex
100
AcDb3dPolylineVertex
 10
4040.450477482119
 20
4289.324536693029
 30
0.0
 70
    32
  0
VERTEX
  5
9BA4
330
9BA1
100
AcDbEntity
  8
0
100
AcDbVertex
100
AcDb3dPolylineVertex
 10
4040.451237482119
 20
4289.324526693029
 30
0.0
 70
    32
  0
VERTEX
  5
9BA5
330
9BA1
100
AcDbEntity
  8
0
100
AcDbVertex
100
AcDb3dPolylineVertex
 10
4040.451997482119
 20
4289.324506693028
 30
0.0
 70
    32
  0
VERTEX
  5
9BA6
330
9BA1
100
AcDbEntity
  8
0
100
AcDbVertex
100
AcDb3dPolylineVertex
 10
4040.452757482119
 20
4289.324466693028
 30
0.0
 70
    32
  0
VERTEX
  5
9BA7
330
9BA1
100
AcDbEntity
  8
0
100
AcDbVertex
100
AcDb3dPolylineVertex
 10
4040.453517482119
 20
4289.324426693029
 30
0.0
 70
    32
  0
VERTEX
  5
9BA8
330
9BA1
100
AcDbEntity
  8
0
100
AcDbVertex
100
AcDb3dPolylineVertex
 10
4040.454277482118
 20
4289.324376693029
 30
0.0
 70
    32
  0
VERTEX
  5
9BA9
330
9BA1
100
AcDbEntity
  8
0
100
AcDbVertex
100
AcDb3dPolylineVertex
 10
4040.455037482119
 20
4289.324316693028
 30
0.0
 70
    32
  0
VERTEX
  5
9BAA
330
9BA1
100
AcDbEntity
  8
0
100
AcDbVertex
100
AcDb3dPolylineVertex
 10
4040.455797482119
 20
4289.324246693029
 30
0.0
 70
    32
  0
VERTEX
  5
9BAB
330
9BA1
100
AcDbEntity
  8
0
100
AcDbVertex
100
AcDb3dPolylineVertex
 10
4040.456547482119
 20
4289.324166693028
 30
0.0
 70
    32
  0
VERTEX
  5
9BAC
330
9BA1
100
AcDbEntity
  8
0
100
AcDbVertex
100
AcDb3dPolylineVertex
 10
4040.457307482118
 20
4289.324076693028
 30
0.0
 70
    32
  0
VERTEX
  5
9BAD
330
9BA1
100
AcDbEntity
  8
0
100
AcDbVertex
100
AcDb3dPolylineVertex
 10
4040.458057482118
 20
4289.323976693029
 30
0.0
 70
    32
  0
VERTEX
  5
9BAE
330
9BA1
100
AcDbEntity
  8
0
100
AcDbVertex
100
AcDb3dPolylineVertex
 10
4040.458817482118
 20
4289.323876693028
 30
0.0
 70
    32
  0
VERTEX
  5
9BAF
330
9BA1
100
AcDbEntity
  8
0
100
AcDbVertex
100
AcDb3dPolylineVertex
 10
4040.459567482119
 20
4289.323756693028
 30
0.0
 70
    32
  0
VERTEX
  5
9BB0
330
9BA1
100
AcDbEntity
  8
0
100
AcDbVertex
100
AcDb3dPolylineVertex
 10
4040.460317482119
 20
4289.323636693029
 30
0.0
 70
    32
  0
VERTEX
  5
9BB1
330
9BA1
100
AcDbEntity
  8
0
100
AcDbVertex
100
AcDb3dPolylineVertex
 10
4040.461067482119
 20
4289.323496693028
 30
0.0
 70
    32
  0
VERTEX
  5
9BB2
330
9BA1
100
AcDbEntity
  8
0
100
AcDbVertex
100
AcDb3dPolylineVertex
 10
4040.461817482118
 20
4289.323356693028
 30
0.0
 70
    32
  0
VERTEX
  5
9BB3
330
9BA1
100
AcDbEntity
  8
0
100
AcDbVertex
100
AcDb3dPolylineVertex
 10
4040.462557482118
 20
4289.323196693028
 30
0.0
 70
    32
  0
VERTEX
  5
9BB4
330
9BA1
100
AcDbEntity
  8
0
100
AcDbVertex
100
AcDb3dPolylineVertex
 10
4040.463307482119
 20
4289.323036693028
 30
0.0
 70
    32
  0
VERTEX
  5
9BB5
330
9BA1
100
AcDbEntity
  8
0
100
AcDbVertex
100
AcDb3dPolylineVertex
 10
4040.464047482119
 20
4289.322866693029
 30
0.0
 70
    32
  0
VERTEX
  5
9BB6
330
9BA1
100
AcDbEntity
  8
0
100
AcDbVertex
100
AcDb3dPolylineVertex
 10
4040.464787482118
 20
4289.322686693028
 30
0.0
 70
    32
  0
VERTEX
  5
9BB7
330
9BA1
100
AcDbEntity
  8
0
100
AcDbVertex
100
AcDb3dPolylineVertex
 10
4040.465517482118
 20
4289.322496693028
 30
0.0
 70
    32
  0
VERTEX
  5
9BB8
330
9BA1
100
AcDbEntity
  8
0
100
AcDbVertex
100
AcDb3dPolylineVertex
 10
4040.466257482119
 20
4289.322296693028
 30
0.0
 70
    32
  0
VERTEX
  5
9BB9
330
9BA1
100
AcDbEntity
  8
0
100
AcDbVertex
100
AcDb3dPolylineVertex
 10
4040.466987482118
 20
4289.322096693028
 30
0.0
 70
    32
  0
VERTEX
  5
9BBA
330
9BA1
100
AcDbEntity
  8
0
100
AcDbVertex
100
AcDb3dPolylineVertex
 10
4040.467717482118
 20
4289.321876693029
 30
0.0
 70
    32
  0
VERTEX
  5
9BBB
330
9BA1
100
AcDbEntity
  8
0
100
AcDbVertex
100
AcDb3dPolylineVertex
 10
4040.468447482118
 20
4289.321646693029
 30
0.0
 70
    32
  0
VERTEX
  5
9BBC
330
9BA1
100
AcDbEntity
  8
0
100
AcDbVertex
100
AcDb3dPolylineVertex
 10
4040.469167482118
 20
4289.321416693028
 30
0.0
 70
    32
  0
VERTEX
  5
9BBD
330
9BA1
100
AcDbEntity
  8
0
100
AcDbVertex
100
AcDb3dPolylineVertex
 10
4040.469887482118
 20
4289.321176693029
 30
0.0
 70
    32
  0
VERTEX
  5
9BBE
330
9BA1
100
AcDbEntity
  8
0
100
AcDbVertex
100
AcDb3dPolylineVertex
 10
4040.470607482119
 20
4289.320916693029
 30
0.0
 70
    32
  0
VERTEX
  5
9BBF
330
9BA1
100
AcDbEntity
  8
0
100
AcDbVertex
100
AcDb3dPolylineVertex
 10
4040.471317482118
 20
4289.320656693028
 30
0.0
 70
    32
  0
VERTEX
  5
9BC0
330
9BA1
100
AcDbEntity
  8
0
100
AcDbVertex
100
AcDb3dPolylineVertex
 10
4040.472027482119
 20
4289.320386693029
 30
0.0
 70
    32
  0
VERTEX
  5
9BC1
330
9BA1
100
AcDbEntity
  8
0
100
AcDbVertex
100
AcDb3dPolylineVertex
 10
4040.472737482118
 20
4289.320116693028
 30
0.0
 70
    32
  0
VERTEX
  5
9BC2
330
9BA1
100
AcDbEntity
  8
0
100
AcDbVertex
100
AcDb3dPolylineVertex
 10
4040.473447482119
 20
4289.319826693028
 30
0.0
 70
    32
  0
VERTEX
  5
9BC3
330
9BA1
100
AcDbEntity
  8
0
100
AcDbVertex
100
AcDb3dPolylineVertex
 10
4040.474147482119
 20
4289.319526693029
 30
0.0
 70
    32
  0
VERTEX
  5
9BC4
330
9BA1
100
AcDbEntity
  8
0
100
AcDbVertex
100
AcDb3dPolylineVertex
 10
4040.474847482118
 20
4289.319226693029
 30
0.0
 70
    32
  0
VERTEX
  5
9BC5
330
9BA1
100
AcDbEntity
  8
0
100
AcDbVertex
100
AcDb3dPolylineVertex
 10
4040.475537482119
 20
4289.318916693029
 30
0.0
 70
    32
  0
VERTEX
  5
9BC6
330
9BA1
100
AcDbEntity
  8
0
100
AcDbVertex
100
AcDb3dPolylineVertex
 10
4040.476227482119
 20
4289.318596693028
 30
0.0
 70
    32
  0
VERTEX
  5
9BC7
330
9BA1
100
AcDbEntity
  8
0
100
AcDbVertex
100
AcDb3dPolylineVertex
 10
4040.476917482119
 20
4289.318266693029
 30
0.0
 70
    32
  0
VERTEX
  5
9BC8
330
9BA1
100
AcDbEntity
  8
0
100
AcDbVertex
100
AcDb3dPolylineVertex
 10
4040.477597482118
 20
4289.317926693029
 30
0.0
 70
    32
  0
VERTEX
  5
9BC9
330
9BA1
100
AcDbEntity
  8
0
100
AcDbVertex
100
AcDb3dPolylineVertex
 10
4040.478267482119
 20
4289.317576693028
 30
0.0
 70
    32
  0
VERTEX
  5
9BCA
330
9BA1
100
AcDbEntity
  8
0
100
AcDbVertex
100
AcDb3dPolylineVertex
 10
4040.478947482118
 20
4289.317226693028
 30
0.0
 70
    32
  0
VERTEX
  5
9BCB
330
9BA1
100
AcDbEntity
  8
0
100
AcDbVertex
100
AcDb3dPolylineVertex
 10
4040.479617482119
 20
4289.316866693028
 30
0.0
 70
    32
  0
VERTEX
  5
9BCC
330
9BA1
100
AcDbEntity
  8
0
100
AcDbVertex
100
AcDb3dPolylineVertex
 10
4040.480277482118
 20
4289.316486693029
 30
0.0
 70
    32
  0
VERTEX
  5
9BCD
330
9BA1
100
AcDbEntity
  8
0
100
AcDbVertex
100
AcDb3dPolylineVertex
 10
4040.480937482119
 20
4289.316116693028
 30
0.0
 70
    32
  0
VERTEX
  5
9BCE
330
9BA1
100
AcDbEntity
  8
0
100
AcDbVertex
100
AcDb3dPolylineVertex
 10
4040.481597482119
 20
4289.315726693028
 30
0.0
 70
    32
  0
VERTEX
  5
9BCF
330
9BA1
100
AcDbEntity
  8
0
100
AcDbVertex
100
AcDb3dPolylineVertex
 10
4040.482247482119
 20
4289.315326693028
 30
0.0
 70
    32
  0
VERTEX
  5
9BD0
330
9BA1
100
AcDbEntity
  8
0
100
AcDbVertex
100
AcDb3dPolylineVertex
 10
4040.482887482118
 20
4289.314926693029
 30
0.0
 70
    32
  0
VERTEX
  5
9BD1
330
9BA1
100
AcDbEntity
  8
0
100
AcDbVertex
100
AcDb3dPolylineVertex
 10
4040.483527482119
 20
4289.314516693028
 30
0.0
 70
    32
  0
VERTEX
  5
9BD2
330
9BA1
100
AcDbEntity
  8
0
100
AcDbVertex
100
AcDb3dPolylineVertex
 10
4040.484167482119
 20
4289.314096693028
 30
0.0
 70
    32
  0
VERTEX
  5
9BD3
330
9BA1
100
AcDbEntity
  8
0
100
AcDbVertex
100
AcDb3dPolylineVertex
 10
4040.484797482118
 20
4289.313666693028
 30
0.0
 70
    32
  0
VERTEX
  5
9BD4
330
9BA1
100
AcDbEntity
  8
0
100
AcDbVertex
100
AcDb3dPolylineVertex
 10
4040.485417482119
 20
4289.313236693028
 30
0.0
 70
    32
  0
VERTEX
  5
9BD5
330
9BA1
100
AcDbEntity
  8
0
100
AcDbVertex
100
AcDb3dPolylineVertex
 10
4040.486037482119
 20
4289.312796693028
 30
0.0
 70
    32
  0
VERTEX
  5
9BD6
330
9BA1
100
AcDbEntity
  8
0
100
AcDbVertex
100
AcDb3dPolylineVertex
 10
4040.486647482119
 20
4289.312346693029
 30
0.0
 70
    32
  0
VERTEX
  5
9BD7
330
9BA1
100
AcDbEntity
  8
0
100
AcDbVertex
100
AcDb3dPolylineVertex
 10
4040.487257482118
 20
4289.311886693029
 30
0.0
 70
    32
  0
VERTEX
  5
9BD8
330
9BA1
100
AcDbEntity
  8
0
100
AcDbVertex
100
AcDb3dPolylineVertex
 10
4040.487867482119
 20
4289.311426693029
 30
0.0
 70
    32
  0
VERTEX
  5
9BD9
330
9BA1
100
AcDbEntity
  8
0
100
AcDbVertex
100
AcDb3dPolylineVertex
 10
4040.488457482118
 20
4289.310946693029
 30
0.0
 70
    32
  0
VERTEX
  5
9BDA
330
9BA1
100
AcDbEntity
  8
0
100
AcDbVertex
100
AcDb3dPolylineVertex
 10
4040.489047482119
 20
4289.310476693029
 30
0.0
 70
    32
  0
VERTEX
  5
9BDB
330
9BA1
100
AcDbEntity
  8
0
100
AcDbVertex
100
AcDb3dPolylineVertex
 10
4040.489637482118
 20
4289.309986693029
 30
0.0
 70
    32
  0
VERTEX
  5
9BDC
330
9BA1
100
AcDbEntity
  8
0
100
AcDbVertex
100
AcDb3dPolylineVertex
 10
4040.490217482118
 20
4289.309496693028
 30
0.0
 70
    32
  0
VERTEX
  5
9BDD
330
9BA1
100
AcDbEntity
  8
0
100
AcDbVertex
100
AcDb3dPolylineVertex
 10
4040.490787482119
 20
4289.308996693029
 30
0.0
 70
    32
  0
VERTEX
  5
9BDE
330
9BA1
100
AcDbEntity
  8
0
100
AcDbVertex
100
AcDb3dPolylineVertex
 10
4040.491357482118
 20
4289.308486693029
 30
0.0
 70
    32
  0
VERTEX
  5
9BDF
330
9BA1
100
AcDbEntity
  8
0
100
AcDbVertex
100
AcDb3dPolylineVertex
 10
4040.491917482118
 20
4289.307966693029
 30
0.0
 70
    32
  0
VERTEX
  5
9BE0
330
9BA1
100
AcDbEntity
  8
0
100
AcDbVertex
100
AcDb3dPolylineVertex
 10
4040.492467482119
 20
4289.307446693029
 30
0.0
 70
    32
  0
VERTEX
  5
9BE1
330
9BA1
100
AcDbEntity
  8
0
100
AcDbVertex
100
AcDb3dPolylineVertex
 10
4040.493017482119
 20
4289.306916693028
 30
0.0
 70
    32
  0
VERTEX
  5
9BE2
330
9BA1
100
AcDbEntity
  8
0
100
AcDbVertex
100
AcDb3dPolylineVertex
 10
4040.493557482118
 20
4289.306386693029
 30
0.0
 70
    32
  0
VERTEX
  5
9BE3
330
9BA1
100
AcDbEntity
  8
0
100
AcDbVertex
100
AcDb3dPolylineVertex
 10
4040.494097482119
 20
4289.305846693029
 30
0.0
 70
    32
  0
VERTEX
  5
9BE4
330
9BA1
100
AcDbEntity
  8
0
100
AcDbVertex
100
AcDb3dPolylineVertex
 10
4040.494617482119
 20
4289.305296693028
 30
0.0
 70
    32
  0
VERTEX
  5
9BE5
330
9BA1
100
AcDbEntity
  8
0
100
AcDbVertex
100
AcDb3dPolylineVertex
 10
4040.495147482118
 20
4289.304746693028
 30
0.0
 70
    32
  0
VERTEX
  5
9BE6
330
9BA1
100
AcDbEntity
  8
0
100
AcDbVertex
100
AcDb3dPolylineVertex
 10
4040.495657482119
 20
4289.304186693029
 30
0.0
 70
    32
  0
VERTEX
  5
9BE7
330
9BA1
100
AcDbEntity
  8
0
100
AcDbVertex
100
AcDb3dPolylineVertex
 10
4040.496167482118
 20
4289.303616693028
 30
0.0
 70
    32
  0
VERTEX
  5
9BE8
330
9BA1
100
AcDbEntity
  8
0
100
AcDbVertex
100
AcDb3dPolylineVertex
 10
4040.496667482119
 20
4289.303046693028
 30
0.0
 70
    32
  0
VERTEX
  5
9BE9
330
9BA1
100
AcDbEntity
  8
0
100
AcDbVertex
100
AcDb3dPolylineVertex
 10
4040.497157482119
 20
4289.302466693029
 30
0.0
 70
    32
  0
VERTEX
  5
9BEA
330
9BA1
100
AcDbEntity
  8
0
100
AcDbVertex
100
AcDb3dPolylineVertex
 10
4040.497647482118
 20
4289.301876693029
 30
0.0
 70
    32
  0
VERTEX
  5
9BEB
330
9BA1
100
AcDbEntity
  8
0
100
AcDbVertex
100
AcDb3dPolylineVertex
 10
4040.498127482119
 20
4289.301286693028
 30
0.0
 70
    32
  0
VERTEX
  5
9BEC
330
9BA1
100
AcDbEntity
  8
0
100
AcDbVertex
100
AcDb3dPolylineVertex
 10
4040.498597482119
 20
4289.300686693029
 30
0.0
 70
    32
  0
VERTEX
  5
9BED
330
9BA1
100
AcDbEntity
  8
0
100
AcDbVertex
100
AcDb3dPolylineVertex
 10
4040.499057482119
 20
4289.300086693028
 30
0.0
 70
    32
  0
VERTEX
  5
9BEE
330
9BA1
100
AcDbEntity
  8
0
100
AcDbVertex
100
AcDb3dPolylineVertex
 10
4040.499517482118
 20
4289.299476693028
 30
0.0
 70
    32
  0
VERTEX
  5
9BEF
330
9BA1
100
AcDbEntity
  8
0
100
AcDbVertex
100
AcDb3dPolylineVertex
 10
4040.499967482118
 20
4289.298866693028
 30
0.0
 70
    32
  0
VERTEX
  5
9BF0
330
9BA1
100
AcDbEntity
  8
0
100
AcDbVertex
100
AcDb3dPolylineVertex
 10
4040.500407482119
 20
4289.298246693029
 30
0.0
 70
    32
  0
VERTEX
  5
9BF1
330
9BA1
100
AcDbEntity
  8
0
100
AcDbVertex
100
AcDb3dPolylineVertex
 10
4040.500847482118
 20
4289.297616693028
 30
0.0
 70
    32
  0
VERTEX
  5
9BF2
330
9BA1
100
AcDbEntity
  8
0
100
AcDbVertex
100
AcDb3dPolylineVertex
 10
4040.501267482119
 20
4289.296986693028
 30
0.0
 70
    32
  0
VERTEX
  5
9BF3
330
9BA1
100
AcDbEntity
  8
0
100
AcDbVertex
100
AcDb3dPolylineVertex
 10
4040.501687482119
 20
4289.296356693028
 30
0.0
 70
    32
  0
VERTEX
  5
9BF4
330
9BA1
100
AcDbEntity
  8
0
100
AcDbVertex
100
AcDb3dPolylineVertex
 10
4040.502097482119
 20
4289.295716693029
 30
0.0
 70
    32
  0
VERTEX
  5
9BF5
330
9BA1
100
AcDbEntity
  8
0
100
AcDbVertex
100
AcDb3dPolylineVertex
 10
4040.502497482118
 20
4289.295066693028
 30
0.0
 70
    32
  0
VERTEX
  5
9BF6
330
9BA1
100
AcDbEntity
  8
0
100
AcDbVertex
100
AcDb3dPolylineVertex
 10
4040.502897482119
 20
4289.294416693029
 30
0.0
 70
    32
  0
VERTEX
  5
9BF7
330
9BA1
100
AcDbEntity
  8
0
100
AcDbVertex
100
AcDb3dPolylineVertex
 10
4040.503287482119
 20
4289.293766693028
 30
0.0
 70
    32
  0
VERTEX
  5
9BF8
330
9BA1
100
AcDbEntity
  8
0
100
AcDbVertex
100
AcDb3dPolylineVertex
 10
4040.503667482119
 20
4289.293106693029
 30
0.0
 70
    32
  0
VERTEX
  5
9BF9
330
9BA1
100
AcDbEntity
  8
0
100
AcDbVertex
100
AcDb3dPolylineVertex
 10
4040.504037482119
 20
4289.292436693029
 30
0.0
 70
    32
  0
VERTEX
  5
9BFA
330
9BA1
100
AcDbEntity
  8
0
100
AcDbVertex
100
AcDb3dPolylineVertex
 10
4040.504397482119
 20
4289.291776693029
 30
0.0
 70
    32
  0
VERTEX
  5
9BFB
330
9BA1
100
AcDbEntity
  8
0
100
AcDbVertex
100
AcDb3dPolylineVertex
 10
4040.504747482119
 20
4289.291096693029
 30
0.0
 70
    32
  0
VERTEX
  5
9BFC
330
9BA1
100
AcDbEntity
  8
0
100
AcDbVertex
100
AcDb3dPolylineVertex
 10
4040.505097482118
 20
4289.290416693028
 30
0.0
 70
    32
  0
VERTEX
  5
9BFD
330
9BA1
100
AcDbEntity
  8
0
100
AcDbVertex
100
AcDb3dPolylineVertex
 10
4040.505437482119
 20
4289.289736693029
 30
0.0
 70
    32
  0
VERTEX
  5
9BFE
330
9BA1
100
AcDbEntity
  8
0
100
AcDbVertex
100
AcDb3dPolylineVertex
 10
4040.505767482119
 20
4289.289056693029
 30
0.0
 70
    32
  0
VERTEX
  5
9BFF
330
9BA1
100
AcDbEntity
  8
0
100
AcDbVertex
100
AcDb3dPolylineVertex
 10
4040.506087482119
 20
4289.288366693029
 30
0.0
 70
    32
  0
VERTEX
  5
9C00
330
9BA1
100
AcDbEntity
  8
0
100
AcDbVertex
100
AcDb3dPolylineVertex
 10
4040.506397482118
 20
4289.287666693029
 30
0.0
 70
    32
  0
VERTEX
  5
9C01
330
9BA1
100
AcDbEntity
  8
0
100
AcDbVertex
100
AcDb3dPolylineVertex
 10
4040.506707482118
 20
4289.286976693029
 30
0.0
 70
    32
  0
VERTEX
  5
9C02
330
9BA1
100
AcDbEntity
  8
0
100
AcDbVertex
100
AcDb3dPolylineVertex
 10
4040.506997482118
 20
4289.286276693029
 30
0.0
 70
    32
  0
VERTEX
  5
9C03
330
9BA1
100
AcDbEntity
  8
0
100
AcDbVertex
100
AcDb3dPolylineVertex
 10
4040.507287482119
 20
4289.285566693029
 30
0.0
 70
    32
  0
VERTEX
  5
9C04
330
9BA1
100
AcDbEntity
  8
0
100
AcDbVertex
100
AcDb3dPolylineVertex
 10
4040.507567482118
 20
4289.284856693028
 30
0.0
 70
    32
  0
VERTEX
  5
9C05
330
9BA1
100
AcDbEntity
  8
0
100
AcDbVertex
100
AcDb3dPolylineVertex
 10
4040.507837482119
 20
4289.284146693028
 30
0.0
 70
    32
  0
VERTEX
  5
9C06
330
9BA1
100
AcDbEntity
  8
0
100
AcDbVertex
100
AcDb3dPolylineVertex
 10
4040.508097482119
 20
4289.283436693029
 30
0.0
 70
    32
  0
VERTEX
  5
9C07
330
9BA1
100
AcDbEntity
  8
0
100
AcDbVertex
100
AcDb3dPolylineVertex
 10
4040.508347482119
 20
4289.282716693029
 30
0.0
 70
    32
  0
VERTEX
  5
9C08
330
9BA1
100
AcDbEntity
  8
0
100
AcDbVertex
100
AcDb3dPolylineVertex
 10
4040.508587482118
 20
4289.281996693029
 30
0.0
 70
    32
  0
VERTEX
  5
9C09
330
9BA1
100
AcDbEntity
  8
0
100
AcDbVertex
100
AcDb3dPolylineVertex
 10
4040.508827482119
 20
4289.281266693029
 30
0.0
 70
    32
  0
VERTEX
  5
9C0A
330
9BA1
100
AcDbEntity
  8
0
100
AcDbVertex
100
AcDb3dPolylineVertex
 10
4040.509047482119
 20
4289.280546693028
 30
0.0
 70
    32
  0
VERTEX
  5
9C0B
330
9BA1
100
AcDbEntity
  8
0
100
AcDbVertex
100
AcDb3dPolylineVertex
 10
4040.509267482119
 20
4289.279816693029
 30
0.0
 70
    32
  0
VERTEX
  5
9C0C
330
9BA1
100
AcDbEntity
  8
0
100
AcDbVertex
100
AcDb3dPolylineVertex
 10
4040.509477482118
 20
4289.279086693029
 30
0.0
 70
    32
  0
VERTEX
  5
9C0D
330
9BA1
100
AcDbEntity
  8
0
100
AcDbVertex
100
AcDb3dPolylineVertex
 10
4040.509667482118
 20
4289.278346693029
 30
0.0
 70
    32
  0
VERTEX
  5
9C0E
330
9BA1
100
AcDbEntity
  8
0
100
AcDbVertex
100
AcDb3dPolylineVertex
 10
4040.509857482119
 20
4289.277606693029
 30
0.0
 70
    32
  0
VERTEX
  5
9C0F
330
9BA1
100
AcDbEntity
  8
0
100
AcDbVertex
100
AcDb3dPolylineVertex
 10
4040.510037482119
 20
4289.276866693028
 30
0.0
 70
    32
  0
VERTEX
  5
9C10
330
9BA1
100
AcDbEntity
  8
0
100
AcDbVertex
100
AcDb3dPolylineVertex
 10
4040.510207482118
 20
4289.276126693029
 30
0.0
 70
    32
  0
VERTEX
  5
9C11
330
9BA1
100
AcDbEntity
  8
0
100
AcDbVertex
100
AcDb3dPolylineVertex
 10
4040.510377482118
 20
4289.275386693029
 30
0.0
 70
    32
  0
VERTEX
  5
9C12
330
9BA1
100
AcDbEntity
  8
0
100
AcDbVertex
100
AcDb3dPolylineVertex
 10
4040.510527482118
 20
4289.274636693028
 30
0.0
 70
    32
  0
VERTEX
  5
9C13
330
9BA1
100
AcDbEntity
  8
0
100
AcDbVertex
100
AcDb3dPolylineVertex
 10
4040.510667482119
 20
4289.273896693029
 30
0.0
 70
    32
  0
VERTEX
  5
9C14
330
9BA1
100
AcDbEntity
  8
0
100
AcDbVertex
100
AcDb3dPolylineVertex
 10
4040.510807482118
 20
4289.273146693029
 30
0.0
 70
    32
  0
VERTEX
  5
9C15
330
9BA1
100
AcDbEntity
  8
0
100
AcDbVertex
100
AcDb3dPolylineVertex
 10
4040.510927482119
 20
4289.272396693029
 30
0.0
 70
    32
  0
VERTEX
  5
9C16
330
9BA1
100
AcDbEntity
  8
0
100
AcDbVertex
100
AcDb3dPolylineVertex
 10
4040.511047482119
 20
4289.271646693029
 30
0.0
 70
    32
  0
VERTEX
  5
9C17
330
9BA1
100
AcDbEntity
  8
0
100
AcDbVertex
100
AcDb3dPolylineVertex
 10
4040.511157482119
 20
4289.270886693029
 30
0.0
 70
    32
  0
VERTEX
  5
9C18
330
9BA1
100
AcDbEntity
  8
0
100
AcDbVertex
100
AcDb3dPolylineVertex
 10
4040.511247482118
 20
4289.270136693029
 30
0.0
 70
    32
  0
VERTEX
  5
9C19
330
9BA1
100
AcDbEntity
  8
0
100
AcDbVertex
100
AcDb3dPolylineVertex
 10
4040.511337482119
 20
4289.269376693028
 30
0.0
 70
    32
  0
VERTEX
  5
9C1A
330
9BA1
100
AcDbEntity
  8
0
100
AcDbVertex
100
AcDb3dPolylineVertex
 10
4040.511417482118
 20
4289.268626693028
 30
0.0
 70
    32
  0
VERTEX
  5
9C1B
330
9BA1
100
AcDbEntity
  8
0
100
AcDbVertex
100
AcDb3dPolylineVertex
 10
4040.511487482119
 20
4289.267866693029
 30
0.0
 70
    32
  0
VERTEX
  5
9C1C
330
9BA1
100
AcDbEntity
  8
0
100
AcDbVertex
100
AcDb3dPolylineVertex
 10
4040.511547482118
 20
4289.267106693029
 30
0.0
 70
    32
  0
VERTEX
  5
9C1D
330
9BA1
100
AcDbEntity
  8
0
100
AcDbVertex
100
AcDb3dPolylineVertex
 10
4040.511597482118
 20
4289.266346693028
 30
0.0
 70
    32
  0
VERTEX
  5
9C1E
330
9BA1
100
AcDbEntity
  8
0
100
AcDbVertex
100
AcDb3dPolylineVertex
 10
4040.511647482118
 20
4289.265586693029
 30
0.0
 70
    32
  0
VERTEX
  5
9C1F
330
9BA1
100
AcDbEntity
  8
0
100
AcDbVertex
100
AcDb3dPolylineVertex
 10
4040.511677482118
 20
4289.264826693029
 30
0.0
 70
    32
  0
VERTEX
  5
9C20
330
9BA1
100
AcDbEntity
  8
0
100
AcDbVertex
100
AcDb3dPolylineVertex
 10
4040.511697482119
 20
4289.264066693029
 30
0.0
 70
    32
  0
VERTEX
  5
9C21
330
9BA1
100
AcDbEntity
  8
0
100
AcDbVertex
100
AcDb3dPolylineVertex
 10
4040.511717482119
 20
4289.263306693029
 30
0.0
 70
    32
  0
VERTEX
  5
9C22
330
9BA1
100
AcDbEntity
  8
0
100
AcDbVertex
100
AcDb3dPolylineVertex
 10
4040.511717482119
 20
4289.262546693028
 30
0.0
 70
    32
  0
SEQEND
  5
9C23
330
9BA1
100
AcDbEntity
  8
0
  0
LINE
  5
9C24
330
1F
100
AcDbEntity
  8
0
100
AcDbLine
 10
4040.418718445931
 20
4288.843589304145
 30
0.0
 11
4040.511718445932
 21
4288.936589304145
 31
0.0
  0
LINE
  5
9C25
330
1F
100
AcDbEntity
  8
0
100
AcDbLine
 10
4040.511718445932
 20
4289.024270545012
 30
0.0
 11
4040.418718445931
 21
4288.931270545012
 31
0.0
  0
LINE
  5
9C26
330
1F
100
AcDbEntity
  8
0
100
AcDbLine
 10
4040.418718445931
 20
4289.018951785879
 30
0.0
 11
4040.511718445932
 21
4289.111951785879
 31
0.0
  0
LINE
  5
9C27
330
1F
100
AcDbEntity
  8
0
100
AcDbLine
 10
4040.511718445932
 20
4289.199633026746
 30
0.0
 11
4040.418718445931
 21
4289.106633026746
 31
0.0
  0
LINE
  5
9C28
330
1F
100
AcDbEntity
  8
0
100
AcDbLine
 10
4040.418718445931
 20
4289.194314267613
 30
0.0
 11
4040.508024370706
 21
4289.283620192388
 31
0.0
  0
LINE
  5
9C29
330
1F
100
AcDbEntity
  8
0
100
AcDbLine
 10
4040.46034820737
 20
4289.323625269918
 30
0.0
 11
4040.418718445931
 21
4289.28199550848
 31
0.0
  0
LINE
  5
9C2A
330
1F
100
AcDbEntity
  8
0
100
AcDbLine
 10
4040.462627689254
 20
4289.323186411285
 30
0.0
 11
4040.510359275674
 21
4289.275454824865
 31
0.0
  0
LINE
  5
9C2B
330
1F
100
AcDbEntity
  8
0
100
AcDbLine
 10
4040.511718445932
 20
4289.186414413739
 30
0.0
 11
4040.418718445931
 21
4289.27941441374
 31
0.0
  0
LINE
  5
9C2C
330
1F
100
AcDbEntity
  8
0
100
AcDbLine
 10
4040.418718445931
 20
4289.191733172872
 30
0.0
 11
4040.511718445932
 21
4289.098733172872
 31
0.0
  0
LINE
  5
9C2D
330
1F
100
AcDbEntity
  8
0
100
AcDbLine
 10
4040.511718445932
 20
4289.011051932005
 30
0.0
 11
4040.418718445931
 21
4289.104051932005
 31
0.0
  0
LINE
  5
9C2E
330
1F
100
AcDbEntity
  8
0
100
AcDbLine
 10
4040.418718445931
 20
4289.016370691138
 30
0.0
 11
4040.511718445932
 21
4288.923370691138
 31
0.0
  0
LINE
  5
9C2F
330
1F
100
AcDbEntity
  8
0
100
AcDbLine
 10
4040.511718445932
 20
4288.83568945027
 30
0.0
 11
4040.418718445931
 21
4288.928689450271
 31
0.0
  0
LINE
  5
9C30
330
1F
100
AcDbEntity
  8
0
100
AcDbLine
 10
4040.418718445931
 20
4289.324545581543
 30
0.0
 11
4040.418718445931
 21
4288.828545581544
 31
0.0
  0
LINE
  5
9C31
330
1F
100
AcDbEntity
  8
0
100
AcDbLine
 10
4040.511718445932
 20
4288.828545581544
 30
0.0
 11
4040.511718445932
 21
4289.262545581543
 31
0.0
  0
LINE
  5
9C32
330
1F
100
AcDbEntity
  8
0
100
AcDbLine
 10
4040.511718445932
 20
4288.848908063278
 30
0.0
 11
4040.491355964197
 21
4288.828545581544
 31
0.0
  0
LINE
  5
9C33
330
1F
100
AcDbEntity
  8
0
100
AcDbLine
 10
4040.418718445931
 20
4288.841008209403
 30
0.0
 11
4040.431181073792
 21
4288.828545581544
 31
0.0
  0
LINE
  5
9C34
330
1F
100
AcDbEntity
  8
0
100
AcDbLine
 10
4040.418718445931
 20
4288.828545581544
 30
0.0
 11
4040.511718445932
 21
4288.828545581544
 31
0.0
  0
LINE
  5
9C35
330
1F
100
AcDbEntity
  8
0
  6
Continuous
100
AcDbLine
 10
4039.589171817603
 20
4288.762545581543
 30
0.0
 11
4040.418718445931
 21
4288.949059891994
 31
0.0
  0
LINE
  5
9C36
330
1F
100
AcDbEntity
  8
0
  6
Continuous
100
AcDbLine
 10
4040.418718445931
 20
4288.762545581543
 30
0.0
 11
4039.589171817603
 21
4288.949059891994
 31
0.0
  0
LINE
  5
9C37
330
1F
100
AcDbEntity
  8
0
100
AcDbLine
 10
4040.300718445932
 20
4290.374927620777
 30
0.0
 11
4040.300718445932
 21
4288.949059891994
 31
0.0
  0
LINE
  5
9C38
330
1F
100
AcDbEntity
  8
0
100
AcDbLine
 10
4039.589171817603
 20
4288.949059891994
 30
0.0
 11
4040.418718445931
 21
4288.949059891994
 31
0.0
  0
LINE
  5
9C39
330
1F
100
AcDbEntity
  8
0
100
AcDbLine
 10
4040.418718445931
 20
4288.949059891994
 30
0.0
 11
4040.418718445931
 21
4290.374927620777
 31
0.0
  0
LINE
  5
9C3A
330
1F
100
AcDbEntity
  8
0
100
AcDbLine
 10
4039.588968445932
 20
4290.374927620777
 30
0.0
 11
4039.588968445932
 21
4288.949059891994
 31
0.0
  0
LINE
  5
9C3B
330
1F
100
AcDbEntity
  8
0
100
AcDbLine
 10
4039.706968445932
 20
4288.949059891994
 30
0.0
 11
4039.706968445932
 21
4290.374927620777
 31
0.0
  0
LWPOLYLINE
  5
9C3C
330
1F
100
AcDbEntity
  8
0
100
AcDbPolyline
 90
       14
 70
     1
 43
0.0
 10
4039.816343445932
 20
4289.158884632942
 42
0.3359746306540741
 10
4039.783839536186
 20
4289.179247391994
 10
4039.747968445932
 20
4289.155059891994
 42
-0.4142135623730951
 10
4039.732343445932
 20
4289.170684891994
 10
4039.732343445932
 20
4289.352309891994
 10
4040.275343445932
 20
4289.352309891994
 10
4040.275343445932
 20
4289.170684891994
 42
-0.414213562373094
 10
4040.259718445932
 20
4289.155059891994
 10
4040.224230657875
 20
4289.179247391994
 42
0.3208708054700532
 10
4040.191343445932
 20
4289.158521723861
 10
4040.191343445932
 20
4289.101684891995
 42
-0.4142135623730951
 10
4040.175718445932
 20
4289.086059891994
 10
4039.831968445932
 20
4289.086059891994
 42
-0.4142135623730951
 10
4039.816343445932
 20
4289.101684891995
  0
LWPOLYLINE
  5
9C3D
330
1F
100
AcDbEntity
  8
0
100
AcDbPolyline
 90
       14
 70
     1
 43
0.0
 10
4039.823343445932
 20
4289.160103033086
 42
0.3593608004949541
 10
4039.781343558608
 20
4289.186007048967
 10
4039.746124611496
 20
4289.162259282249
 42
-0.3524310491054993
 10
4039.739343445932
 20
4289.170684891994
 10
4039.739343445932
 20
4289.352309891994
 10
4040.268343445933
 20
4289.352309891994
 10
4040.268343445933
 20
4289.170684891994
 42
-0.3518693664465323
 10
4040.26157911823
 20
4289.162262984633
 10
4040.226654727064
 20
4289.186066488812
 42
0.3446308864324803
 10
4040.184343445932
 20
4289.15982757481
 10
4040.184343445932
 20
4289.101684891995
 42
-0.4142135623730946
 10
4040.175718445932
 20
4289.093059891994
 10
4039.831968445932
 20
4289.093059891994
 42
-0.4142135623730946
 10
4039.823343445932
 20
4289.101684891995
  0
LWPOLYLINE
  5
9C3E
330
1F
100
AcDbEntity
  8
0
100
AcDbPolyline
 90
       10
 70
     1
 43
0.0
 10
4039.847593445932
 20
4289.163622391994
 42
0.3584554666094669
 10
4039.782689599777
 20
4289.210497391994
 10
4039.763593445932
 20
4289.210497391994
 10
4039.763593445932
 20
4289.321059891994
 10
4040.244093445932
 20
4289.321059891994
 10
4040.244093445932
 20
4289.210497391994
 10
4040.224997292085
 20
4289.210497391994
 42
0.3467993108968364
 10
4040.160093445932
 20
4289.163622391994
 10
4040.160093445932
 20
4289.117309891994
 10
4039.847593445932
 20
4289.117309891994
  0
LWPOLYLINE
  5
9C3F
330
1F
100
AcDbEntity
  8
0
100
AcDbPolyline
 90
        6
 70
     0
 43
0.0
 10
4039.732343445932
 20
4289.324059891994
 10
4039.722593445932
 20
4289.324059891994
 10
4039.722593445932
 20
4289.362059891995
 10
4040.285093445932
 20
4289.362059891995
 10
4040.285093445932
 20
4289.324059891994
 10
4040.275343445932
 20
4289.324059891994
  0
LINE
  5
9C40
330
1F
100
AcDbEntity
  8
0
100
AcDbLine
 10
4040.275343445932
 20
4289.170684891994
 30
0.0
 11
4040.300718445932
 21
4289.170684891994
 31
0.0
  0
LINE
  5
9C41
330
1F
100
AcDbEntity
  8
0
100
AcDbLine
 10
4040.275343445932
 20
4289.324059891994
 30
0.0
 11
4040.300718445932
 21
4289.324059891994
 31
0.0
  0
LINE
  5
9C42
330
1F
100
AcDbEntity
  8
0
100
AcDbLine
 10
4039.732343445932
 20
4289.170684891994
 30
0.0
 11
4039.706968445932
 21
4289.170684891994
 31
0.0
  0
LINE
  5
9C43
330
1F
100
AcDbEntity
  8
0
100
AcDbLine
 10
4039.732343445932
 20
4289.324059891994
 30
0.0
 11
4039.706968445932
 21
4289.324059891994
 31
0.0
  0
HATCH
  5
9C44
330
1F
100
AcDbEntity
  8
0
  6
Continuous
100
AcDbHatch
 10
0.0
 20
0.0
 30
0.0
210
0.0
220
0.0
230
1.0
  2
DOTS
 70
     0
 71
     0
 91
        2
 92
        7
 72
     0
 73
     1
 93
        4
 10
4039.732343445932
 20
4289.324059891993
 10
4039.706968445933
 20
4289.324059891994
 10
4039.706968445933
 20
4289.170684891994
 10
4039.732343445932
 20
4289.170684891994
 97
        0
 92
        7
 72
     0
 73
     1
 93
        4
 10
4040.300718445932
 20
4289.324059891993
 10
4040.275343445933
 20
4289.324059891994
 10
4040.275343445932
 20
4289.170684891994
 10
4040.300718445932
 20
4289.170684891994
 97
        0
 75
     0
 76
     1
 52
0.0
 41
0.1
 77
     0
 78
     1
 53
360.0
 43
4033.613488700395
 44
4286.876355148407
 45
0.003125
 46
0.00625
 79
     2
 49
0.0
 49
-0.00625
 47
0.0006001443632006
 98
        2
 10
4039.720623155785
 20
4289.228269832042
 10
4040.29050808518
 20
4289.231870705841
  0
HATCH
  5
9C45
330
1F
100
AcDbEntity
  8
0
  6
Continuous
100
AcDbHatch
 10
0.0
 20
0.0
 30
0.0
210
0.0
220
0.0
230
1.0
  2
DASH
 70
     0
 71
     0
 91
        1
 92
        7
 72
     1
 73
     1
 93
       16
 10
4039.831968445932
 20
4289.086059891994
 42
-0.4142135623730951
 10
4039.816343445932
 20
4289.101684891995
 42
0.0
 10
4039.816343445932
 20
4289.158884632942
 42
0.3359746306540685
 10
4039.783839536186
 20
4289.179247391994
 42
0.0
 10
4039.747968445932
 20
4289.155059891994
 42
-0.4142135623730951
 10
4039.732343445932
 20
4289.170684891994
 42
0.0
 10
4039.706968445932
 20
4289.170684891994
 42
0.0
 10
4039.706968445932
 20
4288.949059891994
 42
0.0
 10
4040.300718445932
 20
4288.949059891994
 42
0.0
 10
4040.300718445932
 20
4289.170684891994
 42
0.0
 10
4040.275343445932
 20
4289.170684891994
 42
-0.414213562373094
 10
4040.259718445932
 20
4289.155059891994
 42
0.0
 10
4040.224230657875
 20
4289.179247391994
 42
0.3208708054700557
 10
4040.191343445932
 20
4289.158521723861
 42
0.0
 10
4040.191343445932
 20
4289.101684891995
 42
-0.4142135623730951
 10
4040.175718445932
 20
4289.086059891994
 42
0.0
 97
        0
 75
     0
 76
     1
 52
0.0
 41
0.1
 77
     0
 78
     1
 53
360.0
 43
4033.613488700395
 44
4286.876355148407
 45
0.0125
 46
0.0125
 79
     2
 49
0.0125
 49
-0.0125
 47
0.0009600803746669
 98
        1
 10
4040.052864926017
 20
4289.035220619799
  0
LINE
  5
9C46
330
1F
100
AcDbEntity
  8
0
  6
HIDDEN
100
AcDbLine
 10
4040.418718445931
 20
4290.374927620777
 30
0.0
 11
4039.588968445932
 21
4290.374927620777
 31
0.0
  0
LINE
  5
9C47
330
1F
100
AcDbEntity
  8
0
100
AcDbLine
 10
4039.589171817603
 20
4288.762545581543
 30
0.0
 11
4040.511671817593
 21
4288.762545581541
 31
0.0
  0
LWPOLYLINE
  5
9C49
330
1F
100
AcDbEntity
  8
0
100
AcDbPolyline
 90
       10
 70
     1
 43
0.0
 10
4041.418007791786
 20
4293.874691640435
 10
4041.418007791786
 20
4293.718982420106
 10
4040.418671817593
 20
4293.569630658079
 10
4040.418671817593
 20
4293.694630658078
 10
4040.449671817594
 20
4293.694630658078
 42
0.4142135623730951
 10
4040.511671817593
 20
4293.756630658078
 10
4040.511671817593
 20
4294.256630658078
 10
4041.668787868883
 20
4294.256630658077
 10
4041.668787868883
 20
4294.059691640436
 10
4041.619180643112
 20
4294.059691640436
 42
-0.3899024490717824
  0
LWPOLYLINE
  5
9C4A
330
1F
100
AcDbEntity
  8
0
100
AcDbPolyline
 90
       22
 70
     0
 43
0.0
 10
4039.026671817604
 20
4294.927654220685
 42
0.9999999999999998
 10
4039.151671817605
 20
4294.927654220685
 10
4039.151671817605
 20
4294.927654220685
 10
4039.912642282588
 20
4294.927607095468
 42
0.9999999999999998
 10
4040.162642278146
 20
4294.927654220685
 10
4040.905407053426
 20
4294.927654220685
 42
1.000377072827568
 10
4041.030407044543
 20
4294.927654220685
 10
4041.505642280366
 20
4294.927654220685
 10
4041.505642280368
 20
4294.256630658078
 10
4039.214171817604
 20
4294.256630658077
 10
4039.212548496566
 20
4294.349630658078
 10
4038.965795138643
 20
4294.349630658078
 10
4038.964171817603
 20
4294.256630658077
 10
4037.974142280368
 20
4294.256630658077
 42
-0.4142135623730951
 10
4037.943142280368
 20
4294.287630658078
 10
4037.943142280368
 20
4294.877630658077
 10
4038.380142280367
 20
4294.877630658077
 10
4038.381451410237
 20
4294.802630658077
 10
4038.628792379448
 20
4294.802630658077
 10
4038.628792379448
 20
4294.927654220685
 10
4039.026671817604
 20
4294.927654220685
 10
4038.628792379448
 20
4294.927654220685
  0
LWPOLYLINE
  5
9C4B
330
1F
100
AcDbEntity
  8
0
100
AcDbPolyline
 90
       16
 70
     1
 43
0.0
 10
4038.401671817605
 20
4294.256630658076
 42
0.6666666666638874
 10
4038.589171817605
 20
4294.256630658078
 10
4038.995073379161
 20
4294.256630658077
 10
4039.003206989235
 20
4294.334630658076
 10
4039.212548496565
 20
4294.334630658076
 10
4039.214171817604
 20
4294.256630658077
 10
4039.589171817603
 20
4294.256630658076
 10
4039.589171817603
 20
4293.881630658076
 42
0.6666666666635842
 10
4039.589171817602
 20
4293.694130658076
 10
4039.589171817602
 20
4293.569130658076
 10
4038.870671817603
 20
4293.670109247811
 42
-0.2357304941606106
 10
4038.845895623027
 20
4293.68247754949
 10
4038.66719658589
 20
4293.92010924781
 10
4038.303357451473
 20
4293.971243503459
 42
-0.3738846794818547
 10
4038.276671817603
 20
4294.001941813589
 10
4038.276671817604
 20
4294.256630658079
  0
LINE
  5
9C4C
330
1F
100
AcDbEntity
  8
0
100
AcDbLine
 10
4040.418671817593
 20
4293.569630658079
 30
0.0
 11
4040.418671817593
 21
4293.694630658078
 31
0.0
  0
LINE
  5
9C4D
330
1F
100
AcDbEntity
  8
0
100
AcDbLine
 10
4040.418671817593
 20
4293.694630658078
 30
0.0
 11
4040.449671817594
 21
4293.694630658078
 31
0.0
  0
ARC
  5
9C4E
330
1F
100
AcDbEntity
  8
0
100
AcDbCircle
 10
4040.449671817594
 20
4293.756630658078
 30
0.0
 40
0.0619999999998981
100
AcDbArc
 50
270.0
 51
0.0
  0
LINE
  5
9C4F
330
1F
100
AcDbEntity
  8
0
100
AcDbLine
 10
4040.511671817593
 20
4293.756630658078
 30
0.0
 11
4040.511671817593
 21
4294.256630658078
 31
0.0
  0
LINE
  5
9C50
330
1F
100
AcDbEntity
  8
0
100
AcDbLine
 10
4039.589171817594
 20
4293.569130658077
 30
0.0
 11
4039.589171817594
 21
4293.694130658077
 31
0.0
  0
LINE
  5
9C51
330
1F
100
AcDbEntity
  8
0
100
AcDbLine
 10
4039.589171817594
 20
4293.881630658077
 30
0.0
 11
4039.589171817595
 21
4294.256630658077
 31
0.0
  0
LINE
  5
9C52
330
1F
100
AcDbEntity
  8
0
100
AcDbLine
 10
4040.418718445931
 20
4294.004116347627
 30
0.0
 11
4040.418718445931
 21
4294.256630658077
 31
0.0
  0
POLYLINE
  5
9C53
330
1F
100
AcDbEntity
  8
0
100
AcDb3dPolyline
 66
     1
 10
0.0
 20
0.0
 30
0.0
 70
     8
  0
VERTEX
  5
9C54
330
9C53
100
AcDbEntity
  8
0
100
AcDbVertex
100
AcDb3dPolylineVertex
 10
4040.449717482118
 20
4293.694629546592
 30
0.0
 70
    32
  0
VERTEX
  5
9C55
330
9C53
100
AcDbEntity
  8
0
100
AcDbVertex
100
AcDb3dPolylineVertex
 10
4040.450477482119
 20
4293.694639546592
 30
0.0
 70
    32
  0
VERTEX
  5
9C56
330
9C53
100
AcDbEntity
  8
0
100
AcDbVertex
100
AcDb3dPolylineVertex
 10
4040.451237482119
 20
4293.694649546591
 30
0.0
 70
    32
  0
VERTEX
  5
9C57
330
9C53
100
AcDbEntity
  8
0
100
AcDbVertex
100
AcDb3dPolylineVertex
 10
4040.451997482119
 20
4293.694669546591
 30
0.0
 70
    32
  0
VERTEX
  5
9C58
330
9C53
100
AcDbEntity
  8
0
100
AcDbVertex
100
AcDb3dPolylineVertex
 10
4040.452757482119
 20
4293.694709546592
 30
0.0
 70
    32
  0
VERTEX
  5
9C59
330
9C53
100
AcDbEntity
  8
0
100
AcDbVertex
100
AcDb3dPolylineVertex
 10
4040.453517482119
 20
4293.694749546592
 30
0.0
 70
    32
  0
VERTEX
  5
9C5A
330
9C53
100
AcDbEntity
  8
0
100
AcDbVertex
100
AcDb3dPolylineVertex
 10
4040.454277482118
 20
4293.694799546591
 30
0.0
 70
    32
  0
VERTEX
  5
9C5B
330
9C53
100
AcDbEntity
  8
0
100
AcDbVertex
100
AcDb3dPolylineVertex
 10
4040.455037482119
 20
4293.694859546592
 30
0.0
 70
    32
  0
VERTEX
  5
9C5C
330
9C53
100
AcDbEntity
  8
0
100
AcDbVertex
100
AcDb3dPolylineVertex
 10
4040.455797482119
 20
4293.694929546592
 30
0.0
 70
    32
  0
VERTEX
  5
9C5D
330
9C53
100
AcDbEntity
  8
0
100
AcDbVertex
100
AcDb3dPolylineVertex
 10
4040.456547482119
 20
4293.695009546591
 30
0.0
 70
    32
  0
VERTEX
  5
9C5E
330
9C53
100
AcDbEntity
  8
0
100
AcDbVertex
100
AcDb3dPolylineVertex
 10
4040.457307482118
 20
4293.695099546591
 30
0.0
 70
    32
  0
VERTEX
  5
9C5F
330
9C53
100
AcDbEntity
  8
0
100
AcDbVertex
100
AcDb3dPolylineVertex
 10
4040.458057482118
 20
4293.695199546592
 30
0.0
 70
    32
  0
VERTEX
  5
9C60
330
9C53
100
AcDbEntity
  8
0
100
AcDbVertex
100
AcDb3dPolylineVertex
 10
4040.458817482118
 20
4293.695299546591
 30
0.0
 70
    32
  0
VERTEX
  5
9C61
330
9C53
100
AcDbEntity
  8
0
100
AcDbVertex
100
AcDb3dPolylineVertex
 10
4040.459567482119
 20
4293.695419546592
 30
0.0
 70
    32
  0
VERTEX
  5
9C62
330
9C53
100
AcDbEntity
  8
0
100
AcDbVertex
100
AcDb3dPolylineVertex
 10
4040.460317482119
 20
4293.695539546592
 30
0.0
 70
    32
  0
VERTEX
  5
9C63
330
9C53
100
AcDbEntity
  8
0
100
AcDbVertex
100
AcDb3dPolylineVertex
 10
4040.461067482119
 20
4293.695679546592
 30
0.0
 70
    32
  0
VERTEX
  5
9C64
330
9C53
100
AcDbEntity
  8
0
100
AcDbVertex
100
AcDb3dPolylineVertex
 10
4040.461817482118
 20
4293.695819546592
 30
0.0
 70
    32
  0
VERTEX
  5
9C65
330
9C53
100
AcDbEntity
  8
0
100
AcDbVertex
100
AcDb3dPolylineVertex
 10
4040.462557482118
 20
4293.695979546591
 30
0.0
 70
    32
  0
VERTEX
  5
9C66
330
9C53
100
AcDbEntity
  8
0
100
AcDbVertex
100
AcDb3dPolylineVertex
 10
4040.463307482119
 20
4293.696139546592
 30
0.0
 70
    32
  0
VERTEX
  5
9C67
330
9C53
100
AcDbEntity
  8
0
100
AcDbVertex
100
AcDb3dPolylineVertex
 10
4040.464047482119
 20
4293.696309546592
 30
0.0
 70
    32
  0
VERTEX
  5
9C68
330
9C53
100
AcDbEntity
  8
0
100
AcDbVertex
100
AcDb3dPolylineVertex
 10
4040.464787482118
 20
4293.696489546592
 30
0.0
 70
    32
  0
VERTEX
  5
9C69
330
9C53
100
AcDbEntity
  8
0
100
AcDbVertex
100
AcDb3dPolylineVertex
 10
4040.465517482118
 20
4293.696679546592
 30
0.0
 70
    32
  0
VERTEX
  5
9C6A
330
9C53
100
AcDbEntity
  8
0
100
AcDbVertex
100
AcDb3dPolylineVertex
 10
4040.466257482119
 20
4293.696879546592
 30
0.0
 70
    32
  0
VERTEX
  5
9C6B
330
9C53
100
AcDbEntity
  8
0
100
AcDbVertex
100
AcDb3dPolylineVertex
 10
4040.466987482118
 20
4293.697079546592
 30
0.0
 70
    32
  0
VERTEX
  5
9C6C
330
9C53
100
AcDbEntity
  8
0
100
AcDbVertex
100
AcDb3dPolylineVertex
 10
4040.467717482118
 20
4293.697299546592
 30
0.0
 70
    32
  0
VERTEX
  5
9C6D
330
9C53
100
AcDbEntity
  8
0
100
AcDbVertex
100
AcDb3dPolylineVertex
 10
4040.468447482118
 20
4293.697529546592
 30
0.0
 70
    32
  0
VERTEX
  5
9C6E
330
9C53
100
AcDbEntity
  8
0
100
AcDbVertex
100
AcDb3dPolylineVertex
 10
4040.469167482118
 20
4293.697759546592
 30
0.0
 70
    32
  0
VERTEX
  5
9C6F
330
9C53
100
AcDbEntity
  8
0
100
AcDbVertex
100
AcDb3dPolylineVertex
 10
4040.469887482118
 20
4293.697999546592
 30
0.0
 70
    32
  0
VERTEX
  5
9C70
330
9C53
100
AcDbEntity
  8
0
100
AcDbVertex
100
AcDb3dPolylineVertex
 10
4040.470607482119
 20
4293.698259546591
 30
0.0
 70
    32
  0
VERTEX
  5
9C71
330
9C53
100
AcDbEntity
  8
0
100
AcDbVertex
100
AcDb3dPolylineVertex
 10
4040.471317482118
 20
4293.698519546592
 30
0.0
 70
    32
  0
VERTEX
  5
9C72
330
9C53
100
AcDbEntity
  8
0
100
AcDbVertex
100
AcDb3dPolylineVertex
 10
4040.472027482119
 20
4293.698789546591
 30
0.0
 70
    32
  0
VERTEX
  5
9C73
330
9C53
100
AcDbEntity
  8
0
100
AcDbVertex
100
AcDb3dPolylineVertex
 10
4040.472737482118
 20
4293.699059546592
 30
0.0
 70
    32
  0
VERTEX
  5
9C74
330
9C53
100
AcDbEntity
  8
0
100
AcDbVertex
100
AcDb3dPolylineVertex
 10
4040.473447482119
 20
4293.699349546591
 30
0.0
 70
    32
  0
VERTEX
  5
9C75
330
9C53
100
AcDbEntity
  8
0
100
AcDbVertex
100
AcDb3dPolylineVertex
 10
4040.474147482119
 20
4293.699649546591
 30
0.0
 70
    32
  0
VERTEX
  5
9C76
330
9C53
100
AcDbEntity
  8
0
100
AcDbVertex
100
AcDb3dPolylineVertex
 10
4040.474847482118
 20
4293.699949546591
 30
0.0
 70
    32
  0
VERTEX
  5
9C77
330
9C53
100
AcDbEntity
  8
0
100
AcDbVertex
100
AcDb3dPolylineVertex
 10
4040.475537482119
 20
4293.700259546592
 30
0.0
 70
    32
  0
VERTEX
  5
9C78
330
9C53
100
AcDbEntity
  8
0
100
AcDbVertex
100
AcDb3dPolylineVertex
 10
4040.476227482119
 20
4293.700579546592
 30
0.0
 70
    32
  0
VERTEX
  5
9C79
330
9C53
100
AcDbEntity
  8
0
100
AcDbVertex
100
AcDb3dPolylineVertex
 10
4040.476917482119
 20
4293.700909546592
 30
0.0
 70
    32
  0
VERTEX
  5
9C7A
330
9C53
100
AcDbEntity
  8
0
100
AcDbVertex
100
AcDb3dPolylineVertex
 10
4040.477597482118
 20
4293.701249546591
 30
0.0
 70
    32
  0
VERTEX
  5
9C7B
330
9C53
100
AcDbEntity
  8
0
100
AcDbVertex
100
AcDb3dPolylineVertex
 10
4040.478267482119
 20
4293.701599546592
 30
0.0
 70
    32
  0
VERTEX
  5
9C7C
330
9C53
100
AcDbEntity
  8
0
100
AcDbVertex
100
AcDb3dPolylineVertex
 10
4040.478947482118
 20
4293.701949546592
 30
0.0
 70
    32
  0
VERTEX
  5
9C7D
330
9C53
100
AcDbEntity
  8
0
100
AcDbVertex
100
AcDb3dPolylineVertex
 10
4040.479617482119
 20
4293.702309546591
 30
0.0
 70
    32
  0
VERTEX
  5
9C7E
330
9C53
100
AcDbEntity
  8
0
100
AcDbVertex
100
AcDb3dPolylineVertex
 10
4040.480277482118
 20
4293.702689546591
 30
0.0
 70
    32
  0
VERTEX
  5
9C7F
330
9C53
100
AcDbEntity
  8
0
100
AcDbVertex
100
AcDb3dPolylineVertex
 10
4040.480937482119
 20
4293.703059546592
 30
0.0
 70
    32
  0
VERTEX
  5
9C80
330
9C53
100
AcDbEntity
  8
0
100
AcDbVertex
100
AcDb3dPolylineVertex
 10
4040.481597482119
 20
4293.703449546592
 30
0.0
 70
    32
  0
VERTEX
  5
9C81
330
9C53
100
AcDbEntity
  8
0
100
AcDbVertex
100
AcDb3dPolylineVertex
 10
4040.482247482119
 20
4293.703849546592
 30
0.0
 70
    32
  0
VERTEX
  5
9C82
330
9C53
100
AcDbEntity
  8
0
100
AcDbVertex
100
AcDb3dPolylineVertex
 10
4040.482887482118
 20
4293.704249546592
 30
0.0
 70
    32
  0
VERTEX
  5
9C83
330
9C53
100
AcDbEntity
  8
0
100
AcDbVertex
100
AcDb3dPolylineVertex
 10
4040.483527482119
 20
4293.704659546591
 30
0.0
 70
    32
  0
VERTEX
  5
9C84
330
9C53
100
AcDbEntity
  8
0
100
AcDbVertex
100
AcDb3dPolylineVertex
 10
4040.484167482119
 20
4293.705079546592
 30
0.0
 70
    32
  0
VERTEX
  5
9C85
330
9C53
100
AcDbEntity
  8
0
100
AcDbVertex
100
AcDb3dPolylineVertex
 10
4040.484797482118
 20
4293.705509546592
 30
0.0
 70
    32
  0
VERTEX
  5
9C86
330
9C53
100
AcDbEntity
  8
0
100
AcDbVertex
100
AcDb3dPolylineVertex
 10
4040.485417482119
 20
4293.705939546592
 30
0.0
 70
    32
  0
VERTEX
  5
9C87
330
9C53
100
AcDbEntity
  8
0
100
AcDbVertex
100
AcDb3dPolylineVertex
 10
4040.486037482119
 20
4293.706379546591
 30
0.0
 70
    32
  0
VERTEX
  5
9C88
330
9C53
100
AcDbEntity
  8
0
100
AcDbVertex
100
AcDb3dPolylineVertex
 10
4040.486647482119
 20
4293.706829546591
 30
0.0
 70
    32
  0
VERTEX
  5
9C89
330
9C53
100
AcDbEntity
  8
0
100
AcDbVertex
100
AcDb3dPolylineVertex
 10
4040.487257482118
 20
4293.707289546591
 30
0.0
 70
    32
  0
VERTEX
  5
9C8A
330
9C53
100
AcDbEntity
  8
0
100
AcDbVertex
100
AcDb3dPolylineVertex
 10
4040.487867482119
 20
4293.707749546592
 30
0.0
 70
    32
  0
VERTEX
  5
9C8B
330
9C53
100
AcDbEntity
  8
0
100
AcDbVertex
100
AcDb3dPolylineVertex
 10
4040.488457482118
 20
4293.708229546592
 30
0.0
 70
    32
  0
VERTEX
  5
9C8C
330
9C53
100
AcDbEntity
  8
0
100
AcDbVertex
100
AcDb3dPolylineVertex
 10
4040.489047482119
 20
4293.708699546591
 30
0.0
 70
    32
  0
VERTEX
  5
9C8D
330
9C53
100
AcDbEntity
  8
0
100
AcDbVertex
100
AcDb3dPolylineVertex
 10
4040.489637482118
 20
4293.709189546592
 30
0.0
 70
    32
  0
VERTEX
  5
9C8E
330
9C53
100
AcDbEntity
  8
0
100
AcDbVertex
100
AcDb3dPolylineVertex
 10
4040.490217482118
 20
4293.709679546592
 30
0.0
 70
    32
  0
VERTEX
  5
9C8F
330
9C53
100
AcDbEntity
  8
0
100
AcDbVertex
100
AcDb3dPolylineVertex
 10
4040.490787482119
 20
4293.710179546591
 30
0.0
 70
    32
  0
VERTEX
  5
9C90
330
9C53
100
AcDbEntity
  8
0
100
AcDbVertex
100
AcDb3dPolylineVertex
 10
4040.491357482118
 20
4293.710689546592
 30
0.0
 70
    32
  0
VERTEX
  5
9C91
330
9C53
100
AcDbEntity
  8
0
100
AcDbVertex
100
AcDb3dPolylineVertex
 10
4040.491917482118
 20
4293.711209546592
 30
0.0
 70
    32
  0
VERTEX
  5
9C92
330
9C53
100
AcDbEntity
  8
0
100
AcDbVertex
100
AcDb3dPolylineVertex
 10
4040.492467482119
 20
4293.711729546592
 30
0.0
 70
    32
  0
VERTEX
  5
9C93
330
9C53
100
AcDbEntity
  8
0
100
AcDbVertex
100
AcDb3dPolylineVertex
 10
4040.493017482119
 20
4293.712259546591
 30
0.0
 70
    32
  0
VERTEX
  5
9C94
330
9C53
100
AcDbEntity
  8
0
100
AcDbVertex
100
AcDb3dPolylineVertex
 10
4040.493557482118
 20
4293.712789546591
 30
0.0
 70
    32
  0
VERTEX
  5
9C95
330
9C53
100
AcDbEntity
  8
0
100
AcDbVertex
100
AcDb3dPolylineVertex
 10
4040.494097482119
 20
4293.713329546592
 30
0.0
 70
    32
  0
VERTEX
  5
9C96
330
9C53
100
AcDbEntity
  8
0
100
AcDbVertex
100
AcDb3dPolylineVertex
 10
4040.494617482119
 20
4293.713879546592
 30
0.0
 70
    32
  0
VERTEX
  5
9C97
330
9C53
100
AcDbEntity
  8
0
100
AcDbVertex
100
AcDb3dPolylineVertex
 10
4040.495147482118
 20
4293.714429546592
 30
0.0
 70
    32
  0
VERTEX
  5
9C98
330
9C53
100
AcDbEntity
  8
0
100
AcDbVertex
100
AcDb3dPolylineVertex
 10
4040.495657482119
 20
4293.714989546592
 30
0.0
 70
    32
  0
VERTEX
  5
9C99
330
9C53
100
AcDbEntity
  8
0
100
AcDbVertex
100
AcDb3dPolylineVertex
 10
4040.496167482118
 20
4293.715559546591
 30
0.0
 70
    32
  0
VERTEX
  5
9C9A
330
9C53
100
AcDbEntity
  8
0
100
AcDbVertex
100
AcDb3dPolylineVertex
 10
4040.496667482119
 20
4293.716129546591
 30
0.0
 70
    32
  0
VERTEX
  5
9C9B
330
9C53
100
AcDbEntity
  8
0
100
AcDbVertex
100
AcDb3dPolylineVertex
 10
4040.497157482119
 20
4293.716709546592
 30
0.0
 70
    32
  0
VERTEX
  5
9C9C
330
9C53
100
AcDbEntity
  8
0
100
AcDbVertex
100
AcDb3dPolylineVertex
 10
4040.497647482118
 20
4293.717299546591
 30
0.0
 70
    32
  0
VERTEX
  5
9C9D
330
9C53
100
AcDbEntity
  8
0
100
AcDbVertex
100
AcDb3dPolylineVertex
 10
4040.498127482119
 20
4293.717889546592
 30
0.0
 70
    32
  0
VERTEX
  5
9C9E
330
9C53
100
AcDbEntity
  8
0
100
AcDbVertex
100
AcDb3dPolylineVertex
 10
4040.498597482119
 20
4293.718489546591
 30
0.0
 70
    32
  0
VERTEX
  5
9C9F
330
9C53
100
AcDbEntity
  8
0
100
AcDbVertex
100
AcDb3dPolylineVertex
 10
4040.499057482119
 20
4293.719089546591
 30
0.0
 70
    32
  0
VERTEX
  5
9CA0
330
9C53
100
AcDbEntity
  8
0
100
AcDbVertex
100
AcDb3dPolylineVertex
 10
4040.499517482118
 20
4293.719699546591
 30
0.0
 70
    32
  0
VERTEX
  5
9CA1
330
9C53
100
AcDbEntity
  8
0
100
AcDbVertex
100
AcDb3dPolylineVertex
 10
4040.499967482118
 20
4293.720309546592
 30
0.0
 70
    32
  0
VERTEX
  5
9CA2
330
9C53
100
AcDbEntity
  8
0
100
AcDbVertex
100
AcDb3dPolylineVertex
 10
4040.500407482119
 20
4293.720929546592
 30
0.0
 70
    32
  0
VERTEX
  5
9CA3
330
9C53
100
AcDbEntity
  8
0
100
AcDbVertex
100
AcDb3dPolylineVertex
 10
4040.500847482118
 20
4293.721559546592
 30
0.0
 70
    32
  0
VERTEX
  5
9CA4
330
9C53
100
AcDbEntity
  8
0
100
AcDbVertex
100
AcDb3dPolylineVertex
 10
4040.501267482119
 20
4293.722189546591
 30
0.0
 70
    32
  0
VERTEX
  5
9CA5
330
9C53
100
AcDbEntity
  8
0
100
AcDbVertex
100
AcDb3dPolylineVertex
 10
4040.501687482119
 20
4293.722819546593
 30
0.0
 70
    32
  0
VERTEX
  5
9CA6
330
9C53
100
AcDbEntity
  8
0
100
AcDbVertex
100
AcDb3dPolylineVertex
 10
4040.502097482119
 20
4293.723459546591
 30
0.0
 70
    32
  0
VERTEX
  5
9CA7
330
9C53
100
AcDbEntity
  8
0
100
AcDbVertex
100
AcDb3dPolylineVertex
 10
4040.502497482118
 20
4293.724109546591
 30
0.0
 70
    32
  0
VERTEX
  5
9CA8
330
9C53
100
AcDbEntity
  8
0
100
AcDbVertex
100
AcDb3dPolylineVertex
 10
4040.502897482119
 20
4293.724759546591
 30
0.0
 70
    32
  0
VERTEX
  5
9CA9
330
9C53
100
AcDbEntity
  8
0
100
AcDbVertex
100
AcDb3dPolylineVertex
 10
4040.503287482119
 20
4293.725409546592
 30
0.0
 70
    32
  0
VERTEX
  5
9CAA
330
9C53
100
AcDbEntity
  8
0
100
AcDbVertex
100
AcDb3dPolylineVertex
 10
4040.503667482119
 20
4293.726069546592
 30
0.0
 70
    32
  0
VERTEX
  5
9CAB
330
9C53
100
AcDbEntity
  8
0
100
AcDbVertex
100
AcDb3dPolylineVertex
 10
4040.504037482119
 20
4293.726739546591
 30
0.0
 70
    32
  0
VERTEX
  5
9CAC
330
9C53
100
AcDbEntity
  8
0
100
AcDbVertex
100
AcDb3dPolylineVertex
 10
4040.504397482119
 20
4293.727399546592
 30
0.0
 70
    32
  0
VERTEX
  5
9CAD
330
9C53
100
AcDbEntity
  8
0
100
AcDbVertex
100
AcDb3dPolylineVertex
 10
4040.504747482119
 20
4293.728079546592
 30
0.0
 70
    32
  0
VERTEX
  5
9CAE
330
9C53
100
AcDbEntity
  8
0
100
AcDbVertex
100
AcDb3dPolylineVertex
 10
4040.505097482118
 20
4293.728759546592
 30
0.0
 70
    32
  0
VERTEX
  5
9CAF
330
9C53
100
AcDbEntity
  8
0
100
AcDbVertex
100
AcDb3dPolylineVertex
 10
4040.505437482119
 20
4293.729439546591
 30
0.0
 70
    32
  0
VERTEX
  5
9CB0
330
9C53
100
AcDbEntity
  8
0
100
AcDbVertex
100
AcDb3dPolylineVertex
 10
4040.505767482119
 20
4293.730119546591
 30
0.0
 70
    32
  0
VERTEX
  5
9CB1
330
9C53
100
AcDbEntity
  8
0
100
AcDbVertex
100
AcDb3dPolylineVertex
 10
4040.506087482119
 20
4293.730809546591
 30
0.0
 70
    32
  0
VERTEX
  5
9CB2
330
9C53
100
AcDbEntity
  8
0
100
AcDbVertex
100
AcDb3dPolylineVertex
 10
4040.506397482118
 20
4293.731509546591
 30
0.0
 70
    32
  0
VERTEX
  5
9CB3
330
9C53
100
AcDbEntity
  8
0
100
AcDbVertex
100
AcDb3dPolylineVertex
 10
4040.506707482118
 20
4293.732199546592
 30
0.0
 70
    32
  0
VERTEX
  5
9CB4
330
9C53
100
AcDbEntity
  8
0
100
AcDbVertex
100
AcDb3dPolylineVertex
 10
4040.506997482118
 20
4293.732899546593
 30
0.0
 70
    32
  0
VERTEX
  5
9CB5
330
9C53
100
AcDbEntity
  8
0
100
AcDbVertex
100
AcDb3dPolylineVertex
 10
4040.507287482119
 20
4293.733609546591
 30
0.0
 70
    32
  0
VERTEX
  5
9CB6
330
9C53
100
AcDbEntity
  8
0
100
AcDbVertex
100
AcDb3dPolylineVertex
 10
4040.507567482118
 20
4293.734319546592
 30
0.0
 70
    32
  0
VERTEX
  5
9CB7
330
9C53
100
AcDbEntity
  8
0
100
AcDbVertex
100
AcDb3dPolylineVertex
 10
4040.507837482119
 20
4293.735029546592
 30
0.0
 70
    32
  0
VERTEX
  5
9CB8
330
9C53
100
AcDbEntity
  8
0
100
AcDbVertex
100
AcDb3dPolylineVertex
 10
4040.508097482119
 20
4293.735739546591
 30
0.0
 70
    32
  0
VERTEX
  5
9CB9
330
9C53
100
AcDbEntity
  8
0
100
AcDbVertex
100
AcDb3dPolylineVertex
 10
4040.508347482119
 20
4293.736459546591
 30
0.0
 70
    32
  0
VERTEX
  5
9CBA
330
9C53
100
AcDbEntity
  8
0
100
AcDbVertex
100
AcDb3dPolylineVertex
 10
4040.508587482118
 20
4293.737179546591
 30
0.0
 70
    32
  0
VERTEX
  5
9CBB
330
9C53
100
AcDbEntity
  8
0
100
AcDbVertex
100
AcDb3dPolylineVertex
 10
4040.508827482119
 20
4293.737909546591
 30
0.0
 70
    32
  0
VERTEX
  5
9CBC
330
9C53
100
AcDbEntity
  8
0
100
AcDbVertex
100
AcDb3dPolylineVertex
 10
4040.509047482119
 20
4293.738629546592
 30
0.0
 70
    32
  0
VERTEX
  5
9CBD
330
9C53
100
AcDbEntity
  8
0
100
AcDbVertex
100
AcDb3dPolylineVertex
 10
4040.509267482119
 20
4293.739359546592
 30
0.0
 70
    32
  0
VERTEX
  5
9CBE
330
9C53
100
AcDbEntity
  8
0
100
AcDbVertex
100
AcDb3dPolylineVertex
 10
4040.509477482118
 20
4293.740089546592
 30
0.0
 70
    32
  0
VERTEX
  5
9CBF
330
9C53
100
AcDbEntity
  8
0
100
AcDbVertex
100
AcDb3dPolylineVertex
 10
4040.509667482118
 20
4293.740829546591
 30
0.0
 70
    32
  0
VERTEX
  5
9CC0
330
9C53
100
AcDbEntity
  8
0
100
AcDbVertex
100
AcDb3dPolylineVertex
 10
4040.509857482119
 20
4293.741569546591
 30
0.0
 70
    32
  0
VERTEX
  5
9CC1
330
9C53
100
AcDbEntity
  8
0
100
AcDbVertex
100
AcDb3dPolylineVertex
 10
4040.510037482119
 20
4293.742309546592
 30
0.0
 70
    32
  0
VERTEX
  5
9CC2
330
9C53
100
AcDbEntity
  8
0
100
AcDbVertex
100
AcDb3dPolylineVertex
 10
4040.510207482118
 20
4293.743049546591
 30
0.0
 70
    32
  0
VERTEX
  5
9CC3
330
9C53
100
AcDbEntity
  8
0
100
AcDbVertex
100
AcDb3dPolylineVertex
 10
4040.510377482118
 20
4293.743789546591
 30
0.0
 70
    32
  0
VERTEX
  5
9CC4
330
9C53
100
AcDbEntity
  8
0
100
AcDbVertex
100
AcDb3dPolylineVertex
 10
4040.510527482118
 20
4293.744539546592
 30
0.0
 70
    32
  0
VERTEX
  5
9CC5
330
9C53
100
AcDbEntity
  8
0
100
AcDbVertex
100
AcDb3dPolylineVertex
 10
4040.510667482119
 20
4293.745279546591
 30
0.0
 70
    32
  0
VERTEX
  5
9CC6
330
9C53
100
AcDbEntity
  8
0
100
AcDbVertex
100
AcDb3dPolylineVertex
 10
4040.510807482118
 20
4293.746029546592
 30
0.0
 70
    32
  0
VERTEX
  5
9CC7
330
9C53
100
AcDbEntity
  8
0
100
AcDbVertex
100
AcDb3dPolylineVertex
 10
4040.510927482119
 20
4293.746779546592
 30
0.0
 70
    32
  0
VERTEX
  5
9CC8
330
9C53
100
AcDbEntity
  8
0
100
AcDbVertex
100
AcDb3dPolylineVertex
 10
4040.511047482119
 20
4293.747529546592
 30
0.0
 70
    32
  0
VERTEX
  5
9CC9
330
9C53
100
AcDbEntity
  8
0
100
AcDbVertex
100
AcDb3dPolylineVertex
 10
4040.511157482119
 20
4293.748289546591
 30
0.0
 70
    32
  0
VERTEX
  5
9CCA
330
9C53
100
AcDbEntity
  8
0
100
AcDbVertex
100
AcDb3dPolylineVertex
 10
4040.511247482118
 20
4293.749039546592
 30
0.0
 70
    32
  0
VERTEX
  5
9CCB
330
9C53
100
AcDbEntity
  8
0
100
AcDbVertex
100
AcDb3dPolylineVertex
 10
4040.511337482119
 20
4293.749799546591
 30
0.0
 70
    32
  0
VERTEX
  5
9CCC
330
9C53
100
AcDbEntity
  8
0
100
AcDbVertex
100
AcDb3dPolylineVertex
 10
4040.511417482118
 20
4293.750549546592
 30
0.0
 70
    32
  0
VERTEX
  5
9CCD
330
9C53
100
AcDbEntity
  8
0
100
AcDbVertex
100
AcDb3dPolylineVertex
 10
4040.511487482119
 20
4293.751309546592
 30
0.0
 70
    32
  0
VERTEX
  5
9CCE
330
9C53
100
AcDbEntity
  8
0
100
AcDbVertex
100
AcDb3dPolylineVertex
 10
4040.511547482118
 20
4293.752069546592
 30
0.0
 70
    32
  0
VERTEX
  5
9CCF
330
9C53
100
AcDbEntity
  8
0
100
AcDbVertex
100
AcDb3dPolylineVertex
 10
4040.511597482118
 20
4293.752829546591
 30
0.0
 70
    32
  0
VERTEX
  5
9CD0
330
9C53
100
AcDbEntity
  8
0
100
AcDbVertex
100
AcDb3dPolylineVertex
 10
4040.511647482118
 20
4293.753589546592
 30
0.0
 70
    32
  0
VERTEX
  5
9CD1
330
9C53
100
AcDbEntity
  8
0
100
AcDbVertex
100
AcDb3dPolylineVertex
 10
4040.511677482118
 20
4293.754349546591
 30
0.0
 70
    32
  0
VERTEX
  5
9CD2
330
9C53
100
AcDbEntity
  8
0
100
AcDbVertex
100
AcDb3dPolylineVertex
 10
4040.511697482119
 20
4293.755109546591
 30
0.0
 70
    32
  0
VERTEX
  5
9CD3
330
9C53
100
AcDbEntity
  8
0
100
AcDbVertex
100
AcDb3dPolylineVertex
 10
4040.511717482119
 20
4293.755869546592
 30
0.0
 70
    32
  0
VERTEX
  5
9CD4
330
9C53
100
AcDbEntity
  8
0
100
AcDbVertex
100
AcDb3dPolylineVertex
 10
4040.511717482119
 20
4293.756629546591
 30
0.0
 70
    32
  0
SEQEND
  5
9CD5
330
9C53
100
AcDbEntity
  8
0
  0
LINE
  5
9CD6
330
1F
100
AcDbEntity
  8
0
100
AcDbLine
 10
4040.418718445931
 20
4294.175586935476
 30
0.0
 11
4040.511718445932
 21
4294.082586935476
 31
0.0
  0
LINE
  5
9CD7
330
1F
100
AcDbEntity
  8
0
100
AcDbLine
 10
4040.511718445932
 20
4293.994905694609
 30
0.0
 11
4040.418718445931
 21
4294.087905694609
 31
0.0
  0
LINE
  5
9CD8
330
1F
100
AcDbEntity
  8
0
100
AcDbLine
 10
4040.418718445931
 20
4294.000224453742
 30
0.0
 11
4040.511718445932
 21
4293.907224453742
 31
0.0
  0
LINE
  5
9CD9
330
1F
100
AcDbEntity
  8
0
100
AcDbLine
 10
4040.511718445932
 20
4293.819543212874
 30
0.0
 11
4040.418718445931
 21
4293.912543212874
 31
0.0
  0
LINE
  5
9CDA
330
1F
100
AcDbEntity
  8
0
100
AcDbLine
 10
4040.418718445931
 20
4293.824861972007
 30
0.0
 11
4040.508024370706
 21
4293.735556047233
 31
0.0
  0
LINE
  5
9CDB
330
1F
100
AcDbEntity
  8
0
100
AcDbLine
 10
4040.46034820737
 20
4293.695550969702
 30
0.0
 11
4040.418718445931
 21
4293.73718073114
 31
0.0
  0
LINE
  5
9CDC
330
1F
100
AcDbEntity
  8
0
100
AcDbLine
 10
4040.462627689254
 20
4293.695989828335
 30
0.0
 11
4040.510359275674
 21
4293.743721414755
 31
0.0
  0
LINE
  5
9CDD
330
1F
100
AcDbEntity
  8
0
100
AcDbLine
 10
4040.511718445932
 20
4293.832761825881
 30
0.0
 11
4040.418718445931
 21
4293.739761825881
 31
0.0
  0
LINE
  5
9CDE
330
1F
100
AcDbEntity
  8
0
100
AcDbLine
 10
4040.418718445931
 20
4293.827443066748
 30
0.0
 11
4040.511718445932
 21
4293.920443066748
 31
0.0
  0
LINE
  5
9CDF
330
1F
100
AcDbEntity
  8
0
100
AcDbLine
 10
4040.511718445932
 20
4294.008124307615
 30
0.0
 11
4040.418718445931
 21
4293.915124307615
 31
0.0
  0
LINE
  5
9CE0
330
1F
100
AcDbEntity
  8
0
100
AcDbLine
 10
4040.418718445931
 20
4294.002805548482
 30
0.0
 11
4040.511718445932
 21
4294.095805548482
 31
0.0
  0
LINE
  5
9CE1
330
1F
100
AcDbEntity
  8
0
100
AcDbLine
 10
4040.511718445932
 20
4294.18348678935
 30
0.0
 11
4040.418718445931
 21
4294.090486789349
 31
0.0
  0
LINE
  5
9CE2
330
1F
100
AcDbEntity
  8
0
100
AcDbLine
 10
4040.418718445931
 20
4293.694630658078
 30
0.0
 11
4040.418718445931
 21
4294.190630658077
 31
0.0
  0
LINE
  5
9CE3
330
1F
100
AcDbEntity
  8
0
100
AcDbLine
 10
4040.511718445932
 20
4294.190630658077
 30
0.0
 11
4040.511718445932
 21
4293.756630658077
 31
0.0
  0
LINE
  5
9CE4
330
1F
100
AcDbEntity
  8
0
100
AcDbLine
 10
4040.511718445932
 20
4294.170268176343
 30
0.0
 11
4040.491355964197
 21
4294.190630658077
 31
0.0
  0
LINE
  5
9CE5
330
1F
100
AcDbEntity
  8
0
100
AcDbLine
 10
4040.418718445931
 20
4294.178168030217
 30
0.0
 11
4040.431181073792
 21
4294.190630658077
 31
0.0
  0
LINE
  5
9CE6
330
1F
100
AcDbEntity
  8
0
100
AcDbLine
 10
4040.418718445931
 20
4294.190630658077
 30
0.0
 11
4040.511718445932
 21
4294.190630658077
 31
0.0
  0
LINE
  5
9CE7
330
1F
100
AcDbEntity
  8
0
  6
Continuous
100
AcDbLine
 10
4039.589171817603
 20
4294.256630658077
 30
0.0
 11
4040.418718445931
 21
4294.070116347627
 31
0.0
  0
LINE
  5
9CE8
330
1F
100
AcDbEntity
  8
0
  6
Continuous
100
AcDbLine
 10
4040.418718445931
 20
4294.256630658077
 30
0.0
 11
4039.589171817603
 21
4294.070116347627
 31
0.0
  0
LINE
  5
9CE9
330
1F
100
AcDbEntity
  8
0
100
AcDbLine
 10
4040.300718445932
 20
4292.644248618843
 30
0.0
 11
4040.300718445932
 21
4294.070116347627
 31
0.0
  0
LINE
  5
9CEA
330
1F
100
AcDbEntity
  8
0
100
AcDbLine
 10
4039.589171817603
 20
4294.070116347627
 30
0.0
 11
4040.418718445931
 21
4294.070116347627
 31
0.0
  0
LINE
  5
9CEB
330
1F
100
AcDbEntity
  8
0
100
AcDbLine
 10
4040.418718445931
 20
4294.070116347627
 30
0.0
 11
4040.418718445931
 21
4292.644248618843
 31
0.0
  0
LINE
  5
9CEC
330
1F
100
AcDbEntity
  8
0
100
AcDbLine
 10
4039.588968445932
 20
4292.644248618843
 30
0.0
 11
4039.588968445932
 21
4294.070116347627
 31
0.0
  0
LINE
  5
9CED
330
1F
100
AcDbEntity
  8
0
100
AcDbLine
 10
4039.706968445932
 20
4294.070116347627
 30
0.0
 11
4039.706968445932
 21
4292.644248618843
 31
0.0
  0
LWPOLYLINE
  5
9CEE
330
1F
100
AcDbEntity
  8
0
100
AcDbPolyline
 90
       14
 70
     1
 43
0.0
 10
4039.816343445932
 20
4293.860291606678
 42
-0.3359746306540741
 10
4039.783839536186
 20
4293.839928847627
 10
4039.747968445932
 20
4293.864116347626
 42
0.4142135623730951
 10
4039.732343445932
 20
4293.848491347627
 10
4039.732343445932
 20
4293.666866347627
 10
4040.275343445932
 20
4293.666866347627
 10
4040.275343445932
 20
4293.848491347627
 42
0.414213562373094
 10
4040.259718445932
 20
4293.864116347626
 10
4040.224230657875
 20
4293.839928847627
 42
-0.3208708054700532
 10
4040.191343445932
 20
4293.860654515759
 10
4040.191343445932
 20
4293.917491347627
 42
0.4142135623730951
 10
4040.175718445932
 20
4293.933116347626
 10
4039.831968445932
 20
4293.933116347626
 42
0.4142135623730951
 10
4039.816343445932
 20
4293.917491347627
  0
LWPOLYLINE
  5
9CEF
330
1F
100
AcDbEntity
  8
0
100
AcDbPolyline
 90
       14
 70
     1
 43
0.0
 10
4039.823343445932
 20
4293.859073206534
 42
-0.3593608004949541
 10
4039.781343558608
 20
4293.833169190653
 10
4039.746124611496
 20
4293.856916957372
 42
0.3524310491054993
 10
4039.739343445932
 20
4293.848491347627
 10
4039.739343445932
 20
4293.666866347627
 10
4040.268343445933
 20
4293.666866347627
 10
4040.268343445933
 20
4293.848491347627
 42
0.3518693664465323
 10
4040.26157911823
 20
4293.856913254987
 10
4040.226654727064
 20
4293.833109750809
 42
-0.3446308864324803
 10
4040.184343445932
 20
4293.859348664811
 10
4040.184343445932
 20
4293.917491347627
 42
0.4142135623730946
 10
4040.175718445932
 20
4293.926116347626
 10
4039.831968445932
 20
4293.926116347626
 42
0.4142135623730946
 10
4039.823343445932
 20
4293.917491347627
  0
LWPOLYLINE
  5
9CF0
330
1F
100
AcDbEntity
  8
0
100
AcDbPolyline
 90
       10
 70
     1
 43
0.0
 10
4039.847593445932
 20
4293.855553847627
 42
-0.3584554666094669
 10
4039.782689599777
 20
4293.808678847627
 10
4039.763593445932
 20
4293.808678847627
 10
4039.763593445932
 20
4293.698116347626
 10
4040.244093445932
 20
4293.698116347626
 10
4040.244093445932
 20
4293.808678847627
 10
4040.224997292085
 20
4293.808678847627
 42
-0.3467993108968364
 10
4040.160093445932
 20
4293.855553847627
 10
4040.160093445932
 20
4293.901866347626
 10
4039.847593445932
 20
4293.901866347626
  0
LWPOLYLINE
  5
9CF1
330
1F
100
AcDbEntity
  8
0
100
AcDbPolyline
 90
        6
 70
     0
 43
0.0
 10
4039.732343445932
 20
4293.695116347627
 10
4039.722593445932
 20
4293.695116347627
 10
4039.722593445932
 20
4293.657116347627
 10
4040.285093445932
 20
4293.657116347627
 10
4040.285093445932
 20
4293.695116347627
 10
4040.275343445932
 20
4293.695116347627
  0
LINE
  5
9CF2
330
1F
100
AcDbEntity
  8
0
100
AcDbLine
 10
4040.275343445932
 20
4293.848491347627
 30
0.0
 11
4040.300718445932
 21
4293.848491347627
 31
0.0
  0
LINE
  5
9CF3
330
1F
100
AcDbEntity
  8
0
100
AcDbLine
 10
4040.275343445932
 20
4293.695116347627
 30
0.0
 11
4040.300718445932
 21
4293.695116347627
 31
0.0
  0
LINE
  5
9CF4
330
1F
100
AcDbEntity
  8
0
100
AcDbLine
 10
4039.732343445932
 20
4293.848491347627
 30
0.0
 11
4039.706968445932
 21
4293.848491347627
 31
0.0
  0
LINE
  5
9CF5
330
1F
100
AcDbEntity
  8
0
100
AcDbLine
 10
4039.732343445932
 20
4293.695116347627
 30
0.0
 11
4039.706968445932
 21
4293.695116347627
 31
0.0
  0
HATCH
  5
9CF6
330
1F
100
AcDbEntity
  8
0
  6
Continuous
100
AcDbHatch
 10
0.0
 20
0.0
 30
0.0
210
0.0
220
0.0
230
1.0
  2
DOTS
 70
     0
 71
     0
 91
        2
 92
        7
 72
     0
 73
     1
 93
        4
 10
4039.732343445932
 20
4293.695116347628
 10
4039.706968445933
 20
4293.695116347627
 10
4039.706968445933
 20
4293.848491347627
 10
4039.732343445932
 20
4293.848491347627
 97
        0
 92
        7
 72
     0
 73
     1
 93
        4
 10
4040.300718445932
 20
4293.695116347628
 10
4040.275343445933
 20
4293.695116347627
 10
4040.275343445932
 20
4293.848491347627
 10
4040.300718445932
 20
4293.848491347627
 97
        0
 75
     0
 76
     1
 52
0.0
 41
0.1
 77
     0
 78
     1
 53
360.0
 43
4033.613488700395
 44
4286.857590032231
 45
0.003125
 46
0.00625
 79
     2
 49
0.0
 49
-0.00625
 47
0.0006001443632006
 98
        2
 10
4039.720623155785
 20
4293.790906407578
 10
4040.29050808518
 20
4293.787305533779
  0
HATCH
  5
9CF7
330
1F
100
AcDbEntity
  8
0
  6
Continuous
100
AcDbHatch
 10
0.0
 20
0.0
 30
0.0
210
0.0
220
0.0
230
1.0
  2
DASH
 70
     0
 71
     0
 91
        1
 92
        7
 72
     1
 73
     1
 93
       16
 10
4039.831968445932
 20
4293.933116347626
 42
0.4142135623730951
 10
4039.816343445932
 20
4293.917491347627
 42
0.0
 10
4039.816343445932
 20
4293.860291606678
 42
-0.3359746306540685
 10
4039.783839536186
 20
4293.839928847627
 42
0.0
 10
4039.747968445932
 20
4293.864116347626
 42
0.4142135623730951
 10
4039.732343445932
 20
4293.848491347627
 42
0.0
 10
4039.706968445932
 20
4293.848491347627
 42
0.0
 10
4039.706968445932
 20
4294.070116347627
 42
0.0
 10
4040.300718445932
 20
4294.070116347627
 42
0.0
 10
4040.300718445932
 20
4293.848491347627
 42
0.0
 10
4040.275343445932
 20
4293.848491347627
 42
0.414213562373094
 10
4040.259718445932
 20
4293.864116347626
 42
0.0
 10
4040.224230657875
 20
4293.839928847627
 42
-0.3208708054700557
 10
4040.191343445932
 20
4293.860654515759
 42
0.0
 10
4040.191343445932
 20
4293.917491347627
 42
0.4142135623730951
 10
4040.175718445932
 20
4293.933116347626
 42
0.0
 97
        0
 75
     0
 76
     1
 52
0.0
 41
0.1
 77
     0
 78
     1
 53
360.0
 43
4033.613488700395
 44
4286.857590032231
 45
0.0125
 46
0.0125
 79
     2
 49
0.0125
 49
-0.0125
 47
0.0009600803746669
 98
        1
 10
4040.052864926017
 20
4293.983955619821
  0
LINE
  5
9CF8
330
1F
100
AcDbEntity
  8
0
  6
HIDDEN
100
AcDbLine
 10
4040.418718445931
 20
4292.644248618843
 30
0.0
 11
4039.588968445932
 21
4292.644248618843
 31
0.0
  0
LINE
  5
9CF9
330
1F
100
AcDbEntity
  8
0
100
AcDbLine
 10
4039.589171817603
 20
4294.256630658077
 30
0.0
 11
4040.511671817593
 21
4294.256630658079
 31
0.0
  0
LINE
  5
A178
330
1F
100
AcDbEntity
  8
0
100
AcDbLine
 10
4041.630142280366
 20
4300.990630658079
 30
0.0
 11
4042.442642280366
 21
4295.490630658078
 31
0.0
  0
LINE
  5
A179
330
1F
100
AcDbEntity
  8
0
100
AcDbLine
 10
4042.442642280366
 20
4300.990630658076
 30
0.0
 11
4041.630142280367
 21
4295.490630658078
 31
0.0
  0
DIMENSION
  5
A2BE
330
1F
100
AcDbEntity
  8
0
100
AcDbDimension
  2
*D14
 10
4046.653382489416
 20
4288.092022018935
 30
0.0
 11
4046.653382489416
 21
4291.510076338506
 31
0.0
 70
    32
  1
BOX
 71
     5
 42
6.836108639142366
  3
Knife
100
AcDbAlignedDimension
 13
4045.322434424188
 23
4294.928130658077
 33
0.0
 14
4045.322434424188
 24
4288.092022018935
 34
0.0
 50
90.0
100
AcDbRotatedDimension
1001
ACAD
1000
DSTYLE
1002
{
1070
    40
1040
1.0
1002
}
  0
HATCH
  5
A443
330
1F
100
AcDbEntity
  8
0
  6
Continuous
370
     9
100
AcDbHatch
 10
0.0
 20
0.0
 30
0.0
210
0.0
220
0.0
230
1.0
  2
STEEL
 70
     0
 71
     0
 91
        1
 92
        7
 72
     0
 73
     1
 93
        6
 10
4038.600273674641
 20
4294.877630658077
 10
4038.600273674641
 20
4294.939630658077
 10
4038.005142280367
 20
4294.939630658077
 10
4038.005142280367
 20
4295.659448922013
 10
4037.943142280368
 20
4295.659448922013
 10
4037.943142280368
 20
4294.877630658077
 97
        0
 75
     0
 76
     1
 52
0.0
 41
1.0
 77
     0
 78
     2
 53
45.0
 43
4135.898527115893
 44
4251.67357817707
 45
-0.0883883476483184
 46
0.0883883476483185
 79
     0
 53
45.0
 43
4135.898527115893
 44
4251.73607817707
 45
-0.0883883476483184
 46
0.0883883476483185
 79
     0
 47
0.003572857848563
 98
        1
 10
4038.113717845511
 20
4294.912012571121
  0
LINE
  5
A444
330
1F
100
AcDbEntity
  8
0
370
     9
100
AcDbLine
 10
4037.943142280368
 20
4295.659448922013
 30
0.0
 11
4037.943142280368
 21
4294.877630658077
 31
0.0
  0
LINE
  5
A445
330
1F
100
AcDbEntity
  8
0
  6
Continuous
370
     9
100
AcDbLine
 10
4037.943142280368
 20
4294.877630658077
 30
0.0
 11
4038.600273674641
 21
4294.877630658077
 31
0.0
  0
LINE
  5
A446
330
1F
100
AcDbEntity
  8
0
  6
Continuous
370
     9
100
AcDbLine
 10
4038.005142280367
 20
4294.939630658077
 30
0.0
 11
4038.600273674641
 21
4294.939630658077
 31
0.0
  0
LINE
  5
A447
330
1F
100
AcDbEntity
  8
0
  6
Continuous
370
     9
100
AcDbLine
 10
4038.600273674641
 20
4294.939630658077
 30
0.0
 11
4038.600273674641
 21
4294.877630658077
 31
0.0
  0
LINE
  5
A448
330
1F
100
AcDbEntity
  8
0
370
     9
100
AcDbLine
 10
4037.943142280368
 20
4295.659448922013
 30
0.0
 11
4038.005142280367
 21
4295.659448922013
 31
0.0
  0
LINE
  5
A449
330
1F
100
AcDbEntity
  8
0
370
     9
100
AcDbLine
 10
4038.005142280367
 20
4295.659448922013
 30
0.0
 11
4038.005142280367
 21
4294.939630658077
 31
0.0
  0
INSERT
  5
A44A
330
1F
100
AcDbEntity
  8
Screw
 62
     7
370
     9
100
AcDbBlockReference
  2
8 x .75 FH
 10
4038.005142280367
 20
4295.299539790046
 30
0.0
 50
270.0
  0
HATCH
  5
A44B
330
1F
100
AcDbEntity
  8
0
  6
Continuous
100
AcDbHatch
 10
0.0
 20
0.0
 30
0.0
210
0.0
220
0.0
230
1.0
  2
SOLID
 70
     1
 71
     1
 91
        1
 92
        1
 93
        1
 72
     3
 10
4037.943142280368
 20
4294.660630658078
 11
0.0
 21
-0.078490521914425
 40
0.4928082062716126
 50
0.0
 51
360.0
 73
     1
 97
        1
330
A44C
 75
     0
 76
     1
 98
        1
 10
4161.19120054585
 20
4242.453466732351
  0
ELLIPSE
  5
A44C
102
{ACAD_REACTORS
330
A44B
102
}
330
1F
100
AcDbEntity
  8
0
  6
Continuous
100
AcDbEllipse
 10
4037.943142280368
 20
4294.660630658078
 30
0.0
 11
0.0
 21
-0.078490521914425
 31
0.0
210
0.0
220
0.0
230
1.0
 40
0.4928082062716126
 41
0.0
 42
6.283185307179586
  0
INSERT
  5
A44D
330
1F
100
AcDbEntity
  8
Screw
 62
     5
100
AcDbBlockReference
  2
8 X .625 PH
 10
4038.302707977504
 20
4294.939630658077
 30
0.0
  0
VIEWPORT
  5
552
102
{ACAD_XDICTIONARY
360
A7CE
102
}
330
58
100
AcDbEntity
 67
     1
  8
0
100
AcDbViewport
 10
6.512449177194397
 20
5.628493412634313
 30
0.0
 40
37.59615221007422
 41
17.21999718419786
 68
     1
 69
     1
 12
6.512449177194397
 22
5.628493412634313
 13
0.0
 23
0.0
 14
0.5
 24
0.5
 15
0.5
 25
0.5
 16
0.0
 26
0.0
 36
1.0
 17
0.0
 27
0.0
 37
0.0
 42
50.0
 43
0.0
 44
0.0
 45
17.21999718419786
 50
0.0
 51
0.0
 72
  1000
 90
    32800
  1

281
     0
 71
     1
 74
     0
110
0.0
120
0.0
130
0.0
111
1.0
121
0.0
131
0.0
112
0.0
122
1.0
132
0.0
 79
     0
146
0.0
  0
VIEWPORT
  5
5999
102
{ACAD_XDICTIONARY
360
599A
102
}
330
58
100
AcDbEntity
 67
     1
  8
LAYER_1
100
AcDbViewport
 10
4.224354123354174
 20
4.613891945493087
 30
0.0
 40
8.020610163450868
 41
8.998742886063823
 68
     2
 69
     2
 12
4041.515852996474
 22
4290.681734610561
 13
0.0
 23
0.0
 14
0.5
 24
0.5
 15
0.5
 25
0.5
 16
0.0
 26
0.0
 36
1.0
 17
0.0
 27
0.0
 37
0.0
 42
50.0
 43
0.0
 44
0.0
 45
26.99622865819147
 50
0.0
 51
0.0
 72
  5000
 90
   819296
  1

281
     0
 71
     1
 74
     0
110
0.0
120
0.0
130
0.0
111
1.0
121
0.0
131
0.0
112
0.0
122
1.0
132
0.0
 79
     0
146
0.0
  0
ENDSEC
  0
SECTION
  2
OBJECTS
  0
DICTIONARY
  5
C
330
0
100
AcDbDictionary
281
     1
  3
ACAD_CIP_PREVIOUS_PRODUCT_INFO
350
595A
  3
ACAD_COLOR
350
73
  3
ACAD_GROUP
350
D
  3
ACAD_LAYOUT
350
1A
  3
ACAD_MATERIAL
350
72
  3
ACAD_MLEADERSTYLE
350
594F
  3
ACAD_MLINESTYLE
350
17
  3
ACAD_PLOTSETTINGS
350
19
  3
ACAD_PLOTSTYLENAME
350
E
  3
ACAD_SCALELIST
350
593D
  3
ACAD_TABLESTYLE
350
86
  3
ACAD_VISUALSTYLE
350
5924
  3
ACDB_RECOMPOSE_DATA
350
A7C9
  3
AcDbVariableDictionary
350
66
  3
DWGPROPS
350
A7CA
  0
DICTIONARY
  5
6036
330
8
100
AcDbDictionary
280
     1
281
     1
  0
DICTIONARY
  5
559
330
2
100
AcDbDictionary
280
     1
281
     1
  3
ACAD_LAYERSTATES
360
55A
  0
DICTIONARY
  5
598A
330
10
100
AcDbDictionary
280
     1
281
     1
  3
ADSK_XREC_LAYER_RECONCILED
360
598B
  0
DICTIONARY
  5
598C
330
13C2
100
AcDbDictionary
280
     1
281
     1
  3
ADSK_XREC_LAYER_RECONCILED
360
598D
  0
DICTIONARY
  5
598E
330
1AEF
100
AcDbDictionary
280
     1
281
     1
  3
ADSK_XREC_LAYER_RECONCILED
360
598F
  0
DICTIONARY
  5
A431
330
A430
100
AcDbDictionary
280
     1
281
     1
  0
DICTIONARY
  5
7FA
330
1F
100
AcDbDictionary
280
     1
281
     1
  3
ACAD_SORTENTS
360
7FB
  0
DICTIONARY
  5
8A78
330
8A77
100
AcDbDictionary
280
     1
281
     1
  3
ACAD_DIMASSOC
360
8A79
  0
DICTIONARY
  5
A7CE
330
552
100
AcDbDictionary
280
     1
281
     1
  3
ACAD_XREC_ROUNDTRIP
360
A7CF
  0
DICTIONARY
  5
599A
330
5999
100
AcDbDictionary
280
     1
281
     1
  3
ACAD_XREC_ROUNDTRIP
360
A803
  3
ASDK_XREC_ANNOTATION_SCALE_INFO
360
599B
  0
XRECORD
  5
595A
102
{ACAD_REACTORS
330
C
102
}
330
C
100
AcDbXrecord
280
     1
300
ACDLT
300
2012
300
ACDLT_F_S
  0
DICTIONARY
  5
73
102
{ACAD_REACTORS
330
C
102
}
330
C
100
AcDbDictionary
281
     1
  0
DICTIONARY
  5
D
102
{ACAD_REACTORS
330
C
102
}
330
C
100
AcDbDictionary
281
     1
  0
DICTIONARY
  5
1A
102
{ACAD_REACTORS
330
C
102
}
330
C
100
AcDbDictionary
281
     1
  3
Layout1
350
59
  3
Model
350
22
  0
DICTIONARY
  5
72
102
{ACAD_REACTORS
330
C
102
}
330
C
100
AcDbDictionary
281
     1
  3
ByBlock
350
5914
  3
ByLayer
350
590C
  3
Global
350
591C
  0
DICTIONARY
  5
594F
102
{ACAD_REACTORS
330
C
102
}
330
C
100
AcDbDictionary
281
     1
  3
Standard
350
5950
  0
DICTIONARY
  5
17
102
{ACAD_REACTORS
330
C
102
}
330
C
100
AcDbDictionary
281
     1
  3
Standard
350
18
  0
DICTIONARY
  5
19
102
{ACAD_REACTORS
330
C
102
}
330
C
100
AcDbDictionary
281
     1
  0
ACDBDICTIONARYWDFLT
  5
E
102
{ACAD_REACTORS
330
C
102
}
330
C
100
AcDbDictionary
281
     1
  3
Normal
350
F
100
AcDbDictionaryWithDefault
340
F
  0
DICTIONARY
  5
593D
102
{ACAD_REACTORS
330
C
102
}
330
C
100
AcDbDictionary
281
     1
  3
A0
350
593E
  3
A1
350
593F
  3
A2
350
5940
  3
A3
350
5941
  3
A4
350
5942
  3
A5
350
5943
  3
A6
350
5944
  3
A7
350
5945
  3
A8
350
5946
  3
A9
350
5947
  3
B0
350
5948
  3
B1
350
5949
  3
B2
350
594A
  3
B3
350
594B
  3
B4
350
594C
  3
B5
350
594D
  3
B6
350
594E
  0
DICTIONARY
  5
86
102
{ACAD_REACTORS
330
C
102
}
330
C
100
AcDbDictionary
281
     1
  3
Standard
350
87
  0
DICTIONARY
  5
5924
102
{ACAD_REACTORS
330
C
102
}
330
C
100
AcDbDictionary
281
     1
  3
2dWireframe
350
592A
  3
Basic
350
5929
  3
Brighten
350
5930
  3
ColorChange
350
5934
  3
Conceptual
350
592D
  3
Dim
350
592F
  3
EdgeColorOff
350
593C
  3
Facepattern
350
5933
  3
Flat
350
5925
  3
FlatWithEdges
350
5926
  3
Gouraud
350
5927
  3
GouraudWithEdges
350
5928
  3
Hidden
350
592C
  3
JitterOff
350
593A
  3
Linepattern
350
5932
  3
OverhangOff
350
593B
  3
Realistic
350
592E
  3
Shaded
350
5939
  3
Shaded with edges
350
5938
  3
Shades of Gray
350
5935
  3
Sketchy
350
5936
  3
Thicken
350
5931
  3
Wireframe
350
592B
  3
X-Ray
350
5937
  0
XRECORD
  5
A7C9
102
{ACAD_REACTORS
330
C
102
}
330
C
100
AcDbXrecord
280
     1
 90
        1
330
87
  0
DICTIONARY
  5
66
102
{ACAD_REACTORS
330
C
102
}
330
C
100
AcDbDictionary
281
     1
  3
CANNOSCALE
350
6071
  3
CMLEADERSTYLE
350
6070
  3
CTABLESTYLE
350
94
  3
DIMASSOC
350
67
  3
HIDETEXT
350
6B
  3
INDEXCTL
350
A7C4
  3
SORTENTS
350
A7C3
  3
XCLIPFRAME
350
A7C5
  0
XRECORD
  5
A7CA
102
{ACAD_REACTORS
330
C
102
}
330
C
100
AcDbXrecord
280
     1
  1
DWGPROPS COOKIE
  2

  3

  4

  6

  7

  8
mike.belliveau
  9

300
=
301
=
302
=
303
=
304
=
305
=
306
=
307
=
308
=
309
=
 40
0.1080507986111111
 41
2454538.498977512
 42
2456686.672985139
  1

 90
        0
  0
DICTIONARY
  5
55A
102
{ACAD_REACTORS
330
559
102
}
330
559
100
AcDbDictionary
281
     1
  0
XRECORD
  5
598B
102
{ACAD_REACTORS
330
598A
102
}
330
598A
100
AcDbXrecord
280
     1
290
     1
  0
XRECORD
  5
598D
102
{ACAD_REACTORS
330
598C
102
}
330
598C
100
AcDbXrecord
280
     1
290
     1
  0
XRECORD
  5
598F
102
{ACAD_REACTORS
330
598E
102
}
330
598E
100
AcDbXrecord
280
     1
290
     1
  0
SORTENTSTABLE
  5
7FB
102
{ACAD_REACTORS
330
7FA
102
}
330
7FA
100
AcDbSortentsTable
330
1F
  0
DIMASSOC
  5
8A79
102
{ACAD_REACTORS
330
8A78
102
}
330
8A78
100
AcDbDimAssoc
330
8A77
 90
        3
 70
     0
 71
     0
  1
AcDbOsnapPointRef
 72
     1
331
8A46
 73
     2
 91
        0
 40
1.0
 10
0.0
 20
0.0
 30
2.000000000000000E+50
 75
     0
  1
AcDbOsnapPointRef
 72
     8
331
8A45
 73
     2
 91
        0
 40
1.0
 10
0.0
 20
0.0
 30
0.0
 75
     1
  1
AcDbOsnapPointRef
 72
     1
331
8A46
 73
     2
 91
        0
 40
1.0
 10
0.0
 20
0.0
 30
2.000000000000000E+50
 75
     0
  0
XRECORD
  5
A7CF
102
{ACAD_REACTORS
330
A7CE
102
}
330
A7CE
100
AcDbXrecord
280
     1
102
SHADEPLOT
 70
     0
  0
XRECORD
  5
A803
102
{ACAD_REACTORS
330
599A
102
}
330
599A
100
AcDbXrecord
280
     1
102
SHADEPLOT
 70
     0
  0
XRECORD
  5
599B
102
{ACAD_REACTORS
330
599A
102
}
330
599A
100
AcDbXrecord
280
     1
 90
        1
340
593E
  0
LAYOUT
  5
59
102
{ACAD_XDICTIONARY
360
55C
102
}
102
{ACAD_REACTORS
330
1A
102
}
330
1A
100
AcDbPlotSettings
  1

  2
Default Windows System Printer.pc3
  4
Letter
  6

 40
4.857749938964843
 41
4.857734680175781
 42
4.011077880859375
 43
4.857757568359375
 44
215.8999938964844
 45
279.3999938964844
 46
-3.864487472723795
 47
-0.730866326802785
 48
0.0
 49
0.0
140
0.0
141
0.0
142
1.0
143
1.0
 70
   692
 72
     0
 73
     0
 74
     1
  7
monochrome.ctb
 75
    16
147
1.0
148
0.0132933696343265
149
0.0163556920790192
100
AcDbLayout
  1
Layout1
 70
     1
 71
     1
 10
-0.0396281825147785
 20
-0.1631190569075597
 11
8.460371577189331
 21
10.83688070279655
 12
0.0
 22
0.0
 32
0.0
 14
0.0000000075458644
 24
0.0000000082145277
 34
0.0
 15
8.454000007545857
 25
10.67400000821453
 35
0.0
146
0.0
 13
0.0
 23
0.0
 33
0.0
 16
1.0
 26
0.0
 36
0.0
 17
0.0
 27
1.0
 37
0.0
 76
     0
330
58
331
552
1001
ACAD_PSEXT
1000
Default Windows System Printer.pc3
1000
HP LaserJet Professional M1212nf MFP
1000
USB001
1000

1070
     0
  0
LAYOUT
  5
22
102
{ACAD_XDICTIONARY
360
5963
102
}
102
{ACAD_REACTORS
330
1A
102
}
330
1A
100
AcDbPlotSettings
  1

  2
hp LaserJet 1000
  4
Letter
  6

 40
5.111750125885009
 41
5.11176061630249
 42
5.111740112304687
 43
5.11175537109375
 44
215.8999938964844
 45
279.3999938964844
 46
-1737.727141600119
 47
-1443.590822120185
 48
0.0
 49
0.0
140
0.0
141
0.0
142
1.0
143
1.0
 70
 11956
 72
     0
 73
     1
 74
     1
  7
monochrome.ctb
 75
    16
147
1.0
148
-1178909.293504616
149
-716480.0773740626
100
AcDbLayout
  1
Model
 70
     1
 71
     0
 10
0.0
 20
0.0
 11
12.0
 21
9.0
 12
0.0
 22
0.0
 32
0.0
 14
0.0
 24
0.0
 34
0.0
 15
0.0
 25
0.0
 35
0.0
146
0.0
 13
0.0
 23
0.0
 33
0.0
 16
1.0
 26
0.0
 36
0.0
 17
0.0
 27
1.0
 37
0.0
 76
     0
330
1F
331
590A
1001
ACAD_PSEXT
1000
hp LaserJet 1000
1000
hp LaserJet 1000
1000
USB001
1000

1070
     0
  0
MATERIAL
  5
5914
102
{ACAD_XDICTIONARY
360
5915
102
}
102
{ACAD_REACTORS
330
72
102
}
330
72
100
AcDbMaterial
  1
ByBlock
 72
     0
 43
0.0208333333333333
 43
0.0
 43
0.0
 43
0.0
 43
0.0
 43
0.0208333333333333
 43
0.0
 43
0.0
 43
0.0
 43
0.0
 43
1.0
 43
0.0
 43
0.0
 43
0.0
 43
0.0
 43
1.0
 77
     0
 47
0.0208333333333333
 47
0.0
 47
0.0
 47
0.0
 47
0.0
 47
0.0208333333333333
 47
0.0
 47
0.0
 47
0.0
 47
0.0
 47
1.0
 47
0.0
 47
0.0
 47
0.0
 47
0.0
 47
1.0
171
     0
 49
0.0208333333333333
 49
0.0
 49
0.0
 49
0.0
 49
0.0
 49
0.0208333333333333
 49
0.0
 49
0.0
 49
0.0
 49
0.0
 49
1.0
 49
0.0
 49
0.0
 49
0.0
 49
0.0
 49
1.0
175
     0
142
0.0208333333333333
142
0.0
142
0.0
142
0.0
142
0.0
142
0.0208333333333333
142
0.0
142
0.0
142
0.0
142
0.0
142
1.0
142
0.0
142
0.0
142
0.0
142
0.0
142
1.0
179
     0
144
0.0208333333333333
144
0.0
144
0.0
144
0.0
144
0.0
144
0.0208333333333333
144
0.0
144
0.0
144
0.0
144
0.0
144
1.0
144
0.0
144
0.0
144
0.0
144
0.0
144
1.0
147
0.0208333333333333
147
0.0
147
0.0
147
0.0
147
0.0
147
0.0208333333333333
147
0.0
147
0.0
147
0.0
147
0.0
147
1.0
147
0.0
147
0.0
147
0.0
147
0.0
147
1.0
  0
MATERIAL
  5
590C
102
{ACAD_XDICTIONARY
360
590D
102
}
102
{ACAD_REACTORS
330
72
102
}
330
72
100
AcDbMaterial
  1
ByLayer
 72
     0
 43
0.0208333333333333
 43
0.0
 43
0.0
 43
0.0
 43
0.0
 43
0.0208333333333333
 43
0.0
 43
0.0
 43
0.0
 43
0.0
 43
1.0
 43
0.0
 43
0.0
 43
0.0
 43
0.0
 43
1.0
 77
     0
 47
0.0208333333333333
 47
0.0
 47
0.0
 47
0.0
 47
0.0
 47
0.0208333333333333
 47
0.0
 47
0.0
 47
0.0
 47
0.0
 47
1.0
 47
0.0
 47
0.0
 47
0.0
 47
0.0
 47
1.0
171
     0
 49
0.0208333333333333
 49
0.0
 49
0.0
 49
0.0
 49
0.0
 49
0.0208333333333333
 49
0.0
 49
0.0
 49
0.0
 49
0.0
 49
1.0
 49
0.0
 49
0.0
 49
0.0
 49
0.0
 49
1.0
175
     0
142
0.0208333333333333
142
0.0
142
0.0
142
0.0
142
0.0
142
0.0208333333333333
142
0.0
142
0.0
142
0.0
142
0.0
142
1.0
142
0.0
142
0.0
142
0.0
142
0.0
142
1.0
179
     0
144
0.0208333333333333
144
0.0
144
0.0
144
0.0
144
0.0
144
0.0208333333333333
144
0.0
144
0.0
144
0.0
144
0.0
144
1.0
144
0.0
144
0.0
144
0.0
144
0.0
144
1.0
147
0.0208333333333333
147
0.0
147
0.0
147
0.0
147
0.0
147
0.0208333333333333
147
0.0
147
0.0
147
0.0
147
0.0
147
1.0
147
0.0
147
0.0
147
0.0
147
0.0
147
1.0
  0
MATERIAL
  5
591C
102
{ACAD_XDICTIONARY
360
591D
102
}
102
{ACAD_REACTORS
330
72
102
}
330
72
100
AcDbMaterial
  1
Global
 72
     0
 43
0.0208333333333333
 43
0.0
 43
0.0
 43
0.0
 43
0.0
 43
0.0208333333333333
 43
0.0
 43
0.0
 43
0.0
 43
0.0
 43
1.0
 43
0.0
 43
0.0
 43
0.0
 43
0.0
 43
1.0
 77
     0
 47
0.0208333333333333
 47
0.0
 47
0.0
 47
0.0
 47
0.0
 47
0.0208333333333333
 47
0.0
 47
0.0
 47
0.0
 47
0.0
 47
1.0
 47
0.0
 47
0.0
 47
0.0
 47
0.0
 47
1.0
171
     0
 49
0.0208333333333333
 49
0.0
 49
0.0
 49
0.0
 49
0.0
 49
0.0208333333333333
 49
0.0
 49
0.0
 49
0.0
 49
0.0
 49
1.0
 49
0.0
 49
0.0
 49
0.0
 49
0.0
 49
1.0
175
     0
142
0.0208333333333333
142
0.0
142
0.0
142
0.0
142
0.0
142
0.0208333333333333
142
0.0
142
0.0
142
0.0
142
0.0
142
1.0
142
0.0
142
0.0
142
0.0
142
0.0
142
1.0
179
     0
144
0.0208333333333333
144
0.0
144
0.0
144
0.0
144
0.0
144
0.0208333333333333
144
0.0
144
0.0
144
0.0
144
0.0
144
1.0
144
0.0
144
0.0
144
0.0
144
0.0
144
1.0
147
0.0208333333333333
147
0.0
147
0.0
147
0.0
147
0.0
147
0.0208333333333333
147
0.0
147
0.0
147
0.0
147
0.0
147
1.0
147
0.0
147
0.0
147
0.0
147
0.0
147
1.0
  0
MLEADERSTYLE
  5
5950
102
{ACAD_XDICTIONARY
360
A7C7
102
}
102
{ACAD_REACTORS
330
594F
102
}
330
594F
100
AcDbMLeaderStyle
170
     2
171
     1
172
     0
 90
        2
 40
0.0
 41
0.0
173
     1
 91
-1056964608
340
14
 92
       -2
290
     1
 42
0.09
291
     1
 43
0.36
  3
Standard
 44
0.18
300

342
11
174
     1
178
     6
175
     1
176
     0
 93
-1056964608
 45
0.18
292
     0
297
     0
 46
0.18
 94
-1056964608
 47
1.0
 49
1.0
140
1.0
293
     1
141
0.0
294
     1
177
     0
142
1.0
295
     0
296
     0
143
0.125
1001
ACAD_MLEADERVER
1070
     2
  0
MLINESTYLE
  5
18
102
{ACAD_REACTORS
330
17
102
}
330
17
100
AcDbMlineStyle
  2
STANDARD
 70
     0
  3

 62
   256
 51
90.0
 52
90.0
 71
     2
 49
0.5
 62
   256
  6
BYLAYER
 49
-0.5
 62
   256
  6
BYLAYER
  0
ACDBPLACEHOLDER
  5
F
102
{ACAD_REACTORS
330
E
102
}
330
E
  0
SCALE
  5
593E
102
{ACAD_REACTORS
330
593D
102
}
330
593D
100
AcDbScale
 70
     0
300
1:1
140
1.0
141
1.0
290
     1
  0
SCALE
  5
593F
102
{ACAD_REACTORS
330
593D
102
}
330
593D
100
AcDbScale
 70
     0
300
1/128" = 1'-0"
140
0.0078125
141
12.0
290
     0
  0
SCALE
  5
5940
102
{ACAD_REACTORS
330
593D
102
}
330
593D
100
AcDbScale
 70
     0
300
1/64" = 1'-0"
140
0.015625
141
12.0
290
     0
  0
SCALE
  5
5941
102
{ACAD_REACTORS
330
593D
102
}
330
593D
100
AcDbScale
 70
     0
300
1/32" = 1'-0"
140
0.03125
141
12.0
290
     0
  0
SCALE
  5
5942
102
{ACAD_REACTORS
330
593D
102
}
330
593D
100
AcDbScale
 70
     0
300
1/16" = 1'-0"
140
0.0625
141
12.0
290
     0
  0
SCALE
  5
5943
102
{ACAD_REACTORS
330
593D
102
}
330
593D
100
AcDbScale
 70
     0
300
3/32" = 1'-0"
140
0.09375
141
12.0
290
     0
  0
SCALE
  5
5944
102
{ACAD_REACTORS
330
593D
102
}
330
593D
100
AcDbScale
 70
     0
300
1/8" = 1'-0"
140
0.125
141
12.0
290
     0
  0
SCALE
  5
5945
102
{ACAD_REACTORS
330
593D
102
}
330
593D
100
AcDbScale
 70
     0
300
3/16" = 1'-0"
140
0.1875
141
12.0
290
     0
  0
SCALE
  5
5946
102
{ACAD_REACTORS
330
593D
102
}
330
593D
100
AcDbScale
 70
     0
300
1/4" = 1'-0"
140
0.25
141
12.0
290
     0
  0
SCALE
  5
5947
102
{ACAD_REACTORS
330
593D
102
}
330
593D
100
AcDbScale
 70
     0
300
3/8" = 1'-0"
140
0.375
141
12.0
290
     0
  0
SCALE
  5
5948
102
{ACAD_REACTORS
330
593D
102
}
330
593D
100
AcDbScale
 70
     0
300
1/2" = 1'-0"
140
0.5
141
12.0
290
     0
  0
SCALE
  5
5949
102
{ACAD_REACTORS
330
593D
102
}
330
593D
100
AcDbScale
 70
     0
300
3/4" = 1'-0"
140
0.75
141
12.0
290
     0
  0
SCALE
  5
594A
102
{ACAD_REACTORS
330
593D
102
}
330
593D
100
AcDbScale
 70
     0
300
1" = 1'-0"
140
1.0
141
12.0
290
     0
  0
SCALE
  5
594B
102
{ACAD_REACTORS
330
593D
102
}
330
593D
100
AcDbScale
 70
     0
300
1-1/2" = 1'-0"
140
1.5
141
12.0
290
     0
  0
SCALE
  5
594C
102
{ACAD_REACTORS
330
593D
102
}
330
593D
100
AcDbScale
 70
     0
300
3" = 1'-0"
140
3.0
141
12.0
290
     0
  0
SCALE
  5
594D
102
{ACAD_REACTORS
330
593D
102
}
330
593D
100
AcDbScale
 70
     0
300
6" = 1'-0"
140
6.0
141
12.0
290
     0
  0
SCALE
  5
594E
102
{ACAD_REACTORS
330
593D
102
}
330
593D
100
AcDbScale
 70
     0
300
1'-0" = 1'-0"
140
12.0
141
12.0
290
     0
  0
TABLESTYLE
  5
87
102
{ACAD_XDICTIONARY
360
6031
102
}
102
{ACAD_REACTORS
330
86
102
}
330
86
100
AcDbTableStyle
  3
Standard
 70
     0
 71
     0
 40
0.06
 41
0.06
280
     0
281
     0
  7
Standard
140
0.18
170
     2
 62
     0
 63
     7
283
     0
274
    -2
284
     1
 64
     0
275
    -2
285
     1
 65
     0
276
    -2
286
     1
 66
     0
277
    -2
287
     1
 67
     0
278
    -2
288
     1
 68
     0
279
    -2
289
     1
 69
     0
  7
Standard
140
0.25
170
     5
 62
     0
 63
     7
283
     0
274
    -2
284
     1
 64
     0
275
    -2
285
     1
 65
     0
276
    -2
286
     1
 66
     0
277
    -2
287
     1
 67
     0
278
    -2
288
     1
 68
     0
279
    -2
289
     1
 69
     0
  7
Standard
140
0.18
170
     5
 62
     0
 63
     7
283
     0
274
    -2
284
     1
 64
     0
275
    -2
285
     1
 65
     0
276
    -2
286
     1
 66
     0
277
    -2
287
     1
 67
     0
278
    -2
288
     1
 68
     0
279
    -2
289
     1
 69
     0
  0
VISUALSTYLE
  5
592A
102
{ACAD_XDICTIONARY
360
A7DD
102
}
102
{ACAD_REACTORS
330
5924
102
}
330
5924
100
AcDbVisualStyle
  2
2dWireframe
 70
     4
 71
     0
 72
     2
 73
     0
 90
        0
 40
-0.6
 41
-30.0
 62
     5
 63
     7
 74
     1
 91
        4
 64
     7
 65
   257
 75
     1
175
     1
 42
1.0
 92
        0
 66
   257
 43
1.0
 76
     1
 77
     6
 78
     2
 67
     7
 79
     5
170
     0
171
     0
290
     0
174
     0
 93
        1
 44
0.0
173
     0
291
     0
 45
0.0
1001
ACAD
1000
AcDbSavedByObjectVersion
1070
     0
  0
VISUALSTYLE
  5
5929
102
{ACAD_XDICTIONARY
360
A7DB
102
}
102
{ACAD_REACTORS
330
5924
102
}
330
5924
100
AcDbVisualStyle
  2
Basic
 70
     7
 71
     1
 72
     0
 73
     1
 90
        0
 40
-0.6
 41
-30.0
 62
     5
 63
     7
 74
     0
 91
        4
 64
     7
 65
   257
 75
     1
175
     1
 42
1.0
 92
        8
 66
     7
 43
1.0
 76
     1
 77
     6
 78
     2
 67
     7
 79
     5
170
     0
171
     0
290
     0
174
     0
 93
        1
 44
0.0
173
     0
291
     1
 45
0.0
1001
ACAD
1000
AcDbSavedByObjectVersion
1070
     0
  0
VISUALSTYLE
  5
5930
102
{ACAD_XDICTIONARY
360
A7E9
102
}
102
{ACAD_REACTORS
330
5924
102
}
330
5924
100
AcDbVisualStyle
  2
Brighten
 70
    12
 71
     2
 72
     2
 73
     0
 90
        0
 40
-0.6
 41
-30.0
 62
     5
 63
     7
 74
     1
 91
        4
 64
     7
 65
   257
 75
     1
175
     1
 42
1.0
 92
        8
 66
     7
 43
1.0
 76
     1
 77
     6
 78
     2
 67
     7
 79
     5
170
     0
171
     0
290
     0
174
     0
 93
        1
 44
50.0
173
     0
291
     1
 45
0.0
1001
ACAD
1000
AcDbSavedByObjectVersion
1070
     0
  0
VISUALSTYLE
  5
5934
102
{ACAD_XDICTIONARY
360
A7F1
102
}
102
{ACAD_REACTORS
330
5924
102
}
330
5924
100
AcDbVisualStyle
  2
ColorChange
 70
    16
 71
     2
 72
     2
 73
     3
 90
        0
 40
-0.6
 41
-30.0
 62
     5
 63
     8
 74
     1
 91
        4
 64
     7
 65
   257
 75
     1
175
     1
 42
1.0
 92
        8
 66
     8
 43
1.0
 76
     1
 77
     6
 78
     2
 67
     7
 79
     5
170
     0
171
     0
290
     0
174
     0
 93
        1
 44
0.0
173
     0
291
     1
 45
0.0
1001
ACAD
1000
AcDbSavedByObjectVersion
1070
     0
  0
VISUALSTYLE
  5
592D
102
{ACAD_XDICTIONARY
360
A7E3
102
}
102
{ACAD_REACTORS
330
5924
102
}
330
5924
100
AcDbVisualStyle
  2
Conceptual
 70
     9
 71
     3
 72
     2
 73
     0
 90
        0
 40
-0.6
 41
-30.0
 62
     5
 63
     7
 74
     2
 91
        2
 64
     7
 65
   257
 75
     1
175
     1
 42
179.0
 92
        8
 66
     7
 43
1.0
 76
     1
 77
     6
 78
     2
 67
     7
 79
     3
170
     0
171
     0
290
     0
174
     0
 93
        1
 44
0.0
173
     0
291
     0
 45
0.0
1001
ACAD
1000
AcDbSavedByObjectVersion
1070
     0
  0
VISUALSTYLE
  5
592F
102
{ACAD_XDICTIONARY
360
A7E7
102
}
102
{ACAD_REACTORS
330
5924
102
}
330
5924
100
AcDbVisualStyle
  2
Dim
 70
    11
 71
     2
 72
     2
 73
     0
 90
        0
 40
-0.6
 41
-30.0
 62
     5
 63
     7
 74
     1
 91
        4
 64
     7
 65
   257
 75
     1
175
     1
 42
1.0
 92
        8
 66
     7
 43
1.0
 76
     1
 77
     6
 78
     2
 67
     7
 79
     5
170
     0
171
     0
290
     0
174
     0
 93
        1
 44
-50.0
173
     0
291
     1
 45
0.0
1001
ACAD
1000
AcDbSavedByObjectVersion
1070
     0
  0
VISUALSTYLE
  5
593C
102
{ACAD_XDICTIONARY
360
A801
102
}
102
{ACAD_REACTORS
330
5924
102
}
330
5924
100
AcDbVisualStyle
  2
EdgeColorOff
 70
    22
 71
     2
 72
     2
 73
     0
 90
        0
 40
-0.6
 41
-30.0
 62
     5
 63
     7
 74
     1
 91
        4
 64
     7
 65
   257
 75
     1
175
     1
 42
1.0
 92
        8
 66
     7
 43
1.0
 76
     1
 77
     6
 78
     2
 67
     7
 79
     5
170
     0
171
     0
290
     0
174
     0
 93
        1
 44
0.0
173
     0
291
     1
 45
0.0
1001
ACAD
1000
AcDbSavedByObjectVersion
1070
     0
  0
VISUALSTYLE
  5
5933
102
{ACAD_XDICTIONARY
360
A7EF
102
}
102
{ACAD_REACTORS
330
5924
102
}
330
5924
100
AcDbVisualStyle
  2
Facepattern
 70
    15
 71
     2
 72
     2
 73
     0
 90
        0
 40
-0.6
 41
-30.0
 62
     5
 63
     7
 74
     1
 91
        4
 64
     7
 65
   257
 75
     1
175
     1
 42
1.0
 92
        8
 66
     7
 43
1.0
 76
     1
 77
     6
 78
     2
 67
     7
 79
     5
170
     0
171
     0
290
     0
174
     0
 93
        1
 44
0.0
173
     0
291
     1
 45
0.0
1001
ACAD
1000
AcDbSavedByObjectVersion
1070
     0
  0
VISUALSTYLE
  5
5925
102
{ACAD_XDICTIONARY
360
A7D3
102
}
102
{ACAD_REACTORS
330
5924
102
}
330
5924
100
AcDbVisualStyle
  2
Flat
 70
     0
 71
     2
 72
     1
 73
     1
 90
        2
 40
-0.6
 41
30.0
 62
     5
 63
     7
 74
     0
 91
        0
 64
     7
 65
   257
 75
     1
175
     1
 42
1.0
 92
        8
 66
     7
 43
1.0
 76
     1
 77
     6
 78
     2
 67
     7
 79
     5
170
     0
171
     0
290
     0
174
     0
 93
       13
 44
0.0
173
     0
291
     1
 45
0.0
1001
ACAD
1000
AcDbSavedByObjectVersion
1070
     0
  0
VISUALSTYLE
  5
5926
102
{ACAD_XDICTIONARY
360
A7D5
102
}
102
{ACAD_REACTORS
330
5924
102
}
330
5924
100
AcDbVisualStyle
  2
FlatWithEdges
 70
     1
 71
     2
 72
     1
 73
     1
 90
        2
 40
-0.6
 41
30.0
 62
     5
 63
     7
 74
     1
 91
        0
 64
     7
 65
   257
 75
     1
175
     1
 42
1.0
 92
        0
 66
   257
 43
1.0
 76
     1
 77
     6
 78
     2
 67
     7
 79
     5
170
     0
171
     0
290
     0
174
     0
 93
       13
 44
0.0
173
     0
291
     1
 45
0.0
1001
ACAD
1000
AcDbSavedByObjectVersion
1070
     0
  0
VISUALSTYLE
  5
5927
102
{ACAD_XDICTIONARY
360
A7D7
102
}
102
{ACAD_REACTORS
330
5924
102
}
330
5924
100
AcDbVisualStyle
  2
Gouraud
 70
     2
 71
     2
 72
     2
 73
     1
 90
        2
 40
-0.6
 41
30.0
 62
     5
 63
     7
 74
     0
 91
        0
 64
     7
 65
   257
 75
     1
175
     1
 42
1.0
 92
        0
 66
     7
 43
1.0
 76
     1
 77
     6
 78
     2
 67
     7
 79
     5
170
     0
171
     0
290
     0
174
     0
 93
       13
 44
0.0
173
     0
291
     1
 45
0.0
1001
ACAD
1000
AcDbSavedByObjectVersion
1070
     0
  0
VISUALSTYLE
  5
5928
102
{ACAD_XDICTIONARY
360
A7D9
102
}
102
{ACAD_REACTORS
330
5924
102
}
330
5924
100
AcDbVisualStyle
  2
GouraudWithEdges
 70
     3
 71
     2
 72
     2
 73
     1
 90
        2
 40
-0.6
 41
30.0
 62
     5
 63
     7
 74
     1
 91
        0
 64
     7
 65
   257
 75
     1
175
     1
 42
1.0
 92
        0
 66
   257
 43
1.0
 76
     1
 77
     6
 78
     2
 67
     7
 79
     5
170
     0
171
     0
290
     0
174
     0
 93
       13
 44
0.0
173
     0
291
     1
 45
0.0
1001
ACAD
1000
AcDbSavedByObjectVersion
1070
     0
  0
VISUALSTYLE
  5
592C
102
{ACAD_XDICTIONARY
360
A7E1
102
}
102
{ACAD_REACTORS
330
5924
102
}
330
5924
100
AcDbVisualStyle
  2
Hidden
 70
     6
 71
     1
 72
     2
 73
     2
 90
        0
 40
-0.6
 41
-30.0
 62
     5
 63
     7
 74
     2
 91
        2
 64
     7
 65
   257
 75
     2
175
     1
 42
40.0
 92
        0
 66
   257
 43
1.0
 76
     1
 77
     6
 78
     2
 67
     7
 79
     3
170
     0
171
     0
290
     0
174
     0
 93
        1
 44
0.0
173
     0
291
     0
 45
0.0
1001
ACAD
1000
AcDbSavedByObjectVersion
1070
     0
  0
VISUALSTYLE
  5
593A
102
{ACAD_XDICTIONARY
360
A7FD
102
}
102
{ACAD_REACTORS
330
5924
102
}
330
5924
100
AcDbVisualStyle
  2
JitterOff
 70
    20
 71
     2
 72
     2
 73
     0
 90
        0
 40
-0.6
 41
-30.0
 62
     5
 63
     7
 74
     1
 91
        4
 64
     7
 65
   257
 75
     1
175
     1
 42
1.0
 92
       10
 66
     7
 43
1.0
 76
     1
 77
     6
 78
     2
 67
     7
 79
     5
170
     0
171
     0
290
     0
174
     0
 93
        1
 44
0.0
173
     0
291
     1
 45
0.0
1001
ACAD
1000
AcDbSavedByObjectVersion
1070
     0
  0
VISUALSTYLE
  5
5932
102
{ACAD_XDICTIONARY
360
A7ED
102
}
102
{ACAD_REACTORS
330
5924
102
}
330
5924
100
AcDbVisualStyle
  2
Linepattern
 70
    14
 71
     2
 72
     2
 73
     0
 90
        0
 40
-0.6
 41
-30.0
 62
     5
 63
     7
 74
     1
 91
        4
 64
     7
 65
   257
 75
     7
175
     7
 42
1.0
 92
        8
 66
     7
 43
1.0
 76
     1
 77
     6
 78
     2
 67
     7
 79
     5
170
     0
171
     0
290
     0
174
     0
 93
        1
 44
0.0
173
     0
291
     1
 45
0.0
1001
ACAD
1000
AcDbSavedByObjectVersion
1070
     0
  0
VISUALSTYLE
  5
593B
102
{ACAD_XDICTIONARY
360
A7FF
102
}
102
{ACAD_REACTORS
330
5924
102
}
330
5924
100
AcDbVisualStyle
  2
OverhangOff
 70
    21
 71
     2
 72
     2
 73
     0
 90
        0
 40
-0.6
 41
-30.0
 62
     5
 63
     7
 74
     1
 91
        4
 64
     7
 65
   257
 75
     1
175
     1
 42
1.0
 92
        9
 66
     7
 43
1.0
 76
     1
 77
     6
 78
     2
 67
     7
 79
     5
170
     0
171
     0
290
     0
174
     0
 93
        1
 44
0.0
173
     0
291
     1
 45
0.0
1001
ACAD
1000
AcDbSavedByObjectVersion
1070
     0
  0
VISUALSTYLE
  5
592E
102
{ACAD_XDICTIONARY
360
A7E5
102
}
102
{ACAD_REACTORS
330
5924
102
}
330
5924
100
AcDbVisualStyle
  2
Realistic
 70
     8
 71
     2
 72
     2
 73
     0
 90
        2
 40
-0.6
 41
30.0
 62
     5
 63
     7
 74
     0
 91
        0
 64
     7
 65
   257
 75
     1
175
     1
 42
1.0
 92
        8
 66
   257
 43
1.0
 76
     1
 77
     6
 78
     2
 67
     7
 79
     3
170
     0
171
     0
290
     0
174
     0
 93
       13
 44
0.0
173
     0
291
     0
 45
0.0
1001
ACAD
1000
AcDbSavedByObjectVersion
1070
     0
  0
VISUALSTYLE
  5
5939
102
{ACAD_XDICTIONARY
360
A7FB
102
}
102
{ACAD_REACTORS
330
5924
102
}
330
5924
100
AcDbVisualStyle
  2
Shaded
 70
    27
 71
     2
 72
     2
 73
     1
 90
        2
 40
-0.6
 41
30.0
 62
     5
 63
     7
 74
     0
 91
        4
 64
     7
 65
   257
 75
     1
175
     1
 42
1.0
 92
        8
 66
   257
 43
1.0
 76
     1
 77
     6
 78
     2
 67
     8
 79
     3
170
     0
171
     0
290
     0
174
     0
 93
        5
 44
0.0
173
     0
291
     0
 45
0.0
1001
ACAD
1000
AcDbSavedByObjectVersion
1070
     0
  0
VISUALSTYLE
  5
5938
102
{ACAD_XDICTIONARY
360
A7F9
102
}
102
{ACAD_REACTORS
330
5924
102
}
330
5924
100
AcDbVisualStyle
  2
Shaded with edges
 70
    26
 71
     2
 72
     2
 73
     1
 90
        2
 40
-0.6
 41
30.0
 62
     5
 63
     7
 74
     1
 91
       10
 64
     7
 65
   257
 75
     2
175
     1
 42
1.0
 92
        8
 66
   257
 43
1.0
 76
     1
 77
     6
 78
     2
 67
     7
 79
     3
170
     0
171
     0
290
     0
174
     0
 93
        5
 44
0.0
173
     0
291
     0
 45
0.0
1001
ACAD
1000
AcDbSavedByObjectVersion
1070
     0
  0
VISUALSTYLE
  5
5935
102
{ACAD_XDICTIONARY
360
A7F3
102
}
102
{ACAD_REACTORS
330
5924
102
}
330
5924
100
AcDbVisualStyle
  2
Shades of Gray
 70
    23
 71
     2
 72
     2
 73
     3
 90
        0
 40
-0.6
 41
-30.0
 62
     5
 63
     7
 74
     2
 91
        2
 64
     7
 65
     7
 75
     1
175
     1
 42
40.0
 92
        8
 66
     7
 43
1.0
 76
     1
 77
     6
 78
     2
 67
     7
 79
     3
170
     0
171
     0
290
     0
174
     0
 93
        1
 44
0.0
173
     0
291
     0
 45
0.0
1001
ACAD
1000
AcDbSavedByObjectVersion
1070
     0
  0
VISUALSTYLE
  5
5936
102
{ACAD_XDICTIONARY
360
A7F5
102
}
102
{ACAD_REACTORS
330
5924
102
}
330
5924
100
AcDbVisualStyle
  2
Sketchy
 70
    24
 71
     1
 72
     2
 73
     2
 90
        0
 40
-0.6
 41
-30.0
 62
     5
 63
     7
 74
     2
 91
        2
 64
     7
 65
     7
 75
     1
175
     1
 42
40.0
 92
       11
 66
     7
 43
1.0
 76
     1
 77
     6
 78
     2
 67
     7
 79
     6
170
     0
171
     0
290
     0
174
     0
 93
        1
 44
0.0
173
     0
291
     0
 45
0.0
1001
ACAD
1000
AcDbSavedByObjectVersion
1070
     0
  0
VISUALSTYLE
  5
5931
102
{ACAD_XDICTIONARY
360
A7EB
102
}
102
{ACAD_REACTORS
330
5924
102
}
330
5924
100
AcDbVisualStyle
  2
Thicken
 70
    13
 71
     2
 72
     2
 73
     0
 90
        0
 40
-0.6
 41
-30.0
 62
     5
 63
     7
 74
     1
 91
        4
 64
     7
 65
   257
 75
     1
175
     1
 42
1.0
 92
       12
 66
     7
 43
1.0
 76
     1
 77
     6
 78
     2
 67
     7
 79
     5
170
     0
171
     0
290
     0
174
     0
 93
        1
 44
0.0
173
     0
291
     1
 45
0.0
1001
ACAD
1000
AcDbSavedByObjectVersion
1070
     0
  0
VISUALSTYLE
  5
592B
102
{ACAD_XDICTIONARY
360
A7DF
102
}
102
{ACAD_REACTORS
330
5924
102
}
330
5924
100
AcDbVisualStyle
  2
Wireframe
 70
     5
 71
     0
 72
     2
 73
     0
 90
        0
 40
-0.6
 41
-30.0
 62
     5
 63
     7
 74
     1
 91
        4
 64
     7
 65
   257
 75
     1
175
     1
 42
1.0
 92
        0
 66
   257
 43
1.0
 76
     1
 77
     6
 78
     2
 67
     7
 79
     3
170
     0
171
     0
290
     0
174
     0
 93
        1
 44
0.0
173
     0
291
     0
 45
0.0
1001
ACAD
1000
AcDbSavedByObjectVersion
1070
     0
  0
VISUALSTYLE
  5
5937
102
{ACAD_XDICTIONARY
360
A7F7
102
}
102
{ACAD_REACTORS
330
5924
102
}
330
5924
100
AcDbVisualStyle
  2
X-Ray
 70
    25
 71
     2
 72
     2
 73
     1
 90
        1
 40
0.5
 41
-30.0
 62
     5
 63
     7
 74
     1
 91
        0
 64
     7
 65
   257
 75
     1
175
     1
 42
1.0
 92
        8
 66
     7
 43
1.0
 76
     1
 77
     6
 78
     2
 67
     7
 79
     3
170
     0
171
     0
290
     0
174
     0
 93
       13
 44
0.0
173
     0
291
     0
 45
0.0
1001
ACAD
1000
AcDbSavedByObjectVersion
1070
     0
  0
DICTIONARYVAR
  5
6071
102
{ACAD_REACTORS
330
66
102
}
330
66
100
DictionaryVariables
280
     0
  1
1:1
  0
DICTIONARYVAR
  5
6070
102
{ACAD_REACTORS
330
66
102
}
330
66
100
DictionaryVariables
280
     0
  1
STANDARD
  0
DICTIONARYVAR
  5
94
102
{ACAD_REACTORS
330
66
102
}
330
66
100
DictionaryVariables
280
     0
  1
STANDARD
  0
DICTIONARYVAR
  5
67
102
{ACAD_REACTORS
330
66
102
}
330
66
100
DictionaryVariables
280
     0
  1
2
  0
DICTIONARYVAR
  5
6B
102
{ACAD_REACTORS
330
66
102
}
330
66
100
DictionaryVariables
280
     0
  1
1
  0
DICTIONARYVAR
  5
A7C4
102
{ACAD_REACTORS
330
66
102
}
330
66
100
DictionaryVariables
280
     0
  1
0
  0
DICTIONARYVAR
  5
A7C3
102
{ACAD_REACTORS
330
66
102
}
330
66
100
DictionaryVariables
280
     0
  1
127
  0
DICTIONARYVAR
  5
A7C5
102
{ACAD_REACTORS
330
66
102
}
330
66
100
DictionaryVariables
280
     0
  1
0
  0
DICTIONARY
  5
55C
330
59
100
AcDbDictionary
280
     1
281
     1
  3
ACAD_XREC_ROUNDTRIP
360
A7CC
  3
ADSK_XREC_LAYOUTTHUMBNAIL
360
55D
  0
DICTIONARY
  5
5963
330
22
100
AcDbDictionary
280
     1
281
     1
  3
ACAD_XREC_ROUNDTRIP
360
A7CB
  3
ADSK_XREC_LAYOUTTHUMBNAIL
360
5964
  0
DICTIONARY
  5
5915
330
5914
100
AcDbDictionary
280
     1
281
     1
  3
ACAD_XREC_ROUNDTRIP
360
A7D1
  3
BUMPTILE
360
5917
  3
DIFFUSETILE
360
5916
  3
OPACITYTILE
360
591A
  3
REFLECTIONTILE
360
5919
  3
REFRACTIONTILE
360
591B
  3
SPECULARTILE
360
5918
  0
DICTIONARY
  5
590D
330
590C
100
AcDbDictionary
280
     1
281
     1
  3
ACAD_XREC_ROUNDTRIP
360
A7D0
  3
BUMPTILE
360
590F
  3
DIFFUSETILE
360
590E
  3
OPACITYTILE
360
5912
  3
REFLECTIONTILE
360
5911
  3
REFRACTIONTILE
360
5913
  3
SPECULARTILE
360
5910
  0
DICTIONARY
  5
591D
330
591C
100
AcDbDictionary
280
     1
281
     1
  3
ACAD_XREC_ROUNDTRIP
360
A7D2
  3
BUMPTILE
360
591F
  3
DIFFUSETILE
360
591E
  3
OPACITYTILE
360
5922
  3
REFLECTIONTILE
360
5921
  3
REFRACTIONTILE
360
5923
  3
SPECULARTILE
360
5920
  0
DICTIONARY
  5
A7C7
330
5950
100
AcDbDictionary
280
     1
281
     1
  3
ACAD_XREC_ROUNDTRIP
360
A7C8
  0
DICTIONARY
  5
6031
330
87
100
AcDbDictionary
280
     1
281
     1
  3
ACAD_ROUNDTRIP_2008_TABLESTYLE_CELLSTYLEMAP
360
A7C6
  3
ACAD_XREC_ROUNDTRIP
360
A7CD
  0
DICTIONARY
  5
A7DD
330
592A
100
AcDbDictionary
280
     1
281
     1
  3
ACAD_XREC_ROUNDTRIP
360
A7DE
  0
DICTIONARY
  5
A7DB
330
5929
100
AcDbDictionary
280
     1
281
     1
  3
ACAD_XREC_ROUNDTRIP
360
A7DC
  0
DICTIONARY
  5
A7E9
330
5930
100
AcDbDictionary
280
     1
281
     1
  3
ACAD_XREC_ROUNDTRIP
360
A7EA
  0
DICTIONARY
  5
A7F1
330
5934
100
AcDbDictionary
280
     1
281
     1
  3
ACAD_XREC_ROUNDTRIP
360
A7F2
  0
DICTIONARY
  5
A7E3
330
592D
100
AcDbDictionary
280
     1
281
     1
  3
ACAD_XREC_ROUNDTRIP
360
A7E4
  0
DICTIONARY
  5
A7E7
330
592F
100
AcDbDictionary
280
     1
281
     1
  3
ACAD_XREC_ROUNDTRIP
360
A7E8
  0
DICTIONARY
  5
A801
330
593C
100
AcDbDictionary
280
     1
281
     1
  3
ACAD_XREC_ROUNDTRIP
360
A802
  0
DICTIONARY
  5
A7EF
330
5933
100
AcDbDictionary
280
     1
281
     1
  3
ACAD_XREC_ROUNDTRIP
360
A7F0
  0
DICTIONARY
  5
A7D3
330
5925
100
AcDbDictionary
280
     1
281
     1
  3
ACAD_XREC_ROUNDTRIP
360
A7D4
  0
DICTIONARY
  5
A7D5
330
5926
100
AcDbDictionary
280
     1
281
     1
  3
ACAD_XREC_ROUNDTRIP
360
A7D6
  0
DICTIONARY
  5
A7D7
330
5927
100
AcDbDictionary
280
     1
281
     1
  3
ACAD_XREC_ROUNDTRIP
360
A7D8
  0
DICTIONARY
  5
A7D9
330
5928
100
AcDbDictionary
280
     1
281
     1
  3
ACAD_XREC_ROUNDTRIP
360
A7DA
  0
DICTIONARY
  5
A7E1
330
592C
100
AcDbDictionary
280
     1
281
     1
  3
ACAD_XREC_ROUNDTRIP
360
A7E2
  0
DICTIONARY
  5
A7FD
330
593A
100
AcDbDictionary
280
     1
281
     1
  3
ACAD_XREC_ROUNDTRIP
360
A7FE
  0
DICTIONARY
  5
A7ED
330
5932
100
AcDbDictionary
280
     1
281
     1
  3
ACAD_XREC_ROUNDTRIP
360
A7EE
  0
DICTIONARY
  5
A7FF
330
593B
100
AcDbDictionary
280
     1
281
     1
  3
ACAD_XREC_ROUNDTRIP
360
A800
  0
DICTIONARY
  5
A7E5
330
592E
100
AcDbDictionary
280
     1
281
     1
  3
ACAD_XREC_ROUNDTRIP
360
A7E6
  0
DICTIONARY
  5
A7FB
330
5939
100
AcDbDictionary
280
     1
281
     1
  3
ACAD_XREC_ROUNDTRIP
360
A7FC
  0
DICTIONARY
  5
A7F9
330
5938
100
AcDbDictionary
280
     1
281
     1
  3
ACAD_XREC_ROUNDTRIP
360
A7FA
  0
DICTIONARY
  5
A7F3
330
5935
100
AcDbDictionary
280
     1
281
     1
  3
ACAD_XREC_ROUNDTRIP
360
A7F4
  0
DICTIONARY
  5
A7F5
330
5936
100
AcDbDictionary
280
     1
281
     1
  3
ACAD_XREC_ROUNDTRIP
360
A7F6
  0
DICTIONARY
  5
A7EB
330
5931
100
AcDbDictionary
280
     1
281
     1
  3
ACAD_XREC_ROUNDTRIP
360
A7EC
  0
DICTIONARY
  5
A7DF
330
592B
100
AcDbDictionary
280
     1
281
     1
  3
ACAD_XREC_ROUNDTRIP
360
A7E0
  0
DICTIONARY
  5
A7F7
330
5937
100
AcDbDictionary
280
     1
281
     1
  3
ACAD_XREC_ROUNDTRIP
360
A7F8
  0
XRECORD
  5
A7CC
102
{ACAD_REACTORS
330
55C
102
}
330
55C
100
AcDbXrecord
280
     1
102
SHADEPLOT
 70
     1
102
SHADEPLOTRESLEVEL
 70
     4
102
SHADEPLOTCUSTOMDPI
 70
   300
  0
XRECORD
  5
55D
102
{ACAD_REACTORS
330
55C
102
}
330
55C
100
AcDbXrecord
280
     1
310
280000006B0000008C0000000100080000000000103B000000000000000000000001000000000000FFFFFF0000000000C8C8C8000000000000000000000000000000000000000000000000000000000000000000330000006600000099000000CC000000FF00000000330000333300006633000099330000CC330000FF3300
310
0000660000336600006666000099660000CC660000FF66000000990000339900006699000099990000CC990000FF99000000CC000033CC000066CC000099CC0000CCCC0000FFCC000000FF000033FF000066FF000099FF0000CCFF0000FFFF000000003300330033006600330099003300CC003300FF003300003333003333
310
33006633330099333300CC333300FF33330000663300336633006666330099663300CC663300FF66330000993300339933006699330099993300CC993300FF99330000CC330033CC330066CC330099CC3300CCCC3300FFCC330000FF330033FF330066FF330099FF3300CCFF3300FFFF330000006600330066006600660099
310
006600CC006600FF00660000336600333366006633660099336600CC336600FF33660000666600336666006666660099666600CC666600FF66660000996600339966006699660099996600CC996600FF99660000CC660033CC660066CC660099CC6600CCCC6600FFCC660000FF660033FF660066FF660099FF6600CCFF6600
310
FFFF660000009900330099006600990099009900CC009900FF00990000339900333399006633990099339900CC339900FF33990000669900336699006666990099669900CC669900FF66990000999900339999006699990099999900CC999900FF99990000CC990033CC990066CC990099CC9900CCCC9900FFCC990000FF99
310
0033FF990066FF990099FF9900CCFF9900FFFF99000000CC003300CC006600CC009900CC00CC00CC00FF00CC000033CC003333CC006633CC009933CC00CC33CC00FF33CC000066CC003366CC006666CC009966CC00CC66CC00FF66CC000099CC003399CC006699CC009999CC00CC99CC00FF99CC0000CCCC0033CCCC0066CC
310
CC0099CCCC00CCCCCC00FFCCCC0000FFCC0033FFCC0066FFCC0099FFCC00CCFFCC00FFFFCC000000FF003300FF006600FF009900FF00CC00FF00FF00FF000033FF003333FF006633FF009933FF00CC33FF00FF33FF000066FF003366FF006666FF009966FF00CC66FF00FF66FF000099FF003399FF006699FF009999FF00CC
310
99FF00FF99FF0000CCFF0033CCFF0066CCFF0099CCFF00CCCCFF00FFCCFF0000FFFF0033FFFF0066FFFF0099FFFF00CCFFFF00FFFFFF00000000000D0D0D001A1A1A00282828003535350043434300505050005D5D5D006B6B6B00787878008686860093939300A1A1A100AEAEAE00BBBBBB00C9C9C900D6D6D600E4E4E400
310
F1F1F100FFFFFF0000000000000000000000000000000000000000000000000000000000000000000000000000000000E2E2E2E2E2E2E2E2E2E2E2E2E2E2E2E2E2E2E2E2E2E2E2E2E2E2E2E2E2E2E2E2E2E2E2E2E2E2E2E2E2E2E2E2E2E2E2E2E2E2E2E2E2E2E2E2E2E2E2E2E2E2E2E2E2E2E2E2E2E2E2E2E2E2E2E2E2E2E2
310
E2E2E2E2E2E2E2E2E2E2E2E2E2E2E2E2E2E2E2E2E2E2E2E2E2E2E2E252E200000000000000000000000000000000000000000000000000000000000000000000000000000000000000000000000000000000000000000000000000000000000000000000000000000000000000000000000000000000000000000000000000
310
00000000000000000001E20000000000000000000000000000000000000000000000000000000000000000000000000000000000000000000000000000000000000000000000000000000000000000000000000000000000000000000000000000000000000000000000000000000000000000000070E200E2E2E2E2E2E2E2
310
E2E2000000000000000000E2E2E2E2E2E2E2E2E2E2E2E2E2E2E2E200000000000000000000E2E2E2E2E2E2E2E2E2E2E2E2E2E2E2E200000000000000000000E2E2E2E2E2E2E2E2E2E2E2E2E2E2E2E2000000000000000000E2E2E2E2E2E2E2E2E20072E200E200000000000000000000000000000000000000000000000000
310
0000000000000000000000000000000000000000000000000000000000000000000000000000000000000000000000000000000000000000000000000000000000000000000000000000000000E20053E200E20000000000000000000000000000000000000000000000000000000000000000000000000000000000000000
310
00000000000000000000000000000000000000000000000000000000000000000000000000000000000000000000000000000000000000000000E20001E200E2000000000000000000000000000000000000000000000000000000000000000000000000000000000000000000000000000000000000000000000000000000
310
000000000000000000000000000000000000000000000000000000000000000000000000000000E20079E200E200000000000000000000000000000000000000000000000000000000000000000000000000000000000000000000000000000000000000000000000000000000000000000000000000000000000000000000
310
0000000000000000000000000000000000000000E20072E200E20000000000000000000000000000000000000000000000000000000000000000000000000000000000000000000000000000000000000000000000000000000000000000000000000000000000000000000000000000000000000000000000000000000000
310
00E20066E200E2000000000000000000000000000000000000000000000000000000000000000000000000000000000000000000000000000000000000000000000000000000000000000000000000000000000000000000000000000000000000000000000000000000000000E20033E200E2000000000000000000000000
310
000000000000000000000000000000000000000000000000000000000000000000000000000000000000000000000000000000000000000000000000000000000000000000000000000000000000000000000000000000000000E20079E200E200000000000000000000000000000000000000000000000000000000000000
310
0000000000000000000000000000000000000000000000000000000000000000000000000000000000000000000000000000000000000000000000000000000000000000000000E20065E200000000000000000000000000000000000000000000000000000000000000000000000000000000000000000000000000000000
310
00000000000000000000000000000000000000000000000000000000000000000000000000000000000000000000000000000000000053E20000000000000000000000000000000000000000000000000000000000000000000000000000000000000000000000000000000000000000000000000000000000000000000000
310
000000000000000000000000000000000000000000000000000000000000000000000001E2000000000000000000000000000000000000000000000000000000000000000000000000000000000000000000000000000000000000000000000000000000000000000000000000000000000000000000000000000000000000
310
0000000000000000000000000000000079E20000000000000000000000000000000000000000000000000000000000000000000000000000000000000000000000000000000000000000000000000000000000000000000000000000000000000000000000000000000000000000000000000000000000000000000072E200
310
00000000000000000000000000000000000000000000000000000000000000000000000000000000000000000000000000000000000000000000000000000000000000000000000000000000000000000000000000000000000000000000000000000000000000000010E20000000000000000000000000000000000000000
310
000000000000000000000000000000000000000000000000000000000000000000000000000000000000000000000000000000000000000000000000000000000000000000000000000000000000000000000000000079E2000000000000000000000000000000000000000000000000000000000000000000000000000000
310
0000000000000000000000000000000000000000000000000000000000000000000000000000000000000000000000000000000000000000000000000000000000000065E200000000000000000000000000000000000000000000000000000000000000000000000000000000000000000000000000000000000000000000
310
00000000000000000000000000000000000000000000000000000000000000000000000000000000000000000000000072E20000000000000000000000000000000000000000000000000000000000000000000000000000000000000000000000000000000000000000000000000000000000000000000000000000000000
310
000000000000000000000000000000000000000000000000000000000056E2000000000000000000000000000000000000000000000000000000000000000000000000000000000000000000000000000000000000000000000000000000000000000000000000000000000000000000000000000000000000000000000000
310
0000000000000000000001E200E2000000000000000000000000000000000000000000000000000000000000000000000000000000000000000000000000000000000000000000000000000000000000000000000000000000000000000000000000000000000000000000000000000000000000E20079E200E20000000000
310
00000000000000000000000000000000000000000000000000000000000000000000000000000000000000000000000000000000000000000000000000000000000000000000000000000000000000000000000000000000000000000000000000E20072E200E2000000000000000000000000000000000000000000000000
310
000000000000000000000000000000000000000000000000000000000000000000000000000000000000000000000000000000000000000000000000000000000000000000000000000000000000E20010E200E200000000000000000000000000000000000000000000000000000000000000000000000000000000000000
310
0000000000000000000000000000000000000000000000000000000000000000000000000000000000000000000000000000000000000000000000E20070E200E20000000000000000000000000000000000000000000000000000000000000000000000000000000000000000000000000000000000000000000000000000
310
00000000000000000000000000000000000000000000000000000000000000000000000000000000E20000E200E2000000000000000000000000000000000000000000000000000000000000000000000000000000000000000000000000000000000000000000000000000000000000000000000000000000000000000000
310
000000000000000000000000000000000000000000E20054E200E200000000000000000000000000000000000000000000000000000000000000000000000000000000000000000000000000000000000000000000000000000000000000000000000000000000000000000000000000000000000000000000000000000000
310
0000E20066E200E2000000000000000000000000000000000000000000000000000000000000000000000000000000000000000000000000000000000000000000000000000000000000000000000000000000000000000000000000000000000000000000000000000000000000E20037E200E20000000000000000000000
310
00000000000000000000000000000000000000000000000000000000000000000000000000000000000000000000000000000000000000000000000000000000000000000000000000000000000000000000000000000000000000E20079E200E2000000000000000000000000000000000000000000000000000000000000
310
000000000000000000000000000000000000000000000000000000000000000000000000000000000000000000000000000000000000000000000000000000000000000000000000E20072E200E200000000000000000000000000000000000000000000000000000000000000000000000000000000000000000000000000
310
0000000000000000000000000000000000000000000000000000000000000000000000000000000000000000000000000000000000E20010E200E2000000000000000000000000000000000000000000000000000000000000000000000000E2E2E2E2E2E2E2E2E2E2E2E2E2E2E2E2E2E2E2E2E2E2E2E2E2E2E2E2E2E2E2E2
310
E2E2E200000000000000000000000000000000000000000000000000000000000000E20070E200E2000000000000000000000000000000000000000000000000000000000000000000000000E2E2E2E2E2E2E2E2E2E2E2E2E2E2E2E2E2E2E2E2E2E2E2E2E2E2E2E2E2E2E2E2E2E20000000000000000000000000000000000
310
000000000000000000000000000000E20070E200E2000000000000000000000000000000000000000000000000000000000000000000000000000000000000000000000000000000000000000000000000000000000000000000000000000000000000000000000000000000000000000000000000000000000000E20054E2
310
00E2000000000000000000000000000000000000000000000000000000000000000000000000000000000000000000000000000000000000000000000000000000000000000000000000000000000000000000000000000000000000000000000000000000000000E20030E200E20000000000000000000000000000000000
310
00000000000000000000000000000000000000E20000E2000000000000000000000000000000000000000000E20000E200000000000000000000000000000000000000000000000000000000000000000000000000E20072E200E2000000000000000000000000000000000000000000000000000000000000000000000000
310
E20000E2000000000000000000000000000000000000000000E20000E200000000000000000000000000000000000000000000000000000000000000000000000000E2006FE20000000000000000000000000000000000000000000000000000E2E2E2000000000000000000E20000E2000000000000000000000000000000
310
000000000000E20000E200000000000000000000000000000000000000000000000000000000000000000000000000000053E20000000000000000000000000000000000000000000000000000E2E2E2E20000000000000000E20000E2E2E2E2E2E2E2E2E2E2E2E2E2E2E2E2E2E2E2E2E2E2E20000E2E2E200000000000000
310
00000000000000000000000000000000000000000000000000000000000010E20000000000000000000000000000000000000000000000000000E2E2E200E200000000000000E20000E200E2E2E200000000000000000000000000E2E2E200E20000E200E20000000000000000000000000000000000000000000000000000
310
000000000000000000000070E2000000000000000000000000000000000000000000000000000000E2E200E200000000000000E20000E200000000E2E2E200000000000000E2E2E200000000E20000E200E2E2E2E2E2E2000000000000000000000000000000000000000000000000000000000000000070E2000000000000
310
0000000000000000000000000000000000E2E2E2E2E2E2E2E2E2E2E2E2000000E20000E200000000000000E2E2E2E2E2E2E200000000000000E20000E200E200E2E2E2E2000000000000000000000000000000000000000000000000000000000000000054E200000000000000000000000000000000000000000000E2E200
310
0000000000E2E2E2E2E2000000E20000E200000000000000E2E2E200E2E2E200000000000000E20000E200E200E2E2E200E20000000000000000000000000000000000000000000000000000000000000031E20000000000000000000000000000000000000000000000E2000000000000E20000E2E2E2E200E20000E20000
310
0000E2E2E200000000000000E2E2E200000000E20000E200E200E2E2E200E20000000000000000000000000000000000000000000000000000000000000072E20000000000000000000000000000000000000000000000E2000000000000E20000E20000E2E2E20000E200E2E2E200000000000000000000000000E2E2E200
310
E20000E200E200E2E2E200E2E200000000E200000000000000000000000000000000000000000000000000E0E20000000000000000000000000000000000000000000000E2000000000000E20000E200000000E2E2E2E2E2E2E2E2E2E2E2E2E2E2E2E2E2E2E2E2E2E2E2E2E2E2E2E2E2E2E2E2E2E2E2E2E2E2E2E2E2E20000
310
00000000000000000000000000000000000000000000000001E200E2000000000000000000000000000000000000000000E2000000000000E20000E2000000000000000000E200000000000000000000000000000000000000000000E2E2E20000000000E200000000E2000000000000000000000000000000000000000000
310
000000E20070E200E2000000000000000000000000000000000000000000E2000000000000E20000E2E2E200000000000000E200000000000000000000000000000000000000000000E2E2000000000000E2E2000000E2000000000000000000000000000000000000000000000000E20074E200E200000000000000000000
310
0000000000000000000000E2000000000000E20000000000E2E2E2E2E2E2E2E2E2E2E2E2E2E2E2E2E2E2E2E2E2000000E2E2E2E2E2E2E2E200E2E2E2E2E2E2E2000000E2000000000000000000000000000000000000000000000000E20070E200E2000000000000000000000000000000000000000000E2000000000000E2
310
00000000000000E20000000000000000000000000000E2000000E2E2E2000000000000E2E2000000000000E200000000E2000000000000000000000000000000000000000000000000E20054E200E2000000000000000000000000000000000000000000E2000000000000E200000000000000E2E2E2E2E2E2E2E2E2E2E2E2
310
E2E2E2E2E2E2E2E2E2E2E2E2E2E2E2E2E200000000000000E200000000E2000000000000000000000000000000000000000000000000E20035E200E2000000000000000000000000000000000000000000E2000000000000E20000000000000000E2E2E2000000E2E2E2E2E2000000E2E20000000000000000000000000000
310
0000000000E200000000E2000000000000000000000000000000000000000000000000E20072E200E2000000000000000000000000000000000000000000E2000000000000E20000000000000000E2E2E2000000E2E2E2E2E2000000E20000000000000000000000000000000000000000E200000000E20000000000000000
310
00000000000000000000000000000000E20053E200E2000000000000000000000000000000000000000000E2000000000000E20000000000000000000000E2E2E2E2E2E2E2E2E2E2E2E20000000000000000000000000000000000000000E200000000E2000000000000000000000000000000000000000000000000E20001
310
E200E2000000000000000000000000000000000000000000E2000000000000E20000000000000000000000000000E20000E200000000000000000000000000000000000000000000000000E200000000E2000000000000000000000000000000000000000000000000E20079E200E200000000000000000000000000000000
310
0000000000E2000000000000E20000000000000000000000000000E20000E200000000000000000000000000000000000000000000000000E200000000E2000000000000000000000000000000000000000000000000E20053E200E2000000000000000000000000000000000000000000E2000000000000E2000000000000
310
0000000000000000E20000E200000000000000000000000000000000000000000000000000E200000000E2000000000000000000000000000000000000000000000000E20052E200E2000000000000000000000000000000000000000000E2000000000000E20000000000000000000000000000E2E2E2E200000000000000
310
000000000000000000000000000000000000E200000000E2000000000000000000000000000000000000000000000000E20001E200E2000000000000000000000000000000000000000000E2000000000000E200000000000000000000000000000000000000000000000000000000000000000000000000000000000000E2
310
00000000E2000000000000000000000000000000000000000000000000E20070E200E2000000000000000000000000000000000000000000E2000000000000E200000000000000000000000000000000000000000000000000000000000000000000000000000000000000E200000000E20000000000000000000000000000
310
00000000000000000000E20072E200E200000000000000000000000000000000000000E2E2E2E20000000000E200000000000000000000000000000000000000000000000000000000000000000000000000000000000000E20000E2E2E2E20000000000000000000000000000000000000000000000E20053E200E2000000
310
00000000000000000000000000000000E2E2E2E20000E2E2E2E2E2E200000000000000000000000000000000000000000000000000000000000000000000000000000000E2E20000E2E2E2E20000000000000000000000000000000000000000000000E20001E200E200000000000000000000000000000000000000E2E2E2
310
E20000E2E2E2E2E2E20000000000000000000000000000000000000000000000000000000000000000000000000000000000E2000000E2E2E20000000000000000000000000000000000000000000000E20079E2000000000000000000000000000000000000000000E2E2E2E20000000000E2000000000000000000000000
310
00000000000000000000000000000000000000000000000000000000000000E2000000E2E2E20000000000000000000000000000000000000000000000000072E2000000000000000000000000000000000000000000E2E2E2E20000000000E200000000000000000000000000000000000000000000000000000000000000
310
000000000000000000000000E200000000E2000000000000000000000000000000000000000000000000000010E20000000000000000000000000000000000000000000000E2000000000000E200000000000000000000000000000000000000000000000000000000000000000000000000000000000000E200000000E200
310
0000000000000000000000000000000000000000000000000070E20000000000000000000000000000000000000000000000E2000000000000E200000000000000000000000000000000000000000000000000000000000000000000000000000000000000E200000000E20000000000000000000000000000000000000000
310
00000000000072E20000000000000000000000000000000000000000000000E2000000000000E20000000000000000000000000000E2E2E2E200000000000000000000000000000000000000000000000000E200000000E2000000000000000000000000000000000000000000000000000056E20000000000000000000000
310
000000000000000000000000E2000000000000E20000000000000000000000000000E20000E200000000000000000000000000000000000000000000000000E200000000E200000000000000000000000000000000000000000000000000000FE20000000000000000000000000000000000000000000000E2000000000000
310
E20000000000000000000000000000E20000E200000000000000000000000000000000000000000000000000E200000000E2000000000000000000000000000000000000000000000000000046E20000000000000000000000000000000000000000000000E2000000000000E20000000000000000000000000000E20000E2
310
00000000000000000000000000000000000000000000000000E200000000E2000000000000000000000000000000000000000000000000000079E20000000000000000000000000000000000000000000000E2000000000000E20000000000000000000000E2E2E2E2E2E2E2E2E2E2E2E20000000000000000000000000000
310
000000000000E200000000E2000000000000000000000000000000000000000000000000000072E20000000000000000000000000000000000000000000000E2000000000000E20000000000000000E2E2E2000000E2E2E2E2E2000000E20000000000000000000000000000000000000000E200000000E200000000000000
310
0000000000000000000000000000000000000010E200E2000000000000000000000000000000000000000000E2000000000000E20000000000000000E2E2E2000000E2E2E2E2E2000000E2E200000000000000000000000000000000000000E200000000E2000000000000000000000000000000000000000000000000E200
310
70E200E2000000000000000000000000000000000000000000E2000000000000E2000000E2E2E2E2E2E2E2E2E2E2E2E2E2E2E2E2E2E2E2E2E2E2E2E2E2E2E2E2E2E2E2E2E200000000000000E200000000E2000000000000000000000000000000000000000000000000E20070E200E2000000000000000000000000000000
310
000000000000E2000000000000E2000000E2000000E2E2E2000000000000000000000000E2000000E2E2E2000000000000E2E2000000000000E200000000E2000000000000000000000000000000000000000000000000E20054E200E2000000000000000000000000000000000000000000E2000000000000E2000000E200
310
0000E2E2E2E2E2E2E2E2E2E2E2E2E2E2E2E2E2E2E2000000E2E2E2E2E2E2E2E200E2E2E2E2E2E2E2000000E2000000000000000000000000000000000000000000000000E20037E200E2000000000000000000000000000000000000000000E2000000000000E2000000E2000000E2E2E20000000000000000000000000000
310
0000000000000000000000E2E2E20000000000E200000000E2000000000000000000000000000000000000000000000000E200FFE200E2000000000000000000000000000000000000000000E2000000000000E2000000E2E2E2E2E2E20000000000000000000000000000000000000000000000000000E2E2E20000000000
310
E2E2000000E2E20000000000000000000000000000000000000000000000E20053E200E2000000000000000000000000000000000000000000E2000000000000E2000000E2000000E2E2E2E2E2E2E2E2E2E2E2E2E2E2E2E2E2E2E2E2E2E2E2E2E2E2E2E2E200E2E2E2E2E2E2E2E2E2E2E2E200000000000000000000000000
310
0000000000000000000000E20052E200E2000000000000000000000000000000000000000000E2000000000000E2000000E2000000E20000E20000000000E20000000000E2000000E20000000000E20000E200E20000000000E2E2E2E2E2E2000000000000000000000000000000000000000000000000E20001E200E20000
310
00000000000000000000000000000000000000E2000000000000E2000000E2000000E20000E2E2000000E2E2E2000000E2E2000000E2E2000000E2E20000E200E20000000000E2E2E2E2E200000000000000000000000000000000000000000000000000E20070E200E2000000000000000000000000000000000000000000
310
E2000000000000E2E2E2E2E2E2E2E2E20000E2E2000000E2E2E2000000E2E2E200E2E2E2000000E2E20000E200E200000000000000E2E2E200000000000000000000000000000000000000000000000000E20070E200E2000000000000000000000000000000000000000000E2E2E2E2E2E2E2E2E2E2E2E2000000E20000E2
310
E2000000E2E2E2000000E2E2E200E2E2E2000000E2E20000E200E200000000000000E2E2E200000000000000000000000000000000000000000000000000E20054E200E20000000000000000000000000000000000000000E200000000000000E2E2E2E2E2000000E20000E2E2000000E2E2E2000000E2E2E200E2E2E20000
310
00E2E20000E200E20000000000000000000000000000000000000000000000000000000000000000000000E20038E200E200000000000000000000000000000000000000000000000000000000E2E2E2E2E2000000E20000E200E200E200E200E200E200E2E200E2E200E200E200E20000E2E2E20000000000000000000000
310
000000000000000000000000000000000000000000000000E20072E200E200000000000000000000000000000000000000000000000000000000E2E2E2E200000000E20000E200E200E200E200E200E200E2E200E2E200E200E200E20000E20000000000000000000000000000000000000000000000000000000000000000
310
0000000000E20053E200E2000000000000000000000000000000000000000000000000000000000000E2E200000000E20000E200E200E200E200E200E200E2E200E2E200E200E200E20000E200000000000000000000000000000000000000000000000000000000000000000000000000E20001E200E20000000000000000
310
00000000000000000000000000000000000000000000000000000000E20000E200E200E200E200E200E200E200E200E200E200E200E20000E200000000000000000000000000000000000000000000000000000000000000000000000000E20079E200E2000000000000000000000000000000000000000000000000000000
310
000000000000000000E20000E20000E20000E20000E20000E200E200E20000E20000E20000E200000000000000000000000000000000000000000000000000000000000000000000000000E20053E20000000000000000000000000000000000000000000000000000000000000000000000000000E20000E20000E20000E2
310
0000E20000E200E200E20000E20000E20000E200000000000000000000000000000000000000000000000000000000000000000000000000000052E20000000000000000000000000000000000000000000000000000000000000000000000000000E20000E20000E20000E20000E20000E200E200E20000E20000E20000E2
310
00000000000000000000000000000000000000000000000000000000000000000000000000000001E20000000000000000000000000000000000000000000000000000000000000000000000000000E20000E20000E20000E20000E20000E200E200E20000E20000E20000E200000000000000000000000000000000000000
310
000000000000000000000000000000000000000070E20000000000000000000000000000000000000000000000000000000000000000000000000000E20000E200E200E200E200E200E200E200E200E200E200E200E20000E20000000000000000000000000000000000000000000000000000000000000000000000000000
310
0072E20000000000000000000000000000000000000000000000000000000000000000000000000000E20000E200E200E200E200E200E200E2E200E2E200E200E200E20000E200000000000000000000000000000000000000000000000000000000000000000000000000000053E200000000000000000000000000000000
310
00000000000000000000000000000000000000000000E20000E200E200E200E200E200E200E2E200E2E200E200E200E20000E200000000000000000000000000000000000000000000000000000000000000000000000000000001E20000000000000000000000000000000000000000000000000000000000000000000000
310
000000E20000E200E200E200E200E200E200E2E200E2E200E200E200E20000E200000000000000000000000000000000000000000000000000000000000000000000000000000079E20000000000000000000000000000000000000000000000000000000000000000000000000000E20000E2E2000000E2E2E2000000E2E2
310
E200E2E2E2000000E2E20000E200000000000000000000000000000000000000000000000000000000000000000000000000000072E20000000000000000000000000000000000000000000000000000000000000000000000000000E20000E2E2000000E2E2E2000000E2E2E200E2E2E2000000E2E20000E2000000000000
310
00000000000000000000000000000000000000000000000000000000000000000010E200E2000000000000000000000000000000000000000000000000000000000000000000000000E20000E2E2000000E2E2E2000000E2E2E200E2E2E2000000E2E20000E200000000000000000000000000000000000000000000000000
310
000000000000000000000000E20070E200E2000000000000000000000000000000000000000000000000000000000000000000000000E20000E2E2000000E2E2E2000000E2E2000000E2E2000000E2E20000E200000000000000000000000000000000000000000000000000000000000000000000000000E20070E200E200
310
0000000000000000000000000000000000000000000000000000000000000000000000E20000E20000000000E20000000000E2000000E20000000000E20000E200000000000000000000000000000000000000000000000000000000000000000000000000E20000E200E20000000000000000000000000000000000000000
310
00000000000000000000000000000000E20000E2E2E2E2E2E2E2E2E2E2E2E2E2E2E2E2E2E2E2E2E2E2E20000E200000000000000000000000000000000000000000000000000000000000000000000000000E20001E200E2000000000000000000000000000000000000000000000000000000000000000000000000E20000
310
E2000000000000000000000000000000000000000000E20000E200000000000000000000000000000000000000000000000000000000000000000000000000E20045E200E2000000000000000000000000000000000000000000000000000000000000000000000000E20000E2000000000000000000000000000000000000
310
000000E20000E200000000000000000000000000000000000000000000000000000000000000000000000000E20001E200E2000000000000000000000000000000000000000000000000000000000000000000000000E20000E20000000000000000E2E2E2E2000000000000000000E20000E2000000000000000000000000
310
00000000000000000000000000000000000000000000000000E20072E200E2000000000000000000000000000000000000000000000000000000000000000000000000E20000E20000000000000000E2E2E2E2000000000000000000E20000E200000000000000000000000000000000000000000000000000000000000000
310
000000000000E20072E200E2000000000000000000000000000000000000000000000000000000000000000000000000E2E2E2E2E2E2E2E2E2E2E2E2E2E2E2E2E2E2E2E2E2E2E2E2E2E2E2E2E200000000000000000000000000000000000000000000000000000000000000000000000000E20000E200E200000000000000
310
0000000000000000000000000000000000000000000000000000000000000000000000000000000000E2E2E2E20000000000000000000000000000000000000000000000000000000000000000000000000000000000000000000000000000E20066E200E20000000000000000000000000000000000000000000000000000
310
00000000000000000000000000000000000000000000000000000000000000000000000000000000000000000000000000000000000000000000000000000000000000000000000000000000E20001E200E2000000000000000000000000000000000000000000000000000000000000000000000000000000000000000000
310
000000000000000000000000000000000000000000000000000000000000000000000000000000000000000000000000000000000000000000E20074E200E200000000000000000000000000000000000000000000000000000000000000000000000000000000000000000000000000000000000000000000000000000000
310
0000000000000000000000000000000000000000000000000000000000000000000000000000E20000E200E20000000000000000000000000000000000000000000000000000000000000000000000000000000000000000000000000000000000000000000000000000000000000000000000000000000000000000000000
310
00000000000000000000000000000000000000E20053E200E2000000000000000000000000000000000000000000000000000000000000000000000000000000000000000000000000000000000000000000000000000000000000000000000000000000000000000000000000000000000000000000000000000000000000
310
E20052E200E2000000000000000000000000000000000000000000000000000000000000000000000000000000000000000000000000000000000000000000000000000000000000000000000000000000000000000000000000000000000000000000000000000000000000E20070E200E200000000000000000000000000
310
0000000000000000000000000000000000000000000000000000000000000000000000000000000000000000000000000000000000000000000000000000000000000000000000000000000000000000000000000000000000E20074E200000000000000000000000000000000000000000000000000000000000000000000
310
00000000000000000000000000000000000000000000000000000000000000000000000000000000000000000000000000000000000000000000000000000000000000000000000070E20000000000000000000000000000000000000000000000000000000000000000000000000000000000000000000000000000000000
310
000000000000000000000000000000000000000000000000000000000000000000000000000000000000000000000000000000000054E2000000000000000000000000000000000000000000000000000000000000000000000000000000000000000000000000000000000000000000000000000000000000000000000000
310
0000000000000000000000000000000000000000000000000000000000000000000066E200000000000000000000000000000000000000000000000000000000000000000000000000000000000000000000000000000000000000000000000000000000000000000000000000000000000000000000000000000000000000
310
00000000000000000000000000000036E20000000000000000000000000000000000000000000000000000000000000000000000000000000000000000000000000000000000000000000000000000000000000000000000000000000000000000000000000000000000000000000000000000000000000000000065E20000
310
000000000000000000000000000000000000000000000000000000000000000000000000000000000000000000000000000000000000000000000000000000000000000000000000000000000000000000000000000000000000000000000000000000000000000072E2000000000000000000000000000000000000000000
310
0000000000000000000000000000000000000000000000000000000000000000000000000000000000000000000000000000000000000000000000000000000000000000000000000000000000000000000000000056E200000000000000000000000000000000000000000000000000000000000000000000000000000000
310
00000000000000000000000000000000000000000000000000000000000000000000000000000000000000000000000000000000000000000000000000000000000000E20000000000000000000000000000000000000000000000000000000000000000000000000000000000000000000000000000000000000000000000
310
00000000000000000000000000000000000000000000000000000000000000000000000000000000000000000000004FE2000000000000000000000000000000000000000000000000000000000000000000000000000000000000000000000000000000000000000000000000000000000000000000000000000000000000
310
0000000000000000000000000000000000000000000000000000000072E200E20000000000000000000000000000000000000000000000000000000000000000000000000000000000000000000000000000000000000000000000000000000000000000000000000000000000000000000000000000000000000000000000
310
00000000000000E2006FE200E2000000000000000000000000000000000000000000000000000000000000000000000000000000000000000000000000000000000000000000000000000000000000000000000000000000000000000000000000000000000000000000000000000000000000E200E0E200E2000000000000
310
000000000000000000000000000000000000000000000000000000000000000000000000000000000000000000000000000000000000000000000000000000000000000000000000000000000000000000000000000000000000000000000000E20001E200E200000000000000000000000000000000000000000000000000
310
0000000000000000000000000000000000000000000000000000000000000000000000000000000000000000000000000000000000000000000000000000000000000000000000000000000000E20070E200E20000000000000000000000000000000000000000000000000000000000000000000000000000000000000000
310
00000000000000000000000000000000000000000000000000000000000000000000000000000000000000000000000000000000000000000000E20074E200E2000000000000000000000000000000000000000000000000000000000000000000000000000000000000000000000000000000000000000000000000000000
310
000000000000000000000000000000000000000000000000000000000000000000000000000000E20070E200E200000000000000000000000000000000000000000000000000000000000000000000000000000000000000000000000000000000000000000000000000000000000000000000000000000000000000000000
310
0000000000000000000000000000000000000000E20052E200E20000000000000000000000000000000000000000000000000000000000000000000000000000000000000000000000000000000000000000000000000000000000000000000000000000000000000000000000000000000000000000000000000000000000
310
00E20001E200E2E2E2E2E2E2E2E2E2000000000000000000E2E2E2E2E2E2E2E2E2E2E2E2E2E2E2E200000000000000000000E2E2E2E2E2E2E2E2E2E2E2E2E2E2E2E200000000000000000000E2E2E2E2E2E2E2E2E2E2E2E2E2E2E2E2000000000000000000E2E2E2E2E2E2E2E2E20070E20000000000000000000000000000
310
000000000000000000000000000000000000000000000000000000000000000000000000000000000000000000000000000000000000000000000000000000000000000000000000000000000000000000000000000000000000000074E2000000000000000000000000000000000000000000000000000000000000000000
310
000000000000000000000000000000000000000000000000000000000000000000000000000000000000000000000000000000000000000000000000000000000000000000000000007EE2E2E2E2E2E2E2E2E2E2E2E2E2E2E2E2E2E2E2E2E2E2E2E2E2E2E2E2E2E2E2E2E2E2E2E2E2E2E2E2E2E2E2E2E2E2E2E2E2E2E2E2E2
310
E2E2E2E2E2E2E2E2E2E2E2E2E2E2E2E2E2E2E2E2E2E2E2E2E2E2E2E2E2E2E2E2E2E2E2E2E2E2E2E2E2E2E2E2E2E2E2E2E2E2E2E2E2E20F
  0
XRECORD
  5
A7CB
102
{ACAD_REACTORS
330
5963
102
}
330
5963
100
AcDbXrecord
280
     1
102
SHADEPLOT
 70
     0
102
SHADEPLOTRESLEVEL
 70
     2
102
SHADEPLOTCUSTOMDPI
 70
   300
  0
XRECORD
  5
5964
102
{ACAD_REACTORS
330
5963
102
}
330
5963
100
AcDbXrecord
280
     1
310
280000000001000074000000010008000000000000740000000000000000000000010000000000000000000000000000C8C8C8000000000000000000000000000000000000000000000000000000000000000000330000006600000099000000CC000000FF00000000330000333300006633000099330000CC330000FF3300
310
0000660000336600006666000099660000CC660000FF66000000990000339900006699000099990000CC990000FF99000000CC000033CC000066CC000099CC0000CCCC0000FFCC000000FF000033FF000066FF000099FF0000CCFF0000FFFF000000003300330033006600330099003300CC003300FF003300003333003333
310
33006633330099333300CC333300FF33330000663300336633006666330099663300CC663300FF66330000993300339933006699330099993300CC993300FF99330000CC330033CC330066CC330099CC3300CCCC3300FFCC330000FF330033FF330066FF330099FF3300CCFF3300FFFF330000006600330066006600660099
310
006600CC006600FF00660000336600333366006633660099336600CC336600FF33660000666600336666006666660099666600CC666600FF66660000996600339966006699660099996600CC996600FF99660000CC660033CC660066CC660099CC6600CCCC6600FFCC660000FF660033FF660066FF660099FF6600CCFF6600
310
FFFF660000009900330099006600990099009900CC009900FF00990000339900333399006633990099339900CC339900FF33990000669900336699006666990099669900CC669900FF66990000999900339999006699990099999900CC999900FF99990000CC990033CC990066CC990099CC9900CCCC9900FFCC990000FF99
310
0033FF990066FF990099FF9900CCFF9900FFFF99000000CC003300CC006600CC009900CC00CC00CC00FF00CC000033CC003333CC006633CC009933CC00CC33CC00FF33CC000066CC003366CC006666CC009966CC00CC66CC00FF66CC000099CC003399CC006699CC009999CC00CC99CC00FF99CC0000CCCC0033CCCC0066CC
310
CC0099CCCC00CCCCCC00FFCCCC0000FFCC0033FFCC0066FFCC0099FFCC00CCFFCC00FFFFCC000000FF003300FF006600FF009900FF00CC00FF00FF00FF000033FF003333FF006633FF009933FF00CC33FF00FF33FF000066FF003366FF006666FF009966FF00CC66FF00FF66FF000099FF003399FF006699FF009999FF00CC
310
99FF00FF99FF0000CCFF0033CCFF0066CCFF0099CCFF00CCCCFF00FFCCFF0000FFFF0033FFFF0066FFFF0099FFFF00CCFFFF00FFFFFF00000000000D0D0D001A1A1A00282828003535350043434300505050005D5D5D006B6B6B00787878008686860093939300A1A1A100AEAEAE00BBBBBB00C9C9C900D6D6D600E4E4E400
310
F1F1F100FFFFFF000000000000000000000000000000000000000000000000000000000000000000000000000000000000000000000000000000000000000000000000000000000000000000000000000000000000000000000000000000000000000000000000000000000000000000000000000000000000000000000000
310
00000000000000000000000000000000000000000000000000000000000000000000000000000000000000000000000000000000000000000000000000000000000000000000000000000000000000000000000000000000000000000000000000000000000000000000000000000000000000000000000000000000000000
310
00000000000000000000000000000000000000000000000000000000000000000000000000000000000000000000000000000000000000000000000000000000000000000000000000000000000000000000000000000000000000000000000000000000000000000000000000000000000000000000000000000000000000
310
00000000000000000000000000000000000000000000000000000000000000000000000000000000000000000000000000000000000000000000000000000000000000000000000000000000000000000000000000000000000000000000000000000000000000000000000000000000000000000000000000000000000000
310
00000000000000000000000000000000000000000000000000000000000000000000000000000000000000000000000000000000000000000000000000000000000000000000000000000000000000000000000000000000000000000000000000000000000000000000000000000000000000000000000000000000000000
310
00000000000000000000000000000000000000000000000000000000000000000000000000000000000000000000000000000000000000000000000000000000000000000000000000000000000000000000000000000000000000000000000000000000000000000000000000000000000000000000000000000000000000
310
00000000000000000000000000000000000000000000000000000000000000000000000000000000000000000000000000000000000000000000000000000000000000000000000000000000000000000000000000000000000000000000000000000000000000000000000000000000000000000000000000000000000000
310
000000000000000000000000000000000000000000000000000000000000000000000000F5F5F5F5F5F5F5F5F5F5F5F5F5F5F5F5F5F5F5F5F5F5F5F5F5F5F5F5F5F5F5F5F5F5F5F5F5F5F5F5F5F5F5F5F5F5F5F5F5000000000000000000000000000000000000000000000000000000000000000000000000000000000000
310
00000000000000000000000000000000000000000000000000000000000000000000000000000000000000000000000000000000000000000000000000000000000000000000000000000000000000000000000000000000000000000000000000000000000000000000000000000000000000000000000000000000000000
310
0000000000000000000000000000000000000000000000000000000000000000000000000000F5F5F5F5F5F5F5F5F5F5F5F5F5F5F5F5F5F5F5F5F5F5F5F5F5F5F5F5F5F5F5F5F5F5F5F5F5F5F5F5F5F5F5F5F5F5F5F50000000000000000000000000000000000000000000000000000000000000000000000000000000000
310
00000000000000000000000000000000000000000000000000000000000000000000000000000000000000000000000000000000000000000000000000000000000000000000000000000000000000000000000000000000000000000000000000000000000000000000000000000000000000000000000000000000000000
310
0000000000000000000000000000000000000000000000000000000000000000000000000000000000F5F5F5F5F5F5F5F5F5F5F5F5F5F5F5F5F5F5F5F5F5F5F5F5F5F5F5F5F5F5F5F5F5F5F5F5F5F5F5F5F5F5F5F5F5F5F5000000000000000000000000000000000000000000000000000000000000000000000000000000
310
00000000000000000000000000000000000000000000000000000000000000000000000000000000000000000000000000000000000000000000000000000000000000000000000000000000000000000000000000000000000000000000000000000000000000000000000000000000000000000000000000000000000000
310
00000000000000000000000000000000000000000000000000000000000000000000000000000000000000F5F5F5F5F5F5F5F5F5F5F5F5F5F5F5F5F5F5F5F5F5F5F5F5F5F5F5F5F5F5F5F5F5F5F5F5F5F5F5F5F5F5F5F5F5F5F500000000000000000000000000000000000000000000000000000000000000000000000000
310
00000000000000000000000000000000000000000000000000000000000000000000000000000000000000000000000000000000000000000000000000000000000000000000000000000000000000000000000000000000000000000000000000000000000000000000000000000000000000000000000000000000000000
310
00000000000000000000000000000000000000000000000000000000000000000000000000000000000000000000000000000000000000000000000000000000000000000000000000000000000000000000000000000000000000000000000000000000000000000000000000000000000000000000000000000000000000
310
00000000000000000000000000000000000000000000000000000000000000000000000000000000000000000000000000000000000000000000000000000000000000000000000000000000000000000000000000000000000000000000000000000000000000000000000000000000000000000000000000000000000000
310
00000000000000000000000000000000000000000000000000000000000000000000000000000000000000000000000000000000000000000000000000000000000000000000000000000000000000000000000000000000000000000000000000000000000000000000000000000000000000000000000000000000000000
310
00000000000000000000000000000000000000000000000000000000000000000000000000000000000000000000000000000000000000000000000000000000000000000000000000000000000000000000000000000000000000000000000000000000000000000000000000000000000000000000000000000000000000
310
00000000000000000000000000000000000000000000000000000000000000000000000000000000000000000000000000F5000000F5000000000000000000000000000000000000000000000000000000000000F50000F5000000000000000000000000000000000000000000000000000000000000000000000000000000
310
00000000000000000000000000000000000000000000000000000000000000000000000000000000000000000000000000000000000000000000000000000000000000000000000000000000000000000000000000000000000000000000000000000000000000000000000000000000000000000000000000000000000000
310
000000000000000000000000000000000000000000000000000000000000000000000000000000000000000000000000000000F5000000F5000000000000000000000000000000000000000000000000000000000000F50000F500000000000000000000000000000000000000000000000000000000000000000000000000
310
00000000000000000000000000000000000000000000000000000000000000000000000000000000000000000000000000000000000000000000000000000000000000000000000000000000000000000000000000000000000000000000000000000000000000000000000000000000000000000000000000000000000000
310
0000000000000000000000000000000000000000000000000000000000000000000000000000000000000000000000000000000000F5000000F5000000000000000000000000000000000000000000000000000000000000F50000F50000000000000000000000000000000000000000000000000000000000000000000000
310
00000000000000000000000000000000000000000000000000000000000000000000000000000000000000000000000000000000000000000000000000000000000000000000000000000000000000000000000000000000000000000000000000000000000000000000000000000000000000000000000000000000000000
310
0000000000000000000000000000000000000000000000000000000000000000000000000000F5F5F5F5F5000000000000000000000000F5000000F5000000000000000000000000000000000000000000000000000000000000F50000F5000000000000000000000000000000000000000000000000000000000000000000
310
00000000000000000000000000000000000000000000000000000000000000000000000000000000000000000000000000000000000000000000000000000000000000000000000000000000000000000000000000000000000000000000000000000000000000000000000000000000000000000000000000000000000000
310
00000000000000000000000000000000000000000000000000000000000000000000000000000000F5F5F5F5F5000000000000000000000000F5000000F5000000000000000000000000000000000000000000000000000000000000F50000F500000000000000000000000000000000000000000000000000000000000000
310
00000000000000000000000000000000000000000000000000000000000000000000000000000000000000000000000000000000000000000000000000000000000000000000000000000000000000000000000000000000000000000000000000000000000000000000000000000000000000000000000000000000000000
310
000000000000000000000000000000000000000000000000000000000000000000000000000000000000F5F5F5F5F5000000000000000000000000F5000000F5F5F5F5F5F5F5F5F5F5F5F5F5F5F5F5F5F5F5F5F5F5F5F5F5F5F5F5F5F5F5F50000F5F5F5F5F500000000000000000000000000000000000000000000000000
310
00000000000000000000000000000000000000000000000000000000000000000000000000000000000000000000000000000000000000000000000000000000000000000000000000000000000000000000000000000000000000000000000000000000000000000000000000000000000000000000000000000000000000
310
000000000000000000000000000000000000000000000000000000000000000000000000000000000000000000F5F5F500F5F500000000000000000000F5000000F500F5F5F5F50000000000000000000000000000000000000000F5F5F5F500F50000F5000000F50000000000000000000000000000000000000000000000
310
00000000000000000000000000000000000000000000000000000000000000000000000000000000000000000000000000000000000000000000000000000000000000000000000000000000000000000000000000000000000000000000000000000000000000000000000000000000000000000000000000000000000000
310
0000000000000000000000000000000000000000000000000000000000000000000000000000000000000000000000F5F5F50000F500000000000000000000F5000000F50000000000F5F5F5F5000000000000000000000000F5F5F5F50000000000F50000F5000000F500F5F5F5F5F5000000000000000000000000000000
310
00000000000000000000000000000000000000000000000000000000000000000000000000000000000000000000000000000000000000000000000000000000000000000000000000000000000000000000000000000000000000000000000000000000000000000000000000000000000000000000000000000000000000
310
0000000000000000000000000000000000000000000000000000000000000000000000000000000000000000F500000000F5F5F50000F500000000000000000000F5000000F5000000000000000000F5F5F5F500000000F5F5F5F5000000000000000000F50000F5000000F500F5F5F5F5F500000000000000000000000000
310
00000000000000000000000000000000000000000000000000000000000000000000000000000000000000000000000000000000000000000000000000000000000000000000000000000000000000000000000000000000000000000000000000000000000000000000000000000000000000000000000000000000000000
310
000000000000000000000000000000000000000000000000000000000000000000000000000000000000000000F5F5F5F5F5F5F5F5F5F5F5F5F5F5F5F5F50000000000F5000000F500000000000000000000000000F5F5F5F500000000000000000000000000F50000F5000000F500F5F5F5F5F5F500000000000000000000
310
00000000000000000000000000000000000000000000000000000000000000000000000000000000000000000000000000000000000000000000000000000000000000000000000000000000000000000000000000000000000000000000000000000000000000000000000000000000000000000000000000000000000000
310
0000000000000000000000000000000000000000000000000000000000000000000000000000000000000000000000F500000000000000000000F5F5F5F5F5F5F500000000F5000000F5000000000000000000F5F5F5F500000000F5F5F5F5000000000000000000F50000F5000000F500F5F5F5F5F5F5F500000000000000
310
00000000000000000000000000000000000000000000000000000000000000000000000000000000000000000000000000000000000000000000000000000000000000000000000000000000000000000000000000000000000000000000000000000000000000000000000000000000000000000000000000000000000000
310
00000000000000000000000000000000000000000000000000000000000000000000000000000000000000000000000000F5000000000000000000F5F5000000F5F5F5F5000000F5000000F50000000000F5F5F5F5000000000000000000000000F5F5F5F50000000000F50000F5000000F500F5F5F5F5F500F50000000000
310
00000000000000000000000000000000000000000000000000000000000000000000000000000000000000000000000000000000000000000000000000000000000000000000000000000000000000000000000000000000000000000000000000000000000000000000000000000000000000000000000000000000000000
310
000000000000000000000000000000000000000000000000000000000000000000000000000000000000000000000000000000F500000000000000000000F5000000F50000F5F5F5F5F5000000F500F5F5F5F50000000000000000000000000000000000000000F5F5F5F500F50000F5000000F500F5F5F5F5F500F5000000
310
00000000000000000000000000000000000000000000000000000000000000000000000000000000000000000000000000000000000000000000000000000000000000000000000000000000000000000000000000000000000000000000000000000000000000000000000000000000000000000000000000000000000000
310
0000000000000000000000000000000000000000000000000000000000000000000000000000000000000000000000000000000000F500000000000000000000F5000000F5000000000000F5F5F5F5F5F5F5F5F5F5F5F5F5F5F5F5F5F5F5F5F5F5F5F5F5F5F5F5F5F5F5F5F5F5F5F5F5F5F50000F500F5F5F5F5F5F5F5F5F5
310
F5F5F5F5F5F5F5000000000000000000000000000000000000000000000000000000000000000000000000000000000000000000000000000000000000000000000000000000000000000000000000000000000000000000000000000000000000000000000000000000000000000000000000000000000000000000000000
310
00000000000000000000000000000000000000000000000000000000000000000000000000000000000000000000000000000000000000F500000000000000000000F5000000F500000000000000000000000000F5000000000000000000000000000000000000000000000000000000000000F50000F50000000000000000
310
F5000000000000F50000000000000000000000000000000000000000000000000000000000000000000000000000000000000000000000000000000000000000000000000000000000000000000000000000000000000000000000000000000000000000000000000000000000000000000000000000000000000000000000
310
000000000000000000000000000000000000000000000000000000000000000000000000000000000000000000000000000000000000000000F500000000000000000000F5000000F500000000000000000000000000F5000000000000000000000000000000000000000000000000000000000000F50000F5000000000000
310
0000F5000000000000F5000000000000000000000000000000000000000000000000000000000000000000000000000000000000000000000000000000000000000000000000000000000000000000000000000000000000000000000000000000000000000000000000000000000000000000000000000000000000000000
310
0000000000000000000000000000000000000000000000000000000000000000000000000000000000000000000000000000000000000000000000F500000000000000000000F5000000F500000000000000000000000000F5000000000000000000000000000000000000000000000000000000000000F50000F500000000
310
00000000F5000000000000F500000000000000000000000000000000000000000000000000000000000000000000000000000000000000000000000000000000000000000000000000000000000000000000000000000000000000000000000000000000000000000000000000000000000000000000000000000000000000
310
00000000000000000000000000000000000000000000000000000000000000000000000000000000000000000000000000000000000000000000000000F500000000000000000000F5000000F5F5F5F500000000000000F5F5F5F5F5F5F5F500F5F5F5F5F5F5F5F5F5F5F5F5F5000000000000F5F5F5F5F5F5F50000F500F5
310
F5F5F5F5F5F5F5F50000000000F50000000000000000000000000000000000000000000000000000000000000000000000000000000000000000000000000000000000000000000000000000000000000000000000000000000000000000000000000000000000000000000000000000000000000000000000000000000000
310
000000000000000000000000000000000000000000000000000000000000000000000000000000000000000000000000000000000000000000000000000000F500000000000000000000F500000000000000F5F5F5F5F5F5F5F500F5F5000000F5F5F5000000F5F50000F5000000F50000F5F5F5F5000000000000F50000F5
310
0000000000000000F5000000000000F5000000000000000000000000000000000000000000000000000000000000000000000000000000000000000000000000000000000000000000000000000000000000000000000000000000000000000000000000000000000000000000000000000000000000000000000000000000
310
0000000000000000000000000000000000000000000000000000000000000000000000000000000000000000000000000000000000000000000000000000000000F500000000000000000000F500000000000000000000F50000000000000000000000000000000000000000F5000000F5F5F500000000000000000000F5F5
310
F5F50000000000000000F5000000000000F500000000000000000000000000000000000000000000000000000000000000000000000000000000000000000000000000000000000000000000000000000000000000000000000000000000000000000000000000000000000000000000000000000000000000000000000000
310
00000000000000000000000000000000000000000000000000000000000000000000000000000000000000000000000000000000000000000000000000000000000000F500000000000000000000F500000000000000000000F50000000000000000000000000000000000000000F500000000000000000000000000000000
310
F50000000000000000000000F5000000000000F50000000000000000000000000000000000000000000000000000000000000000000000000000000000000000000000000000000000000000000000000000000000000000000000000000000000000000000000000000000000000000000000000000000000000000000000
310
000000000000000000000000000000000000000000000000000000000000000000000000000000000000000000000000000000000000000000000000000000000000000000F500000000000000000000F500000000000000000000F5F5F5F5F5F5F5F5F5F5F5F5F5F5F5F5F5F5F5F5F5F5F5F5F5F5F5F5F5F5F5F5F5F5F5F5
310
F5F5F50000000000000000000000F5000000000000F5000000000000000000000000000000000000000000000000000000000000000000000000000000000000000000000000000000000000000000000000000000000000000000000000000000000000000000000000000000000000000000000000000000000000000000
310
0000000000000000000000000000000000000000000000000000000000000000000000000000000000000000000000000000000000000000000000000000000000000000000000F500000000000000000000F5000000000000000000000000F5F50000000000F5F5F5F5F5F5F50000000000F5000000000000000000000000
310
00000000000000000000000000000000F5000000000000F500000000000000000000000000000000000000000000000000000000000000000000000000000000000000000000000000000000000000000000000000000000000000000000000000000000000000000000000000000000000000000000000000000000000000
310
00000000000000000000000000000000000000000000000000000000000000000000000000000000000000000000000000000000000000000000000000000000000000000000000000F500000000000000000000F5000000000000000000000000F5F5F500000000F5F5F5F5F5F5F500000000F5F500000000000000000000
310
000000000000000000000000000000000000F5000000000000F50000000000000000000000000000000000000000000000000000000000000000000000000000000000000000000000000000000000000000000000000000000000000000000000000000000000000000000000000000000000000000000000000000000000
310
000000000000000000000000000000000000000000000000000000000000000000000000000000000000000000000000000000000000000000000000000000000000000000000000000000F500000000000000000000F5000000000000000000000000000000F5000000F5F5F5F5F5F5F50000F5F5F5000000000000000000
310
0000000000000000000000000000000000000000F5000000000000F5000000000000000000000000000000000000000000000000000000000000000000000000000000000000000000000000000000000000000000000000000000000000000000000000000000000000000000000000000000000000000000000000000000
310
0000000000000000000000000000000000000000000000000000000000000000000000000000000000000000000000000000000000000000000000000000000000000000000000000000000000F500000000000000000000F5000000000000000000000000000000F5F5F5F5F5F5F5F5F5F5F5F5F500000000000000000000
310
00000000000000000000000000000000000000000000F5000000000000F500000000000000000000000000000000000000000000000000000000000000000000000000000000000000000000000000000000000000000000000000000000000000000000000000000000000000000000000000000000000000000000000000
310
00000000000000000000000000000000000000000000000000000000000000000000000000000000000000000000000000000000000000000000000000000000000000000000000000000000000000F500000000000000000000F500000000000000000000000000000000000000F5F5000000F50000000000000000000000
310
000000000000000000000000000000000000000000000000F5000000000000F50000000000000000000000000000000000000000000000000000000000000000000000000000000000000000000000000000000000000000000000000000000000000000000000000000000000000000000000000000000000000000000000
310
000000000000000000000000000000000000000000000000000000000000000000000000000000000000000000000000000000000000000000000000000000000000000000000000000000000000000000F500000000000000000000F500000000000000000000000000000000000000F5F5000000F5000000000000000000
310
0000000000000000000000000000000000000000000000000000F5000000000000F5000000000000000000000000000000000000000000000000000000000000000000000000000000000000000000000000000000000000000000000000000000000000000000000000000000000000000000000000000000000000000000
310
0000000000000000000000000000000000000000000000000000000000000000000000000000000000000000000000000000000000000000000000000000000000000000000000000000000000000000000000F500000000000000000000F500000000000000000000000000000000000000F5F5000000F500000000000000
310
00000000000000000000000000000000000000000000000000000000F5000000000000F500000000000000000000000000000000000000000000000000000000000000000000000000000000000000000000000000000000000000000000000000000000000000000000000000000000000000000000000000000000000000
310
00000000000000000000000000000000000000000000000000000000000000000000000000000000000000000000000000000000000000000000000000000000000000000000000000000000000000000000000000F500000000000000000000F500000000000000000000000000000000000000F5F5000000F50000000000
310
000000000000000000000000000000000000000000000000000000000000F5000000000000F50000000000000000000000000000000000000000000000000000000000000000000000000000000000000000000000000000000000000000000000000000000000000000000000000000000000000000000000000000000000
310
000000000000000000000000000000000000000000000000000000000000000000000000000000000000000000000000000000000000000000000000000000000000000000000000000000000000000000000000000000F500000000000000000000F500000000000000000000000000000000000000F5F5F5F5F5F5000000
310
0000000000000000000000000000000000000000000000000000000000000000F5000000000000F5000000000000000000000000000000000000000000000000000000000000000000000000000000000000000000000000000000000000000000000000000000000000000000000000000000000000000000000000000000
310
0000000000000000000000000000000000000000000000000000000000000000000000000000000000000000000000000000000000000000000000000000000000000000000000000000000000000000000000000000000000F500000000000000000000F50000000000000000000000000000000000000000000000000000
310
00000000000000000000000000000000000000000000000000000000000000000000F5000000000000F500000000000000000000000000000000000000000000000000000000000000000000000000000000000000000000000000000000000000000000000000000000000000000000000000000000000000000000000000
310
00000000000000000000000000000000000000000000000000000000000000000000000000000000000000000000000000000000000000000000000000000000000000000000000000000000000000000000000000000000000000F500000000000000000000F5000000000000000000000000000000000000000000000000
310
000000000000000000000000000000000000000000000000000000000000000000000000F5000000000000F50000000000000000000000000000000000000000000000000000000000000000000000000000000000000000000000000000000000000000000000000000000000000000000000000000000000000000000000
310
000000000000000000000000000000000000000000000000000000000000000000000000000000000000000000000000000000000000000000000000000000000000000000000000000000000000000000000000000000000000000000F500000000000000000000F500000000000000000000000000000000000000000000
310
0000000000000000000000000000000000000000000000000000000000000000000000000000F5000000000000F5000000000000000000000000000000000000000000000000000000000000000000000000000000000000000000000000000000000000000000000000000000000000000000000000000000000000000000
310
0000000000000000000000000000000000000000000000000000000000000000000000000000000000000000000000000000000000000000000000000000000000000000000000000000000000000000000000000000000000000000F5F5F5F5F5F50000000000000000F50000000000000000000000000000000000000000
310
00000000000000000000000000000000000000000000000000000000000000000000000000000000F5000000F5F5F5F5F5F50000000000000000000000000000000000000000000000000000000000000000000000000000000000000000000000000000000000000000000000000000000000000000000000000000000000
310
00000000000000000000000000000000000000000000000000000000000000000000000000000000000000000000000000000000000000000000000000000000000000000000000000000000000000000000000000000000000000000000F5F5F5F5F5F50000000000000000F5000000000000000000000000000000000000
310
000000000000000000000000000000000000000000000000000000000000000000000000000000000000F5000000F5F5F5F5F5F5000000000000000000000000000000000000000000000000000000000000000000000000000000000000000000000000000000000000000000000000000000000000000000000000000000
310
00000000000000000000000000000000000000000000000000000000000000000000000000000000000000000000000000000000000000000000000000000000000000000000000000000000000000000000000000000000000000000000000000F5F5F5F5F500000000F5F5F5F5F5F5F5F500000000000000000000000000
310
00000000000000000000000000000000000000000000000000000000000000000000000000000000000000F5F5000000F5F5F5F5F5F500000000000000000000000000000000000000000000000000000000000000000000000000000000000000000000000000000000000000000000000000000000000000000000000000
310
0000000000000000000000000000000000000000000000000000000000000000000000000000000000000000000000000000000000000000000000000000000000000000000000000000000000000000000000000000000000000000000000000000F5F5F5F5F5F500000000F5F5F5F5F5F5F5F50000000000000000000000
310
000000000000000000000000000000000000000000000000000000000000000000000000000000000000000000F5F500000000F5F5F5F5000000000000000000000000000000000000000000000000000000000000000000000000000000000000000000000000000000000000000000000000000000000000000000000000
310
00000000000000000000000000000000000000000000000000000000000000000000000000000000000000000000000000000000000000000000000000000000000000000000000000000000000000000000000000000000000000000000000000000000F5F5F5F5F5F500000000F5F5F5F5F5F5F5F5000000000000000000
310
0000000000000000000000000000000000000000000000000000000000000000000000000000000000000000000000F5F5F5000000F5F5F5F500000000000000000000000000000000000000000000000000000000000000000000000000000000000000000000000000000000000000000000000000000000000000000000
310
00000000000000000000000000000000000000000000000000000000000000000000000000000000000000000000000000000000000000000000000000000000000000000000000000000000000000000000000000000000000000000000000000000000000000F5F5F5F5F5F500000000000000F500000000000000000000
310
0000000000000000000000000000000000000000000000000000000000000000000000000000000000000000000000000000F500000000F5F5F5F50000000000000000000000000000000000000000000000000000000000000000000000000000000000000000000000000000000000000000000000000000000000000000
310
000000000000000000000000000000000000000000000000000000000000000000000000000000000000000000000000000000000000000000000000000000000000000000000000000000000000000000000000000000000000000000000000000000000000000000F5F5F5F5F5F500000000000000F50000000000000000
310
00000000000000000000000000000000000000000000000000000000000000000000000000000000000000000000000000000000F5000000000000F500000000000000000000000000000000000000000000000000000000000000000000000000000000000000000000000000000000000000000000000000000000000000
310
00000000000000000000000000000000000000000000000000000000000000000000000000000000000000000000000000000000000000000000000000000000000000000000000000000000000000000000000000000000000000000000000000000000000000000000000000F500000000000000000000F5000000000000
310
000000000000000000000000000000000000000000000000000000000000000000000000000000000000000000000000000000000000F5000000000000F50000000000000000000000000000000000000000000000000000000000000000000000000000000000000000000000000000000000000000000000000000000000
310
000000000000000000000000000000000000000000000000000000000000000000000000000000000000000000000000000000000000000000000000000000000000000000000000000000000000000000000000000000000000000000000000000000000000000000000000000000F500000000000000000000F500000000
310
0000000000000000000000000000000000000000000000000000000000000000000000000000000000000000000000000000000000000000F5000000000000F5000000000000000000000000000000000000000000000000000000000000000000000000000000000000000000000000000000000000000000000000000000
310
0000000000000000000000000000000000000000000000000000000000000000000000000000000000000000000000000000000000000000000000000000000000000000000000000000000000000000000000000000000000000000000000000000000000000000000000000000000000F500000000000000000000F50000
310
0000000000000000000000000000000000F5F5F5F5F5F50000000000000000000000000000000000000000000000000000000000000000000000F5000000000000F500000000000000000000000000000000000000000000000000000000000000000000000000000000000000000000000000000000000000000000000000
310
00000000000000000000000000000000000000000000000000000000000000000000000000000000000000000000000000000000000000000000000000000000000000000000000000000000000000000000000000000000000000000000000000000000000000000000000000000000000000F500000000000000000000F5
310
00000000000000000000000000000000000000F5F5000000F50000000000000000000000000000000000000000000000000000000000000000000000F5000000000000F50000000000000000000000000000000000000000000000000000000000000000000000000000000000000000000000000000000000000000000000
310
000000000000000000000000000000000000000000000000000000000000000000000000000000000000000000000000000000000000000000000000000000000000000000000000000000000000000000000000000000000000000000000000000000000000000000000000000000000000000000F5000000000000000000
310
00F500000000000000000000000000000000000000F5F5000000F50000000000000000000000000000000000000000000000000000000000000000000000F5000000000000F5000000000000000000000000000000000000000000000000000000000000000000000000000000000000000000000000000000000000000000
310
0000000000000000000000000000000000000000000000000000000000000000000000000000000000000000000000000000000000000000000000000000000000000000000000000000000000000000000000000000000000000000000000000000000000000000000000000000000000000000000000F500000000000000
310
000000F500000000000000000000000000000000000000F5F5000000F50000000000000000000000000000000000000000000000000000000000000000000000F5000000000000F500000000000000000000000000000000000000000000000000000000000000000000000000000000000000000000000000000000000000
310
00000000000000000000000000000000000000000000000000000000000000000000000000000000000000000000000000000000000000000000000000000000000000000000000000000000000000000000000000000000000000000000000000000000000000000000000000000000000000000000000000F50000000000
310
0000000000F500000000000000000000000000000000000000F5F5000000F50000000000000000000000000000000000000000000000000000000000000000000000F5000000000000F50000000000000000000000000000000000000000000000000000000000000000000000000000000000000000000000000000000000
310
000000000000000000000000000000000000000000000000000000000000000000000000000000000000000000000000000000000000000000000000000000000000000000000000000000000000000000000000000000000000000000000000000000000000000000000000000000000000000000000000000000F5000000
310
00000000000000F500000000000000000000000000000000000000F5F5000000F50000000000000000000000000000000000000000000000000000000000000000000000F5000000000000F5000000000000000000000000000000000000000000000000000000000000000000000000000000000000000000000000000000
310
0000000000000000000000000000000000000000000000000000000000000000000000000000000000000000000000000000000000000000000000000000000000000000000000000000000000000000000000000000000000000000000000000000000000000000000000000000000000000000000000000000000000F500
310
000000000000000000F5000000000000000000000000000000F5F5F5F5F5F5F5F5F5F5F5F5000000000000000000000000000000000000000000000000000000000000000000F5000000000000F500000000000000000000000000000000000000000000000000000000000000000000000000000000000000000000000000
310
00000000000000000000000000000000000000000000000000000000000000000000000000000000000000000000000000000000000000000000000000000000000000000000000000000000000000000000000000000000000000000000000000000000000000000000000000000000000000000000000000000000000000
310
F500000000000000000000F5000000000000000000000000000000F5000000F5F5F5F5F5F5F500F5F5F5F50000000000000000000000000000000000000000000000000000000000F5000000000000F50000000000000000000000000000000000000000000000000000000000000000000000000000000000000000000000
310
00000000000000000000000000000000000000000000000000000000000000000000000000000000000000000000000000000000000000000000000000000000000000000000000000000000000000000000000000000000000000000000000000000000000000000000000000000000000000000000000000000000000000
310
0000F500000000000000000000F5000000000000000000000000F5F5F500000000F5F5F5F5F5F5F500000000F5F500000000000000000000000000000000000000000000000000000000F5000000000000F5000000000000000000000000000000000000000000000000000000000000000000000000000000000000000000
310
00000000000000000000000000000000000000000000000000000000000000000000000000000000000000000000000000000000000000000000000000000000000000000000000000000000000000000000000000000000000000000000000000000000000000000000000000000000000000000000000000000000000000
310
00000000F500000000000000000000F5000000000000000000000000F5F50000000000F5F5F5F5F5F5F50000000000F500000000000000000000000000000000000000000000000000000000F5000000000000F500000000000000000000000000000000000000000000000000000000000000000000000000000000000000
310
00000000000000000000000000000000000000000000000000000000000000000000000000000000000000000000000000000000000000000000000000000000000000000000000000000000000000000000000000000000000000000000000000000000000000000000000000000000000000000000000000000000000000
310
000000000000F500000000000000000000F500000000000000000000F5F5F5F5F5F5F5F5F5F5F5F5F5F5F5F5F5F5F5F5F5F5F5F5F5F5F5F5F5F5F5F5F5F5F5F5F5F5F50000000000000000000000F5000000000000F50000000000000000000000000000000000000000000000000000000000000000000000000000000000
310
00000000000000000000000000000000000000000000000000000000000000000000000000000000000000000000000000000000000000000000000000000000000000000000000000000000000000000000000000000000000000000000000000000000000000000000000000000000000000000000000000000000000000
310
0000000000000000F500000000000000000000F500000000F5F5F5F5F5F5F5F5F5000000000000000000000000000000000000F500000000000000000000000000000000F5F5F5000000000000000000F5000000000000F5000000000000000000000000000000000000000000000000000000000000000000000000000000
310
00000000000000000000000000000000000000000000000000000000000000000000000000000000000000000000000000000000000000000000000000000000000000000000000000000000000000000000000000000000000000000000000000000000000000000000000000000000000000000000000000000000000000
310
00000000000000000000F500000000000000000000F500000000F50000000000F5F5F5000000000000000000000000000000000000F5000000F5F5F500000000000000000000F50000F50000000000000000F5000000000000F500000000000000000000000000000000000000000000000000000000000000000000000000
310
00000000000000000000000000000000000000000000000000000000000000000000000000000000000000000000000000000000000000000000000000000000000000000000000000000000000000000000000000000000000000000000000000000000000000000000000000000000000000000000000000000000000000
310
000000000000000000000000F500000000000000000000F500000000F50000000000F5F5F5F5F500F5F5000000F5F5F5000000F5F50000F5000000F50000F5F5F5F5000000000000F50000F50000000000000000F5F50000000000F50000000000000000000000000000000000000000000000000000000000000000000000
310
00000000000000000000000000000000000000000000000000000000000000000000000000000000000000000000000000000000000000000000000000000000000000000000000000000000000000000000000000000000000000000000000000000000000000000000000000000000000000000000000000000000000000
310
0000000000000000000000000000F500000000000000000000F500000000F50000000000F5F5F5F5F5F5F5F5F5F5F5F500F5F5F5F5F5F5F5F5F5F5F5F5F5000000000000F5F5F5F5F5F5F50000F500F5F5F5F5F5F5F5F5F50000000000F5000000000000000000000000000000000000000000000000000000000000000000
310
00000000000000000000000000000000000000000000000000000000000000000000000000000000000000000000000000000000000000000000000000000000000000000000000000000000000000000000000000000000000000000000000000000000000000000000000000000000000000000000000000000000000000
310
00000000000000000000000000000000F500000000000000000000F500000000F500F5F5F5F5F500F50000000000000000000000000000000000000000000000000000000000000000000000F50000F50000000000000000F5000000000000F500000000000000000000000000000000000000000000000000000000000000
310
00000000000000000000000000000000000000000000000000000000000000000000000000000000000000000000000000000000000000000000000000000000000000000000000000000000000000000000000000000000000000000000000000000000000000000000000000000000000000000000000000000000000000
310
000000000000000000000000000000000000F500000000000000000000F500000000F500F5F5F5F5F5F5000000000000000000000000000000000000000000000000000000000000000000000000F50000F50000000000000000F5F50000000000F5F500000000000000000000000000000000000000000000000000000000
310
00000000000000000000000000000000000000000000000000000000000000000000000000000000000000000000000000000000000000000000000000000000000000000000000000000000000000000000000000000000000000000000000000000000000000000000000000000000000000000000000000000000000000
310
0000000000000000000000000000000000000000F500000000000000000000F500000000F50000000000F5F5F5F5F5F5F5F5F5F5F5F5F5F5F5F5F5F5F5F5F5F5F5F5F5F5F5F5F5F5F5F5F5F5F5F5F5F5F50000F500F5F5F5F5F5F5F5F5F5F5F5F5F5F5F5000000000000000000000000000000000000000000000000000000
310
00000000000000000000000000000000000000000000000000000000000000000000000000000000000000000000000000000000000000000000000000000000000000000000000000000000000000000000000000000000000000000000000000000000000000000000000000000000000000000000000000000000000000
310
00000000000000000000000000000000000000000000F500000000000000000000F500000000F50000000000F5000000F50000000000000000F500000000000000F500000000F50000000000000000F50000F5000000F500000000000000F5F5F5F5F5F5F50000000000000000000000000000000000000000000000000000
310
00000000000000000000000000000000000000000000000000000000000000000000000000000000000000000000000000000000000000000000000000000000000000000000000000000000000000000000000000000000000000000000000000000000000000000000000000000000000000000000000000000000000000
310
000000000000000000000000000000000000000000000000F500000000000000000000F500000000F50000000000F5000000F5F5000000000000F5F5F50000000000F5F500000000F5F5000000000000F5F50000F5000000F500000000000000F500F5F5F5F5F5F50000000000000000000000000000000000000000000000
310
00000000000000000000000000000000000000000000000000000000000000000000000000000000000000000000000000000000000000000000000000000000000000000000000000000000000000000000000000000000000000000000000000000000000000000000000000000000000000000000000000000000000000
310
0000000000000000000000000000000000000000000000000000F500000000000000000000F500000000F50000000000F5000000F5F5000000000000F5F5F50000000000F5F500000000F5F5000000000000F5F50000F5000000F500000000000000F5F5F5F5F5F50000000000000000000000000000000000000000000000
310
00000000000000000000000000000000000000000000000000000000000000000000000000000000000000000000000000000000000000000000000000000000000000000000000000000000000000000000000000000000000000000000000000000000000000000000000000000000000000000000000000000000000000
310
00000000000000000000000000000000000000000000000000000000F500000000000000000000F500000000F5F5F5F5F5F5F5000000F5F5000000000000F5F5F50000000000F5F5F50000F5F5F5000000000000F5F50000F5000000F5000000000000000000F5F5F5F5000000000000000000000000000000000000000000
310
00000000000000000000000000000000000000000000000000000000000000000000000000000000000000000000000000000000000000000000000000000000000000000000000000000000000000000000000000000000000000000000000000000000000000000000000000000000000000000000000000000000000000
310
000000000000000000000000000000000000000000000000000000000000F5000000000000000000F5F5F5F5F5F5F50000000000F5000000F5F5000000000000F5F5F50000000000F5F5F50000F5F5F5000000000000F5F50000F5000000F500000000000000000000F5F5F5F5000000000000000000000000000000000000
310
00000000000000000000000000000000000000000000000000000000000000000000000000000000000000000000000000000000000000000000000000000000000000000000000000000000000000000000000000000000000000000000000000000000000000000000000000000000000000000000000000000000000000
310
0000000000000000000000000000000000000000000000000000000000000000F5F5F5F5F5F5F5F5F5F5F5F5F5F5F5F5F50000000000F5000000F500F500000000F500F500F5000000F500F5F50000F5F500F500000000F500F50000F5000000F5000000000000000000000000000000000000000000000000000000000000
310
00000000000000000000000000000000000000000000000000000000000000000000000000000000000000000000000000000000000000000000000000000000000000000000000000000000000000000000000000000000000000000000000000000000000000000000000000000000000000000000000000000000000000
310
00000000000000000000000000000000000000000000000000000000000000000000F5000000000000000000F5F5F5F5F5F5F50000000000F5000000F500F500000000F500F500F5000000F500F5F50000F5F500F500000000F500F50000F5000000F500000000000000000000000000000000000000000000000000000000
310
00000000000000000000000000000000000000000000000000000000000000000000000000000000000000000000000000000000000000000000000000000000000000000000000000000000000000000000000000000000000000000000000000000000000000000000000000000000000000000000000000000000000000
310
0000000000000000000000000000000000000000000000000000000000000000000000000000000000000000000000F5F5F5F5F5F50000000000F5000000F500F500000000F500F500F5000000F500F5F50000F5F500F500000000F500F50000F5000000F50000000000000000000000000000000000000000000000000000
310
00000000000000000000000000000000000000000000000000000000000000000000000000000000000000000000000000000000000000000000000000000000000000000000000000000000000000000000000000000000000000000000000000000000000000000000000000000000000000000000000000000000000000
310
00000000000000000000000000000000000000000000000000000000000000000000000000000000000000000000000000F5F5F5F5F5F50000000000F5000000F50000F50000F50000F500F5000000F500F5F50000F5F50000F50000F50000F50000F5F5F5F5F5000000000000000000000000000000000000000000000000
310
00000000000000000000000000000000000000000000000000000000000000000000000000000000000000000000000000000000000000000000000000000000000000000000000000000000000000000000000000000000000000000000000000000000000000000000000000000000000000000000000000000000000000
310
0000000000000000000000000000000000000000000000000000000000000000000000000000000000000000000000000000000000F5F5F5000000000000F5000000F50000F50000F50000F50000F500F50000F500F5F500F50000F50000F50000F50000F50000000000000000000000000000000000000000000000000000
310
00000000000000000000000000000000000000000000000000000000000000000000000000000000000000000000000000000000000000000000000000000000000000000000000000000000000000000000000000000000000000000000000000000000000000000000000000000000000000000000000000000000000000
310
00000000000000000000000000000000000000000000000000000000000000000000000000000000000000000000000000000000000000F5F5F5000000000000F5000000F50000F50000F50000F50000F500F50000F500F5F500F50000F50000F50000F50000F5000000000000000000000000000000000000000000000000
310
00000000000000000000000000000000000000000000000000000000000000000000000000000000000000000000000000000000000000000000000000000000000000000000000000000000000000000000000000000000000000000000000000000000000000000000000000000000000000000000000000000000000000
310
000000000000000000000000000000000000000000000000000000000000000000000000000000000000000000000000000000000000000000F5F5F5000000000000F5000000F50000F50000F50000F50000F500F50000F500F5F500F50000F50000F50000F50000F500000000000000000000000000000000000000000000
310
00000000000000000000000000000000000000000000000000000000000000000000000000000000000000000000000000000000000000000000000000000000000000000000000000000000000000000000000000000000000000000000000000000000000000000000000000000000000000000000000000000000000000
310
0000000000000000000000000000000000000000000000000000000000000000000000000000000000000000000000000000000000000000000000000000000000000000F5000000F5000000F5F5000000F50000F500F50000F500F5F500F5000000F5F5000000F50000F50000000000000000000000000000000000000000
310
00000000000000000000000000000000000000000000000000000000000000000000000000000000000000000000000000000000000000000000000000000000000000000000000000000000000000000000000000000000000000000000000000000000000000000000000000000000000000000000000000000000000000
310
00000000000000000000000000000000000000000000000000000000000000000000000000000000000000000000000000000000000000000000000000000000000000000000F5000000F5000000F5F5000000F5000000F5000000F500F5F500F5000000F5F5000000F50000F5000000000000000000000000000000000000
310
00000000000000000000000000000000000000000000000000000000000000000000000000000000000000000000000000000000000000000000000000000000000000000000000000000000000000000000000000000000000000000000000000000000000000000000000000000000000000000000000000000000000000
310
000000000000000000000000000000000000000000000000000000000000000000000000000000000000000000000000000000000000000000000000000000000000000000000000F5000000F5000000F5F5000000F5000000F5000000F500F5F500F5000000F5F5000000F50000F500000000000000000000000000000000
310
00000000000000000000000000000000000000000000000000000000000000000000000000000000000000000000000000000000000000000000000000000000000000000000000000000000000000000000000000000000000000000000000000000000000000000000000000000000000000000000000000000000000000
310
0000000000000000000000000000000000000000000000000000000000000000000000000000000000000000000000000000000000000000000000000000000000000000000000000000F5000000F5000000F5F5000000F5000000F5000000F500F5F500F5000000F5F5000000F50000F50000000000000000000000000000
310
00000000000000000000000000000000000000000000000000000000000000000000000000000000000000000000000000000000000000000000000000000000000000000000000000000000000000000000000000000000000000000000000000000000000000000000000000000000000000000000000000000000000000
310
00000000000000000000000000000000000000000000000000000000000000000000000000000000000000000000000000000000000000000000000000000000000000000000000000000000F5000000F5000000F5F5000000F5000000F5000000F500F5F500F5000000F5F5000000F50000F5000000000000000000000000
310
00000000000000000000000000000000000000000000000000000000000000000000000000000000000000000000000000000000000000000000000000000000000000000000000000000000000000000000000000000000000000000000000000000000000000000000000000000000000000000000000000000000000000
310
000000000000000000000000000000000000000000000000000000000000000000000000000000000000000000000000000000000000000000000000000000000000000000000000000000000000F5000000F5000000F5F5000000F50000F500F50000F500F5F500F5000000F5F5000000F50000F500000000000000000000
310
00000000000000000000000000000000000000000000000000000000000000000000000000000000000000000000000000000000000000000000000000000000000000000000000000000000000000000000000000000000000000000000000000000000000000000000000000000000000000000000000000000000000000
310
0000000000000000000000000000000000000000000000000000000000000000000000000000000000000000000000000000000000000000000000000000000000000000000000000000000000000000F5000000F50000F50000F50000F50000F500F50000F500F5F500F50000F50000F50000F50000F50000000000000000
310
00000000000000000000000000000000000000000000000000000000000000000000000000000000000000000000000000000000000000000000000000000000000000000000000000000000000000000000000000000000000000000000000000000000000000000000000000000000000000000000000000000000000000
310
00000000000000000000000000000000000000000000000000000000000000000000000000000000000000000000000000000000000000000000000000000000000000000000000000000000000000000000F5000000F50000F50000F50000F50000F500F50000F500F5F500F50000F50000F50000F50000F5000000000000
310
00000000000000000000000000000000000000000000000000000000000000000000000000000000000000000000000000000000000000000000000000000000000000000000000000000000000000000000000000000000000000000000000000000000000000000000000000000000000000000000000000000000000000
310
000000000000000000000000000000000000000000000000000000000000000000000000000000000000000000000000000000000000000000000000000000000000000000000000000000000000000000000000F5000000F50000F50000F50000F50000F500F50000F500F5F500F50000F50000F50000F50000F500000000
310
00000000000000000000000000000000000000000000000000000000000000000000000000000000000000000000000000000000000000000000000000000000000000000000000000000000000000000000000000000000000000000000000000000000000000000000000000000000000000000000000000000000000000
310
0000000000000000000000000000000000000000000000000000000000000000000000000000000000000000000000000000000000000000000000000000000000000000000000000000000000000000000000000000F5000000F50000F50000F50000F500F5000000F500F5F50000F5F50000F50000F50000F50000F50000
310
00000000000000000000000000000000000000000000000000000000000000000000000000000000000000000000000000000000000000000000000000000000000000000000000000000000000000000000000000000000000000000000000000000000000000000000000000000000000000000000000000000000000000
310
00000000000000000000000000000000000000000000000000000000000000000000000000000000000000000000000000000000000000000000000000000000000000000000000000000000000000000000000000000000F5000000F500F500000000F500F500F5000000F500F5F50000F5F500F500000000F500F50000F5
310
00000000000000000000000000000000000000000000000000000000000000000000000000000000000000000000000000000000000000000000000000000000000000000000000000000000000000000000000000000000000000000000000000000000000000000000000000000000000000000000000000000000000000
310
000000000000000000000000000000000000000000000000000000000000000000000000000000000000000000000000000000000000000000000000000000000000000000000000000000000000000000000000000000000000F5000000F500F500000000F500F500F5000000F500F5F50000F5F500F500000000F500F500
310
00F50000000000000000000000000000000000000000000000000000000000000000000000000000000000000000000000000000000000000000000000000000000000000000000000000000000000000000000000000000000000000000000000000000000000000000000000000000000000000000000000000000000000
310
0000000000000000000000000000000000000000000000000000000000000000000000000000000000000000000000000000000000000000000000000000000000000000000000000000000000000000000000000000000000000000F5000000F500F500000000F500F500F5000000F500F5F50000F5F500F500000000F500
310
F50000F5000000000000000000000000000000000000000000000000000000000000000000000000000000000000000000000000000000000000000000000000000000000000000000000000000000000000000000000000000000000000000000000000000000000000000000000000000000000000000000000000000000
310
00000000000000000000000000000000000000000000000000000000000000000000000000000000000000000000000000000000000000000000000000000000000000000000000000000000000000000000000000000000000000000000F5000000F5F5000000000000F5F5F50000000000F5F5F50000F5F5F50000000000
310
00F5F50000F500000000000000000000000000000000000000000000000000000000000000000000000000000000000000000000000000000000000000000000000000000000000000000000000000000000000000000000000000000000000000000000000000000000000000000000000000000000000000000000000000
310
000000000000000000000000000000000000000000000000000000000000000000000000000000000000000000000000000000000000000000000000000000000000000000000000000000000000000000000000000000000000000000000000F5000000F5F5000000000000F5F5F50000000000F5F5F50000F5F5F5000000
310
000000F5F50000F50000000000000000000000000000000000000000000000000000000000000000000000000000000000000000000000000000000000000000000000000000000000000000000000000000000000000000000000000000000000000000000000000000000000000000000000000000000000000000000000
310
0000000000000000000000000000000000000000000000000000000000000000000000000000000000000000000000000000000000000000000000000000000000000000000000000000000000000000000000000000000000000000000000000000F5000000F5F5000000000000F5F5F50000000000F5F500000000F5F500
310
0000000000F5F50000F5000000000000000000000000000000000000000000000000000000000000000000000000000000000000000000000000000000000000000000000000000000000000000000000000000000000000000000000000000000000000000000000000000000000000000000000000000000000000000000
310
00000000000000000000000000000000000000000000000000000000000000000000000000000000000000000000000000000000000000000000000000000000000000000000000000000000000000000000000000000000000000000000000000000000F5000000F5F5000000000000F5F5F50000000000F5F500000000F5
310
F5000000000000F5F50000F500000000000000000000000000000000000000000000000000000000000000000000000000000000000000000000000000000000000000000000000000000000000000000000000000000000000000000000000000000000000000000000000000000000000000000000000000000000000000
310
000000000000000000000000000000000000000000000000000000000000000000000000000000000000000000000000000000000000000000000000000000000000000000000000000000000000000000000000000000000000000000000000000000000000F5000000F50000000000000000F500000000000000F5000000
310
00F50000000000000000F50000F50000000000000000000000000000000000000000000000000000000000000000000000000000000000000000000000000000000000000000000000000000000000000000000000000000000000000000000000000000000000000000000000000000000000000000000000000000000000
310
0000000000000000000000000000000000000000000000000000000000000000000000000000000000000000000000000000000000000000000000000000000000000000000000000000000000000000000000000000000000000000000000000000000000000000F5000000F5F5F5F5F5F5F5F5F5F5F5F5F5F5F5F5F5F5F5
310
F5F5F5F5F5F5F5F5F5F5F5F5F50000F5000000000000000000000000000000000000000000000000000000000000000000000000000000000000000000000000000000000000000000000000000000000000000000000000000000000000000000000000000000000000000000000000000000000000000000000000000000
310
00000000000000000000000000000000000000000000000000000000000000000000000000000000000000000000000000000000000000000000000000000000000000000000000000000000000000000000000000000000000000000000000000000000000000000000F5000000F500000000000000000000000000000000
310
0000000000000000000000000000F50000F500000000000000000000000000000000000000000000000000000000000000000000000000000000000000000000000000000000000000000000000000000000000000000000000000000000000000000000000000000000000000000000000000000000000000000000000000
310
000000000000000000000000000000000000000000000000000000000000000000000000000000000000000000000000000000000000000000000000000000000000000000000000000000000000000000000000000000000000000000000000000000000000000000000000F5000000F50000000000000000000000000000
310
00000000000000000000000000000000F50000F50000000000000000000000000000000000000000000000000000000000000000000000000000000000000000000000000000000000000000000000000000000000000000000000000000000000000000000000000000000000000000000000000000000000000000000000
310
0000000000000000000000000000000000000000000000000000000000000000000000000000000000000000000000000000000000000000000000000000000000000000000000000000000000000000000000000000000000000000000000000000000000000000000000000000F5000000F5000000000000000000000000
310
000000000000000000000000000000000000F50000F5000000000000000000000000000000000000000000000000000000000000000000000000000000000000000000000000000000000000000000000000000000000000000000000000000000000000000000000000000000000000000000000000000000000000000000
310
00000000000000000000000000000000000000000000000000000000000000000000000000000000000000000000000000000000000000000000000000000000000000000000000000000000000000000000000000000000000000000000000000000000000000000000000000000000F5000000F500000000000000000000
310
0000000000000000000000000000000000000000F50000F500000000000000000000000000000000000000000000000000000000000000000000000000000000000000000000000000000000000000000000000000000000000000000000000000000000000000000000000000000000000000000000000000000000000000
310
000000000000000000000000000000000000000000000000000000000000000000000000000000000000000000000000000000000000000000000000000000000000000000000000000000000000000000000000000000000000000000000000000000000000000000000000000000000000F5000000F50000000000000000
310
000000F5F5F5F5F5F500000000000000000000000000F50000F50000000000000000000000000000000000000000000000000000000000000000000000000000000000000000000000000000000000000000000000000000000000000000000000000000000000000000000000000000000000000000000000000000000000
310
0000000000000000000000000000000000000000000000000000000000000000000000000000000000000000000000000000000000000000000000000000000000000000000000000000000000000000000000000000000000000000000000000000000000000000000000000000000000000000F5000000F5000000000000
310
0000000000F5F5F5F5F5F500000000000000000000000000F50000F5000000000000000000000000000000000000000000000000000000000000000000000000000000000000000000000000000000000000000000000000000000000000000000000000000000000000000000000000000000000000000000000000000000
310
00000000000000000000000000000000000000000000000000000000000000000000000000000000000000000000000000000000000000000000000000000000000000000000000000000000000000000000000000000000000000000000000000000000000000000000000000000000000000000000F50000000000000000
310
00000000000000F5F5F5F5F5F500000000000000000000000000000000F500000000000000000000000000000000000000000000000000000000000000000000000000000000000000000000000000000000000000000000000000000000000000000000000000000000000000000000000000000000000000000000000000
310
000000000000000000000000000000000000000000000000000000000000000000000000000000000000000000000000000000000000000000000000000000000000000000000000000000000000000000000000000000000000000000000000000000000000000000000000000000000000000000000000F5F5F5F5F5F5F5
310
F5F5F5F5F5F5F5F5F5F5F5F5F5F5F5F5F5F5F5F5F5F5F5F5F5F5F5F5F5F5F5F5F500000000000000000000000000000000000000000000000000000000000000000000000000000000000000000000000000000000000000000000000000000000000000000000000000000000000000000000000000000000000000000000
310
00000000000000000000000000000000000000000000000000000000000000000000000000000000000000000000000000000000000000000000000000000000000000000000000000000000000000000000000000000000000000000000000000000000000000000000000000000000000000000000000000000000000000
310
000000000000000000000000F5F5F5F5F50000000000000000000000000000000000000000000000000000000000000000000000000000000000000000000000000000000000000000000000000000000000000000000000000000000000000000000000000000000000000000000000000000000000000000000000000000
310
00000000000000000000000000000000000000000000000000000000000000000000000000000000000000000000000000000000000000000000000000000000000000000000000000000000000000000000000000000000000000000000000000000000000000000000000000000000000000000000000000000000000000
310
00000000000000000000000000000000000000000000000000000000000000000000000000000000000000000000000000000000000000000000000000000000000000000000000000000000000000000000000000000000000000000000000000000000000000000000000000000000000000000000000000000000000000
310
00000000000000000000000000000000000000000000000000000000000000000000000000000000000000000000000000000000000000000000000000000000000000000000000000000000000000000000000000000000000000000000000000000000000000000000000000000000000000000000000000000000000000
310
00000000000000000000000000000000000000000000000000000000000000000000000000000000000000000000000000000000000000000000000000000000000000000000000000000000000000000000000000000000000000000000000000000000000000000000000000000000000000000000000000000000000000
310
00000000000000000000000000000000000000000000000000000000000000000000000000000000000000000000000000000000000000000000000000000000000000000000000000000000000000000000000000000000000000000000000000000000000000000000000000000000000000000000000000000000000000
310
00000000000000000000000000000000000000000000000000000000000000000000000000000000000000000000000000000000000000000000000000000000000000000000000000000000000000000000000000000000000000000000000000000000000000000000000000000000000000000000000000000000000000
310
00000000000000000000000000000000000000000000000000000000000000000000000000000000000000000000000000000000000000000000000000000000000000000000000000000000000000000000000000000000000000000000000000000000000000000000000000000000000000000000000000000000000000
310
00000000000000000000000000000000000000000000000000000000000000000000000000000000000000000000000000000000000000000000000000000000000000000000000000000000000000000000000000000000000000000000000000000000000000000000000000000000000000000000000000000000000000
310
00000000000000000000000000000000000000000000000000000000000000000000000000000000000000000000000000000000000000000000000000000000000000000000000000000000000000000000000000000000000000000000000000000000000000000000000000000000000000000000000000000000000000
310
00000000000000000000000000000000000000000000000000000000000000000000000000000000000000000000000000000000000000000000000000000000000000000000000000000000000000000000000000000000000000000000000000000000000000000000000000000000000000000000000000000000000000
310
00000000000000000000000000000000000000000000000000000000000000000000000000000000000000000000000000000000000000000000000000000000000000000000000000000000000000000000000000000000000000000000000000000000000000000000000000000000000000000000000000000000000000
310
00000000000000000000000000000000000000000000000000000000000000000000000000000000000000000000000000000000000000000000000000000000000000000000000000000000000000000000000000000000000000000000000000000000000000000000000000000000000000000000000000000000000000
310
0000000000000000000000000000000000000000000000000000
  0
XRECORD
  5
A7D1
102
{ACAD_REACTORS
330
5915
102
}
330
5915
100
AcDbXrecord
280
     1
102
MATERIAL
148
0.0
149
0.0
149
0.0
 93
        0
 94
      127
282
     0
 72
     0
 77
     0
171
     0
175
     0
179
     0
273
     0
  0
XRECORD
  5
5917
102
{ACAD_REACTORS
330
5915
102
}
330
5915
100
AcDbXrecord
280
     1
270
     1
271
     1
  0
XRECORD
  5
5916
102
{ACAD_REACTORS
330
5915
102
}
330
5915
100
AcDbXrecord
280
     1
270
     1
271
     1
  0
XRECORD
  5
591A
102
{ACAD_REACTORS
330
5915
102
}
330
5915
100
AcDbXrecord
280
     1
270
     1
271
     1
  0
XRECORD
  5
5919
102
{ACAD_REACTORS
330
5915
102
}
330
5915
100
AcDbXrecord
280
     1
270
     1
271
     1
  0
XRECORD
  5
591B
102
{ACAD_REACTORS
330
5915
102
}
330
5915
100
AcDbXrecord
280
     1
270
     1
271
     1
  0
XRECORD
  5
5918
102
{ACAD_REACTORS
330
5915
102
}
330
5915
100
AcDbXrecord
280
     1
270
     1
271
     1
  0
XRECORD
  5
A7D0
102
{ACAD_REACTORS
330
590D
102
}
330
590D
100
AcDbXrecord
280
     1
102
MATERIAL
148
0.0
149
0.0
149
0.0
 93
        0
 94
      127
282
     0
 72
     0
 77
     0
171
     0
175
     0
179
     0
273
     0
  0
XRECORD
  5
590F
102
{ACAD_REACTORS
330
590D
102
}
330
590D
100
AcDbXrecord
280
     1
270
     1
271
     1
  0
XRECORD
  5
590E
102
{ACAD_REACTORS
330
590D
102
}
330
590D
100
AcDbXrecord
280
     1
270
     1
271
     1
  0
XRECORD
  5
5912
102
{ACAD_REACTORS
330
590D
102
}
330
590D
100
AcDbXrecord
280
     1
270
     1
271
     1
  0
XRECORD
  5
5911
102
{ACAD_REACTORS
330
590D
102
}
330
590D
100
AcDbXrecord
280
     1
270
     1
271
     1
  0
XRECORD
  5
5913
102
{ACAD_REACTORS
330
590D
102
}
330
590D
100
AcDbXrecord
280
     1
270
     1
271
     1
  0
XRECORD
  5
5910
102
{ACAD_REACTORS
330
590D
102
}
330
590D
100
AcDbXrecord
280
     1
270
     1
271
     1
  0
XRECORD
  5
A7D2
102
{ACAD_REACTORS
330
591D
102
}
330
591D
100
AcDbXrecord
280
     1
102
MATERIAL
148
0.0
149
0.0
149
0.0
 93
        0
 94
      127
282
     0
 72
     0
 77
     0
171
     0
175
     0
179
     0
273
     0
  0
XRECORD
  5
591F
102
{ACAD_REACTORS
330
591D
102
}
330
591D
100
AcDbXrecord
280
     1
270
     1
271
     1
  0
XRECORD
  5
591E
102
{ACAD_REACTORS
330
591D
102
}
330
591D
100
AcDbXrecord
280
     1
270
     1
271
     1
  0
XRECORD
  5
5922
102
{ACAD_REACTORS
330
591D
102
}
330
591D
100
AcDbXrecord
280
     1
270
     1
271
     1
  0
XRECORD
  5
5921
102
{ACAD_REACTORS
330
591D
102
}
330
591D
100
AcDbXrecord
280
     1
270
     1
271
     1
  0
XRECORD
  5
5923
102
{ACAD_REACTORS
330
591D
102
}
330
591D
100
AcDbXrecord
280
     1
270
     1
271
     1
  0
XRECORD
  5
5920
102
{ACAD_REACTORS
330
591D
102
}
330
591D
100
AcDbXrecord
280
     1
270
     1
271
     1
  0
XRECORD
  5
A7C8
102
{ACAD_REACTORS
330
A7C7
102
}
330
A7C7
100
AcDbXrecord
280
     1
102
ACAD_ROUNDTRIP_2012_MLEADER_STYLE
298
     1
  0
CELLSTYLEMAP
  5
A7C6
102
{ACAD_REACTORS
330
6031
102
}
330
6031
100
AcDbCellStyleMap
 90
        3
300
CELLSTYLE
  1
TABLEFORMAT_BEGIN
 90
        5
170
     1
 91
        0
 92
    32768
 62
   257
 93
        1
300
CONTENTFORMAT
  1
CONTENTFORMAT_BEGIN
 90
        0
 91
        0
 92
        4
 93
        0
300

 40
0.0
140
1.0
 94
        5
 62
     0
340
11
144
0.25
309
CONTENTFORMAT_END
171
     0
 94
        6
 95
        1
302
GRIDFORMAT
  1
GRIDFORMAT_BEGIN
 90
        0
 91
        1
 62
     0
 92
       -2
340
0
 93
        0
 40
0.045
309
GRIDFORMAT_END
 95
        2
302
GRIDFORMAT
  1
GRIDFORMAT_BEGIN
 90
        0
 91
        1
 62
     0
 92
       -2
340
0
 93
        0
 40
0.045
309
GRIDFORMAT_END
 95
        4
302
GRIDFORMAT
  1
GRIDFORMAT_BEGIN
 90
        0
 91
        1
 62
     0
 92
       -2
340
0
 93
        0
 40
0.045
309
GRIDFORMAT_END
 95
        8
302
GRIDFORMAT
  1
GRIDFORMAT_BEGIN
 90
        0
 91
        1
 62
     0
 92
       -2
340
0
 93
        0
 40
0.045
309
GRIDFORMAT_END
 95
       16
302
GRIDFORMAT
  1
GRIDFORMAT_BEGIN
 90
        0
 91
        1
 62
     0
 92
       -2
340
0
 93
        0
 40
0.045
309
GRIDFORMAT_END
 95
       32
302
GRIDFORMAT
  1
GRIDFORMAT_BEGIN
 90
        0
 91
        1
 62
     0
 92
       -2
340
0
 93
        0
 40
0.045
309
GRIDFORMAT_END
309
TABLEFORMAT_END
  1
CELLSTYLE_BEGIN
 90
        1
 91
        1
300
_TITLE
309
CELLSTYLE_END
300
CELLSTYLE
  1
TABLEFORMAT_BEGIN
 90
        5
170
     1
 91
        0
 92
        0
 62
   257
 93
        1
300
CONTENTFORMAT
  1
CONTENTFORMAT_BEGIN
 90
        0
 91
        0
 92
        4
 93
        0
300

 40
0.0
140
1.0
 94
        5
 62
     0
340
11
144
0.18
309
CONTENTFORMAT_END
171
     0
 94
        6
 95
        1
302
GRIDFORMAT
  1
GRIDFORMAT_BEGIN
 90
        0
 91
        1
 62
     0
 92
       -2
340
0
 93
        0
 40
0.045
309
GRIDFORMAT_END
 95
        2
302
GRIDFORMAT
  1
GRIDFORMAT_BEGIN
 90
        0
 91
        1
 62
     0
 92
       -2
340
0
 93
        0
 40
0.045
309
GRIDFORMAT_END
 95
        4
302
GRIDFORMAT
  1
GRIDFORMAT_BEGIN
 90
        0
 91
        1
 62
     0
 92
       -2
340
0
 93
        0
 40
0.045
309
GRIDFORMAT_END
 95
        8
302
GRIDFORMAT
  1
GRIDFORMAT_BEGIN
 90
        0
 91
        1
 62
     0
 92
       -2
340
0
 93
        0
 40
0.045
309
GRIDFORMAT_END
 95
       16
302
GRIDFORMAT
  1
GRIDFORMAT_BEGIN
 90
        0
 91
        1
 62
     0
 92
       -2
340
0
 93
        0
 40
0.045
309
GRIDFORMAT_END
 95
       32
302
GRIDFORMAT
  1
GRIDFORMAT_BEGIN
 90
        0
 91
        1
 62
     0
 92
       -2
340
0
 93
        0
 40
0.045
309
GRIDFORMAT_END
309
TABLEFORMAT_END
  1
CELLSTYLE_BEGIN
 90
        2
 91
        1
300
_HEADER
309
CELLSTYLE_END
300
CELLSTYLE
  1
TABLEFORMAT_BEGIN
 90
        5
170
     1
 91
        0
 92
        0
 62
   257
 93
        1
300
CONTENTFORMAT
  1
CONTENTFORMAT_BEGIN
 90
        0
 91
        0
 92
        4
 93
        0
300

 40
0.0
140
1.0
 94
        2
 62
     0
340
11
144
0.18
309
CONTENTFORMAT_END
171
     0
 94
        6
 95
        1
302
GRIDFORMAT
  1
GRIDFORMAT_BEGIN
 90
        0
 91
        1
 62
     0
 92
       -2
340
0
 93
        0
 40
0.045
309
GRIDFORMAT_END
 95
        2
302
GRIDFORMAT
  1
GRIDFORMAT_BEGIN
 90
        0
 91
        1
 62
     0
 92
       -2
340
0
 93
        0
 40
0.045
309
GRIDFORMAT_END
 95
        4
302
GRIDFORMAT
  1
GRIDFORMAT_BEGIN
 90
        0
 91
        1
 62
     0
 92
       -2
340
0
 93
        0
 40
0.045
309
GRIDFORMAT_END
 95
        8
302
GRIDFORMAT
  1
GRIDFORMAT_BEGIN
 90
        0
 91
        1
 62
     0
 92
       -2
340
0
 93
        0
 40
0.045
309
GRIDFORMAT_END
 95
       16
302
GRIDFORMAT
  1
GRIDFORMAT_BEGIN
 90
        0
 91
        1
 62
     0
 92
       -2
340
0
 93
        0
 40
0.045
309
GRIDFORMAT_END
 95
       32
302
GRIDFORMAT
  1
GRIDFORMAT_BEGIN
 90
        0
 91
        1
 62
     0
 92
       -2
340
0
 93
        0
 40
0.045
309
GRIDFORMAT_END
309
TABLEFORMAT_END
  1
CELLSTYLE_BEGIN
 90
        3
 91
        2
300
_DATA
309
CELLSTYLE_END
  0
XRECORD
  5
A7CD
102
{ACAD_REACTORS
330
6031
102
}
330
6031
100
AcDbXrecord
280
     1
102
ACAD_ROUNDTRIP_PRE2007_TABLESTYLE
 90
        4
 91
        0
  1

 92
        4
 93
        0
  2

 94
        4
 95
        0
  3

  0
XRECORD
  5
A7DE
102
{ACAD_REACTORS
330
A7DD
102
}
330
A7DD
100
AcDbXrecord
280
     1
102
RTVSPropertyOp0
 70
     1
102
RTVSPropertyOp1
 70
     1
102
RTVSPropertyOp2
 70
     1
102
RTVSPropertyOp3
 70
     1
102
RTVSPropertyOp4
 70
     1
102
RTVSPropertyOp5
 70
     1
102
RTVSPropertyOp6
 70
     1
102
RTVSPropertyOp7
 70
     1
102
RTVSPropertyOp8
 70
     1
102
RTVSPropertyOp9
 70
     1
102
RTVSPropertyOp10
 70
     1
102
RTVSPropertyOp11
 70
     1
102
RTVSPropertyOp12
 70
     1
102
RTVSPropertyOp13
 70
     1
102
RTVSPropertyOp14
 70
     1
102
RTVSPropertyOp15
 70
     1
102
RTVSPropertyOp16
 70
     1
102
RTVSPropertyOp17
 70
     1
102
RTVSPropertyOp18
 70
     1
102
RTVSPropertyOp19
 70
     1
102
RTVSPropertyOp20
 70
     1
102
RTVSPropertyOp21
 70
     1
102
RTVSPropertyOp22
 70
     1
102
RTVSPropertyOp23
 70
     1
102
RTVSPropertyOp24
 70
     1
102
RTVSPropertyOp25
 70
     1
102
RTVSPropertyOp26
 70
     1
102
RTVSPropertyOp27
 70
     1
102
RTVSPropertyOp28
 70
     1
102
RTVSPropertyOp29
 70
     1
102
RTVSPropertyOp30
 70
     1
102
RTVSPropertyOp31
 70
     1
102
RTVSPropertyOp32
 70
     1
  0
XRECORD
  5
A7DC
102
{ACAD_REACTORS
330
A7DB
102
}
330
A7DB
100
AcDbXrecord
280
     1
102
RTVSPropertyOp0
 70
     1
102
RTVSPropertyOp1
 70
     1
102
RTVSPropertyOp2
 70
     1
102
RTVSPropertyOp3
 70
     1
102
RTVSPropertyOp4
 70
     1
102
RTVSPropertyOp5
 70
     1
102
RTVSPropertyOp6
 70
     1
102
RTVSPropertyOp7
 70
     1
102
RTVSPropertyOp8
 70
     1
102
RTVSPropertyOp9
 70
     1
102
RTVSPropertyOp10
 70
     1
102
RTVSPropertyOp11
 70
     1
102
RTVSPropertyOp12
 70
     1
102
RTVSPropertyOp13
 70
     1
102
RTVSPropertyOp14
 70
     1
102
RTVSPropertyOp15
 70
     1
102
RTVSPropertyOp16
 70
     1
102
RTVSPropertyOp17
 70
     1
102
RTVSPropertyOp18
 70
     1
102
RTVSPropertyOp19
 70
     1
102
RTVSPropertyOp20
 70
     1
102
RTVSPropertyOp21
 70
     1
102
RTVSPropertyOp22
 70
     1
102
RTVSPropertyOp23
 70
     1
102
RTVSPropertyOp24
 70
     1
102
RTVSPropertyOp25
 70
     1
102
RTVSPropertyOp26
 70
     1
102
RTVSPropertyOp27
 70
     1
102
RTVSPropertyOp28
 70
     1
102
RTVSPropertyOp29
 70
     1
102
RTVSPropertyOp30
 70
     1
102
RTVSPropertyOp31
 70
     1
102
RTVSPropertyOp32
 70
     1
  0
XRECORD
  5
A7EA
102
{ACAD_REACTORS
330
A7E9
102
}
330
A7E9
100
AcDbXrecord
280
     1
102
RTVSPropertyOp0
 70
     1
102
RTVSPropertyOp1
 70
     1
102
RTVSPropertyOp2
 70
     1
102
RTVSPropertyOp3
 70
     1
102
RTVSPropertyOp4
 70
     1
102
RTVSPropertyOp5
 70
     1
102
RTVSPropertyOp6
 70
     1
102
RTVSPropertyOp7
 70
     1
102
RTVSPropertyOp8
 70
     1
102
RTVSPropertyOp9
 70
     1
102
RTVSPropertyOp10
 70
     1
102
RTVSPropertyOp11
 70
     1
102
RTVSPropertyOp12
 70
     1
102
RTVSPropertyOp13
 70
     1
102
RTVSPropertyOp14
 70
     1
102
RTVSPropertyOp15
 70
     1
102
RTVSPropertyOp16
 70
     1
102
RTVSPropertyOp17
 70
     1
102
RTVSPropertyOp18
 70
     1
102
RTVSPropertyOp19
 70
     1
102
RTVSPropertyOp20
 70
     1
102
RTVSPropertyOp21
 70
     1
102
RTVSPropertyOp22
 70
     1
102
RTVSPropertyOp23
 70
     1
102
RTVSPropertyOp24
 70
     1
102
RTVSPropertyOp25
 70
     1
102
RTVSPropertyOp26
 70
     1
102
RTVSPropertyOp27
 70
     1
102
RTVSPropertyOp28
 70
     1
102
RTVSPropertyOp29
 70
     1
102
RTVSPropertyOp30
 70
     1
102
RTVSPropertyOp31
 70
     1
102
RTVSPropertyOp32
 70
     1
  0
XRECORD
  5
A7F2
102
{ACAD_REACTORS
330
A7F1
102
}
330
A7F1
100
AcDbXrecord
280
     1
102
RTVSPropertyOp0
 70
     1
102
RTVSPropertyOp1
 70
     1
102
RTVSPropertyOp2
 70
     1
102
RTVSPropertyOp3
 70
     1
102
RTVSPropertyOp4
 70
     1
102
RTVSPropertyOp5
 70
     1
102
RTVSPropertyOp6
 70
     1
102
RTVSPropertyOp7
 70
     1
102
RTVSPropertyOp8
 70
     1
102
RTVSPropertyOp9
 70
     1
102
RTVSPropertyOp10
 70
     1
102
RTVSPropertyOp11
 70
     1
102
RTVSPropertyOp12
 70
     1
102
RTVSPropertyOp13
 70
     1
102
RTVSPropertyOp14
 70
     1
102
RTVSPropertyOp15
 70
     1
102
RTVSPropertyOp16
 70
     1
102
RTVSPropertyOp17
 70
     1
102
RTVSPropertyOp18
 70
     1
102
RTVSPropertyOp19
 70
     1
102
RTVSPropertyOp20
 70
     1
102
RTVSPropertyOp21
 70
     1
102
RTVSPropertyOp22
 70
     1
102
RTVSPropertyOp23
 70
     1
102
RTVSPropertyOp24
 70
     1
102
RTVSPropertyOp25
 70
     1
102
RTVSPropertyOp26
 70
     1
102
RTVSPropertyOp27
 70
     1
102
RTVSPropertyOp28
 70
     1
102
RTVSPropertyOp29
 70
     1
102
RTVSPropertyOp30
 70
     1
102
RTVSPropertyOp31
 70
     1
102
RTVSPropertyOp32
 70
     1
  0
XRECORD
  5
A7E4
102
{ACAD_REACTORS
330
A7E3
102
}
330
A7E3
100
AcDbXrecord
280
     1
102
RTVSPropertyOp0
 70
     1
102
RTVSPropertyOp1
 70
     1
102
RTVSPropertyOp2
 70
     1
102
RTVSPropertyOp3
 70
     1
102
RTVSPropertyOp4
 70
     1
102
RTVSPropertyOp5
 70
     1
102
RTVSPropertyOp6
 70
     1
102
RTVSPropertyOp7
 70
     1
102
RTVSPropertyOp8
 70
     1
102
RTVSPropertyOp9
 70
     1
102
RTVSPropertyOp10
 70
     1
102
RTVSPropertyOp11
 70
     1
102
RTVSPropertyOp12
 70
     1
102
RTVSPropertyOp13
 70
     1
102
RTVSPropertyOp14
 70
     1
102
RTVSPropertyOp15
 70
     1
102
RTVSPropertyOp16
 70
     1
102
RTVSPropertyOp17
 70
     1
102
RTVSPropertyOp18
 70
     1
102
RTVSPropertyOp19
 70
     1
102
RTVSPropertyOp20
 70
     1
102
RTVSPropertyOp21
 70
     1
102
RTVSPropertyOp22
 70
     1
102
RTVSPropertyOp23
 70
     1
102
RTVSPropertyOp24
 70
     1
102
RTVSPropertyOp25
 70
     1
102
RTVSPropertyOp26
 70
     1
102
RTVSPropertyOp27
 70
     1
102
RTVSPropertyOp28
 70
     1
102
RTVSPropertyOp29
 70
     1
102
RTVSPropertyOp30
 70
     1
102
RTVSPropertyOp31
 70
     1
102
RTVSPropertyOp32
 70
     1
  0
XRECORD
  5
A7E8
102
{ACAD_REACTORS
330
A7E7
102
}
330
A7E7
100
AcDbXrecord
280
     1
102
RTVSPropertyOp0
 70
     1
102
RTVSPropertyOp1
 70
     1
102
RTVSPropertyOp2
 70
     1
102
RTVSPropertyOp3
 70
     1
102
RTVSPropertyOp4
 70
     1
102
RTVSPropertyOp5
 70
     1
102
RTVSPropertyOp6
 70
     1
102
RTVSPropertyOp7
 70
     1
102
RTVSPropertyOp8
 70
     1
102
RTVSPropertyOp9
 70
     1
102
RTVSPropertyOp10
 70
     1
102
RTVSPropertyOp11
 70
     1
102
RTVSPropertyOp12
 70
     1
102
RTVSPropertyOp13
 70
     1
102
RTVSPropertyOp14
 70
     1
102
RTVSPropertyOp15
 70
     1
102
RTVSPropertyOp16
 70
     1
102
RTVSPropertyOp17
 70
     1
102
RTVSPropertyOp18
 70
     1
102
RTVSPropertyOp19
 70
     1
102
RTVSPropertyOp20
 70
     1
102
RTVSPropertyOp21
 70
     1
102
RTVSPropertyOp22
 70
     1
102
RTVSPropertyOp23
 70
     1
102
RTVSPropertyOp24
 70
     1
102
RTVSPropertyOp25
 70
     1
102
RTVSPropertyOp26
 70
     1
102
RTVSPropertyOp27
 70
     1
102
RTVSPropertyOp28
 70
     1
102
RTVSPropertyOp29
 70
     1
102
RTVSPropertyOp30
 70
     1
102
RTVSPropertyOp31
 70
     1
102
RTVSPropertyOp32
 70
     1
  0
XRECORD
  5
A802
102
{ACAD_REACTORS
330
A801
102
}
330
A801
100
AcDbXrecord
280
     1
102
RTVSPropertyOp0
 70
     0
102
RTVSPropertyOp1
 70
     0
102
RTVSPropertyOp2
 70
     0
102
RTVSPropertyOp3
 70
     0
102
RTVSPropertyOp4
 70
     0
102
RTVSPropertyOp5
 70
     0
102
RTVSPropertyOp6
 70
     0
102
RTVSPropertyOp7
 70
     0
102
RTVSPropertyOp8
 70
     0
102
RTVSPropertyOp9
 70
     0
102
RTVSPropertyOp10
 70
     0
102
RTVSPropertyOp11
 70
     0
102
RTVSPropertyOp12
 70
     0
102
RTVSPropertyOp13
 70
     0
102
RTVSPropertyOp14
 70
     2
102
RTVSPropertyOp15
 70
     0
102
RTVSPropertyOp16
 70
     0
102
RTVSPropertyOp17
 70
     0
102
RTVSPropertyOp18
 70
     0
102
RTVSPropertyOp19
 70
     0
102
RTVSPropertyOp20
 70
     0
102
RTVSPropertyOp21
 70
     0
102
RTVSPropertyOp22
 70
     0
102
RTVSPropertyOp23
 70
     0
102
RTVSPropertyOp24
 70
     0
102
RTVSPropertyOp25
 70
     0
102
RTVSPropertyOp26
 70
     0
102
RTVSPropertyOp27
 70
     0
102
RTVSPropertyOp28
 70
     0
102
RTVSPropertyOp29
 70
     0
102
RTVSPropertyOp30
 70
     0
102
RTVSPropertyOp31
 70
     0
102
RTVSPropertyOp32
 70
     0
  0
XRECORD
  5
A7F0
102
{ACAD_REACTORS
330
A7EF
102
}
330
A7EF
100
AcDbXrecord
280
     1
102
RTVSPropertyOp0
 70
     1
102
RTVSPropertyOp1
 70
     1
102
RTVSPropertyOp2
 70
     1
102
RTVSPropertyOp3
 70
     1
102
RTVSPropertyOp4
 70
     1
102
RTVSPropertyOp5
 70
     1
102
RTVSPropertyOp6
 70
     1
102
RTVSPropertyOp7
 70
     1
102
RTVSPropertyOp8
 70
     1
102
RTVSPropertyOp9
 70
     1
102
RTVSPropertyOp10
 70
     1
102
RTVSPropertyOp11
 70
     1
102
RTVSPropertyOp12
 70
     1
102
RTVSPropertyOp13
 70
     1
102
RTVSPropertyOp14
 70
     1
102
RTVSPropertyOp15
 70
     1
102
RTVSPropertyOp16
 70
     1
102
RTVSPropertyOp17
 70
     1
102
RTVSPropertyOp18
 70
     1
102
RTVSPropertyOp19
 70
     1
102
RTVSPropertyOp20
 70
     1
102
RTVSPropertyOp21
 70
     1
102
RTVSPropertyOp22
 70
     1
102
RTVSPropertyOp23
 70
     1
102
RTVSPropertyOp24
 70
     1
102
RTVSPropertyOp25
 70
     1
102
RTVSPropertyOp26
 70
     1
102
RTVSPropertyOp27
 70
     1
102
RTVSPropertyOp28
 70
     1
102
RTVSPropertyOp29
 70
     1
102
RTVSPropertyOp30
 70
     1
102
RTVSPropertyOp31
 70
     1
102
RTVSPropertyOp32
 70
     1
  0
XRECORD
  5
A7D4
102
{ACAD_REACTORS
330
A7D3
102
}
330
A7D3
100
AcDbXrecord
280
     1
102
RTVSPropertyOp0
 70
     1
102
RTVSPropertyOp1
 70
     1
102
RTVSPropertyOp2
 70
     1
102
RTVSPropertyOp3
 70
     1
102
RTVSPropertyOp4
 70
     1
102
RTVSPropertyOp5
 70
     1
102
RTVSPropertyOp6
 70
     1
102
RTVSPropertyOp7
 70
     1
102
RTVSPropertyOp8
 70
     1
102
RTVSPropertyOp9
 70
     1
102
RTVSPropertyOp10
 70
     1
102
RTVSPropertyOp11
 70
     1
102
RTVSPropertyOp12
 70
     1
102
RTVSPropertyOp13
 70
     1
102
RTVSPropertyOp14
 70
     1
102
RTVSPropertyOp15
 70
     1
102
RTVSPropertyOp16
 70
     1
102
RTVSPropertyOp17
 70
     1
102
RTVSPropertyOp18
 70
     1
102
RTVSPropertyOp19
 70
     1
102
RTVSPropertyOp20
 70
     1
102
RTVSPropertyOp21
 70
     1
102
RTVSPropertyOp22
 70
     1
102
RTVSPropertyOp23
 70
     1
102
RTVSPropertyOp24
 70
     1
102
RTVSPropertyOp25
 70
     1
102
RTVSPropertyOp26
 70
     1
102
RTVSPropertyOp27
 70
     1
102
RTVSPropertyOp28
 70
     1
102
RTVSPropertyOp29
 70
     1
102
RTVSPropertyOp30
 70
     1
102
RTVSPropertyOp31
 70
     1
102
RTVSPropertyOp32
 70
     1
  0
XRECORD
  5
A7D6
102
{ACAD_REACTORS
330
A7D5
102
}
330
A7D5
100
AcDbXrecord
280
     1
102
RTVSPropertyOp0
 70
     1
102
RTVSPropertyOp1
 70
     1
102
RTVSPropertyOp2
 70
     1
102
RTVSPropertyOp3
 70
     1
102
RTVSPropertyOp4
 70
     1
102
RTVSPropertyOp5
 70
     1
102
RTVSPropertyOp6
 70
     1
102
RTVSPropertyOp7
 70
     1
102
RTVSPropertyOp8
 70
     1
102
RTVSPropertyOp9
 70
     1
102
RTVSPropertyOp10
 70
     1
102
RTVSPropertyOp11
 70
     1
102
RTVSPropertyOp12
 70
     1
102
RTVSPropertyOp13
 70
     1
102
RTVSPropertyOp14
 70
     1
102
RTVSPropertyOp15
 70
     1
102
RTVSPropertyOp16
 70
     1
102
RTVSPropertyOp17
 70
     1
102
RTVSPropertyOp18
 70
     1
102
RTVSPropertyOp19
 70
     1
102
RTVSPropertyOp20
 70
     1
102
RTVSPropertyOp21
 70
     1
102
RTVSPropertyOp22
 70
     1
102
RTVSPropertyOp23
 70
     1
102
RTVSPropertyOp24
 70
     1
102
RTVSPropertyOp25
 70
     1
102
RTVSPropertyOp26
 70
     1
102
RTVSPropertyOp27
 70
     1
102
RTVSPropertyOp28
 70
     1
102
RTVSPropertyOp29
 70
     1
102
RTVSPropertyOp30
 70
     1
102
RTVSPropertyOp31
 70
     1
102
RTVSPropertyOp32
 70
     1
  0
XRECORD
  5
A7D8
102
{ACAD_REACTORS
330
A7D7
102
}
330
A7D7
100
AcDbXrecord
280
     1
102
RTVSPropertyOp0
 70
     1
102
RTVSPropertyOp1
 70
     1
102
RTVSPropertyOp2
 70
     1
102
RTVSPropertyOp3
 70
     1
102
RTVSPropertyOp4
 70
     1
102
RTVSPropertyOp5
 70
     1
102
RTVSPropertyOp6
 70
     1
102
RTVSPropertyOp7
 70
     1
102
RTVSPropertyOp8
 70
     1
102
RTVSPropertyOp9
 70
     1
102
RTVSPropertyOp10
 70
     1
102
RTVSPropertyOp11
 70
     1
102
RTVSPropertyOp12
 70
     1
102
RTVSPropertyOp13
 70
     1
102
RTVSPropertyOp14
 70
     1
102
RTVSPropertyOp15
 70
     1
102
RTVSPropertyOp16
 70
     1
102
RTVSPropertyOp17
 70
     1
102
RTVSPropertyOp18
 70
     1
102
RTVSPropertyOp19
 70
     1
102
RTVSPropertyOp20
 70
     1
102
RTVSPropertyOp21
 70
     1
102
RTVSPropertyOp22
 70
     1
102
RTVSPropertyOp23
 70
     1
102
RTVSPropertyOp24
 70
     1
102
RTVSPropertyOp25
 70
     1
102
RTVSPropertyOp26
 70
     1
102
RTVSPropertyOp27
 70
     1
102
RTVSPropertyOp28
 70
     1
102
RTVSPropertyOp29
 70
     1
102
RTVSPropertyOp30
 70
     1
102
RTVSPropertyOp31
 70
     1
102
RTVSPropertyOp32
 70
     1
  0
XRECORD
  5
A7DA
102
{ACAD_REACTORS
330
A7D9
102
}
330
A7D9
100
AcDbXrecord
280
     1
102
RTVSPropertyOp0
 70
     1
102
RTVSPropertyOp1
 70
     1
102
RTVSPropertyOp2
 70
     1
102
RTVSPropertyOp3
 70
     1
102
RTVSPropertyOp4
 70
     1
102
RTVSPropertyOp5
 70
     1
102
RTVSPropertyOp6
 70
     1
102
RTVSPropertyOp7
 70
     1
102
RTVSPropertyOp8
 70
     1
102
RTVSPropertyOp9
 70
     1
102
RTVSPropertyOp10
 70
     1
102
RTVSPropertyOp11
 70
     1
102
RTVSPropertyOp12
 70
     1
102
RTVSPropertyOp13
 70
     1
102
RTVSPropertyOp14
 70
     1
102
RTVSPropertyOp15
 70
     1
102
RTVSPropertyOp16
 70
     1
102
RTVSPropertyOp17
 70
     1
102
RTVSPropertyOp18
 70
     1
102
RTVSPropertyOp19
 70
     1
102
RTVSPropertyOp20
 70
     1
102
RTVSPropertyOp21
 70
     1
102
RTVSPropertyOp22
 70
     1
102
RTVSPropertyOp23
 70
     1
102
RTVSPropertyOp24
 70
     1
102
RTVSPropertyOp25
 70
     1
102
RTVSPropertyOp26
 70
     1
102
RTVSPropertyOp27
 70
     1
102
RTVSPropertyOp28
 70
     1
102
RTVSPropertyOp29
 70
     1
102
RTVSPropertyOp30
 70
     1
102
RTVSPropertyOp31
 70
     1
102
RTVSPropertyOp32
 70
     1
  0
XRECORD
  5
A7E2
102
{ACAD_REACTORS
330
A7E1
102
}
330
A7E1
100
AcDbXrecord
280
     1
102
RTVSPropertyOp0
 70
     1
102
RTVSPropertyOp1
 70
     1
102
RTVSPropertyOp2
 70
     1
102
RTVSPropertyOp3
 70
     1
102
RTVSPropertyOp4
 70
     1
102
RTVSPropertyOp5
 70
     1
102
RTVSPropertyOp6
 70
     1
102
RTVSPropertyOp7
 70
     1
102
RTVSPropertyOp8
 70
     1
102
RTVSPropertyOp9
 70
     1
102
RTVSPropertyOp10
 70
     1
102
RTVSPropertyOp11
 70
     1
102
RTVSPropertyOp12
 70
     1
102
RTVSPropertyOp13
 70
     1
102
RTVSPropertyOp14
 70
     1
102
RTVSPropertyOp15
 70
     1
102
RTVSPropertyOp16
 70
     1
102
RTVSPropertyOp17
 70
     1
102
RTVSPropertyOp18
 70
     1
102
RTVSPropertyOp19
 70
     1
102
RTVSPropertyOp20
 70
     1
102
RTVSPropertyOp21
 70
     1
102
RTVSPropertyOp22
 70
     1
102
RTVSPropertyOp23
 70
     1
102
RTVSPropertyOp24
 70
     1
102
RTVSPropertyOp25
 70
     1
102
RTVSPropertyOp26
 70
     1
102
RTVSPropertyOp27
 70
     1
102
RTVSPropertyOp28
 70
     1
102
RTVSPropertyOp29
 70
     1
102
RTVSPropertyOp30
 70
     1
102
RTVSPropertyOp31
 70
     1
102
RTVSPropertyOp32
 70
     1
  0
XRECORD
  5
A7FE
102
{ACAD_REACTORS
330
A7FD
102
}
330
A7FD
100
AcDbXrecord
280
     1
102
RTVSPropertyOp0
 70
     0
102
RTVSPropertyOp1
 70
     0
102
RTVSPropertyOp2
 70
     0
102
RTVSPropertyOp3
 70
     0
102
RTVSPropertyOp4
 70
     0
102
RTVSPropertyOp5
 70
     0
102
RTVSPropertyOp6
 70
     0
102
RTVSPropertyOp7
 70
     0
102
RTVSPropertyOp8
 70
     0
102
RTVSPropertyOp9
 70
     0
102
RTVSPropertyOp10
 70
     0
102
RTVSPropertyOp11
 70
     0
102
RTVSPropertyOp12
 70
     0
102
RTVSPropertyOp13
 70
     0
102
RTVSPropertyOp14
 70
     2
102
RTVSPropertyOp15
 70
     0
102
RTVSPropertyOp16
 70
     0
102
RTVSPropertyOp17
 70
     0
102
RTVSPropertyOp18
 70
     0
102
RTVSPropertyOp19
 70
     0
102
RTVSPropertyOp20
 70
     0
102
RTVSPropertyOp21
 70
     0
102
RTVSPropertyOp22
 70
     0
102
RTVSPropertyOp23
 70
     0
102
RTVSPropertyOp24
 70
     0
102
RTVSPropertyOp25
 70
     0
102
RTVSPropertyOp26
 70
     0
102
RTVSPropertyOp27
 70
     0
102
RTVSPropertyOp28
 70
     0
102
RTVSPropertyOp29
 70
     0
102
RTVSPropertyOp30
 70
     0
102
RTVSPropertyOp31
 70
     0
102
RTVSPropertyOp32
 70
     0
  0
XRECORD
  5
A7EE
102
{ACAD_REACTORS
330
A7ED
102
}
330
A7ED
100
AcDbXrecord
280
     1
102
RTVSPropertyOp0
 70
     1
102
RTVSPropertyOp1
 70
     1
102
RTVSPropertyOp2
 70
     1
102
RTVSPropertyOp3
 70
     1
102
RTVSPropertyOp4
 70
     1
102
RTVSPropertyOp5
 70
     1
102
RTVSPropertyOp6
 70
     1
102
RTVSPropertyOp7
 70
     1
102
RTVSPropertyOp8
 70
     1
102
RTVSPropertyOp9
 70
     1
102
RTVSPropertyOp10
 70
     1
102
RTVSPropertyOp11
 70
     1
102
RTVSPropertyOp12
 70
     1
102
RTVSPropertyOp13
 70
     1
102
RTVSPropertyOp14
 70
     1
102
RTVSPropertyOp15
 70
     1
102
RTVSPropertyOp16
 70
     1
102
RTVSPropertyOp17
 70
     1
102
RTVSPropertyOp18
 70
     1
102
RTVSPropertyOp19
 70
     1
102
RTVSPropertyOp20
 70
     1
102
RTVSPropertyOp21
 70
     1
102
RTVSPropertyOp22
 70
     1
102
RTVSPropertyOp23
 70
     1
102
RTVSPropertyOp24
 70
     1
102
RTVSPropertyOp25
 70
     1
102
RTVSPropertyOp26
 70
     1
102
RTVSPropertyOp27
 70
     1
102
RTVSPropertyOp28
 70
     1
102
RTVSPropertyOp29
 70
     1
102
RTVSPropertyOp30
 70
     1
102
RTVSPropertyOp31
 70
     1
102
RTVSPropertyOp32
 70
     1
  0
XRECORD
  5
A800
102
{ACAD_REACTORS
330
A7FF
102
}
330
A7FF
100
AcDbXrecord
280
     1
102
RTVSPropertyOp0
 70
     0
102
RTVSPropertyOp1
 70
     0
102
RTVSPropertyOp2
 70
     0
102
RTVSPropertyOp3
 70
     0
102
RTVSPropertyOp4
 70
     0
102
RTVSPropertyOp5
 70
     0
102
RTVSPropertyOp6
 70
     0
102
RTVSPropertyOp7
 70
     0
102
RTVSPropertyOp8
 70
     0
102
RTVSPropertyOp9
 70
     0
102
RTVSPropertyOp10
 70
     0
102
RTVSPropertyOp11
 70
     0
102
RTVSPropertyOp12
 70
     0
102
RTVSPropertyOp13
 70
     0
102
RTVSPropertyOp14
 70
     2
102
RTVSPropertyOp15
 70
     0
102
RTVSPropertyOp16
 70
     0
102
RTVSPropertyOp17
 70
     0
102
RTVSPropertyOp18
 70
     0
102
RTVSPropertyOp19
 70
     0
102
RTVSPropertyOp20
 70
     0
102
RTVSPropertyOp21
 70
     0
102
RTVSPropertyOp22
 70
     0
102
RTVSPropertyOp23
 70
     0
102
RTVSPropertyOp24
 70
     0
102
RTVSPropertyOp25
 70
     0
102
RTVSPropertyOp26
 70
     0
102
RTVSPropertyOp27
 70
     0
102
RTVSPropertyOp28
 70
     0
102
RTVSPropertyOp29
 70
     0
102
RTVSPropertyOp30
 70
     0
102
RTVSPropertyOp31
 70
     0
102
RTVSPropertyOp32
 70
     0
  0
XRECORD
  5
A7E6
102
{ACAD_REACTORS
330
A7E5
102
}
330
A7E5
100
AcDbXrecord
280
     1
102
RTVSPropertyOp0
 70
     1
102
RTVSPropertyOp1
 70
     1
102
RTVSPropertyOp2
 70
     1
102
RTVSPropertyOp3
 70
     1
102
RTVSPropertyOp4
 70
     1
102
RTVSPropertyOp5
 70
     1
102
RTVSPropertyOp6
 70
     1
102
RTVSPropertyOp7
 70
     1
102
RTVSPropertyOp8
 70
     1
102
RTVSPropertyOp9
 70
     1
102
RTVSPropertyOp10
 70
     1
102
RTVSPropertyOp11
 70
     1
102
RTVSPropertyOp12
 70
     1
102
RTVSPropertyOp13
 70
     1
102
RTVSPropertyOp14
 70
     1
102
RTVSPropertyOp15
 70
     1
102
RTVSPropertyOp16
 70
     1
102
RTVSPropertyOp17
 70
     1
102
RTVSPropertyOp18
 70
     1
102
RTVSPropertyOp19
 70
     1
102
RTVSPropertyOp20
 70
     1
102
RTVSPropertyOp21
 70
     1
102
RTVSPropertyOp22
 70
     1
102
RTVSPropertyOp23
 70
     1
102
RTVSPropertyOp24
 70
     1
102
RTVSPropertyOp25
 70
     1
102
RTVSPropertyOp26
 70
     1
102
RTVSPropertyOp27
 70
     1
102
RTVSPropertyOp28
 70
     1
102
RTVSPropertyOp29
 70
     1
102
RTVSPropertyOp30
 70
     1
102
RTVSPropertyOp31
 70
     1
102
RTVSPropertyOp32
 70
     1
  0
XRECORD
  5
A7FC
102
{ACAD_REACTORS
330
A7FB
102
}
330
A7FB
100
AcDbXrecord
280
     1
102
RTVSPropertyOp0
 70
     1
102
RTVSPropertyOp1
 70
     1
102
RTVSPropertyOp2
 70
     1
102
RTVSPropertyOp3
 70
     1
102
RTVSPropertyOp4
 70
     1
102
RTVSPropertyOp5
 70
     1
102
RTVSPropertyOp6
 70
     1
102
RTVSPropertyOp7
 70
     1
102
RTVSPropertyOp8
 70
     1
102
RTVSPropertyOp9
 70
     1
102
RTVSPropertyOp10
 70
     1
102
RTVSPropertyOp11
 70
     1
102
RTVSPropertyOp12
 70
     1
102
RTVSPropertyOp13
 70
     1
102
RTVSPropertyOp14
 70
     1
102
RTVSPropertyOp15
 70
     1
102
RTVSPropertyOp16
 70
     1
102
RTVSPropertyOp17
 70
     1
102
RTVSPropertyOp18
 70
     1
102
RTVSPropertyOp19
 70
     1
102
RTVSPropertyOp20
 70
     1
102
RTVSPropertyOp21
 70
     1
102
RTVSPropertyOp22
 70
     1
102
RTVSPropertyOp23
 70
     1
102
RTVSPropertyOp24
 70
     1
102
RTVSPropertyOp25
 70
     1
102
RTVSPropertyOp26
 70
     1
102
RTVSPropertyOp27
 70
     1
102
RTVSPropertyOp28
 70
     1
102
RTVSPropertyOp29
 70
     1
102
RTVSPropertyOp30
 70
     1
102
RTVSPropertyOp31
 70
     1
102
RTVSPropertyOp32
 70
     1
  0
XRECORD
  5
A7FA
102
{ACAD_REACTORS
330
A7F9
102
}
330
A7F9
100
AcDbXrecord
280
     1
102
RTVSPropertyOp0
 70
     1
102
RTVSPropertyOp1
 70
     1
102
RTVSPropertyOp2
 70
     1
102
RTVSPropertyOp3
 70
     1
102
RTVSPropertyOp4
 70
     1
102
RTVSPropertyOp5
 70
     1
102
RTVSPropertyOp6
 70
     1
102
RTVSPropertyOp7
 70
     1
102
RTVSPropertyOp8
 70
     1
102
RTVSPropertyOp9
 70
     1
102
RTVSPropertyOp10
 70
     1
102
RTVSPropertyOp11
 70
     1
102
RTVSPropertyOp12
 70
     1
102
RTVSPropertyOp13
 70
     1
102
RTVSPropertyOp14
 70
     1
102
RTVSPropertyOp15
 70
     1
102
RTVSPropertyOp16
 70
     1
102
RTVSPropertyOp17
 70
     1
102
RTVSPropertyOp18
 70
     1
102
RTVSPropertyOp19
 70
     1
102
RTVSPropertyOp20
 70
     1
102
RTVSPropertyOp21
 70
     1
102
RTVSPropertyOp22
 70
     1
102
RTVSPropertyOp23
 70
     1
102
RTVSPropertyOp24
 70
     1
102
RTVSPropertyOp25
 70
     1
102
RTVSPropertyOp26
 70
     1
102
RTVSPropertyOp27
 70
     1
102
RTVSPropertyOp28
 70
     1
102
RTVSPropertyOp29
 70
     1
102
RTVSPropertyOp30
 70
     1
102
RTVSPropertyOp31
 70
     1
102
RTVSPropertyOp32
 70
     1
  0
XRECORD
  5
A7F4
102
{ACAD_REACTORS
330
A7F3
102
}
330
A7F3
100
AcDbXrecord
280
     1
102
RTVSPropertyOp0
 70
     1
102
RTVSPropertyOp1
 70
     1
102
RTVSPropertyOp2
 70
     1
102
RTVSPropertyOp3
 70
     1
102
RTVSPropertyOp4
 70
     1
102
RTVSPropertyOp5
 70
     1
102
RTVSPropertyOp6
 70
     1
102
RTVSPropertyOp7
 70
     1
102
RTVSPropertyOp8
 70
     1
102
RTVSPropertyOp9
 70
     1
102
RTVSPropertyOp10
 70
     1
102
RTVSPropertyOp11
 70
     1
102
RTVSPropertyOp12
 70
     1
102
RTVSPropertyOp13
 70
     1
102
RTVSPropertyOp14
 70
     1
102
RTVSPropertyOp15
 70
     1
102
RTVSPropertyOp16
 70
     1
102
RTVSPropertyOp17
 70
     1
102
RTVSPropertyOp18
 70
     1
102
RTVSPropertyOp19
 70
     1
102
RTVSPropertyOp20
 70
     1
102
RTVSPropertyOp21
 70
     1
102
RTVSPropertyOp22
 70
     1
102
RTVSPropertyOp23
 70
     1
102
RTVSPropertyOp24
 70
     1
102
RTVSPropertyOp25
 70
     1
102
RTVSPropertyOp26
 70
     1
102
RTVSPropertyOp27
 70
     1
102
RTVSPropertyOp28
 70
     1
102
RTVSPropertyOp29
 70
     1
102
RTVSPropertyOp30
 70
     1
102
RTVSPropertyOp31
 70
     1
102
RTVSPropertyOp32
 70
     1
  0
XRECORD
  5
A7F6
102
{ACAD_REACTORS
330
A7F5
102
}
330
A7F5
100
AcDbXrecord
280
     1
102
RTVSPropertyOp0
 70
     1
102
RTVSPropertyOp1
 70
     1
102
RTVSPropertyOp2
 70
     1
102
RTVSPropertyOp3
 70
     1
102
RTVSPropertyOp4
 70
     1
102
RTVSPropertyOp5
 70
     1
102
RTVSPropertyOp6
 70
     1
102
RTVSPropertyOp7
 70
     1
102
RTVSPropertyOp8
 70
     1
102
RTVSPropertyOp9
 70
     1
102
RTVSPropertyOp10
 70
     1
102
RTVSPropertyOp11
 70
     1
102
RTVSPropertyOp12
 70
     1
102
RTVSPropertyOp13
 70
     1
102
RTVSPropertyOp14
 70
     1
102
RTVSPropertyOp15
 70
     1
102
RTVSPropertyOp16
 70
     1
102
RTVSPropertyOp17
 70
     1
102
RTVSPropertyOp18
 70
     1
102
RTVSPropertyOp19
 70
     1
102
RTVSPropertyOp20
 70
     1
102
RTVSPropertyOp21
 70
     1
102
RTVSPropertyOp22
 70
     1
102
RTVSPropertyOp23
 70
     1
102
RTVSPropertyOp24
 70
     1
102
RTVSPropertyOp25
 70
     1
102
RTVSPropertyOp26
 70
     1
102
RTVSPropertyOp27
 70
     1
102
RTVSPropertyOp28
 70
     1
102
RTVSPropertyOp29
 70
     1
102
RTVSPropertyOp30
 70
     1
102
RTVSPropertyOp31
 70
     1
102
RTVSPropertyOp32
 70
     1
  0
XRECORD
  5
A7EC
102
{ACAD_REACTORS
330
A7EB
102
}
330
A7EB
100
AcDbXrecord
280
     1
102
RTVSPropertyOp0
 70
     1
102
RTVSPropertyOp1
 70
     1
102
RTVSPropertyOp2
 70
     1
102
RTVSPropertyOp3
 70
     1
102
RTVSPropertyOp4
 70
     1
102
RTVSPropertyOp5
 70
     1
102
RTVSPropertyOp6
 70
     1
102
RTVSPropertyOp7
 70
     1
102
RTVSPropertyOp8
 70
     1
102
RTVSPropertyOp9
 70
     1
102
RTVSPropertyOp10
 70
     1
102
RTVSPropertyOp11
 70
     1
102
RTVSPropertyOp12
 70
     1
102
RTVSPropertyOp13
 70
     1
102
RTVSPropertyOp14
 70
     1
102
RTVSPropertyOp15
 70
     1
102
RTVSPropertyOp16
 70
     1
102
RTVSPropertyOp17
 70
     1
102
RTVSPropertyOp18
 70
     1
102
RTVSPropertyOp19
 70
     1
102
RTVSPropertyOp20
 70
     1
102
RTVSPropertyOp21
 70
     1
102
RTVSPropertyOp22
 70
     1
102
RTVSPropertyOp23
 70
     1
102
RTVSPropertyOp24
 70
     1
102
RTVSPropertyOp25
 70
     1
102
RTVSPropertyOp26
 70
     1
102
RTVSPropertyOp27
 70
     1
102
RTVSPropertyOp28
 70
     1
102
RTVSPropertyOp29
 70
     1
102
RTVSPropertyOp30
 70
     1
102
RTVSPropertyOp31
 70
     1
102
RTVSPropertyOp32
 70
     1
  0
XRECORD
  5
A7E0
102
{ACAD_REACTORS
330
A7DF
102
}
330
A7DF
100
AcDbXrecord
280
     1
102
RTVSPropertyOp0
 70
     1
102
RTVSPropertyOp1
 70
     1
102
RTVSPropertyOp2
 70
     1
102
RTVSPropertyOp3
 70
     1
102
RTVSPropertyOp4
 70
     1
102
RTVSPropertyOp5
 70
     1
102
RTVSPropertyOp6
 70
     1
102
RTVSPropertyOp7
 70
     1
102
RTVSPropertyOp8
 70
     1
102
RTVSPropertyOp9
 70
     1
102
RTVSPropertyOp10
 70
     1
102
RTVSPropertyOp11
 70
     1
102
RTVSPropertyOp12
 70
     1
102
RTVSPropertyOp13
 70
     1
102
RTVSPropertyOp14
 70
     1
102
RTVSPropertyOp15
 70
     1
102
RTVSPropertyOp16
 70
     1
102
RTVSPropertyOp17
 70
     1
102
RTVSPropertyOp18
 70
     1
102
RTVSPropertyOp19
 70
     1
102
RTVSPropertyOp20
 70
     1
102
RTVSPropertyOp21
 70
     1
102
RTVSPropertyOp22
 70
     1
102
RTVSPropertyOp23
 70
     1
102
RTVSPropertyOp24
 70
     1
102
RTVSPropertyOp25
 70
     1
102
RTVSPropertyOp26
 70
     1
102
RTVSPropertyOp27
 70
     1
102
RTVSPropertyOp28
 70
     1
102
RTVSPropertyOp29
 70
     1
102
RTVSPropertyOp30
 70
     1
102
RTVSPropertyOp31
 70
     1
102
RTVSPropertyOp32
 70
     1
  0
XRECORD
  5
A7F8
102
{ACAD_REACTORS
330
A7F7
102
}
330
A7F7
100
AcDbXrecord
280
     1
102
RTVSPropertyOp0
 70
     1
102
RTVSPropertyOp1
 70
     1
102
RTVSPropertyOp2
 70
     1
102
RTVSPropertyOp3
 70
     1
102
RTVSPropertyOp4
 70
     1
102
RTVSPropertyOp5
 70
     1
102
RTVSPropertyOp6
 70
     1
102
RTVSPropertyOp7
 70
     1
102
RTVSPropertyOp8
 70
     1
102
RTVSPropertyOp9
 70
     1
102
RTVSPropertyOp10
 70
     1
102
RTVSPropertyOp11
 70
     1
102
RTVSPropertyOp12
 70
     1
102
RTVSPropertyOp13
 70
     1
102
RTVSPropertyOp14
 70
     1
102
RTVSPropertyOp15
 70
     1
102
RTVSPropertyOp16
 70
     1
102
RTVSPropertyOp17
 70
     1
102
RTVSPropertyOp18
 70
     1
102
RTVSPropertyOp19
 70
     1
102
RTVSPropertyOp20
 70
     1
102
RTVSPropertyOp21
 70
     1
102
RTVSPropertyOp22
 70
     1
102
RTVSPropertyOp23
 70
     1
102
RTVSPropertyOp24
 70
     1
102
RTVSPropertyOp25
 70
     1
102
RTVSPropertyOp26
 70
     1
102
RTVSPropertyOp27
 70
     1
102
RTVSPropertyOp28
 70
     1
102
RTVSPropertyOp29
 70
     1
102
RTVSPropertyOp30
 70
     1
102
RTVSPropertyOp31
 70
     1
102
RTVSPropertyOp32
 70
     1
  0
ENDSEC
  0
EOF
